osu file format v14

[General]
AudioFilename: audio.mp3
AudioLeadIn: 0
PreviewTime: -1
Countdown: 1
SampleSet: None
StackLeniency: 0.7
Mode: 0
LetterboxInBreaks: 0
WidescreenStoryboard: 0

[Editor]
Bookmarks: 175542,197485,219428,241371
DistanceSpacing: 1.6
BeatDivisor: 4
GridSize: 4
TimelineZoom: 2.999999

[Metadata]
Title:Amsterdam
TitleUnicode:Амстердам
Artist:Max Korzh
ArtistUnicode:Макс Корж
Creator:dima21
Version:WaRNiNG
Source:
Tags:Макс Корж Амстердам
BeatmapID:1747625
BeatmapSetID:707036

[Difficulty]
HPDrainRate:3
CircleSize:3.8
OverallDifficulty:9
ApproachRate:9.7
SliderMultiplier:2.1
SliderTickRate:1

[Events]
//Background and Video events
0,0,"Favim.ru-2707386.jpg",0,0
//Break Periods
2,183971,186019
2,194942,196990
//Storyboard Layer 0 (Background)
//Storyboard Layer 1 (Fail)
//Storyboard Layer 2 (Pass)
//Storyboard Layer 3 (Foreground)
//Storyboard Sound Samples

[TimingPoints]
0,342.857142857143,4,1,0,60,1,0
43885,-83.3333333333333,4,1,0,60,0,1
65828,-100,4,1,0,60,0,0
98742,-166.666666666667,4,1,0,34,0,0
109714,-83.3333333333333,4,1,0,60,0,1
131657,-125,4,1,0,29,0,0
153600,-200,4,1,0,29,0,0
159085,-125,4,1,0,29,0,0
164571,-200,4,1,0,29,0,0
175542,-100,4,1,0,60,0,0
219428,-83.3333333333333,4,1,0,60,0,1
241371,-83.3333333333333,4,1,0,26,0,0

[Colours]
Combo1 : 128,255,0
Combo2 : 0,255,0

[HitObjects]
144,204,0,6,0,L|160:336,1,105
248,116,342,1,0,0:0:0:0:
256,112,514,1,0,0:0:0:0:
352,316,685,2,0,L|364:196,1,105
248,116,1028,1,0,0:0:0:0:
256,112,1200,1,0,0:0:0:0:
72,184,1371,6,0,P|56:128|60:40,1,105
192,48,1714,1,0,0:0:0:0:
200,48,1885,1,0,0:0:0:0:
140,149,2057,2,0,P|145:205|93:261,1,105
28,304,2400,1,0,0:0:0:0:
72,184,2571,1,0,0:0:0:0:
164,276,2742,6,0,P|152:328|164:408,1,105
280,368,3084,1,0,0:0:0:0:
252,200,3256,1,0,0:0:0:0:
172,148,3427,6,0,L|180:32,1,105
268,192,3770,1,0,0:0:0:0:
340,76,3942,1,0,0:0:0:0:
432,256,4113,6,0,P|440:188|420:112,1,105
316,68,4456,1,0,0:0:0:0:
272,228,4627,1,0,0:0:0:0:
324,60,4799,2,0,L|356:176,1,105
336,316,5142,1,0,0:0:0:0:
336,316,5313,1,0,0:0:0:0:
176,317,5485,6,0,B|184:264|184:264|176:212,1,105
148,80,5827,1,0,0:0:0:0:
176,192,5999,1,0,0:0:0:0:
280,288,6170,2,0,B|268:232|268:232|276:168,1,105
300,56,6513,1,0,0:0:0:0:
276,164,6685,1,0,0:0:0:0:
408,104,6856,6,0,P|419:154|414:208,1,105
304,280,7199,1,0,0:0:0:0:
304,272,7370,1,0,0:0:0:0:
204,80,7542,2,0,P|208:128|236:196,1,105
408,204,7885,1,0,0:0:0:0:
316,192,8056,1,0,0:0:0:0:
148,172,8228,6,0,B|132:224|132:224|148:304,1,105
200,100,8570,1,0,0:0:0:0:
216,328,8742,1,0,0:0:0:0:
332,188,8913,2,0,B|340:128|340:128|328:68,1,105
264,240,9256,1,0,0:0:0:0:
268,16,9428,1,0,0:0:0:0:
460,192,9599,6,0,P|440:124|448:48,1,105
236,148,9942,1,0,0:0:0:0:
440,72,10114,1,0,0:0:0:0:
200,32,10285,2,0,B|222:76|222:76|232:148,1,105
304,276,10628,1,0,0:0:0:0:
240,212,10799,1,0,0:0:0:0:
132,188,10971,6,0,P|144:232|132:320,1,105
104,368,11313,1,0,0:0:0:0:
96,360,11485,1,0,0:0:0:0:
48,252,11657,2,0,P|36:208|48:120,1,105
76,72,11999,1,0,0:0:0:0:
84,80,12171,1,0,0:0:0:0:
248,68,12342,6,0,B|248:116|248:116|264:172,1,105
332,264,12685,1,0,0:0:0:0:
340,276,12856,1,0,0:0:0:0:
384,48,13028,2,0,B|400:100|400:100|388:160,1,105
348,288,13371,1,0,0:0:0:0:
356,300,13542,1,0,0:0:0:0:
504,160,13714,6,0,B|516:216|516:216|504:292,1,105
468,348,14056,1,0,0:0:0:0:
352,384,14228,1,0,0:0:0:0:
412,212,14399,6,0,B|400:160|400:160|408:92,1,105
464,8,14742,1,0,0:0:0:0:
512,88,14914,1,0,0:0:0:0:
352,24,15085,6,0,B|368:72|368:72|356:128,1,105
200,176,15428,1,0,0:0:0:0:
268,300,15599,1,0,0:0:0:0:
241,102,15771,2,0,P|277:148|273:218,1,105
192,344,16114,1,0,0:0:0:0:
192,332,16285,1,0,0:0:0:0:
152,112,16457,6,0,B|164:168|164:168|152:244,1,105
108,300,16799,1,0,0:0:0:0:
72,76,16971,1,0,0:0:0:0:
12,264,17142,2,0,B|-8:204|-8:204|8:144,1,105
92,312,17485,1,0,0:0:0:0:
56,80,17657,1,0,0:0:0:0:
156,267,17828,6,0,P|172:316|152:364,1,105
276,268,18171,1,0,0:0:0:0:
268,256,18342,1,0,0:0:0:0:
264,64,18514,2,0,B|285:116|285:116|296:180,1,105
172,40,18857,1,0,0:0:0:0:
152,176,19028,1,0,0:0:0:0:
72,108,19200,6,0,B|52:52|52:52|72:3,1,105
164,160,19542,1,0,0:0:0:0:
68,256,19714,1,0,0:0:0:0:
176,360,19885,2,0,L|172:240,1,105
240,124,20228,1,0,0:0:0:0:
108,40,20400,1,0,0:0:0:0:
148,224,20571,6,0,L|148:328,1,105
220,144,20914,1,0,0:0:0:0:
452,200,21085,1,0,0:0:0:0:
344,60,21257,5,0,0:0:0:0:
344,60,21428,1,0,0:0:0:0:
288,256,21600,5,0,0:0:0:0:
288,256,21771,1,0,0:0:0:0:
140,68,21942,6,0,B|113:162|113:162|128:280,1,210
372,316,22628,6,0,B|399:222|399:222|384:104,1,210
183,38,23314,6,0,B|129:119|129:119|107:236,1,210
328,345,24000,6,0,B|382:264|382:264|404:147,1,210
260,184,24514,1,0,0:0:0:0:
106,158,24685,6,0,B|176:69|176:69|261:22,1,210
404,224,25371,6,0,B|335:314|335:314|250:361,1,210
142,90,26057,6,0,B|245:46|245:46|343:46,1,210
240,188,26571,1,0,0:0:0:0:
271,332,26743,6,0,B|266:337|266:337|168:337,1,105
404,192,27085,2,0,P|368:188|392:200,1,105
248,80,27428,1,0,0:0:0:0:
320,296,27600,1,0,0:0:0:0:
252,92,27771,6,0,L|256:156,1,52.5
112,172,27942,1,0,0:0:0:0:
384,148,28114,1,0,0:0:0:0:
136,192,28285,1,0,0:0:0:0:
376,128,28457,6,0,L|308:116,1,52.5
200,56,28628,1,0,0:0:0:0:
188,60,28714,1,0,0:0:0:0:
172,64,28800,2,0,P|118:82|85:128,1,105
171,313,29142,5,0,0:0:0:0:
248,148,29314,1,0,0:0:0:0:
91,146,29485,1,0,0:0:0:0:
256,312,29657,1,0,0:0:0:0:
168,147,29828,6,0,L|168:207,1,52.5
81,318,30000,1,0,0:0:0:0:
252,136,30171,1,0,0:0:0:0:
240,316,30342,1,0,0:0:0:0:
268,136,30514,6,0,L|276:196,1,52.5
336,312,30685,1,0,0:0:0:0:
408,152,30857,1,0,0:0:0:0:
472,296,31028,1,0,0:0:0:0:
400,144,31200,6,0,L|336:120,1,52.5
176,16,31371,1,0,0:0:0:0:
176,16,31457,1,0,0:0:0:0:
176,16,31542,1,0,0:0:0:0:
184,264,31714,1,0,0:0:0:0:
276,52,31885,6,0,L|236:104,1,52.5
80,196,32057,1,0,0:0:0:0:
296,200,32228,1,0,0:0:0:0:
92,80,32400,1,0,0:0:0:0:
188,272,32571,6,0,L|188:192,1,52.5
176,16,32742,1,0,0:0:0:0:
376,296,32914,6,0,B|376:224|414:192|414:192|384:153|387:86,1,210
306,333,33600,6,0,B|365:407|446:340|446:340|451:291|468:271,1,210
456,84,34114,1,0,0:0:0:0:
376,296,34286,6,0,B|323:227|254:275|254:275|296:212|297:171,1,210
306,333,34971,6,0,P|203:333|195:229,1,210
280,128,35485,1,0,0:0:0:0:
254,279,35657,6,0,B|209:287|180:306|180:306|117:284|117:284|91:298|42:295,1,210
4,84,36343,6,0,B|50:92|78:115|78:115|126:100|126:100|147:122|240:152,1,210
384,176,37029,6,0,B|341:135|347:84|347:84|297:97|204:40,1,210
272,176,37542,1,0,0:0:0:0:
161,190,37714,6,0,P|181:251|241:282,1,105
215,138,38057,2,0,P|159:114|99:146,1,105
40,280,38400,5,0,0:0:0:0:
161,190,38572,1,0,0:0:0:0:
40,64,38743,6,0,L|77:104,1,52.5
224,272,38914,1,0,0:0:0:0:
268,96,39086,1,0,0:0:0:0:
368,240,39257,1,0,0:0:0:0:
252,80,39429,6,0,L|184:68,1,52.5
92,188,39600,1,0,0:0:0:0:
92,188,39686,1,0,0:0:0:0:
92,188,39772,2,0,P|107:244|104:292,1,105
220,176,40114,6,0,L|216:116,1,52.5
280,336,40285,1,0,0:0:0:0:
324,164,40457,1,0,0:0:0:0:
208,272,40629,1,0,0:0:0:0:
368,268,40800,6,0,L|408:320,1,52.5
284,240,40972,1,0,0:0:0:0:
340,90,41143,1,0,0:0:0:0:
512,208,41314,1,0,0:0:0:0:
512,24,41485,1,0,0:0:0:0:
324,88,41657,1,0,0:0:0:0:
488,216,41828,6,0,L|436:184,1,52.5
500,34,41999,1,0,0:0:0:0:
308,92,42171,1,0,0:0:0:0:
372,256,42342,1,0,0:0:0:0:
136,80,42514,5,0,0:0:0:0:
276,320,42685,1,0,0:0:0:0:
160,64,42857,1,0,0:0:0:0:
260,336,43028,1,0,0:0:0:0:
240,104,43200,5,0,0:0:0:0:
204,124,43285,1,0,0:0:0:0:
184,160,43371,1,0,0:0:0:0:
184,204,43457,1,0,0:0:0:0:
172,244,43542,1,0,0:0:0:0:
132,280,43628,1,0,0:0:0:0:
80,272,43714,1,0,0:0:0:0:
56,224,43800,1,0,0:0:0:0:
80,168,43885,6,0,P|94:110|80:20,1,125.999996154785
300,232,44228,2,0,L|260:176,1,62.9999980773926
88,32,44400,1,0,0:0:0:0:
216,332,44571,1,0,0:0:0:0:
224,24,44742,1,0,0:0:0:0:
348,228,44914,2,0,L|368:144,1,62.9999980773926
412,0,45085,1,0,0:0:0:0:
278,262,45257,6,0,P|332:305|387:298,1,125.999996154785
387,88,45600,2,0,P|412:107|432:132,1,62.9999980773926
460,360,45771,1,0,0:0:0:0:
282,156,45942,1,0,0:0:0:0:
504,240,46114,1,0,0:0:0:0:
300,4,46285,2,0,L|292:77,1,62.9999980773926
268,260,46457,1,0,0:0:0:0:
184,100,46628,6,0,B|150:73|140:44|140:44|108:45|68:20,1,125.999996154785
56,264,46971,2,0,P|128:244|144:240,1,62.9999980773926
240,192,47142,1,0,0:0:0:0:
60,132,47314,1,0,0:0:0:0:
128,356,47485,1,0,0:0:0:0:
288,128,47657,2,0,L|250:178,1,62.9999980773926
148,348,47828,1,0,0:0:0:0:
294,342,48000,6,0,B|321:308|325:283|325:283|352:272|368:240,1,125.999996154785
336,152,48343,2,0,L|299:203,1,62.9999980773926
408,176,48515,1,0,0:0:0:0:
240,280,48686,1,0,0:0:0:0:
416,40,48857,1,0,0:0:0:0:
224,144,49029,2,0,L|276:188,1,62.9999980773926
452,256,49200,1,0,0:0:0:0:
224,65,49372,6,0,P|173:83|144:145,1,125.999996154785
80,312,49715,2,0,L|64:224,1,62.9999980773926
12,84,49886,1,0,0:0:0:0:
224,152,50057,1,0,0:0:0:0:
8,176,50229,1,0,0:0:0:0:
212,248,50400,2,0,L|224:320,1,62.9999980773926
188,56,50572,1,0,0:0:0:0:
376,136,50743,6,0,B|416:116|448:76|448:76|440:116,1,125.999996154785
276,52,51086,2,0,P|234:32|188:28,1,62.9999980773926
260,200,51257,1,0,0:0:0:0:
364,36,51429,1,0,0:0:0:0:
221,109,51600,1,0,0:0:0:0:
440,304,51772,2,0,L|392:240,1,62.9999980773926
297,129,51943,1,0,0:0:0:0:
128,224,52114,6,0,B|152:256|183:258|183:258|178:285|208:336,1,125.999996154785
368,352,52457,2,0,L|328:296,1,62.9999980773926
190,182,52629,1,0,0:0:0:0:
104,376,52800,1,0,0:0:0:0:
8,196,52971,1,0,0:0:0:0:
8,384,53143,2,0,L|40:312,1,62.9999980773926
132,124,53314,1,0,0:0:0:0:
172,312,53486,6,0,B|239:313|239:313|300:384,1,125.999996154785
421,384,53829,2,0,L|362:313,1,62.9999980773926
248,168,54000,1,0,0:0:0:0:
412,108,54171,1,0,0:0:0:0:
328,276,54343,1,0,0:0:0:0:
344,52,54514,2,0,P|333:80|332:124,1,62.9999980773926
344,256,54686,1,0,0:0:0:0:
236,152,54857,6,0,B|200:128|192:101|192:101|159:102|120:72,1,125.999996154785
92,255,55200,2,0,L|60:309,1,62.9999980773926
136,176,55371,1,0,0:0:0:0:
16,376,55543,1,0,0:0:0:0:
172,292,55714,1,0,0:0:0:0:
24,192,55886,2,0,L|61:141,1,62.9999980773926
228,72,56057,1,0,0:0:0:0:
320,360,56228,6,0,B|298:333|275:325|275:325|275:299|251:261,1,125.999996154785
240,60,56571,2,0,L|296:104,1,62.9999980773926
440,176,56743,1,0,0:0:0:0:
195,314,56914,1,0,0:0:0:0:
264,72,57085,1,0,0:0:0:0:
368,288,57257,2,0,L|380:204,1,62.9999980773926
424,56,57428,1,0,0:0:0:0:
323,171,57600,6,0,P|390:149|448:206,1,125.999996154785
256,220,57943,2,0,P|244:179|244:129,1,62.9999980773926
352,12,58114,1,0,0:0:0:0:
376,225,58285,1,0,0:0:0:0:
236,68,58457,1,0,0:0:0:0:
128,184,58628,2,0,L|116:256,1,62.9999980773926
120,360,58800,1,0,0:0:0:0:
209,187,58971,6,0,P|156:112|90:114,1,125.999996154785
197,269,59314,2,0,P|253:261|285:245,1,62.9999980773926
371,109,59485,1,0,0:0:0:0:
360,284,59657,1,0,0:0:0:0:
496,208,59828,1,0,0:0:0:0:
344,272,60000,2,0,L|306:322,1,62.9999980773926
480,196,60171,1,0,0:0:0:0:
360,120,60342,6,0,B|332:80|334:60|334:60|308:53|289:16,1,125.999996154785
220,300,60685,1,0,0:0:0:0:
157,237,60857,1,0,0:0:0:0:
156,148,61028,2,0,L|217:173,1,62.9999980773926
219,86,61200,1,0,0:0:0:0:
306,86,61371,1,0,0:0:0:0:
368,148,61542,1,0,0:0:0:0:
368,236,61714,1,0,0:0:0:0:
305,298,61885,5,0,0:0:0:0:
388,64,62057,1,0,0:0:0:0:
220,300,62228,1,0,0:0:0:0:
136,68,62400,6,0,L|83:102,1,62.9999980773926
266,195,62571,1,0,0:0:0:0:
324,128,62742,1,0,0:0:0:0:
412,140,62914,1,0,0:0:0:0:
372,64,63085,6,0,P|296:56|246:100,3,125.999996154785
337,253,63771,2,0,L|321:109,1,125.999996154785
373,323,64114,2,0,P|324:331|260:268,1,125.999996154785
208,147,64457,6,0,P|268:158|322:128,3,125.999996154785
254,80,65142,2,0,P|193:69|139:106,1,125.999996154785
224,271,65485,2,0,L|208:147,1,125.999996154785
45,119,65828,6,0,B|56:164|89:192|89:192|79:250|79:250|100:272|109:311,1,210
320,216,66514,6,0,P|288:140|344:208,1,210
330,45,67200,6,0,P|233:79|194:205,1,210
88,152,67886,6,0,B|132:192|163:269|163:269|188:175,1,210
284,60,68400,1,0,0:0:0:0:
388,156,68571,6,0,B|320:168|284:192|284:192|241:165|176:172,1,210
492,136,69257,6,0,B|448:176|417:253|417:253|411:206|392:159,1,210
465,316,69943,6,0,B|404:353|350:298|350:298|338:223|317:178,1,210
192,240,70628,6,0,P|230:291|228:356,1,105
243,178,70971,2,0,P|170:164|115:198,1,105
72,300,71314,5,0,0:0:0:0:
328,288,71486,1,0,0:0:0:0:
84,288,71657,2,0,L|140:284,1,52.5
340,264,71828,1,0,0:0:0:0:
204,52,72000,1,0,0:0:0:0:
56,204,72171,1,0,0:0:0:0:
216,72,72343,6,0,L|216:136,1,52.5
204,256,72514,1,0,0:0:0:0:
204,280,72600,1,0,0:0:0:0:
200,300,72686,2,0,B|168:332|163:369|163:369|146:329,1,105
156,176,73028,5,0,0:0:0:0:
241,371,73200,1,0,0:0:0:0:
48,368,73371,1,0,0:0:0:0:
280,216,73543,1,0,0:0:0:0:
400,376,73714,6,0,L|416:320,1,52.5
504,172,73886,1,0,0:0:0:0:
376,60,74057,1,0,0:0:0:0:
292,224,74228,1,0,0:0:0:0:
496,192,74400,6,0,L|432:236,1,52.5
288,328,74571,1,0,0:0:0:0:
372,164,74743,1,0,0:0:0:0:
176,176,74914,1,0,0:0:0:0:
392,148,75086,6,0,L|328:124,1,52.5
140,40,75257,1,0,0:0:0:0:
140,40,75343,1,0,0:0:0:0:
140,40,75428,1,0,0:0:0:0:
172,292,75600,1,0,0:0:0:0:
272,68,75771,6,0,L|214:104,1,52.5
48,172,75943,1,0,0:0:0:0:
184,296,76114,1,0,0:0:0:0:
140,56,76286,1,0,0:0:0:0:
80,312,76457,6,0,L|80:232,1,52.5
32,32,76628,1,0,0:0:0:0:
304,84,76800,6,0,B|308:155|270:191|270:191|303:231|292:296,1,210
364,384,77485,6,0,B|359:312|398:277|398:277|364:236|376:172,1,210
200,64,78172,6,0,B|152:93|106:110|106:110|76:164|64:224,1,210
64,348,78857,6,0,B|106:307|158:302|158:302|188:252|200:188,1,210
480,68,79543,6,0,B|432:69|405:102|405:102|341:93|341:93|317:110|271:113,1,210
164,228,80228,6,0,B|211:226|239:194|239:194|303:203|303:203|327:186|359:184,1,210
352,264,80742,1,0,0:0:0:0:
280,116,80915,6,0,B|223:106|184:68|184:68|142:87|68:66,1,210
178,301,81600,6,0,P|155:254|120:216,1,105
176,380,81942,2,0,P|224:364|251:320,1,105
260,44,82286,5,0,0:0:0:0:
416,228,82458,1,0,0:0:0:0:
260,64,82629,2,0,L|264:128,1,52.5
264,308,82800,1,0,0:0:0:0:
376,128,82972,1,0,0:0:0:0:
512,280,83143,1,0,0:0:0:0:
360,136,83315,6,0,L|350:222,1,52.5
343,381,83486,1,0,0:0:0:0:
340,360,83572,1,0,0:0:0:0:
332,348,83658,2,0,B|312:316|286:307|286:307|277:283|252:260,1,105
160,160,84000,5,0,0:0:0:0:
340,244,84172,1,0,0:0:0:0:
136,328,84343,1,0,0:0:0:0:
280,136,84515,1,0,0:0:0:0:
264,364,84686,6,0,L|231:322,1,52.5
88,236,84858,1,0,0:0:0:0:
216,24,85029,1,0,0:0:0:0:
0,60,85200,1,0,0:0:0:0:
204,132,85372,6,0,L|212:192,1,52.5
256,352,85543,1,0,0:0:0:0:
296,96,85715,1,0,0:0:0:0:
152,316,85886,1,0,0:0:0:0:
356,296,86058,6,0,L|388:236,1,52.5
432,112,86229,1,0,0:0:0:0:
432,112,86315,1,0,0:0:0:0:
432,112,86400,1,0,0:0:0:0:
484,336,86572,1,0,0:0:0:0:
249,312,86743,6,0,L|272:264,1,52.5
348,100,86915,1,0,0:0:0:0:
124,328,87086,1,0,0:0:0:0:
124,106,87257,1,0,0:0:0:0:
343,106,87428,6,0,L|343:158,1,52.5
343,327,87600,1,0,0:0:0:0:
452,192,87771,5,0,0:0:0:0:
452,192,87857,1,0,0:0:0:0:
452,192,87942,1,0,0:0:0:0:
244,320,88114,5,0,0:0:0:0:
244,320,88200,1,0,0:0:0:0:
244,320,88285,2,0,L|256:248,1,52.5
288,84,88457,1,0,0:0:0:0:
356,284,88628,1,0,0:0:0:0:
408,36,88800,1,0,0:0:0:0:
204,168,88971,1,0,0:0:0:0:
456,184,89142,1,0,0:0:0:0:
296,32,89314,6,0,B|304:93|304:93|276:172,1,105
172,288,89657,1,0,0:0:0:0:
104,108,89828,1,0,0:0:0:0:
279,266,90000,1,0,0:0:0:0:
48,248,90171,1,0,0:0:0:0:
228,84,90342,5,0,0:0:0:0:
212,120,90428,1,0,0:0:0:0:
229,165,90514,1,0,0:0:0:0:
274,180,90600,1,0,0:0:0:0:
321,149,90685,1,0,0:0:0:0:
288,16,90857,1,0,0:0:0:0:
352,112,91028,5,0,0:0:0:0:
384,152,91114,1,0,0:0:0:0:
400,200,91200,1,0,0:0:0:0:
316,328,91371,1,0,0:0:0:0:
480,184,91542,1,0,0:0:0:0:
372,248,91714,5,0,0:0:0:0:
400,304,91800,1,0,0:0:0:0:
464,328,91885,1,0,0:0:0:0:
280,332,92057,1,0,0:0:0:0:
472,160,92228,1,0,0:0:0:0:
432,368,92400,5,0,0:0:0:0:
380,376,92485,1,0,0:0:0:0:
334,352,92571,2,0,L|296:314,1,52.5
148,184,92742,1,0,0:0:0:0:
312,132,92914,2,0,B|340:131|366:116|366:116|381:131|416:139,1,105
232,136,93257,5,0,0:0:0:0:
212,84,93342,1,0,0:0:0:0:
232,24,93428,1,0,0:0:0:0:
320,192,93600,5,0,0:0:0:0:
340,140,93685,1,0,0:0:0:0:
320,80,93771,1,0,0:0:0:0:
168,248,93942,6,0,B|176:272|171:306|171:306|152:324|144:372,1,105
108,136,94285,1,0,0:0:0:0:
56,312,94457,1,0,0:0:0:0:
268,292,94628,1,0,0:0:0:0:
40,204,94800,5,0,0:0:0:0:
40,204,94885,1,0,0:0:0:0:
40,204,94971,1,0,0:0:0:0:
286,373,95142,6,0,P|202:345|190:321,1,105
224,132,95485,1,0,0:0:0:0:
268,292,95657,1,0,0:0:0:0:
380,160,95828,5,0,0:0:0:0:
384,112,95914,1,0,0:0:0:0:
428,92,96000,1,0,0:0:0:0:
464,120,96085,1,0,0:0:0:0:
464,168,96171,1,0,0:0:0:0:
348,360,96342,1,0,0:0:0:0:
456,224,96514,5,0,0:0:0:0:
464,272,96600,1,0,0:0:0:0:
480,324,96685,1,0,0:0:0:0:
232,132,96857,1,0,0:0:0:0:
316,336,97028,1,0,0:0:0:0:
448,320,97200,5,0,0:0:0:0:
424,296,97285,1,0,0:0:0:0:
376,284,97371,1,0,0:0:0:0:
204,320,97542,5,0,0:0:0:0:
236,272,97628,1,0,0:0:0:0:
280,244,97714,1,0,0:0:0:0:
248,64,97885,5,0,0:0:0:0:
96,212,98057,1,0,0:0:0:0:
228,192,98228,5,0,0:0:0:0:
392,32,98400,1,0,0:0:0:0:
364,156,98571,5,0,0:0:0:0:
196,16,98742,6,0,B|163:21|121:66|121:66|203:223|256:189|327:128|230:18|166:133|166:133|118:156|136:214|136:214|89:245|55:200,1,629.999980773926
48,188,100628,1,0,0:0:0:0:
156,288,100971,5,0,0:0:0:0:
156,292,101142,1,0,0:0:0:0:
156,292,101314,1,0,0:0:0:0:
276,296,101485,6,0,B|293:262|277:211|277:211|297:200|308:169|308:169|303:140|313:99|313:99|354:101|406:46|406:46|379:142|385:185|385:185|378:220|360:242|360:242|368:273|349:327|349:327|381:293|417:286|417:286|436:308|497:312,1,755.999976928712
474,198,103714,6,0,L|477:131,1,62.9999980773926
484,8,104057,1,0,0:0:0:0:
288,92,104228,6,0,B|243:133|254:200|254:200|254:115|156:92|156:92|110:198|201:245|201:245|166:247|143:271|143:271,2,503.999984619141
440,96,107142,5,0,0:0:0:0:
432,136,107314,1,0,0:0:0:0:
404,100,107485,1,0,0:0:0:0:
452,88,107657,5,0,0:0:0:0:
432,148,107828,1,0,0:0:0:0:
388,96,108000,1,0,0:0:0:0:
468,80,108171,1,0,0:0:0:0:
336,256,108342,5,0,0:0:0:0:
208,108,108514,1,0,0:0:0:0:
360,224,108685,1,0,0:0:0:0:
232,72,108857,1,0,0:0:0:0:
164,252,109028,5,0,0:0:0:0:
140,284,109114,1,0,0:0:0:0:
156,320,109200,1,0,0:0:0:0:
196,332,109285,1,0,0:0:0:0:
236,320,109371,1,0,0:0:0:0:
272,304,109457,1,0,0:0:0:0:
312,300,109542,1,0,0:0:0:0:
352,308,109628,1,0,0:0:0:0:
424,348,109714,6,0,B|441:285|441:285|424:200,1,125.999996154785
168,104,110057,2,0,P|200:96|228:88,1,62.9999980773926
384,56,110229,1,0,0:0:0:0:
312,380,110400,1,0,0:0:0:0:
140,204,110571,1,0,0:0:0:0:
424,204,110743,2,0,L|444:120,1,62.9999980773926
476,4,110914,1,0,0:0:0:0:
352,241,111086,6,0,P|406:284|461:277,1,125.999996154785
308,4,111429,2,0,B|327:31|327:31|340:64,1,62.9999980773926
424,204,111600,1,0,0:0:0:0:
236,296,111771,1,0,0:0:0:0:
160,88,111943,1,0,0:0:0:0:
65,330,112114,2,0,L|52:264,1,62.9999980773926
0,64,112286,1,0,0:0:0:0:
264,192,112457,6,0,B|287:186|304:168|304:168|332:168|332:168|347:141|376:132,1,125.999996154785
372,332,112800,2,0,P|344:344|311:349,1,62.9999980773926
72,324,112971,1,0,0:0:0:0:
208,128,113143,1,0,0:0:0:0:
0,204,113314,1,0,0:0:0:0:
244,236,113486,2,0,L|312:192,1,62.9999980773926
424,104,113657,1,0,0:0:0:0:
472,308,113828,6,0,P|500:268|496:308,1,125.999996154785
296,336,114172,2,0,L|304:264,1,62.9999980773926
344,48,114344,1,0,0:0:0:0:
136,188,114515,1,0,0:0:0:0:
408,204,114686,1,0,0:0:0:0:
216,56,114858,2,0,L|216:128,1,62.9999980773926
208,300,115029,1,0,0:0:0:0:
200,44,115201,6,0,B|174:43|143:62|143:62|120:93|76:80,1,125.999996154785
92,292,115544,2,0,L|156:248,1,62.9999980773926
296,84,115715,1,0,0:0:0:0:
352,320,115886,1,0,0:0:0:0:
104,176,116058,1,0,0:0:0:0:
360,232,116229,2,0,L|372:304,1,62.9999980773926
200,44,116401,1,0,0:0:0:0:
180,324,116571,6,0,B|112:304|112:304|56:300,1,125.999996154785
296,160,116915,2,0,P|326:168|353:183,1,62.9999980773926
108,56,117086,1,0,0:0:0:0:
400,52,117258,1,0,0:0:0:0:
180,208,117429,1,0,0:0:0:0:
472,304,117601,2,0,L|424:240,1,62.9999980773926
264,48,117772,1,0,0:0:0:0:
184,356,117942,6,0,P|243:315|264:256,1,125.999996154785
160,8,118286,2,0,P|179:25|196:59,1,62.9999980773926
180,268,118458,1,0,0:0:0:0:
400,248,118629,1,0,0:0:0:0:
140,124,118800,1,0,0:0:0:0:
16,376,118972,2,0,L|48:304,1,62.9999980773926
136,108,119143,1,0,0:0:0:0:
316,248,119314,6,0,B|323:210|350:188|350:188|336:160|360:124,1,125.999996154785
184,384,119658,2,0,P|148:352|125:313,1,62.9999980773926
132,88,119829,1,0,0:0:0:0:
324,260,120000,1,0,0:0:0:0:
408,48,120172,1,0,0:0:0:0:
456,320,120343,2,0,P|458:288|456:256,1,62.9999980773926
400,40,120515,1,0,0:0:0:0:
264,314,120685,6,0,P|359:330|384:306,1,125.999996154785
200,84,121029,2,0,L|168:148,1,62.9999980773926
48,348,121200,1,0,0:0:0:0:
0,104,121372,1,0,0:0:0:0:
184,304,121543,1,0,0:0:0:0:
40,173,121715,2,0,P|66:148|77:122,1,62.9999980773926
236,8,121886,1,0,0:0:0:0:
328,252,122057,6,0,B|363:280|384:288|384:288|403:304|416:340,1,125.999996154785
184,128,122400,2,0,P|210:151|240:172,1,62.9999980773926
424,356,122572,1,0,0:0:0:0:
152,324,122743,1,0,0:0:0:0:
448,160,122914,1,0,0:0:0:0:
214,375,123086,2,0,P|228:332|226:291,1,62.9999980773926
200,52,123257,1,0,0:0:0:0:
148,248,123429,6,0,P|93:274|77:333,1,125.999996154785
320,376,123772,2,0,P|308:335|308:285,1,62.9999980773926
320,56,123943,1,0,0:0:0:0:
436,264,124114,1,0,0:0:0:0:
200,132,124286,1,0,0:0:0:0:
420,144,124457,2,0,L|372:184,1,62.9999980773926
152,324,124629,1,0,0:0:0:0:
282,136,124800,6,0,P|229:61|163:63,1,125.999996154785
168,312,125143,2,0,P|224:304|256:288,1,62.9999980773926
408,180,125314,1,0,0:0:0:0:
204,136,125486,1,0,0:0:0:0:
352,372,125657,1,0,0:0:0:0:
192,128,125829,2,0,L|154:178,1,62.9999980773926
284,16,126000,1,0,0:0:0:0:
432,272,126171,6,0,B|460:226|505:204|505:204|470:196,1,125.999996154785
232,332,126514,1,0,0:0:0:0:
308,256,126685,1,0,0:0:0:0:
294,148,126857,2,0,L|231:173,1,62.9999980773926
233,73,127028,1,0,0:0:0:0:
126,73,127199,1,0,0:0:0:0:
35,148,127371,1,0,0:0:0:0:
51,257,127542,1,0,0:0:0:0:
128,334,127714,5,0,0:0:0:0:
176,200,127886,1,0,0:0:0:0:
232,332,128057,1,0,0:0:0:0:
456,272,128229,6,0,L|403:306,1,62.9999980773926
266,195,128400,1,0,0:0:0:0:
324,128,128571,1,0,0:0:0:0:
412,140,128743,1,0,0:0:0:0:
372,64,128914,6,0,P|296:56|246:100,3,125.999996154785
128,200,129600,2,0,L|112:56,1,125.999996154785
184,40,129943,2,0,P|138:0|77:4,1,125.999996154785
80,272,130286,6,0,P|140:283|194:253,3,125.999996154785
240,184,130971,2,0,P|179:173|125:210,1,125.999996154785
209,376,131314,2,0,L|193:252,1,125.999996154785
340,112,131657,6,0,P|385:191|376:288,1,168
312,312,132342,1,0,0:0:0:0:
232,288,132685,1,0,0:0:0:0:
184,220,133028,6,0,B|208:162|195:131|195:131|229:117|265:92,1,168
284,176,133714,1,0,0:0:0:0:
284,176,134057,1,0,0:0:0:0:
260,96,134400,6,0,B|215:77|170:84|170:84|152:63|84:40,1,168
67,122,135085,1,0,0:0:0:0:
104,196,135514,1,0,0:0:0:0:
160,252,135771,6,0,P|100:276|24:196,1,168
67,122,136457,1,0,0:0:0:0:
67,122,136800,1,0,0:0:0:0:
208,216,137142,6,0,B|232:172|258:162|258:162|255:135|255:135|280:124|316:76,1,168
388,100,137828,1,0,0:0:0:0:
388,100,138171,1,0,0:0:0:0:
432,172,138514,6,0,B|392:169|348:201|348:201|349:152|289:108,1,168
264,200,139200,1,0,0:0:0:0:
408,256,139542,1,0,0:0:0:0:
328,288,139885,6,0,B|386:292|408:256|408:256|439:286|496:264,1,168
456,188,140571,1,0,0:0:0:0:
345,203,140914,1,0,0:0:0:0:
285,262,141257,6,0,P|266:228|365:121,1,168
345,203,141942,1,0,0:0:0:0:
345,203,142285,1,0,0:0:0:0:
264,188,142628,6,0,B|225:162|179:166|179:166|168:136|96:112,1,168
168,52,143314,1,0,0:0:0:0:
168,52,143657,1,0,0:0:0:0:
128,215,144000,6,0,B|130:173|103:138|103:138|69:112|65:46,1,168
50,198,144685,1,0,0:0:0:0:
152,70,145028,1,0,0:0:0:0:
224,224,145371,6,0,B|279:226|300:208|300:208|319:225|396:228,1,168
276,100,146057,1,0,0:0:0:0:
276,100,146400,1,0,0:0:0:0:
112,140,146742,6,0,B|155:184|144:233|144:233|184:240|200:284,1,168
360,252,147428,1,0,0:0:0:0:
360,252,147771,1,0,0:0:0:0:
272,108,148114,6,0,B|324:124|346:102|346:102|379:119|379:119|407:100|465:115,1,168
352,256,148800,1,0,0:0:0:0:
352,256,149142,1,0,0:0:0:0:
204,180,149485,6,0,B|161:161|136:128|136:128|96:132|36:108,1,168
152,256,150171,1,0,0:0:0:0:
44,128,150514,1,0,0:0:0:0:
208,172,150857,6,0,B|268:160|296:128|296:128|340:144|416:124,1,168
428,288,151542,1,0,0:0:0:0:
488,132,151885,1,0,0:0:0:0:
324,96,152228,6,0,B|377:74|389:49|389:49|433:61|492:36,1,168
380,184,152914,1,0,0:0:0:0:
380,184,153257,1,0,0:0:0:0:
192,225,153600,6,0,B|171:162|169:97|169:97|206:108|240:96|240:96|247:160|263:200|263:200|283:164|306:154|306:154,1,367.5
314,82,154971,6,0,B|309:39|249:16|249:16|200:33|155:18|155:18|103:38|88:102|88:102|81:52|64:38,1,367.5
0,80,156342,6,0,B|25:126|13:159|13:159|32:197|80:212|80:212|71:245|85:284|85:284|132:272|155:259|155:259|174:275|220:284,1,367.5
205,204,157714,6,0,B|244:214|266:245|266:245|290:321|217:353|217:353|182:359|152:342|152:342|117:358|88:369|55:355,1,367.5
196,281,159085,6,0,B|153:267|131:234|131:234|120:185|149:135,1,168
216,52,159771,1,0,0:0:0:0:
216,52,160114,1,0,0:0:0:0:
372,196,160457,6,0,B|352:152|368:113|368:113|324:96|300:52,1,168
120,64,161142,1,0,0:0:0:0:
120,64,161485,1,0,0:0:0:0:
64,260,161828,2,0,B|114:222|176:208|176:208|152:192|112:200,1,168
20,188,162514,1,0,0:0:0:0:
168,304,162857,1,0,0:0:0:0:
344,224,163200,6,0,B|320:172|288:153|288:153|300:104|348:84,1,168
232,0,163885,1,0,0:0:0:0:
232,0,164228,1,0,0:0:0:0:
113,106,164571,2,0,B|165:58|258:71|258:71|245:154|145:172|145:172|186:168|213:186,1,367.5
332,260,165942,6,0,P|384:184|344:288,1,367.5
397,250,167314,6,0,B|394:158|425:115|425:115|315:93|267:195|267:195|274:156|270:165,1,367.5
110,75,168685,6,0,B|38:68|14:178|134:208|160:124|160:124|179:160|212:173|212:173|228:204|256:220,1,367.5
196,320,170057,6,0,L|248:372,1,52.5
396,276,170400,1,0,0:0:0:0:
320,160,170742,1,0,0:0:0:0:
472,256,171085,1,0,0:0:0:0:
248,196,171428,1,0,0:0:0:0:
512,196,171771,1,0,0:0:0:0:
232,272,172114,5,0,0:0:0:0:
512,132,172457,1,0,0:0:0:0:
272,336,172800,1,0,0:0:0:0:
492,64,173142,1,0,0:0:0:0:
336,376,173485,1,0,0:0:0:0:
424,16,173828,1,0,0:0:0:0:
408,384,174171,1,0,0:0:0:0:
344,0,174514,1,0,0:0:0:0:
484,384,174857,5,0,0:0:0:0:
256,0,175200,1,0,0:0:0:0:
92,220,175542,6,0,B|149:190|192:200|192:200|190:164|240:92,3,210
367,203,176914,6,0,P|288:224|358:225,3,210
237,286,178114,1,0,0:0:0:0:
329,80,178285,6,0,P|227:129|207:222,3,210
88,292,179657,6,0,B|76:240|88:212|88:212|68:168|68:168|81:132|75:84,3,210
184,72,180857,1,0,0:0:0:0:
152,164,181028,6,0,B|203:177|248:164|248:164|305:156|384:212,3,210
368,376,182400,6,0,B|304:324|284:252|284:252|280:296|274:320,3,210
152,164,183771,1,0,0:0:0:0:
184,80,186514,6,0,L|192:220,1,105
304,264,186857,2,0,L|296:136,1,105
196,272,187200,2,0,L|204:392,1,105
376,104,187542,5,0,0:0:0:0:
448,272,187714,1,0,0:0:0:0:
296,288,187885,1,0,0:0:0:0:
456,144,188057,1,0,0:0:0:0:
380,324,188228,1,0,0:0:0:0:
296,148,188400,1,0,0:0:0:0:
181,281,188571,6,0,B|187:198|187:198|168:156|168:156|176:56,1,210
292,56,189085,1,0,0:0:0:0:
374,315,189257,6,0,P|314:292|248:232,1,105
427,155,189600,2,0,P|444:213|435:263,1,105
264,180,189942,2,0,P|299:142|368:118,1,105
227,239,190285,5,0,0:0:0:0:
107,358,190457,1,0,0:0:0:0:
107,190,190628,1,0,0:0:0:0:
226,309,190800,1,0,0:0:0:0:
226,141,190971,1,0,0:0:0:0:
107,259,191142,1,0,0:0:0:0:
8,40,191314,6,0,P|117:94|33:9,1,315
256,248,192000,1,0,0:0:0:0:
176,164,192171,5,0,0:0:0:0:
176,164,192257,1,0,0:0:0:0:
176,164,192342,2,0,P|184:124|200:96,1,52.5
312,132,192514,5,0,0:0:0:0:
312,132,192600,1,0,0:0:0:0:
312,132,192685,2,0,P|304:88|296:72,1,52.5
104,104,192857,5,0,0:0:0:0:
104,104,192942,1,0,0:0:0:0:
104,104,193028,2,0,P|128:68|152:48,1,52.5
364,76,193200,5,0,0:0:0:0:
364,76,193285,1,0,0:0:0:0:
364,76,193371,2,0,P|336:40|320:28,1,52.5
188,128,193542,5,0,0:0:0:0:
188,128,193628,1,0,0:0:0:0:
188,128,193714,2,0,P|170:164|168:200,1,52.5
312,132,193885,5,0,0:0:0:0:
312,132,193971,1,0,0:0:0:0:
312,132,194057,2,0,P|328:161|334:199,1,52.5
254,198,194228,5,0,0:0:0:0:
254,198,194314,1,0,0:0:0:0:
254,198,194400,2,0,B|237:249|249:304|249:304|208:256|120:229,1,210
200,192,197485,6,0,L|276:136,1,52.5
376,104,197657,1,0,0:0:0:0:
312,276,197828,1,0,0:0:0:0:
312,276,197914,1,0,0:0:0:0:
312,276,198000,2,0,L|332:220,1,52.5
424,36,198171,6,0,P|456:112|444:156,1,105
256,376,198514,1,0,0:0:0:0:
376,104,198857,1,0,0:0:0:0:
148,248,199028,5,0,0:0:0:0:
148,248,199114,1,0,0:0:0:0:
148,248,199200,2,0,L|140:176,1,52.5
176,64,199371,1,0,0:0:0:0:
320,224,199542,6,0,L|356:296,1,52.5
192,52,199885,1,0,0:0:0:0:
56,216,200228,5,0,0:0:0:0:
56,216,200314,1,0,0:0:0:0:
56,216,200400,2,0,P|90:230|109:249,1,52.5
316,144,200571,1,0,0:0:0:0:
316,144,200657,1,0,0:0:0:0:
316,144,200742,2,0,P|288:172|272:204,1,52.5
220,340,200914,5,0,0:0:0:0:
156,84,201257,1,0,0:0:0:0:
152,96,201600,1,0,0:0:0:0:
380,64,201771,6,0,L|328:68,1,52.5
256,208,201942,1,0,0:0:0:0:
240,216,202028,2,0,L|160:224,1,52.5
52,352,202285,1,0,0:0:0:0:
244,324,202628,1,0,0:0:0:0:
100,100,202971,6,0,L|116:160,1,52.5
176,380,203142,1,0,0:0:0:0:
292,84,203314,1,0,0:0:0:0:
292,84,203400,1,0,0:0:0:0:
292,84,203485,2,0,L|264:140,1,52.5
168,368,203657,5,0,0:0:0:0:
308,256,204000,1,0,0:0:0:0:
308,256,204342,1,0,0:0:0:0:
328,128,204514,5,0,0:0:0:0:
316,132,204600,2,0,L|260:104,1,52.5
112,108,204771,1,0,0:0:0:0:
124,116,204857,2,0,L|188:88,1,52.5
320,16,205028,5,0,0:0:0:0:
176,272,205371,1,0,0:0:0:0:
345,323,205714,5,0,0:0:0:0:
336,292,205800,1,0,0:0:0:0:
324,272,205885,2,0,P|312:237|294:219,1,52.5
434,119,206057,1,0,0:0:0:0:
400,128,206142,1,0,0:0:0:0:
376,128,206228,2,0,P|341:121|300:96,1,52.5
164,108,206400,5,0,0:0:0:0:
144,328,206742,1,0,0:0:0:0:
40,148,207085,1,0,0:0:0:0:
224,168,207257,5,0,0:0:0:0:
224,176,207342,1,0,0:0:0:0:
226,184,207428,2,0,L|241:239,1,52.5
332,384,207600,1,0,0:0:0:0:
352,104,207771,2,0,L|348:160,1,52.5
348,368,208114,1,0,0:0:0:0:
416,184,208457,5,0,0:0:0:0:
160,304,208628,1,0,0:0:0:0:
156,288,208800,2,0,L|148:216,1,52.5
200,88,208971,1,0,0:0:0:0:
344,320,209142,6,0,L|320:273,1,52.5
216,88,209485,1,0,0:0:0:0:
52,224,209828,1,0,0:0:0:0:
112,88,210000,5,0,0:0:0:0:
112,88,210085,2,0,L|152:144,1,52.5
284,320,210257,1,0,0:0:0:0:
276,308,210342,2,0,L|232:256,1,52.5
112,88,210514,5,0,0:0:0:0:
292,128,210857,1,0,0:0:0:0:
112,160,211200,5,0,0:0:0:0:
144,120,211285,1,0,0:0:0:0:
192,108,211371,2,0,P|226:98|248:104,1,52.5
376,180,211542,1,0,0:0:0:0:
360,232,211628,2,0,P|325:244|280:240,1,52.5
144,240,211885,5,0,0:0:0:0:
296,40,212228,1,0,0:0:0:0:
472,264,212571,1,0,0:0:0:0:
256,344,212742,6,0,L|298:298,1,52.5
424,176,212914,1,0,0:0:0:0:
424,176,213000,1,0,0:0:0:0:
424,176,213085,2,0,L|396:232,1,52.5
328,384,213257,5,0,0:0:0:0:
164,212,213600,1,0,0:0:0:0:
412,104,213942,5,0,0:0:0:0:
392,120,214028,1,0,0:0:0:0:
368,152,214114,2,0,P|341:165|307:168,1,52.5
104,64,214285,1,0,0:0:0:0:
124,50,214371,1,0,0:0:0:0:
151,43,214457,2,0,P|174:44|235:64,1,52.5
432,192,214628,5,0,0:0:0:0:
184,320,214971,1,0,0:0:0:0:
