osu file format v14

[General]
AudioFilename: audio1.mp3
AudioLeadIn: 0
PreviewTime: -1
Countdown: 1
SampleSet: Normal
StackLeniency: 0.7
Mode: 0
LetterboxInBreaks: 0
WidescreenStoryboard: 0

[Editor]
Bookmarks: 175542,197485,219428,241371
DistanceSpacing: 1.6
BeatDivisor: 4
GridSize: 4
TimelineZoom: 2.999999

[Metadata]
Title:Amsterdam
TitleUnicode:Амстердам
Artist:Max Korzh
ArtistUnicode:Макс Корж
Creator:dima21
Version:WaRNiNG 200BPM
Source:
Tags:Макс Корж Амстердам
BeatmapID:1494832
BeatmapSetID:707036

[Difficulty]
HPDrainRate:3
CircleSize:3.8
OverallDifficulty:9
ApproachRate:9.9
SliderMultiplier:2.1
SliderTickRate:1

[Events]
//Background and Video events
0,0,"Favim.ru-2707386.jpg",0,0
//Break Periods
2,161000,162705
2,170599,172304
//Storyboard Layer 0 (Background)
//Storyboard Layer 1 (Fail)
//Storyboard Layer 2 (Pass)
//Storyboard Layer 3 (Foreground)
//Storyboard Sound Samples

[TimingPoints]
0,300,4,1,0,60,1,0
38399,-83.3333333333333,4,1,0,60,0,1
57599,-100,4,1,0,60,0,0
86399,-166.666666666667,4,1,0,34,0,0
96000,-83.3333333333333,4,1,0,60,0,1
115200,-125,4,1,0,29,0,0
134400,-200,4,1,0,29,0,0
139199,-125,4,1,0,29,0,0
144000,-200,4,1,0,29,0,0
153599,-100,4,1,0,60,0,0
191999,-83.3333333333333,4,1,0,60,0,1
211200,-83.3333333333333,4,1,0,26,0,0

[Colours]
Combo1 : 128,255,0
Combo2 : 0,255,0

[HitObjects]
144,204,0,6,0,L|160:336,1,105
248,116,299,1,0,0:0:0:0:
256,112,450,1,0,0:0:0:0:
352,316,599,2,0,L|364:196,1,105
248,116,899,1,0,0:0:0:0:
256,112,1050,1,0,0:0:0:0:
72,184,1200,6,0,P|56:128|60:40,1,105
192,48,1500,1,0,0:0:0:0:
200,48,1649,1,0,0:0:0:0:
140,149,1800,2,0,P|145:205|93:261,1,105
28,304,2100,1,0,0:0:0:0:
72,184,2250,1,0,0:0:0:0:
164,276,2399,6,0,P|152:328|164:408,1,105
280,368,2698,1,0,0:0:0:0:
252,200,2849,1,0,0:0:0:0:
172,148,2999,6,0,L|180:32,1,105
268,192,3299,1,0,0:0:0:0:
340,76,3449,1,0,0:0:0:0:
432,256,3599,6,0,P|440:188|420:112,1,105
316,68,3899,1,0,0:0:0:0:
272,228,4049,1,0,0:0:0:0:
324,60,4199,2,0,L|356:176,1,105
336,316,4499,1,0,0:0:0:0:
336,316,4649,1,0,0:0:0:0:
176,317,4799,6,0,B|184:264|184:264|176:212,1,105
148,80,5099,1,0,0:0:0:0:
176,192,5249,1,0,0:0:0:0:
280,288,5399,2,0,B|268:232|268:232|276:168,1,105
300,56,5699,1,0,0:0:0:0:
276,164,5849,1,0,0:0:0:0:
408,104,5999,6,0,P|419:154|414:208,1,105
304,280,6299,1,0,0:0:0:0:
304,272,6449,1,0,0:0:0:0:
204,80,6599,2,0,P|208:128|236:196,1,105
408,204,6899,1,0,0:0:0:0:
316,192,7049,1,0,0:0:0:0:
148,172,7199,6,0,B|132:224|132:224|148:304,1,105
200,100,7499,1,0,0:0:0:0:
216,328,7649,1,0,0:0:0:0:
332,188,7799,2,0,B|340:128|340:128|328:68,1,105
264,240,8099,1,0,0:0:0:0:
268,16,8249,1,0,0:0:0:0:
460,192,8399,6,0,P|440:124|448:48,1,105
236,148,8699,1,0,0:0:0:0:
440,72,8850,1,0,0:0:0:0:
200,32,8999,2,0,B|222:76|222:76|232:148,1,105
304,276,9299,1,0,0:0:0:0:
240,212,9449,1,0,0:0:0:0:
132,188,9600,6,0,P|144:232|132:320,1,105
104,368,9899,1,0,0:0:0:0:
96,360,10049,1,0,0:0:0:0:
48,252,10200,2,0,P|36:208|48:120,1,105
76,72,10499,1,0,0:0:0:0:
84,80,10650,1,0,0:0:0:0:
248,68,10799,6,0,B|248:116|248:116|264:172,1,105
332,264,11099,1,0,0:0:0:0:
340,276,11249,1,0,0:0:0:0:
384,48,11399,2,0,B|400:100|400:100|388:160,1,105
348,288,11700,1,0,0:0:0:0:
356,300,11849,1,0,0:0:0:0:
504,160,12000,6,0,B|516:216|516:216|504:292,1,105
468,348,12299,1,0,0:0:0:0:
352,384,12449,1,0,0:0:0:0:
412,212,12599,6,0,B|400:160|400:160|408:92,1,105
464,8,12899,1,0,0:0:0:0:
512,88,13050,1,0,0:0:0:0:
352,24,13199,6,0,B|368:72|368:72|356:128,1,105
200,176,13499,1,0,0:0:0:0:
268,300,13649,1,0,0:0:0:0:
241,102,13800,2,0,P|277:148|273:218,1,105
192,344,14100,1,0,0:0:0:0:
192,332,14249,1,0,0:0:0:0:
152,112,14400,6,0,B|164:168|164:168|152:244,1,105
108,300,14699,1,0,0:0:0:0:
72,76,14850,1,0,0:0:0:0:
12,264,14999,2,0,B|-8:204|-8:204|8:144,1,105
92,312,15299,1,0,0:0:0:0:
56,80,15450,1,0,0:0:0:0:
156,267,15599,6,0,P|172:316|152:364,1,105
276,268,15900,1,0,0:0:0:0:
268,256,16049,1,0,0:0:0:0:
264,64,16200,2,0,B|285:116|285:116|296:180,1,105
172,40,16500,1,0,0:0:0:0:
152,176,16649,1,0,0:0:0:0:
72,108,16800,6,0,B|52:52|52:52|72:3,1,105
164,160,17099,1,0,0:0:0:0:
68,256,17250,1,0,0:0:0:0:
176,360,17399,2,0,L|172:240,1,105
240,124,17699,1,0,0:0:0:0:
108,40,17850,1,0,0:0:0:0:
148,224,18000,6,0,L|148:328,1,105
220,144,18300,1,0,0:0:0:0:
452,200,18449,1,0,0:0:0:0:
344,60,18600,5,0,0:0:0:0:
344,60,18749,1,0,0:0:0:0:
288,256,18900,5,0,0:0:0:0:
288,256,19050,1,0,0:0:0:0:
140,68,19199,6,0,B|113:162|113:162|128:280,1,210
372,316,19799,6,0,B|399:222|399:222|384:104,1,210
183,38,20400,6,0,B|129:119|129:119|107:236,1,210
328,345,21000,6,0,B|382:264|382:264|404:147,1,210
260,184,21450,1,0,0:0:0:0:
106,158,21599,6,0,B|176:69|176:69|261:22,1,210
404,224,22200,6,0,B|335:314|335:314|250:361,1,210
142,90,22800,6,0,B|245:46|245:46|343:46,1,210
240,188,23250,1,0,0:0:0:0:
271,332,23400,6,0,B|266:337|266:337|168:337,1,105
404,192,23699,2,0,P|368:188|392:200,1,105
248,80,23999,1,0,0:0:0:0:
320,296,24150,1,0,0:0:0:0:
252,92,24300,6,0,L|256:156,1,52.5
112,172,24449,1,0,0:0:0:0:
384,148,24600,1,0,0:0:0:0:
136,192,24749,1,0,0:0:0:0:
376,128,24900,6,0,L|308:116,1,52.5
200,56,25049,1,0,0:0:0:0:
188,60,25125,1,0,0:0:0:0:
172,64,25200,2,0,P|118:82|85:128,1,105
171,313,25499,5,0,0:0:0:0:
248,148,25650,1,0,0:0:0:0:
91,146,25799,1,0,0:0:0:0:
256,312,25950,1,0,0:0:0:0:
168,147,26099,6,0,L|168:207,1,52.5
81,318,26250,1,0,0:0:0:0:
252,136,26400,1,0,0:0:0:0:
240,316,26549,1,0,0:0:0:0:
268,136,26700,6,0,L|276:196,1,52.5
336,312,26849,1,0,0:0:0:0:
408,152,27000,1,0,0:0:0:0:
472,296,27149,1,0,0:0:0:0:
400,144,27300,6,0,L|336:120,1,52.5
176,16,27450,1,0,0:0:0:0:
176,16,27525,1,0,0:0:0:0:
176,16,27599,1,0,0:0:0:0:
184,264,27750,1,0,0:0:0:0:
276,52,27899,6,0,L|236:104,1,52.5
80,196,28050,1,0,0:0:0:0:
296,200,28199,1,0,0:0:0:0:
92,80,28350,1,0,0:0:0:0:
188,272,28500,6,0,L|188:192,1,52.5
176,16,28649,1,0,0:0:0:0:
376,296,28800,6,0,B|376:224|414:192|414:192|384:153|387:86,1,210
306,333,29400,6,0,B|365:407|446:340|446:340|451:291|468:271,1,210
456,84,29850,1,0,0:0:0:0:
376,296,30000,6,0,B|323:227|254:275|254:275|296:212|297:171,1,210
306,333,30600,6,0,P|203:333|195:229,1,210
280,128,31049,1,0,0:0:0:0:
254,279,31200,6,0,B|209:287|180:306|180:306|117:284|117:284|91:298|42:295,1,210
4,84,31800,6,0,B|50:92|78:115|78:115|126:100|126:100|147:122|240:152,1,210
384,176,32400,6,0,B|341:135|347:84|347:84|297:97|204:40,1,210
272,176,32849,1,0,0:0:0:0:
161,190,33000,6,0,P|181:251|241:282,1,105
215,138,33300,2,0,P|159:114|99:146,1,105
40,280,33600,5,0,0:0:0:0:
161,190,33750,1,0,0:0:0:0:
40,64,33900,6,0,L|77:104,1,52.5
224,272,34050,1,0,0:0:0:0:
268,96,34200,1,0,0:0:0:0:
368,240,34350,1,0,0:0:0:0:
252,80,34500,6,0,L|184:68,1,52.5
92,188,34650,1,0,0:0:0:0:
92,188,34725,1,0,0:0:0:0:
92,188,34800,2,0,P|107:244|104:292,1,105
220,176,35100,6,0,L|216:116,1,52.5
280,336,35249,1,0,0:0:0:0:
324,164,35400,1,0,0:0:0:0:
208,272,35550,1,0,0:0:0:0:
368,268,35700,6,0,L|408:320,1,52.5
284,240,35850,1,0,0:0:0:0:
340,90,36000,1,0,0:0:0:0:
512,208,36150,1,0,0:0:0:0:
512,24,36299,1,0,0:0:0:0:
324,88,36450,1,0,0:0:0:0:
488,216,36599,6,0,L|436:184,1,52.5
500,34,36749,1,0,0:0:0:0:
308,92,36900,1,0,0:0:0:0:
372,256,37049,1,0,0:0:0:0:
136,80,37200,5,0,0:0:0:0:
276,320,37349,1,0,0:0:0:0:
160,64,37500,1,0,0:0:0:0:
260,336,37649,1,0,0:0:0:0:
240,104,37800,5,0,0:0:0:0:
204,124,37874,1,0,0:0:0:0:
184,160,37950,1,0,0:0:0:0:
184,204,38025,1,0,0:0:0:0:
172,244,38099,1,0,0:0:0:0:
132,280,38174,1,0,0:0:0:0:
80,272,38250,1,0,0:0:0:0:
56,224,38325,1,0,0:0:0:0:
80,168,38399,6,0,P|94:110|80:20,1,125.999996154785
300,232,38699,2,0,L|260:176,1,62.9999980773926
88,32,38850,1,0,0:0:0:0:
216,332,39000,1,0,0:0:0:0:
224,24,39149,1,0,0:0:0:0:
348,228,39300,2,0,L|368:144,1,62.9999980773926
412,0,39449,1,0,0:0:0:0:
278,262,39600,6,0,P|332:305|387:298,1,125.999996154785
387,88,39900,2,0,P|412:107|432:132,1,62.9999980773926
460,360,40050,1,0,0:0:0:0:
282,156,40199,1,0,0:0:0:0:
504,240,40350,1,0,0:0:0:0:
300,4,40499,2,0,L|292:77,1,62.9999980773926
268,260,40650,1,0,0:0:0:0:
184,100,40799,6,0,B|150:73|140:44|140:44|108:45|68:20,1,125.999996154785
56,264,41100,2,0,P|128:244|144:240,1,62.9999980773926
240,192,41249,1,0,0:0:0:0:
60,132,41400,1,0,0:0:0:0:
128,356,41549,1,0,0:0:0:0:
288,128,41700,2,0,L|250:178,1,62.9999980773926
148,348,41849,1,0,0:0:0:0:
294,342,42000,6,0,B|321:308|325:283|325:283|352:272|368:240,1,125.999996154785
336,152,42300,2,0,L|299:203,1,62.9999980773926
408,176,42451,1,0,0:0:0:0:
240,280,42600,1,0,0:0:0:0:
416,40,42750,1,0,0:0:0:0:
224,144,42900,2,0,L|276:188,1,62.9999980773926
452,256,43050,1,0,0:0:0:0:
224,65,43200,6,0,P|173:83|144:145,1,125.999996154785
80,312,43501,2,0,L|64:224,1,62.9999980773926
12,84,43650,1,0,0:0:0:0:
224,152,43800,1,0,0:0:0:0:
8,176,43950,1,0,0:0:0:0:
212,248,44100,2,0,L|224:320,1,62.9999980773926
188,56,44250,1,0,0:0:0:0:
376,136,44400,6,0,B|416:116|448:76|448:76|440:116,1,125.999996154785
276,52,44700,2,0,P|234:32|188:28,1,62.9999980773926
260,200,44850,1,0,0:0:0:0:
364,36,45000,1,0,0:0:0:0:
221,109,45150,1,0,0:0:0:0:
440,304,45300,2,0,L|392:240,1,62.9999980773926
297,129,45450,1,0,0:0:0:0:
128,224,45600,6,0,B|152:256|183:258|183:258|178:285|208:336,1,125.999996154785
368,352,45900,2,0,L|328:296,1,62.9999980773926
190,182,46050,1,0,0:0:0:0:
104,376,46200,1,0,0:0:0:0:
8,196,46350,1,0,0:0:0:0:
8,384,46500,2,0,L|40:312,1,62.9999980773926
132,124,46650,1,0,0:0:0:0:
172,312,46800,6,0,B|239:313|239:313|300:384,1,125.999996154785
421,384,47100,2,0,L|362:313,1,62.9999980773926
248,168,47250,1,0,0:0:0:0:
412,108,47400,1,0,0:0:0:0:
328,276,47550,1,0,0:0:0:0:
344,52,47700,2,0,P|333:80|332:124,1,62.9999980773926
344,256,47850,1,0,0:0:0:0:
236,152,48000,6,0,B|200:128|192:101|192:101|159:102|120:72,1,125.999996154785
92,255,48300,2,0,L|60:309,1,62.9999980773926
136,176,48450,1,0,0:0:0:0:
16,376,48600,1,0,0:0:0:0:
172,292,48750,1,0,0:0:0:0:
24,192,48900,2,0,L|61:141,1,62.9999980773926
228,72,49050,1,0,0:0:0:0:
320,360,49199,6,0,B|298:333|275:325|275:325|275:299|251:261,1,125.999996154785
240,60,49500,2,0,L|296:104,1,62.9999980773926
440,176,49650,1,0,0:0:0:0:
195,314,49800,1,0,0:0:0:0:
264,72,49949,1,0,0:0:0:0:
368,288,50100,2,0,L|380:204,1,62.9999980773926
424,56,50249,1,0,0:0:0:0:
323,171,50400,6,0,P|390:149|448:206,1,125.999996154785
256,220,50700,2,0,P|244:179|244:129,1,62.9999980773926
352,12,50850,1,0,0:0:0:0:
376,225,50999,1,0,0:0:0:0:
236,68,51150,1,0,0:0:0:0:
128,184,51299,2,0,L|116:256,1,62.9999980773926
120,360,51450,1,0,0:0:0:0:
209,187,51600,6,0,P|156:112|90:114,1,125.999996154785
197,269,51900,2,0,P|253:261|285:245,1,62.9999980773926
371,109,52049,1,0,0:0:0:0:
360,284,52200,1,0,0:0:0:0:
496,208,52349,1,0,0:0:0:0:
344,272,52500,2,0,L|306:322,1,62.9999980773926
480,196,52650,1,0,0:0:0:0:
360,120,52799,6,0,B|332:80|334:60|334:60|308:53|289:16,1,125.999996154785
220,300,53099,1,0,0:0:0:0:
157,237,53250,1,0,0:0:0:0:
156,148,53399,2,0,L|217:173,1,62.9999980773926
219,86,53550,1,0,0:0:0:0:
306,86,53700,1,0,0:0:0:0:
368,148,53849,1,0,0:0:0:0:
368,236,54000,1,0,0:0:0:0:
305,298,54149,5,0,0:0:0:0:
388,64,54300,1,0,0:0:0:0:
220,300,54449,1,0,0:0:0:0:
136,68,54600,6,0,L|83:102,1,62.9999980773926
266,195,54750,1,0,0:0:0:0:
324,128,54899,1,0,0:0:0:0:
412,140,55050,1,0,0:0:0:0:
372,64,55199,6,0,P|296:56|246:100,3,125.999996154785
337,253,55800,2,0,L|321:109,1,125.999996154785
373,323,56100,2,0,P|324:331|260:268,1,125.999996154785
208,147,56400,6,0,P|268:158|322:128,3,125.999996154785
254,80,56999,2,0,P|193:69|139:106,1,125.999996154785
224,271,57299,2,0,L|208:147,1,125.999996154785
45,119,57599,6,0,B|56:164|89:192|89:192|79:250|79:250|100:272|109:311,1,210
320,216,58200,6,0,P|288:140|344:208,1,210
330,45,58800,6,0,P|233:79|194:205,1,210
88,152,59400,6,0,B|132:192|163:269|163:269|188:175,1,210
284,60,59850,1,0,0:0:0:0:
388,156,60000,6,0,B|320:168|284:192|284:192|241:165|176:172,1,210
492,136,60600,6,0,B|448:176|417:253|417:253|411:206|392:159,1,210
465,316,61200,6,0,B|404:353|350:298|350:298|338:223|317:178,1,210
192,240,61799,6,0,P|230:291|228:356,1,105
243,178,62100,2,0,P|170:164|115:198,1,105
72,300,62400,5,0,0:0:0:0:
328,288,62550,1,0,0:0:0:0:
84,288,62700,2,0,L|140:284,1,52.5
340,264,62849,1,0,0:0:0:0:
204,52,63000,1,0,0:0:0:0:
56,204,63150,1,0,0:0:0:0:
216,72,63300,6,0,L|216:136,1,52.5
204,256,63450,1,0,0:0:0:0:
204,280,63525,1,0,0:0:0:0:
200,300,63600,2,0,B|168:332|163:369|163:369|146:329,1,105
156,176,63899,5,0,0:0:0:0:
241,371,64050,1,0,0:0:0:0:
48,368,64200,1,0,0:0:0:0:
280,216,64350,1,0,0:0:0:0:
400,376,64500,6,0,L|416:320,1,52.5
504,172,64650,1,0,0:0:0:0:
376,60,64800,1,0,0:0:0:0:
292,224,64949,1,0,0:0:0:0:
496,192,65100,6,0,L|432:236,1,52.5
288,328,65250,1,0,0:0:0:0:
372,164,65400,1,0,0:0:0:0:
176,176,65550,1,0,0:0:0:0:
392,148,65700,6,0,L|328:124,1,52.5
140,40,65850,1,0,0:0:0:0:
140,40,65925,1,0,0:0:0:0:
140,40,65999,1,0,0:0:0:0:
172,292,66150,1,0,0:0:0:0:
272,68,66300,6,0,L|214:104,1,52.5
48,172,66450,1,0,0:0:0:0:
184,296,66600,1,0,0:0:0:0:
140,56,66750,1,0,0:0:0:0:
80,312,66900,6,0,L|80:232,1,52.5
32,32,67049,1,0,0:0:0:0:
304,84,67200,6,0,B|308:155|270:191|270:191|303:231|292:296,1,210
364,384,67799,6,0,B|359:312|398:277|398:277|364:236|376:172,1,210
200,64,68400,6,0,B|152:93|106:110|106:110|76:164|64:224,1,210
64,348,69000,6,0,B|106:307|158:302|158:302|188:252|200:188,1,210
480,68,69600,6,0,B|432:69|405:102|405:102|341:93|341:93|317:110|271:113,1,210
164,228,70199,6,0,B|211:226|239:194|239:194|303:203|303:203|327:186|359:184,1,210
352,264,70649,1,0,0:0:0:0:
280,116,70801,6,0,B|223:106|184:68|184:68|142:87|68:66,1,210
178,301,71400,6,0,P|155:254|120:216,1,105
176,380,71699,2,0,P|224:364|251:320,1,105
260,44,72000,5,0,0:0:0:0:
416,228,72151,1,0,0:0:0:0:
260,64,72300,2,0,L|264:128,1,52.5
264,308,72450,1,0,0:0:0:0:
376,128,72600,1,0,0:0:0:0:
512,280,72750,1,0,0:0:0:0:
360,136,72901,6,0,L|350:222,1,52.5
343,381,73050,1,0,0:0:0:0:
340,360,73125,1,0,0:0:0:0:
332,348,73201,2,0,B|312:316|286:307|286:307|277:283|252:260,1,105
160,160,73500,5,0,0:0:0:0:
340,244,73650,1,0,0:0:0:0:
136,328,73800,1,0,0:0:0:0:
280,136,73951,1,0,0:0:0:0:
264,364,74100,6,0,L|231:322,1,52.5
88,236,74251,1,0,0:0:0:0:
216,24,74400,1,0,0:0:0:0:
0,60,74550,1,0,0:0:0:0:
204,132,74700,6,0,L|212:192,1,52.5
256,352,74850,1,0,0:0:0:0:
296,96,75001,1,0,0:0:0:0:
152,316,75150,1,0,0:0:0:0:
356,296,75301,6,0,L|388:236,1,52.5
432,112,75450,1,0,0:0:0:0:
432,112,75526,1,0,0:0:0:0:
432,112,75600,1,0,0:0:0:0:
484,336,75750,1,0,0:0:0:0:
249,312,75900,6,0,L|272:264,1,52.5
348,100,76051,1,0,0:0:0:0:
124,328,76200,1,0,0:0:0:0:
124,106,76350,1,0,0:0:0:0:
343,106,76499,6,0,L|343:158,1,52.5
343,327,76650,1,0,0:0:0:0:
452,192,76800,5,0,0:0:0:0:
452,192,76875,1,0,0:0:0:0:
452,192,76949,1,0,0:0:0:0:
244,320,77100,5,0,0:0:0:0:
244,320,77175,1,0,0:0:0:0:
244,320,77249,2,0,L|256:248,1,52.5
288,84,77400,1,0,0:0:0:0:
356,284,77549,1,0,0:0:0:0:
408,36,77700,1,0,0:0:0:0:
204,168,77850,1,0,0:0:0:0:
456,184,77999,1,0,0:0:0:0:
296,32,78150,6,0,B|304:93|304:93|276:172,1,105
172,288,78450,1,0,0:0:0:0:
104,108,78599,1,0,0:0:0:0:
279,266,78750,1,0,0:0:0:0:
48,248,78900,1,0,0:0:0:0:
228,84,79049,5,0,0:0:0:0:
212,120,79124,1,0,0:0:0:0:
229,165,79200,1,0,0:0:0:0:
274,180,79275,1,0,0:0:0:0:
321,149,79349,1,0,0:0:0:0:
288,16,79500,1,0,0:0:0:0:
352,112,79649,5,0,0:0:0:0:
384,152,79725,1,0,0:0:0:0:
400,200,79800,1,0,0:0:0:0:
316,328,79950,1,0,0:0:0:0:
480,184,80099,1,0,0:0:0:0:
372,248,80250,5,0,0:0:0:0:
400,304,80325,1,0,0:0:0:0:
464,328,80399,1,0,0:0:0:0:
280,332,80550,1,0,0:0:0:0:
472,160,80699,1,0,0:0:0:0:
432,368,80850,5,0,0:0:0:0:
380,376,80924,1,0,0:0:0:0:
334,352,81000,2,0,L|296:314,1,52.5
148,184,81149,1,0,0:0:0:0:
312,132,81300,2,0,B|340:131|366:116|366:116|381:131|416:139,1,105
232,136,81600,5,0,0:0:0:0:
212,84,81674,1,0,0:0:0:0:
232,24,81749,1,0,0:0:0:0:
320,192,81900,5,0,0:0:0:0:
340,140,81974,1,0,0:0:0:0:
320,80,82050,1,0,0:0:0:0:
168,248,82199,6,0,B|176:272|171:306|171:306|152:324|144:372,1,105
108,136,82499,1,0,0:0:0:0:
56,312,82650,1,0,0:0:0:0:
268,292,82799,1,0,0:0:0:0:
40,204,82950,5,0,0:0:0:0:
40,204,83024,1,0,0:0:0:0:
40,204,83100,1,0,0:0:0:0:
286,373,83249,6,0,P|202:345|190:321,1,105
224,132,83549,1,0,0:0:0:0:
268,292,83700,1,0,0:0:0:0:
380,160,83849,5,0,0:0:0:0:
384,112,83925,1,0,0:0:0:0:
428,92,84000,1,0,0:0:0:0:
464,120,84074,1,0,0:0:0:0:
464,168,84150,1,0,0:0:0:0:
348,360,84299,1,0,0:0:0:0:
456,224,84450,5,0,0:0:0:0:
464,272,84525,1,0,0:0:0:0:
480,324,84599,1,0,0:0:0:0:
232,132,84750,1,0,0:0:0:0:
316,336,84899,1,0,0:0:0:0:
448,320,85050,5,0,0:0:0:0:
424,296,85124,1,0,0:0:0:0:
376,284,85200,1,0,0:0:0:0:
204,320,85349,5,0,0:0:0:0:
236,272,85424,1,0,0:0:0:0:
280,244,85500,1,0,0:0:0:0:
248,64,85649,5,0,0:0:0:0:
96,212,85800,1,0,0:0:0:0:
228,192,85949,5,0,0:0:0:0:
392,32,86100,1,0,0:0:0:0:
364,156,86250,5,0,0:0:0:0:
196,16,86399,6,0,B|163:21|121:66|121:66|203:223|256:189|327:128|230:18|166:133|166:133|118:156|136:214|136:214|89:245|55:200,1,551
48,188,88049,1,0,0:0:0:0:
156,288,88350,5,0,0:0:0:0:
156,292,88499,1,0,0:0:0:0:
156,292,88650,1,0,0:0:0:0:
276,296,88799,6,0,B|293:262|277:211|277:211|297:200|308:169|308:169|303:140|313:99|313:99|354:101|406:46|406:46|379:142|385:185|385:185|378:220|360:242|360:242|368:273|349:327|349:327|381:293|417:286|417:286|436:308|497:312,1,661
474,198,90750,6,0,L|477:131,1,62.9999980773926
484,8,91050,1,0,0:0:0:0:
288,92,91199,6,0,B|243:133|254:200|254:200|254:115|156:92|156:92|110:198|201:245|201:245|166:247|143:271|143:271,2,503.999984619141
440,96,93749,5,0,0:0:0:0:
432,136,93900,1,0,0:0:0:0:
404,100,94049,1,0,0:0:0:0:
452,88,94200,5,0,0:0:0:0:
432,148,94349,1,0,0:0:0:0:
388,96,94500,1,0,0:0:0:0:
468,80,94650,1,0,0:0:0:0:
336,256,94799,5,0,0:0:0:0:
208,108,94950,1,0,0:0:0:0:
360,224,95099,1,0,0:0:0:0:
232,72,95250,1,0,0:0:0:0:
164,252,95399,5,0,0:0:0:0:
140,284,95475,1,0,0:0:0:0:
156,320,95550,1,0,0:0:0:0:
196,332,95624,1,0,0:0:0:0:
236,320,95700,1,0,0:0:0:0:
272,304,95775,1,0,0:0:0:0:
312,300,95849,1,0,0:0:0:0:
352,308,95924,1,0,0:0:0:0:
424,348,96000,6,0,B|441:285|441:285|424:200,1,125.999996154785
168,104,96300,2,0,P|200:96|228:88,1,62.9999980773926
384,56,96450,1,0,0:0:0:0:
312,380,96599,1,0,0:0:0:0:
140,204,96750,1,0,0:0:0:0:
424,204,96900,2,0,L|444:120,1,62.9999980773926
476,4,97050,1,0,0:0:0:0:
352,241,97200,6,0,P|406:284|461:277,1,125.999996154785
308,4,97500,2,0,B|327:31|327:31|340:64,1,62.9999980773926
424,204,97650,1,0,0:0:0:0:
236,296,97800,1,0,0:0:0:0:
160,88,97950,1,0,0:0:0:0:
65,330,98100,2,0,L|52:264,1,62.9999980773926
0,64,98250,1,0,0:0:0:0:
264,192,98400,6,0,B|287:186|304:168|304:168|332:168|332:168|347:141|376:132,1,125.999996154785
372,332,98700,2,0,P|344:344|311:349,1,62.9999980773926
72,324,98850,1,0,0:0:0:0:
208,128,99000,1,0,0:0:0:0:
0,204,99150,1,0,0:0:0:0:
244,236,99300,2,0,L|312:192,1,62.9999980773926
424,104,99450,1,0,0:0:0:0:
472,308,99599,6,0,P|500:268|496:308,1,125.999996154785
296,336,99900,2,0,L|304:264,1,62.9999980773926
344,48,100051,1,0,0:0:0:0:
136,188,100201,1,0,0:0:0:0:
408,204,100350,1,0,0:0:0:0:
216,56,100501,2,0,L|216:128,1,62.9999980773926
208,300,100650,1,0,0:0:0:0:
200,44,100801,6,0,B|174:43|143:62|143:62|120:93|76:80,1,125.999996154785
92,292,101101,2,0,L|156:248,1,62.9999980773926
296,84,101251,1,0,0:0:0:0:
352,320,101400,1,0,0:0:0:0:
104,176,101551,1,0,0:0:0:0:
360,232,101700,2,0,L|372:304,1,62.9999980773926
200,44,101851,1,0,0:0:0:0:
180,324,102000,6,0,B|112:304|112:304|56:300,1,125.999996154785
296,160,102301,2,0,P|326:168|353:183,1,62.9999980773926
108,56,102450,1,0,0:0:0:0:
400,52,102601,1,0,0:0:0:0:
180,208,102750,1,0,0:0:0:0:
472,304,102901,2,0,L|424:240,1,62.9999980773926
264,48,103050,1,0,0:0:0:0:
184,356,103199,6,0,P|243:315|264:256,1,125.999996154785
160,8,103500,2,0,P|179:25|196:59,1,62.9999980773926
180,268,103651,1,0,0:0:0:0:
400,248,103800,1,0,0:0:0:0:
140,124,103950,1,0,0:0:0:0:
16,376,104100,2,0,L|48:304,1,62.9999980773926
136,108,104250,1,0,0:0:0:0:
316,248,104400,6,0,B|323:210|350:188|350:188|336:160|360:124,1,125.999996154785
184,384,104701,2,0,P|148:352|125:313,1,62.9999980773926
132,88,104850,1,0,0:0:0:0:
324,260,105000,1,0,0:0:0:0:
408,48,105150,1,0,0:0:0:0:
456,320,105300,2,0,P|458:288|456:256,1,62.9999980773926
400,40,105451,1,0,0:0:0:0:
264,314,105599,6,0,P|359:330|384:306,1,125.999996154785
200,84,105900,2,0,L|168:148,1,62.9999980773926
48,348,106050,1,0,0:0:0:0:
0,104,106200,1,0,0:0:0:0:
184,304,106350,1,0,0:0:0:0:
40,173,106501,2,0,P|66:148|77:122,1,62.9999980773926
236,8,106650,1,0,0:0:0:0:
328,252,106800,6,0,B|363:280|384:288|384:288|403:304|416:340,1,125.999996154785
184,128,107100,2,0,P|210:151|240:172,1,62.9999980773926
424,356,107250,1,0,0:0:0:0:
152,324,107400,1,0,0:0:0:0:
448,160,107550,1,0,0:0:0:0:
214,375,107700,2,0,P|228:332|226:291,1,62.9999980773926
200,52,107850,1,0,0:0:0:0:
148,248,108000,6,0,P|93:274|77:333,1,125.999996154785
320,376,108300,2,0,P|308:335|308:285,1,62.9999980773926
320,56,108450,1,0,0:0:0:0:
436,264,108600,1,0,0:0:0:0:
200,132,108750,1,0,0:0:0:0:
420,144,108900,2,0,L|372:184,1,62.9999980773926
152,324,109050,1,0,0:0:0:0:
282,136,109200,6,0,P|229:61|163:63,1,125.999996154785
168,312,109500,2,0,P|224:304|256:288,1,62.9999980773926
408,180,109650,1,0,0:0:0:0:
204,136,109800,1,0,0:0:0:0:
352,372,109950,1,0,0:0:0:0:
192,128,110100,2,0,L|154:178,1,62.9999980773926
284,16,110250,1,0,0:0:0:0:
432,272,110400,6,0,B|460:226|505:204|505:204|470:196,1,125.999996154785
232,332,110700,1,0,0:0:0:0:
308,256,110849,1,0,0:0:0:0:
294,148,111000,2,0,L|231:173,1,62.9999980773926
233,73,111149,1,0,0:0:0:0:
126,73,111299,1,0,0:0:0:0:
35,148,111450,1,0,0:0:0:0:
51,257,111599,1,0,0:0:0:0:
128,334,111750,5,0,0:0:0:0:
176,200,111900,1,0,0:0:0:0:
232,332,112050,1,0,0:0:0:0:
456,272,112200,6,0,L|403:306,1,62.9999980773926
266,195,112350,1,0,0:0:0:0:
324,128,112500,1,0,0:0:0:0:
412,140,112650,1,0,0:0:0:0:
372,64,112800,6,0,P|296:56|246:100,3,125.999996154785
128,200,113400,2,0,L|112:56,1,125.999996154785
184,40,113700,2,0,P|138:0|77:4,1,125.999996154785
80,272,114000,6,0,P|140:283|194:253,3,125.999996154785
240,184,114600,2,0,P|179:173|125:210,1,125.999996154785
209,376,114900,2,0,L|193:252,1,125.999996154785
340,112,115200,6,0,P|385:191|376:288,1,168
312,312,115799,1,0,0:0:0:0:
232,288,116099,1,0,0:0:0:0:
184,220,116399,6,0,B|208:162|195:131|195:131|229:117|265:92,1,168
284,176,117000,1,0,0:0:0:0:
284,176,117300,1,0,0:0:0:0:
260,96,117600,6,0,B|215:77|170:84|170:84|152:63|84:40,1,168
67,122,118199,1,0,0:0:0:0:
104,196,118575,1,0,0:0:0:0:
160,252,118800,6,0,P|100:276|24:196,1,168
67,122,119400,1,0,0:0:0:0:
67,122,119700,1,0,0:0:0:0:
208,216,119999,6,0,B|232:172|258:162|258:162|255:135|255:135|280:124|316:76,1,168
388,100,120599,1,0,0:0:0:0:
388,100,120900,1,0,0:0:0:0:
432,172,121200,6,0,B|392:169|348:201|348:201|349:152|289:108,1,168
264,200,121800,1,0,0:0:0:0:
408,256,122099,1,0,0:0:0:0:
328,288,122399,6,0,B|386:292|408:256|408:256|439:286|496:264,1,168
456,188,123000,1,0,0:0:0:0:
345,203,123300,1,0,0:0:0:0:
285,262,123600,6,0,P|266:228|365:121,1,168
345,203,124199,1,0,0:0:0:0:
345,203,124499,1,0,0:0:0:0:
264,188,124799,6,0,B|225:162|179:166|179:166|168:136|96:112,1,168
168,52,125400,1,0,0:0:0:0:
168,52,125700,1,0,0:0:0:0:
128,215,126000,6,0,B|130:173|103:138|103:138|69:112|65:46,1,168
50,198,126599,1,0,0:0:0:0:
152,70,126899,1,0,0:0:0:0:
224,224,127200,6,0,B|279:226|300:208|300:208|319:225|396:228,1,168
276,100,127800,1,0,0:0:0:0:
276,100,128100,1,0,0:0:0:0:
112,140,128399,6,0,B|155:184|144:233|144:233|184:240|200:284,1,168
360,252,128999,1,0,0:0:0:0:
360,252,129300,1,0,0:0:0:0:
272,108,129600,6,0,B|324:124|346:102|346:102|379:119|379:119|407:100|465:115,1,168
352,256,130200,1,0,0:0:0:0:
352,256,130499,1,0,0:0:0:0:
204,180,130799,6,0,B|161:161|136:128|136:128|96:132|36:108,1,168
152,256,131400,1,0,0:0:0:0:
44,128,131700,1,0,0:0:0:0:
208,172,132000,6,0,B|268:160|296:128|296:128|340:144|416:124,1,168
428,288,132599,1,0,0:0:0:0:
488,132,132899,1,0,0:0:0:0:
324,96,133199,6,0,B|377:74|389:49|389:49|433:61|492:36,1,168
380,184,133800,1,0,0:0:0:0:
380,184,134100,1,0,0:0:0:0:
192,225,134400,6,0,B|171:162|169:97|169:97|206:108|240:96|240:96|247:160|263:200|263:200|283:164|306:154|306:154,1,367.5
314,82,135600,6,0,B|309:39|249:16|249:16|200:33|155:18|155:18|103:38|88:102|88:102|81:52|64:38,1,367.5
0,80,136799,6,0,B|25:126|13:159|13:159|32:197|80:212|80:212|71:245|85:284|85:284|132:272|155:259|155:259|174:275|220:284,1,367.5
205,204,138000,6,0,B|244:214|266:245|266:245|290:321|217:353|217:353|182:359|152:342|152:342|117:358|88:369|55:355,1,367.5
196,281,139199,6,0,B|153:267|131:234|131:234|120:185|149:135,1,168
216,52,139800,1,0,0:0:0:0:
216,52,140100,1,0,0:0:0:0:
372,196,140400,6,0,B|352:152|368:113|368:113|324:96|300:52,1,168
120,64,140999,1,0,0:0:0:0:
120,64,141299,1,0,0:0:0:0:
64,260,141599,2,0,B|114:222|176:208|176:208|152:192|112:200,1,168
20,188,142200,1,0,0:0:0:0:
168,304,142500,1,0,0:0:0:0:
344,224,142800,6,0,B|320:172|288:153|288:153|300:104|348:84,1,168
232,0,143399,1,0,0:0:0:0:
232,0,143699,1,0,0:0:0:0:
113,106,144000,2,0,B|165:58|258:71|258:71|245:154|145:172|145:172|186:168|213:186,1,367.5
332,260,145199,6,0,P|384:184|344:288,1,367.5
397,250,146400,6,0,B|394:158|425:115|425:115|315:93|267:195|267:195|274:156|270:165,1,367.5
110,75,147599,6,0,B|38:68|14:178|134:208|160:124|160:124|179:160|212:173|212:173|228:204|256:220,1,367.5
196,320,148800,6,0,L|248:372,1,52.5
396,276,149100,1,0,0:0:0:0:
320,160,149399,1,0,0:0:0:0:
472,256,149699,1,0,0:0:0:0:
248,196,149999,1,0,0:0:0:0:
512,196,150300,1,0,0:0:0:0:
232,272,150600,5,0,0:0:0:0:
512,132,150900,1,0,0:0:0:0:
272,336,151200,1,0,0:0:0:0:
492,64,151499,1,0,0:0:0:0:
336,376,151799,1,0,0:0:0:0:
424,16,152099,1,0,0:0:0:0:
408,384,152400,1,0,0:0:0:0:
344,0,152700,1,0,0:0:0:0:
484,384,153000,5,0,0:0:0:0:
256,0,153300,1,0,0:0:0:0:
92,220,153599,6,0,B|149:190|192:200|192:200|190:164|240:92,3,210
367,203,154800,6,0,P|288:224|358:225,3,210
237,286,155850,1,0,0:0:0:0:
329,80,155999,6,0,P|227:129|207:222,3,210
88,292,157200,6,0,B|76:240|88:212|88:212|68:168|68:168|81:132|75:84,3,210
184,72,158250,1,0,0:0:0:0:
152,164,158399,6,0,B|203:177|248:164|248:164|305:156|384:212,3,210
368,376,159600,6,0,B|304:324|284:252|284:252|280:296|274:320,3,210
152,164,160800,1,0,0:0:0:0:
184,80,163200,6,0,L|192:220,1,105
304,264,163500,2,0,L|296:136,1,105
196,272,163800,2,0,L|204:392,1,105
376,104,164099,5,0,0:0:0:0:
448,272,164250,1,0,0:0:0:0:
296,288,164399,1,0,0:0:0:0:
456,144,164550,1,0,0:0:0:0:
380,324,164699,1,0,0:0:0:0:
296,148,164850,1,0,0:0:0:0:
181,281,165000,6,0,B|187:198|187:198|168:156|168:156|176:56,1,210
292,56,165449,1,0,0:0:0:0:
374,315,165600,6,0,P|314:292|248:232,1,105
427,155,165900,2,0,P|444:213|435:263,1,105
264,180,166199,2,0,P|299:142|368:118,1,105
227,239,166499,5,0,0:0:0:0:
107,358,166650,1,0,0:0:0:0:
107,190,166799,1,0,0:0:0:0:
226,309,166950,1,0,0:0:0:0:
226,141,167100,1,0,0:0:0:0:
107,259,167249,1,0,0:0:0:0:
8,40,167400,6,0,P|117:94|33:9,1,315
256,248,168000,1,0,0:0:0:0:
176,164,168150,5,0,0:0:0:0:
176,164,168225,1,0,0:0:0:0:
176,164,168299,2,0,P|184:124|200:96,1,52.5
312,132,168450,5,0,0:0:0:0:
312,132,168525,1,0,0:0:0:0:
312,132,168599,2,0,P|304:88|296:72,1,52.5
104,104,168750,5,0,0:0:0:0:
104,104,168824,1,0,0:0:0:0:
104,104,168899,2,0,P|128:68|152:48,1,52.5
364,76,169050,5,0,0:0:0:0:
364,76,169124,1,0,0:0:0:0:
364,76,169200,2,0,P|336:40|320:28,1,52.5
188,128,169349,5,0,0:0:0:0:
188,128,169424,1,0,0:0:0:0:
188,128,169500,2,0,P|170:164|168:200,1,52.5
312,132,169649,5,0,0:0:0:0:
312,132,169725,1,0,0:0:0:0:
312,132,169800,2,0,P|328:161|334:199,1,52.5
254,198,169949,5,0,0:0:0:0:
254,198,170025,1,0,0:0:0:0:
254,198,170100,2,0,B|237:249|249:304|249:304|208:256|120:229,1,210
200,192,172799,6,0,L|276:136,1,52.5
376,104,172950,1,0,0:0:0:0:
312,276,173099,1,0,0:0:0:0:
312,276,173175,1,0,0:0:0:0:
312,276,173250,2,0,L|332:220,1,52.5
424,36,173400,6,0,P|456:112|444:156,1,105
256,376,173700,1,0,0:0:0:0:
376,104,174000,1,0,0:0:0:0:
148,248,174149,5,0,0:0:0:0:
148,248,174225,1,0,0:0:0:0:
148,248,174300,2,0,L|140:176,1,52.5
176,64,174450,1,0,0:0:0:0:
320,224,174599,6,0,L|356:296,1,52.5
192,52,174899,1,0,0:0:0:0:
56,216,175199,5,0,0:0:0:0:
56,216,175275,1,0,0:0:0:0:
56,216,175350,2,0,P|90:230|109:249,1,52.5
316,144,175500,1,0,0:0:0:0:
316,144,175575,1,0,0:0:0:0:
316,144,175649,2,0,P|288:172|272:204,1,52.5
220,340,175800,5,0,0:0:0:0:
156,84,176100,1,0,0:0:0:0:
152,96,176400,1,0,0:0:0:0:
380,64,176550,6,0,L|328:68,1,52.5
256,208,176699,1,0,0:0:0:0:
240,216,176774,2,0,L|160:224,1,52.5
52,352,176999,1,0,0:0:0:0:
244,324,177299,1,0,0:0:0:0:
100,100,177600,6,0,L|116:160,1,52.5
176,380,177749,1,0,0:0:0:0:
292,84,177900,1,0,0:0:0:0:
292,84,177975,1,0,0:0:0:0:
292,84,178049,2,0,L|264:140,1,52.5
168,368,178200,5,0,0:0:0:0:
308,256,178500,1,0,0:0:0:0:
308,256,178799,1,0,0:0:0:0:
328,128,178950,5,0,0:0:0:0:
316,132,179025,2,0,L|260:104,1,52.5
112,108,179175,1,0,0:0:0:0:
124,116,179250,2,0,L|188:88,1,52.5
320,16,179399,5,0,0:0:0:0:
176,272,179700,1,0,0:0:0:0:
345,323,180000,5,0,0:0:0:0:
336,292,180075,1,0,0:0:0:0:
324,272,180149,2,0,P|312:237|294:219,1,52.5
434,119,180300,1,0,0:0:0:0:
400,128,180374,1,0,0:0:0:0:
376,128,180449,2,0,P|341:121|300:96,1,52.5
164,108,180600,5,0,0:0:0:0:
144,328,180899,1,0,0:0:0:0:
40,148,181199,1,0,0:0:0:0:
224,168,181350,5,0,0:0:0:0:
224,176,181424,1,0,0:0:0:0:
226,184,181499,2,0,L|241:239,1,52.5
332,384,181650,1,0,0:0:0:0:
352,104,181800,2,0,L|348:160,1,52.5
348,368,182100,1,0,0:0:0:0:
416,184,182400,5,0,0:0:0:0:
160,304,182549,1,0,0:0:0:0:
156,288,182700,2,0,L|148:216,1,52.5
200,88,182850,1,0,0:0:0:0:
344,320,182999,6,0,L|320:273,1,52.5
216,88,183299,1,0,0:0:0:0:
52,224,183599,1,0,0:0:0:0:
112,88,183750,5,0,0:0:0:0:
112,88,183824,2,0,L|152:144,1,52.5
284,320,183975,1,0,0:0:0:0:
276,308,184049,2,0,L|232:256,1,52.5
112,88,184200,5,0,0:0:0:0:
292,128,184500,1,0,0:0:0:0:
112,160,184800,5,0,0:0:0:0:
144,120,184874,1,0,0:0:0:0:
192,108,184950,2,0,P|226:98|248:104,1,52.5
376,180,185099,1,0,0:0:0:0:
360,232,185174,2,0,P|325:244|280:240,1,52.5
144,240,185399,5,0,0:0:0:0:
296,40,185699,1,0,0:0:0:0:
472,264,186000,1,0,0:0:0:0:
256,344,186149,6,0,L|298:298,1,52.5
424,176,186300,1,0,0:0:0:0:
424,176,186375,1,0,0:0:0:0:
424,176,186449,2,0,L|396:232,1,52.5
328,384,186600,5,0,0:0:0:0:
164,212,186900,1,0,0:0:0:0:
412,104,187199,5,0,0:0:0:0:
392,120,187274,1,0,0:0:0:0:
368,152,187350,2,0,P|341:165|307:168,1,52.5
104,64,187499,1,0,0:0:0:0:
124,50,187575,1,0,0:0:0:0:
151,43,187650,2,0,P|174:44|235:64,1,52.5
432,192,187799,5,0,0:0:0:0:
184,320,188100,1,0,0:0:0:0:
248,132,188400,1,0,0:0:0:0:
148,44,188549,1,0,0:0:0:0:
148,44,188700,6,0,L|220:36,1,52.5
448,48,188849,1,0,0:0:0:0:
424,48,189000,2,0,L|356:52,1,52.5
28,148,189299,1,0,0:0:0:0:
184,220,189450,5,0,0:0:0:0:
184,220,189525,1,0,0:0:0:0:
184,220,189599,1,0,0:0:0:0:
228,192,189675,1,0,0:0:0:0:
280,200,189750,1,0,0:0:0:0:
320,236,189824,1,0,0:0:0:0:
368,260,189899,5,0,0:0:0:0:
420,256,189975,1,0,0:0:0:0:
456,220,190050,1,0,0:0:0:0:
460,168,190124,1,0,0:0:0:0:
432,116,190200,5,0,0:0:0:0:
376,104,190275,1,0,0:0:0:0:
324,124,190349,1,0,0:0:0:0:
268,120,190424,1,0,0:0:0:0:
236,72,190500,5,0,0:0:0:0:
192,20,190575,1,0,0:0:0:0:
124,32,190649,5,0,0:0:0:0:
76,80,190725,1,0,0:0:0:0:
76,148,190800,2,0,L|116:196,1,52.5
264,332,190949,5,0,0:0:0:0:
268,320,191025,1,0,0:0:0:0:
272,308,191100,2,0,L|300:232,1,52.5
448,60,191250,5,0,0:0:0:0:
444,68,191325,1,0,0:0:0:0:
440,88,191399,2,0,L|416:144,1,52.5
352,384,191550,5,0,0:0:0:0:
372,352,191625,1,0,0:0:0:0:
388,324,191699,2,0,L|400:264,1,52.5
264,12,191850,5,0,0:0:0:0:
288,36,191924,1,0,0:0:0:0:
304,72,191999,6,0,B|315:131|315:131|298:194,1,125.999996154785
36,356,192300,2,0,P|68:348|96:340,1,62.9999980773926
372,244,192450,1,0,0:0:0:0:
164,104,192600,1,0,0:0:0:0:
192,380,192749,1,0,0:0:0:0:
372,244,192900,2,0,L|392:160,1,62.9999980773926
476,4,193049,1,0,0:0:0:0:
304,272,193200,6,0,P|358:315|413:308,1,125.999996154785
308,4,193500,2,0,B|327:31|327:31|353:60,1,62.9999980773926
512,220,193650,1,0,0:0:0:0:
224,232,193799,1,0,0:0:0:0:
464,80,193950,1,0,0:0:0:0:
280,372,194099,2,0,L|267:306,1,62.9999980773926
204,76,194250,1,0,0:0:0:0:
112,312,194400,6,0,B|90:318|75:345|75:345|47:345|47:345|30:363|7:369,1,125.999996154785
40,160,194700,2,0,P|70:146|99:143,1,62.9999980773926
304,304,194849,1,0,0:0:0:0:
236,16,195000,1,0,0:0:0:0:
80,224,195149,1,0,0:0:0:0:
324,296,195300,2,0,L|392:252,1,62.9999980773926
496,76,195450,1,0,0:0:0:0:
224,264,195599,6,0,B|236:228|268:213|268:213|272:184|296:140,1,125.999996154785
292,348,195900,2,0,L|300:276,1,62.9999980773926
308,28,196051,1,0,0:0:0:0:
76,232,196200,1,0,0:0:0:0:
384,312,196350,1,0,0:0:0:0:
184,48,196500,2,0,L|216:112,1,62.9999980773926
400,296,196650,1,0,0:0:0:0:
164,56,196801,6,0,B|139:55|120:72|120:72|89:61|89:61|70:78|40:82,1,125.999996154785
144,344,197101,2,0,L|192:300,1,62.9999980773926
364,80,197250,1,0,0:0:0:0:
360,356,197400,1,0,0:0:0:0:
124,144,197550,1,0,0:0:0:0:
360,84,197700,2,0,L|328:168,1,62.9999980773926
164,344,197851,1,0,0:0:0:0:
432,320,197999,6,0,P|383:280|312:297,1,125.999996154785
88,184,198300,2,0,P|118:192|145:207,1,62.9999980773926
360,356,198450,1,0,0:0:0:0:
400,52,198600,1,0,0:0:0:0:
144,88,198750,1,0,0:0:0:0:
228,384,198901,2,0,P|196:356|180:320,1,62.9999980773926
160,72,199050,1,0,0:0:0:0:
236,376,199199,6,0,B|270:341|295:335|295:335|300:304|316:276,1,125.999996154785
276,8,199500,2,0,P|295:25|312:59,1,62.9999980773926
376,336,199650,1,0,0:0:0:0:
100,204,199800,1,0,0:0:0:0:
380,80,199950,1,0,0:0:0:0:
172,344,200100,2,0,L|204:272,1,62.9999980773926
364,52,200250,1,0,0:0:0:0:
136,64,200399,6,0,B|107:96|96:124|96:124|54:127|0:144,1,125.999996154785
148,352,200700,2,0,P|112:320|89:281,1,62.9999980773926
44,48,200850,1,0,0:0:0:0:
272,208,201000,1,0,0:0:0:0:
24,384,201150,1,0,0:0:0:0:
272,200,201300,2,0,P|274:168|272:136,1,62.9999980773926
252,0,201450,1,0,0:0:0:0:
216,260,201599,6,0,P|311:276|336:252,1,125.999996154785
456,40,201900,2,0,L|424:104,1,62.9999980773926
272,200,202050,1,0,0:0:0:0:
112,28,202200,1,0,0:0:0:0:
116,312,202350,1,0,0:0:0:0:
280,180,202500,2,0,P|306:155|317:129,1,62.9999980773926
448,32,202650,1,0,0:0:0:0:
356,252,202800,6,0,B|391:280|421:288|421:288|428:320|444:340,1,125.999996154785
208,48,203100,2,0,P|234:71|264:92,1,62.9999980773926
496,288,203250,1,0,0:0:0:0:
152,324,203400,1,0,0:0:0:0:
336,56,203549,1,0,0:0:0:0:
214,375,203700,2,0,P|228:332|226:291,1,62.9999980773926
140,8,203850,1,0,0:0:0:0:
148,248,204000,6,0,P|93:274|77:333,1,125.999996154785
364,368,204300,2,0,P|352:327|352:277,1,62.9999980773926
360,36,204450,1,0,0:0:0:0:
432,324,204599,1,0,0:0:0:0:
116,112,204750,1,0,0:0:0:0:
430,72,204900,2,0,P|416:97|382:112,1,62.9999980773926
96,128,205050,1,0,0:0:0:0:
508,324,205200,6,0,P|455:249|389:251,1,125.999996154785
100,340,205500,2,0,P|156:332|188:316,1,62.9999980773926
424,128,205649,1,0,0:0:0:0:
144,48,205800,1,0,0:0:0:0:
284,332,205950,1,0,0:0:0:0:
368,48,206100,2,0,L|330:98,1,62.9999980773926
112,328,206250,1,0,0:0:0:0:
432,272,206399,6,0,B|460:226|505:204|505:204|470:196,1,125.999996154785
212,316,206699,1,0,0:0:0:0:
224,116,206849,1,0,0:0:0:0:
424,144,207000,2,0,L|361:169,1,62.9999980773926
300,244,207149,1,0,0:0:0:0:
136,128,207299,1,0,0:0:0:0:
124,328,207449,1,0,0:0:0:0:
260,180,207599,1,0,0:0:0:0:
60,208,207749,5,0,0:0:0:0:
280,360,207900,1,0,0:0:0:0:
268,61,208050,1,0,0:0:0:0:
456,272,208200,6,0,L|403:306,1,62.9999980773926
304,280,208350,1,0,0:0:0:0:
152,148,208499,1,0,0:0:0:0:
352,132,208650,1,0,0:0:0:0:
396,60,208799,6,0,P|320:52|270:96,4,125.999996154785
220,164,209549,1,0,0:0:0:0:
160,72,209700,2,0,P|114:32|53:36,1,125.999996154785
170,228,210000,6,0,P|230:239|284:209,3,125.999996154785
215,166,210599,2,0,P|154:155|100:192,1,125.999996154785
182,354,210899,2,0,L|166:230,1,125.999996154785
256,192,211200,12,0,213600,0:0:0:0:
