osu file format v14

[General]
AudioFilename: audio.mp3
AudioLeadIn: 0
PreviewTime: -1
Countdown: 1
SampleSet: None
StackLeniency: 0.7
Mode: 0
LetterboxInBreaks: 0
WidescreenStoryboard: 0

[Editor]
DistanceSpacing: 1
BeatDivisor: 4
GridSize: 4
TimelineZoom: 0.9

[Metadata]
Title:I tuoi maledettissimi impegni (Speed Up Ver.)
TitleUnicode:I tuoi maledettissimi impegni (Speed Up Ver.)
Artist:Max Gazze
ArtistUnicode:Max Gazze
Creator:- Croma -
Version:Jump Training
Source:Sotto casa
Tags:jump, training, max, croma, incredible , impossible , mad , wow , insane , extreme , extra , ita , italy , italian , banana
BeatmapID:1289980
BeatmapSetID:611035

[Difficulty]
HPDrainRate:4
CircleSize:4.5
OverallDifficulty:9
ApproachRate:9.4
SliderMultiplier:1.8
SliderTickRate:1

[Events]
//Background and Video events
0,0,"DSC_0124.jpg",0,0
//Break Periods
2,78015,87732
//Storyboard Layer 0 (Background)
//Storyboard Layer 1 (Fail)
//Storyboard Layer 2 (Pass)
//Storyboard Layer 3 (Foreground)
//Storyboard Sound Samples

[TimingPoints]
1015,342.857142857143,4,3,0,80,1,0
33929,-80,4,3,0,80,0,0
44900,-100,4,3,0,80,0,1
59815,-50,4,3,0,80,0,1
59986,-100,4,3,0,80,0,1
77815,-100,4,3,0,80,0,0
110729,-100,4,3,0,80,0,1
129929,-83.3333333333333,4,3,0,80,0,1
140900,-100,4,3,0,80,0,1
162843,-100,4,3,0,80,0,0

[Colours]
Combo1 : 222,206,3
Combo2 : 108,0,217
Combo3 : 237,162,5
Combo4 : 43,236,217

[HitObjects]
56,256,1014,6,0,P|56:336|60:376,1,90,0|0,2:0|2:0,2:0:0:0:
168,200,1357,2,0,P|170:244|168:289,1,90,0|0,2:0|2:0,2:0:0:0:
288,168,1700,2,0,P|285:212|287:257,1,90,0|0,2:0|2:0,2:0:0:0:
464,256,2043,1,0,2:0:0:0:
284,360,2215,1,0,2:0:0:0:
456,128,2386,6,0,P|456:48|452:8,1,90,0|0,2:0|2:0,2:0:0:0:
344,184,2729,2,0,P|342:140|344:95,1,90,0|0,2:0|2:0,2:0:0:0:
224,216,3072,2,0,P|226:171|224:126,1,90,0|0,2:0|2:0,2:0:0:0:
48,128,3415,1,0,2:0:0:0:
228,24,3587,1,0,2:0:0:0:
424,160,3757,6,0,P|464:200|472:256,1,90,0|0,2:0|2:0,2:0:0:0:
256,260,4100,2,0,L|256:364,1,90,0|0,2:0|2:0,2:0:0:0:
88,160,4443,2,0,P|48:200|40:256,1,90,0|0,2:0|2:0,2:0:0:0:
440,116,4786,1,0,2:0:0:0:
72,116,4957,1,0,2:0:0:0:
256,32,5129,2,0,P|288:76|292:128,1,90,0|0,2:0|2:0,2:0:0:0:
256,352,5472,2,0,P|224:308|220:256,1,90,0|0,2:0|2:0,2:0:0:0:
400,176,5815,5,0,0:0:0:0:
112,208,5986,1,2,0:0:0:0:
388,272,6157,1,8,0:0:0:0:
124,112,6329,1,8,0:0:0:0:
368,48,6500,5,0,0:0:0:0:
312,188,6672,1,0,0:0:0:0:
428,104,6843,1,8,0:0:0:0:
224,104,7015,1,2,0:0:0:0:
132,336,7186,5,0,0:0:0:0:
36,192,7357,1,0,0:0:0:0:
256,272,7529,1,8,0:0:0:0:
76,272,7700,1,2,0:0:0:0:
224,64,7872,5,0,0:0:0:0:
288,224,8043,1,0,0:0:0:0:
124,220,8215,1,8,0:0:0:0:
380,120,8386,1,2,0:0:0:0:
376,332,8557,5,0,0:0:0:0:
500,284,8729,1,0,0:0:0:0:
236,136,8900,1,8,0:0:0:0:
376,332,9072,1,2,0:0:0:0:
416,136,9243,5,0,0:0:0:0:
280,316,9415,1,0,0:0:0:0:
68,140,9586,1,8,0:0:0:0:
280,316,9757,1,2,0:0:0:0:
240,72,9929,5,0,0:0:0:0:
116,220,10100,1,0,0:0:0:0:
364,120,10272,1,8,0:0:0:0:
56,60,10443,1,2,0:0:0:0:
200,200,10615,2,0,P|208:264|204:316,1,90
324,68,10957,2,0,P|384:56|432:72,1,90,8|2,0:0|0:0,0:0:0:0:
280,232,11300,5,0,0:0:0:0:
356,352,11472,1,0,0:0:0:0:
476,136,11643,1,0,0:0:0:0:
356,352,11815,1,0,0:0:0:0:
44,288,11986,2,0,P|88:252|152:248,1,90
364,240,12329,5,0,0:0:0:0:
484,96,12500,1,2,0:0:0:0:
304,28,12672,2,0,P|284:80|300:136,1,90,0|2,0:0|0:0,0:0:0:0:
416,308,13015,1,0,0:0:0:0:
120,348,13186,1,2,0:0:0:0:
316,268,13357,2,0,P|272:208|232:200,1,90,0|2,0:0|0:0,0:0:0:0:
48,112,13700,2,0,P|96:64|156:56,1,90,0|2,0:0|0:0,0:0:0:0:
376,64,14043,5,0,0:0:0:0:
168,204,14215,1,2,0:0:0:0:
396,136,14386,1,0,0:0:0:0:
396,308,14557,1,2,0:0:0:0:
468,136,14729,1,0,0:0:0:0:
212,136,14900,2,0,P|248:180|296:172,1,90,2|0,0:0|0:0,0:0:0:0:
464,92,15243,1,2,0:0:0:0:
256,40,15415,1,0,0:0:0:0:
88,248,15586,1,2,0:0:0:0:
288,108,15757,5,0,0:0:0:0:
88,248,15929,1,2,0:0:0:0:
344,324,16100,1,0,0:0:0:0:
256,40,16272,5,2,0:0:0:0:
204,344,16443,1,0,0:0:0:0:
488,208,16615,1,2,0:0:0:0:
404,40,16786,2,0,P|368:92|368:156,1,90
108,344,17129,2,0,P|144:292|144:228,1,90
424,224,17472,5,4,0:2:0:0:
268,360,17643,1,0,0:0:0:0:
424,292,17815,1,0,0:0:0:0:
220,292,17986,1,0,0:0:0:0:
156,60,18157,5,0,0:0:0:0:
156,236,18329,1,0,0:0:0:0:
320,136,18500,1,0,0:0:0:0:
88,208,18672,1,0,0:0:0:0:
220,28,18843,2,0,P|252:76|252:128,1,90
244,348,19186,5,0,0:0:0:0:
472,264,19357,1,0,0:0:0:0:
268,288,19529,1,0,0:0:0:0:
40,200,19700,1,0,0:0:0:0:
256,228,19872,1,0,0:0:0:0:
492,152,20043,2,0,P|472:96|436:80,1,90
164,136,20386,5,0,0:0:0:0:
376,104,20557,1,0,0:0:0:0:
60,44,20729,1,0,0:0:0:0:
292,96,20900,1,0,0:0:0:0:
0,136,21072,2,0,P|-8:204|12:236,1,90
276,336,21415,2,0,P|284:268|264:236,1,90
112,248,21757,5,0,0:0:0:0:
260,108,21929,1,0,0:0:0:0:
424,304,22100,1,0,0:0:0:0:
244,60,22272,1,0,0:0:0:0:
104,332,22443,1,0,0:0:0:0:
260,12,22615,1,0,0:0:0:0:
424,148,22786,6,0,P|416:184|352:224,1,90
124,196,23129,1,0,0:0:0:0:
316,104,23300,1,0,0:0:0:0:
328,344,23472,5,0,0:0:0:0:
80,236,23643,1,0,0:0:0:0:
368,144,23815,1,0,0:0:0:0:
200,364,23986,5,0,0:0:0:0:
44,100,24157,1,0,0:0:0:0:
316,176,24329,1,0,0:0:0:0:
44,312,24500,5,0,0:0:0:0:
220,40,24672,1,0,0:0:0:0:
372,296,24843,2,0,P|408:248|408:216,1,90
308,36,25186,2,0,P|360:88|408:104,1,90
480,40,25529,1,0,0:0:0:0:
408,216,25700,1,0,0:0:0:0:
480,40,25872,1,0,0:0:0:0:
156,144,26043,1,0,0:0:0:0:
308,276,26215,2,0,P|264:308|208:312,1,90
204,108,26557,2,0,P|248:76|304:72,1,90
412,288,26900,5,0,0:0:0:0:
476,88,27072,1,0,0:0:0:0:
320,184,27243,1,0,0:0:0:0:
496,184,27415,1,0,0:0:0:0:
184,36,27586,5,0,0:0:0:0:
284,248,27757,1,0,0:0:0:0:
124,232,27929,1,0,0:0:0:0:
376,144,28100,1,0,0:0:0:0:
60,144,28272,1,0,0:0:0:0:
232,360,28443,2,0,B|248:308|216:300|232:248,1,90
228,40,28786,5,0,0:0:0:0:
416,148,28957,1,0,0:0:0:0:
176,112,29129,1,0,0:0:0:0:
356,112,29300,1,0,0:0:0:0:
296,348,29472,5,0,0:0:0:0:
296,180,29643,1,0,0:0:0:0:
444,256,29815,1,0,0:0:0:0:
228,324,29986,1,0,0:0:0:0:
64,92,30157,5,0,0:0:0:0:
144,276,30329,1,0,0:0:0:0:
24,152,30500,1,0,0:0:0:0:
24,152,30586,1,0,0:0:0:0:
24,152,30672,1,0,0:0:0:0:
252,152,30843,1,0,0:0:0:0:
252,152,31015,1,0,0:0:0:0:
112,296,31186,6,0,P|156:332|208:336,1,90
400,88,31529,2,0,P|356:52|304:48,1,90
172,76,31872,2,0,L|88:144,1,90
340,308,32215,2,0,L|424:240,1,90
256,136,32557,5,0,0:0:0:0:
256,256,32729,1,0,0:0:0:0:
256,52,32900,1,0,0:0:0:0:
256,292,33072,1,0,0:0:0:0:
256,116,33243,1,0,0:0:0:0:
256,360,33415,1,0,0:0:0:0:
256,348,33500,1,0,0:0:0:0:
256,336,33586,1,0,0:0:0:0:
256,116,33757,1,0,0:0:0:0:
432,60,33929,6,0,P|404:116|348:124,1,112.5
80,324,34272,2,0,P|108:268|164:260,1,112.5
460,220,34615,2,0,P|400:232|336:208,1,112.5
52,164,34957,2,0,P|112:152|176:176,1,112.5
384,368,35300,2,0,P|328:324|320:284,1,112.5
128,16,35643,2,0,P|184:60|192:100,1,112.5
392,176,35986,5,0,0:0:0:0:
204,236,36157,1,0,0:0:0:0:
364,236,36329,1,0,0:0:0:0:
72,208,36500,1,0,0:0:0:0:
200,116,36672,5,0,0:0:0:0:
168,316,36843,1,0,0:0:0:0:
108,168,37015,1,0,0:0:0:0:
352,144,37186,1,0,0:0:0:0:
352,144,37272,1,0,0:0:0:0:
352,144,37357,1,0,0:0:0:0:
328,304,37529,6,0,P|392:288|432:240,1,112.5
240,104,37872,1,0,0:0:0:0:
328,304,38043,1,0,0:0:0:0:
440,160,38215,1,0,0:0:0:0:
192,280,38386,1,0,0:0:0:0:
88,80,38557,5,0,0:0:0:0:
192,280,38729,1,0,0:0:0:0:
48,176,38900,1,0,0:0:0:0:
272,176,39072,1,0,0:0:0:0:
156,36,39243,6,0,P|192:88|172:136,1,112.5
356,36,39586,2,0,P|320:88|340:136,1,112.5
472,240,39929,1,0,0:0:0:0:
288,344,40100,1,0,0:0:0:0:
420,288,40272,1,0,0:0:0:0:
420,108,40443,1,0,0:0:0:0:
116,172,40615,5,0,0:0:0:0:
284,112,40786,1,0,0:0:0:0:
144,56,40957,1,0,0:0:0:0:
144,268,41129,1,0,0:0:0:0:
396,172,41300,5,0,0:0:0:0:
116,172,41472,1,0,0:0:0:0:
256,20,41643,1,0,0:0:0:0:
256,156,41815,2,0,B|240:212|280:236|252:276,1,112.5
324,336,42157,5,0,1:0:0:0:
188,336,42329,1,0,0:0:0:0:
368,280,42500,1,0,1:0:0:0:
144,280,42672,1,0,0:0:0:0:
412,228,42843,1,0,1:0:0:0:
100,228,43015,1,0,0:0:0:0:
460,176,43186,1,0,1:0:0:0:
52,176,43357,1,0,0:0:0:0:
256,32,43529,5,0,1:0:0:0:
488,100,43700,1,0,1:0:0:0:
256,92,43872,1,0,1:0:0:0:
36,144,44043,1,0,1:0:0:0:
256,152,44215,1,0,1:0:0:0:
488,228,44386,1,0,1:0:0:0:
256,212,44557,1,0,1:0:0:0:
28,300,44729,1,0,1:0:0:0:
196,356,44900,5,4,1:0:0:0:
420,251,45072,1,0,0:0:0:0:
315,27,45244,1,0,0:0:0:0:
91,132,45415,1,0,0:0:0:0:
302,364,45586,5,0,0:0:0:0:
428,145,45757,1,0,0:0:0:0:
209,19,45929,1,0,0:0:0:0:
83,238,46100,1,0,0:0:0:0:
412,301,46272,5,0,0:0:0:0:
365,35,46443,1,0,0:0:0:0:
99,82,46615,1,0,0:0:0:0:
146,348,46786,1,0,0:0:0:0:
437,159,46957,5,0,0:0:0:0:
223,10,47129,1,0,0:0:0:0:
74,224,47300,1,0,0:0:0:0:
288,373,47472,1,0,0:0:0:0:
488,164,47643,5,0,0:0:0:0:
256,316,47815,1,0,0:0:0:0:
24,164,47986,1,0,0:0:0:0:
360,56,48157,1,0,0:0:0:0:
152,56,48329,1,0,0:0:0:0:
256,316,48500,1,0,0:0:0:0:
256,56,48672,1,0,0:0:0:0:
240,32,48757,1,0,0:0:0:0:
272,32,48843,1,0,0:0:0:0:
256,316,49015,2,0,L|256:216,1,90
432,104,49357,5,0,0:0:0:0:
256,344,49529,1,0,0:0:0:0:
80,104,49700,2,0,P|120:64|168:56,1,90
432,280,50043,2,0,P|392:320|344:328,1,90
128,216,50386,5,0,0:0:0:0:
384,216,50557,1,0,0:0:0:0:
172,40,50729,1,0,0:0:0:0:
256,312,50900,1,0,0:0:0:0:
340,40,51072,1,0,0:0:0:0:
108,100,51243,1,0,0:0:0:0:
404,100,51415,1,0,0:0:0:0:
152,344,51586,1,0,0:0:0:0:
256,48,51757,1,0,0:0:0:0:
256,56,51843,1,0,0:0:0:0:
256,64,51929,1,0,0:0:0:0:
360,344,52100,1,0,0:0:0:0:
96,192,52272,6,0,P|152:140|200:128,1,90
416,192,52615,2,0,P|360:244|312:256,1,90
208,64,52957,1,0,0:0:0:0:
304,320,53129,1,0,0:0:0:0:
328,48,53300,1,0,0:0:0:0:
184,336,53472,1,0,0:0:0:0:
412,132,53643,1,0,0:0:0:0:
416,144,53729,1,0,0:0:0:0:
416,156,53815,1,0,0:0:0:0:
100,252,53986,1,0,0:0:0:0:
304,88,54157,6,0,P|248:64|208:68,1,90
208,296,54500,2,0,P|264:320|304:316,1,90
488,104,54843,2,0,L|380:120,1,90
440,304,55186,2,0,L|380:200,1,90
24,280,55529,2,0,L|132:264,1,90
72,80,55872,2,0,L|132:184,1,90,4|0,0:1|0:0,0:0:0:0:
236,352,56215,5,0,0:0:0:0:
384,88,56386,5,0,0:0:0:0:
396,376,56557,5,0,0:0:0:0:
216,112,56729,5,0,0:0:0:0:
496,192,56900,5,0,0:0:0:0:
80,136,57072,5,0,0:0:0:0:
228,324,57243,5,0,0:0:0:0:
412,188,57415,5,0,0:0:0:0:
276,16,57586,5,0,0:0:0:0:
148,268,57757,5,0,0:0:0:0:
364,268,57929,5,0,0:0:0:0:
256,56,58100,5,0,0:0:0:0:
256,336,58272,5,0,0:0:0:0:
108,112,58443,5,0,0:0:0:0:
404,112,58615,6,0,P|428:160|424:208,1,90
108,272,58957,2,0,P|84:224|88:176,1,90
280,56,59300,1,0,0:0:0:0:
284,64,59386,1,0,0:0:0:0:
284,72,59472,1,0,0:0:0:0:
208,352,59643,1,0,0:0:0:0:
276,145,59815,2,0,B|252:232|252:232|276:144,1,180,0|4,0:0|0:2,0:0:0:0:
276,144,60672,5,4,0:2:0:0:
416,84,61357,6,0,P|464:172|448:212,1,90,4|0,1:0|0:0,0:0:0:0:
228,276,61700,1,0,0:0:0:0:
444,308,61872,1,0,0:0:0:0:
288,56,62043,5,0,0:0:0:0:
32,220,62215,1,0,0:0:0:0:
296,264,62386,1,0,0:0:0:0:
176,64,62557,2,0,P|152:120|168:176,1,90
336,320,62900,2,0,P|360:264|344:208,1,90
148,288,63243,5,0,0:0:0:0:
416,116,63415,1,0,0:0:0:0:
72,176,63586,1,0,0:0:0:0:
440,248,63757,1,0,0:0:0:0:
140,48,63929,1,0,0:0:0:0:
340,352,64100,1,0,0:0:0:0:
124,264,64272,6,0,P|184:232|236:232,1,90
424,296,64615,2,0,P|484:292|500:240,1,90
488,28,64957,2,0,P|428:32|408:68,1,90
328,304,65300,2,0,P|272:332|232:312,1,90
44,216,65643,1,0,0:0:0:0:
208,68,65815,1,0,0:0:0:0:
468,96,65986,1,0,0:0:0:0:
408,284,66157,1,0,0:0:0:0:
400,280,66243,1,0,0:0:0:0:
392,276,66329,1,0,0:0:0:0:
384,276,66415,1,0,0:0:0:0:
376,276,66500,1,0,0:0:0:0:
88,348,66672,1,0,0:0:0:0:
340,124,66843,6,0,L|268:172,1,45,0|0,1:0|0:0,0:0:0:0:
172,260,67015,2,0,L|244:212,1,45,0|0,1:0|0:0,0:0:0:0:
396,188,67186,2,0,L|340:188,1,45,0|0,1:0|0:0,0:0:0:0:
116,188,67357,2,0,L|172:188,1,45,0|0,1:0|0:0,0:0:0:0:
392,280,67529,2,0,L|344:244,1,45,0|0,1:0|0:0,0:0:0:0:
120,104,67700,2,0,L|168:140,1,45,0|0,1:0|0:0,0:0:0:0:
340,360,67872,2,0,L|316:300,1,45,0|0,1:0|0:0,0:0:0:0:
172,24,68043,2,0,L|196:84,1,45,0|0,1:0|0:0,0:0:0:0:
256,368,68215,2,0,L|256:308,1,45,0|0,1:0|0:0,0:0:0:0:
256,16,68386,2,0,L|256:76,1,45,0|0,1:0|0:0,0:0:0:0:
256,72,68557,5,0,1:0:0:0:
256,80,68643,1,0,0:0:0:0:
260,84,68729,1,0,1:0:0:0:
272,88,68815,1,0,0:0:0:0:
284,100,68900,1,0,1:0:0:0:
292,120,68986,1,0,0:0:0:0:
296,140,69072,1,0,1:0:0:0:
296,160,69157,1,0,0:0:0:0:
292,184,69243,1,0,1:0:0:0:
280,208,69329,1,0,0:0:0:0:
260,228,69415,1,0,1:0:0:0:
228,236,69500,1,0,0:0:0:0:
196,224,69586,1,0,1:0:0:0:
164,216,69672,1,0,0:0:0:0:
108,236,69757,1,0,1:0:0:0:
92,292,69843,1,0,0:0:0:0:
112,344,69929,1,0,1:0:0:0:
168,360,70015,1,0,0:0:0:0:
216,332,70100,1,0,1:0:0:0:
272,316,70186,1,0,0:0:0:0:
324,336,70272,1,0,1:0:0:0:
372,364,70357,1,0,0:0:0:0:
428,360,70443,1,0,1:0:0:0:
468,320,70529,1,0,0:0:0:0:
468,264,70615,1,0,1:0:0:0:
364,24,70786,5,4,0:2:0:0:
500,180,70957,1,4,0:2:0:0:
212,244,71129,1,4,0:2:0:0:
400,120,71300,1,4,0:2:0:0:
356,360,71472,5,0,0:0:0:0:
128,296,71643,1,4,1:0:0:0:
204,64,71815,1,0,0:0:0:0:
204,352,71986,1,0,0:0:0:0:
456,224,72157,5,0,0:0:0:0:
200,168,72329,1,0,0:0:0:0:
436,60,72500,1,0,0:0:0:0:
380,348,72672,1,0,0:0:0:0:
60,248,72843,5,0,0:0:0:0:
372,212,73015,1,0,0:0:0:0:
216,84,73186,1,0,0:0:0:0:
256,352,73357,1,0,0:0:0:0:
88,168,73529,5,0,0:0:0:0:
360,260,73700,1,0,0:0:0:0:
356,40,73872,1,0,0:0:0:0:
296,292,74043,1,0,0:0:0:0:
56,76,74215,6,0,L|164:124,1,90,0|0,1:0|0:0,0:0:0:0:
456,308,74557,6,0,L|348:260,1,90,0|0,1:0|0:0,0:0:0:0:
376,116,74900,5,0,1:0:0:0:
292,344,75072,1,0,1:0:0:0:
120,44,75243,5,0,1:0:0:0:
188,312,75415,1,0,1:0:0:0:
392,164,75586,5,0,1:0:0:0:
88,220,75757,1,0,1:0:0:0:
200,36,75929,5,0,1:0:0:0:
264,344,76100,1,0,1:0:0:0:
392,216,76272,1,0,1:0:0:0:
400,224,76357,1,0,0:0:0:0:
404,236,76443,1,0,1:0:0:0:
104,80,76786,1,0,1:0:0:0:
256,192,77300,5,8,0:0:0:0:
256,192,77472,1,8,0:0:0:0:
256,192,77815,1,4,1:0:0:0:
256,188,88272,5,0,0:0:0:0:
256,188,88443,1,0,0:0:0:0:
256,188,88786,1,4,0:2:0:0:
364,96,88957,6,0,P|408:128|460:132,1,90
384,292,89300,2,0,P|340:336|296:340,1,90
108,236,89643,2,0,P|152:280|208:268,1,90
148,64,89986,2,0,P|104:100|64:104,1,90
280,48,90329,2,0,P|332:24|392:24,1,90
460,228,90672,1,0,0:0:0:0:
396,88,90843,1,0,0:0:0:0:
336,336,91015,1,0,0:0:0:0:
376,156,91186,1,0,0:0:0:0:
232,52,91357,2,0,P|208:104|224:144,1,90
356,232,91700,5,0,0:0:0:0:
176,300,91872,1,0,0:0:0:0:
324,360,92043,1,0,0:0:0:0:
76,196,92215,1,0,0:0:0:0:
356,232,92386,1,0,0:0:0:0:
160,52,92557,5,0,0:0:0:0:
344,128,92729,1,0,0:0:0:0:
260,256,92900,1,0,0:0:0:0:
316,28,93072,1,0,0:0:0:0:
48,128,93243,1,0,0:0:0:0:
344,128,93415,1,0,0:0:0:0:
464,216,93586,2,0,P|468:284|464:320,1,90
324,260,93929,2,0,P|321:304|326:349,1,90
64,264,94272,2,0,P|148:252|180:264,1,90
324,172,94615,5,0,0:0:0:0:
80,100,94786,1,0,0:0:0:0:
232,32,94957,1,0,0:0:0:0:
239,220,95129,1,0,0:0:0:0:
239,220,95215,1,0,0:0:0:0:
239,220,95300,1,0,0:0:0:0:
440,92,95472,1,0,0:0:0:0:
184,92,95643,1,0,0:0:0:0:
48,200,95815,2,0,P|88:232|152:248,1,90
484,212,96157,5,0,0:0:0:0:
248,328,96329,1,0,0:0:0:0:
484,212,96500,1,0,0:0:0:0:
296,44,96672,1,0,0:0:0:0:
484,212,96843,1,0,0:0:0:0:
284,352,97015,1,0,0:0:0:0:
484,212,97186,1,0,0:0:0:0:
256,48,97357,1,0,0:0:0:0:
484,212,97529,1,0,0:0:0:0:
236,336,97700,1,0,0:0:0:0:
484,212,97872,1,0,0:0:0:0:
296,24,98043,1,0,0:0:0:0:
484,212,98215,1,0,0:0:0:0:
160,292,98386,6,0,P|192:252|240:248,1,90
352,92,98729,2,0,P|320:132|272:136,1,90
380,292,99072,1,2,0:0:0:0:
132,92,99243,1,2,0:0:0:0:
380,292,99415,1,2,0:0:0:0:
132,92,99586,1,2,0:0:0:0:
380,292,99757,2,0,P|328:320|272:324,1,90,4|0,0:2|0:0,0:0:0:0:
256,64,100100,5,0,0:0:0:0:
64,164,100272,1,0,0:0:0:0:
312,164,100443,1,0,0:0:0:0:
176,28,100615,1,0,0:0:0:0:
176,284,100786,1,0,0:0:0:0:
388,96,100957,1,0,0:0:0:0:
296,308,101129,5,0,0:0:0:0:
476,256,101300,1,0,0:0:0:0:
240,116,101472,1,0,0:0:0:0:
348,356,101643,1,0,0:0:0:0:
84,308,101815,1,0,0:0:0:0:
296,308,101986,1,0,0:0:0:0:
372,64,102157,5,0,0:0:0:0:
424,264,102329,1,0,0:0:0:0:
200,224,102500,1,0,0:0:0:0:
476,224,102672,1,0,0:0:0:0:
288,32,102843,1,0,0:0:0:0:
72,136,103015,2,0,P|104:176|168:196,1,90
464,196,103357,2,0,P|432:236|368:256,1,90
32,288,103700,2,0,P|64:328|128:348,1,90
344,264,104043,1,0,0:0:0:0:
176,48,104215,1,0,0:0:0:0:
288,352,104386,5,0,0:0:0:0:
448,120,104557,1,0,0:0:0:0:
100,176,104729,1,0,0:0:0:0:
496,232,104900,5,0,0:0:0:0:
284,32,105072,1,0,0:0:0:0:
136,348,105243,2,0,P|200:320|228:280,1,90
264,104,105586,5,0,0:0:0:0:
464,60,105757,1,0,0:0:0:0:
264,104,105929,1,0,0:0:0:0:
352,280,106100,1,0,0:0:0:0:
352,32,106272,1,0,0:0:0:0:
100,192,106443,1,0,0:0:0:0:
232,284,106615,1,0,0:0:0:0:
232,284,106700,1,0,0:0:0:0:
232,284,106786,1,0,0:0:0:0:
400,180,106957,2,0,P|376:132|336:104,1,90
120,48,107300,6,0,P|84:64|52:128,1,90,0|0,1:0|0:0,0:0:0:0:
55,279,107643,6,0,P|79:316|120:336,1,90,0|0,1:0|0:0,0:0:0:0:
391,336,107986,6,0,P|432:316|456:279,1,90,0|0,1:0|0:0,0:0:0:0:
456,104,108329,6,0,P|432:67|391:47,1,90,0|0,1:0|0:0,0:0:0:0:
96,192,108672,5,0,1:0:0:0:
256,348,108843,1,0,1:0:0:0:
416,192,109015,1,0,1:0:0:0:
256,36,109186,1,0,1:0:0:0:
116,244,109357,5,0,1:0:0:0:
144,289,109443,1,0,1:0:0:0:
188,321,109529,1,0,1:0:0:0:
240,335,109615,1,0,1:0:0:0:
294,330,109700,1,0,1:0:0:0:
342,305,109786,1,0,1:0:0:0:
378,265,109872,1,0,1:0:0:0:
397,214,109957,1,0,1:0:0:0:
396,160,110043,1,0,1:0:0:0:
376,110,110129,1,0,1:0:0:0:
339,71,110215,1,0,1:0:0:0:
291,47,110300,1,0,1:0:0:0:
237,43,110386,1,0,1:0:0:0:
185,58,110472,1,0,1:0:0:0:
142,91,110557,1,0,1:0:0:0:
114,137,110643,1,0,1:0:0:0:
105,191,110729,1,4,1:0:0:0:
400,60,110900,5,0,0:0:0:0:
256,336,111072,1,0,0:0:0:0:
112,60,111243,1,0,0:0:0:0:
408,284,111415,1,0,0:0:0:0:
104,284,111586,1,0,0:0:0:0:
256,48,111757,1,0,0:0:0:0:
488,204,111929,5,0,0:0:0:0:
164,304,112100,1,4,0:2:0:0:
256,48,112272,1,0,0:0:0:0:
24,204,112443,1,0,0:0:0:0:
348,304,112614,1,0,0:0:0:0:
256,48,112786,1,4,0:2:0:0:
36,104,112957,5,0,0:0:0:0:
476,104,113129,1,0,0:0:0:0:
256,348,113300,1,0,0:0:0:0:
476,280,113472,1,4,1:0:0:0:
36,280,113644,1,0,0:0:0:0:
256,48,113815,1,0,0:0:0:0:
408,300,113986,2,0,L|292:336,1,90
256,48,114329,1,0,0:0:0:0:
104,300,114500,2,0,L|220:336,1,90
256,48,114843,1,4,0:2:0:0:
408,300,115015,6,0,P|456:240|456:200,1,90
256,48,115357,1,0,0:0:0:0:
104,300,115529,2,0,P|56:240|56:200,1,90,4|0,0:2|0:0,0:0:0:0:
256,64,115872,1,0,0:0:0:0:
256,56,115957,1,0,0:0:0:0:
256,48,116043,1,0,0:0:0:0:
424,108,116215,5,4,1:0:0:0:
356,312,116386,1,0,0:0:0:0:
88,108,116557,1,0,0:0:0:0:
156,312,116728,1,0,0:0:0:0:
256,48,116900,1,0,0:0:0:0:
256,264,117072,1,0,0:0:0:0:
256,272,117157,1,0,0:0:0:0:
256,280,117243,1,0,0:0:0:0:
256,48,117415,1,0,0:0:0:0:
256,328,117586,1,4,0:2:0:0:
204,172,117757,5,2,0:0:0:0:
308,172,117929,1,2,0:0:0:0:
204,172,118100,1,2,0:0:0:0:
308,172,118272,1,2,0:0:0:0:
204,172,118443,1,2,0:0:0:0:
308,172,118615,1,2,0:0:0:0:
144,52,118786,5,0,0:0:0:0:
264,304,118957,1,0,0:0:0:0:
416,244,119129,1,0,0:0:0:0:
136,244,119300,1,0,0:0:0:0:
304,88,119472,5,0,0:0:0:0:
84,176,119643,1,0,0:0:0:0:
256,32,119815,1,0,0:0:0:0:
256,268,119986,1,0,0:0:0:0:
256,260,120072,1,0,0:0:0:0:
256,252,120157,1,0,0:0:0:0:
472,124,120329,5,0,0:0:0:0:
324,248,120500,1,0,0:0:0:0:
96,56,120672,1,0,0:0:0:0:
100,60,120757,1,0,0:0:0:0:
104,64,120843,1,0,0:0:0:0:
312,136,121015,1,0,0:0:0:0:
56,176,121186,2,0,P|76:228|116:260,1,90
228,96,121529,5,0,0:0:0:0:
440,64,121700,1,0,0:0:0:0:
408,312,121872,1,0,0:0:0:0:
408,112,122043,1,0,0:0:0:0:
200,312,122215,1,0,0:0:0:0:
348,176,122386,1,0,0:0:0:0:
356,172,122472,1,0,0:0:0:0:
364,168,122557,1,0,0:0:0:0:
272,40,122729,5,0,0:0:0:0:
184,236,122900,1,0,0:0:0:0:
168,56,123072,1,4,0:2:0:0:
80,252,123243,1,0,0:0:0:0:
324,216,123415,1,0,0:0:0:0:
32,96,123586,1,0,0:0:0:0:
120,320,123757,2,0,P|168:332|224:328,1,90,4|0,0:2|0:0,0:0:0:0:
392,64,124100,2,0,P|344:52|288:56,1,90
80,184,124443,2,0,P|120:128|148:104,1,90,4|0,1:0|0:0,0:0:0:0:
432,200,124786,2,0,P|392:256|364:280,1,90
76,260,125129,6,0,L|136:348,1,90
228,144,125472,2,0,L|212:264,1,90
436,124,125815,2,0,L|376:36,1,90,4|0,1:0|0:0,0:0:0:0:
284,240,126158,2,0,L|300:120,1,90
60,76,126500,2,0,P|124:52|156:24,1,90,4|0,1:0|0:0,0:0:0:0:
152,156,126843,2,0,P|172:216|160:256,1,90
452,308,127186,2,0,P|388:332|356:360,1,90,4|0,1:0|0:0,0:0:0:0:
360,228,127529,2,0,P|340:168|352:128,1,90
196,48,127872,5,0,0:0:0:0:
196,48,128043,1,0,0:0:0:0:
452,200,128215,5,0,0:0:0:0:
452,200,128386,1,0,0:0:0:0:
216,320,128557,5,0,0:0:0:0:
216,320,128729,1,0,0:0:0:0:
316,108,128900,5,0,0:0:0:0:
316,108,129072,1,0,0:0:0:0:
56,168,129243,5,0,1:0:0:0:
64,172,129329,1,0,1:0:0:0:
76,176,129415,1,0,1:0:0:0:
88,184,129500,1,0,1:0:0:0:
104,200,129586,1,0,1:0:0:0:
112,232,129672,1,0,1:0:0:0:
104,264,129757,1,0,1:0:0:0:
100,304,129843,1,0,1:0:0:0:
124,328,129929,6,0,P|188:340|228:316,1,107.999996704102,4|0,1:0|0:0,0:0:0:0:
148,40,130272,2,0,P|136:96|156:148,1,107.999996704102,0|0,1:0|0:0,0:0:0:0:
452,84,130615,2,0,P|384:68|348:80,1,107.999996704102,0|0,1:0|0:0,0:0:0:0:
412,336,130957,2,0,P|424:280|404:228,1,107.999996704102,0|0,1:0|0:0,0:0:0:0:
88,144,131300,5,4,1:0:0:0:
340,308,131472,5,0,0:0:0:0:
304,72,131643,5,0,1:0:0:0:
116,332,131815,5,0,0:0:0:0:
144,52,131986,5,4,1:0:0:0:
232,344,132157,5,0,0:0:0:0:
448,184,132329,5,0,1:0:0:0:
120,208,132500,5,0,0:0:0:0:
296,32,132672,5,4,1:0:0:0:
384,320,132843,5,0,0:0:0:0:
472,112,133015,5,0,1:0:0:0:
196,188,133186,5,0,0:0:0:0:
436,240,133357,5,0,1:0:0:0:
252,44,133529,5,0,0:0:0:0:
208,324,133700,5,0,1:0:0:0:
48,160,133872,5,0,0:0:0:0:
388,92,134043,5,4,1:0:0:0:
284,324,134215,5,0,0:0:0:0:
144,56,134386,5,0,1:0:0:0:
408,236,134557,5,0,0:0:0:0:
320,40,134729,5,4,1:0:0:0:
132,192,134900,5,0,0:0:0:0:
440,136,135072,5,0,1:0:0:0:
328,356,135243,5,0,0:0:0:0:
72,292,135415,5,4,1:0:0:0:
200,56,135586,5,0,0:0:0:0:
196,328,135757,5,0,1:0:0:0:
464,232,135929,5,0,0:0:0:0:
104,88,136100,5,0,1:0:0:0:
364,56,136272,5,0,0:0:0:0:
232,296,136443,5,0,1:0:0:0:
232,40,136615,5,0,0:0:0:0:
348,344,136786,5,0,1:0:0:0:
96,228,136957,5,0,0:0:0:0:
420,172,137129,5,0,1:0:0:0:
252,352,137300,5,0,0:0:0:0:
284,52,137472,5,0,1:0:0:0:
408,280,137643,5,0,0:0:0:0:
120,120,137815,5,0,1:0:0:0:
192,272,137986,6,0,P|120:280|72:248,1,107.999996704102,0|0,1:0|0:0,0:0:0:0:
184,24,138329,2,0,P|156:80|148:144,1,107.999996704102,0|0,1:0|0:0,0:0:0:0:
452,212,138672,2,0,P|432:268|472:344,1,107.999996704102,0|0,1:0|0:0,0:0:0:0:
332,124,139015,2,0,P|368:56|444:40,1,107.999996704102,0|0,1:0|0:0,0:0:0:0:
256,308,139357,6,0,P|192:336|144:324,1,107.999996704102
136,56,139700,2,0,P|184:104|184:160,1,107.999996704102
476,176,140043,2,0,P|404:168|348:188,1,107.999996704102
352,196,140300,1,0,1:0:0:0:
344,224,140386,1,0,1:0:0:0:
352,248,140472,1,0,1:0:0:0:
368,264,140557,1,0,1:0:0:0:
360,288,140643,1,0,1:0:0:0:
332,320,140729,1,0,1:0:0:0:
288,336,140815,1,0,1:0:0:0:
240,336,140900,6,0,L|180:316,1,45,4|0,1:0|0:0,0:0:0:0:
144,172,141072,2,0,L|120:232,1,45,0|0,1:0|0:0,0:0:0:0:
328,268,141243,6,0,L|268:248,1,45,0|0,1:0|0:0,0:0:0:0:
232,104,141415,2,0,L|208:164,1,45,0|0,1:0|0:0,0:0:0:0:
424,204,141586,6,0,L|364:184,1,45,0|0,1:0|0:0,0:0:0:0:
328,40,141758,2,0,L|304:100,1,45,0|0,1:0|0:0,0:0:0:0:
480,52,141929,6,0,L|424:92,1,45,0|0,1:0|0:0,0:0:0:0:
260,208,142100,2,0,L|320:164,1,45,0|0,1:0|0:0,0:0:0:0:
136,300,142272,2,0,L|84:336,1,45,0|0,1:0|0:0,0:0:0:0:
144,116,142443,6,0,L|144:184,1,45,0|0,1:0|0:0,0:0:0:0:
240,340,142615,6,0,L|240:272,1,45,0|0,1:0|0:0,0:0:0:0:
328,64,142786,6,0,L|328:128,1,45,0|0,1:0|0:0,0:0:0:0:
448,296,142957,6,0,L|448:232,1,45,0|0,1:0|0:0,0:0:0:0:
464,172,143129,5,0,1:0:0:0:
444,152,143215,1,0,1:0:0:0:
408,140,143300,1,0,1:0:0:0:
376,152,143386,1,0,1:0:0:0:
356,180,143472,1,0,1:0:0:0:
360,212,143557,1,0,1:0:0:0:
352,248,143643,1,0,1:0:0:0:
328,272,143729,1,0,1:0:0:0:
292,280,143815,1,0,1:0:0:0:
252,256,143900,1,0,1:0:0:0:
212,248,143986,1,0,1:0:0:0:
168,260,144072,1,0,1:0:0:0:
140,300,144157,1,0,1:0:0:0:
88,312,144243,1,0,1:0:0:0:
40,288,144329,1,0,1:0:0:0:
20,240,144415,1,0,1:0:0:0:
28,188,144500,1,0,1:0:0:0:
72,156,144586,1,0,1:0:0:0:
120,176,144672,1,0,1:0:0:0:
328,144,144843,5,2,0:0:0:0:
76,32,145015,1,2,0:0:0:0:
272,52,145186,1,2,0:0:0:0:
272,304,145357,1,2,0:0:0:0:
68,248,145529,1,4,2:0:0:0:
328,144,145700,2,0,P|388:152|420:196,1,90,4|0,1:0|0:0,0:0:0:0:
184,240,146043,2,0,P|124:232|92:188,1,90
232,32,146386,5,4,1:0:0:0:
168,168,146557,1,0,0:0:0:0:
388,80,146729,1,0,0:0:0:0:
136,80,146900,1,0,0:0:0:0:
328,312,147072,1,0,0:0:0:0:
388,80,147243,1,0,0:0:0:0:
232,256,147415,5,0,0:0:0:0:
456,212,147586,1,0,0:0:0:0:
240,88,147757,1,4,1:0:0:0:
320,344,147929,1,0,0:0:0:0:
80,248,148100,1,0,0:0:0:0:
456,212,148272,1,0,0:0:0:0:
301,259,148443,2,0,P|301:311|345:363,1,90,4|0,1:0|0:0,0:0:0:0:
211,125,148786,2,0,P|211:73|167:21,1,90
64,144,149129,5,4,1:0:0:0:
320,56,149300,1,0,0:0:0:0:
496,168,149472,1,0,0:0:0:0:
211,125,149643,1,0,0:0:0:0:
380,360,149815,1,0,0:0:0:0:
380,360,149900,1,0,0:0:0:0:
380,360,149986,1,0,0:0:0:0:
320,56,150157,1,0,0:0:0:0:
216,236,150329,2,0,P|288:264|336:244,1,90,0|4,0:0|2:0,0:0:0:0:
292,156,150672,1,0,0:0:0:0:
292,156,150843,1,4,1:0:0:0:
84,68,151186,5,0,1:0:0:0:
84,108,151272,1,0,1:0:0:0:
128,128,151357,5,0,1:0:0:0:
128,168,151443,1,0,1:0:0:0:
168,196,151529,5,0,1:0:0:0:
168,224,151615,1,0,1:0:0:0:
208,252,151700,5,0,1:0:0:0:
208,292,151786,1,0,1:0:0:0:
244,328,151872,6,0,P|304:340|372:328,1,90,4|0,1:0|0:0,0:0:0:0:
268,56,152215,2,0,P|208:44|140:56,1,90,0|0,1:0|0:0,0:0:0:0:
476,116,152557,2,0,L|352:152,1,90,0|0,1:0|0:0,0:0:0:0:
36,268,152900,2,0,L|160:232,1,90,0|0,1:0|0:0,0:0:0:0:
432,320,153243,2,0,P|360:292|332:248,1,90,0|0,1:0|0:0,0:0:0:0:
80,64,153586,2,0,P|152:92|180:136,1,90,0|0,1:0|0:0,0:0:0:0:
256,344,153929,2,0,B|240:292|284:272|248:216,1,90,0|0,1:0|0:0,0:0:0:0:
220,56,154272,5,0,1:0:0:0:
432,264,154443,5,0,0:0:0:0:
464,76,154615,5,0,1:0:0:0:
148,120,154786,5,0,0:0:0:0:
280,336,154957,5,0,1:0:0:0:
220,56,155129,5,0,0:0:0:0:
56,248,155300,5,0,1:0:0:0:
376,184,155472,5,0,0:0:0:0:
132,64,155643,5,0,1:0:0:0:
280,336,155815,5,0,0:0:0:0:
368,96,155986,5,0,1:0:0:0:
132,64,156157,5,0,0:0:0:0:
424,260,156329,5,0,1:0:0:0:
120,260,156500,5,0,0:0:0:0:
284,32,156672,5,0,1:0:0:0:
212,276,156843,5,0,0:0:0:0:
212,276,157015,1,0,1:0:0:0:
452,152,157186,5,0,0:0:0:0:
452,152,157357,1,0,1:0:0:0:
176,40,157529,5,0,0:0:0:0:
176,40,157700,1,0,1:0:0:0:
368,312,157872,5,0,0:0:0:0:
368,312,158043,1,0,1:0:0:0:
64,264,158215,5,0,0:0:0:0:
64,264,158386,1,0,1:0:0:0:
356,104,158557,5,0,0:0:0:0:
356,104,158729,1,0,1:0:0:0:
72,112,158900,5,0,0:0:0:0:
316,328,159072,5,0,1:0:0:0:
316,328,159243,1,0,0:0:0:0:
268,44,159415,5,0,1:0:0:0:
128,312,159586,5,0,0:0:0:0:
128,312,159757,1,0,1:0:0:0:
420,168,159929,5,0,0:0:0:0:
420,168,160100,1,0,1:0:0:0:
256,352,160272,5,0,0:0:0:0:
144,64,160443,5,0,1:0:0:0:
420,168,160615,5,0,0:0:0:0:
420,168,160786,1,0,1:0:0:0:
104,240,160957,5,0,0:0:0:0:
280,48,161129,5,0,1:0:0:0:
432,316,161300,5,0,0:0:0:0:
104,96,161472,6,0,B|144:40|24:264|180:4|232:-20|100:288|140:316|260:-32|280:-28|148:388|232:120,1,270,4|0,1:0|2:0,0:0:0:0:
368,72,162157,6,0,P|480:200|332:308,1,360
