osu file format v14

[General]
AudioFilename: audio.mp3
AudioLeadIn: 0
PreviewTime: 24548
Countdown: 0
SampleSet: None
StackLeniency: 0.5
Mode: 0
LetterboxInBreaks: 0
WidescreenStoryboard: 1

[Editor]
Bookmarks: 36756,48870,60983,73097,85210,97324,109438,121551,133665,145778,157892,170005,182119,194233,206346
DistanceSpacing: 0.9
BeatDivisor: 4
GridSize: 4
TimelineZoom: 2.999999

[Metadata]
Title:RUNNING IN THE 90'S
TitleUnicode:RUNNING IN THE 90'S
Artist:MAX COVERI
ArtistUnicode:MAX COVERI
Creator:Monstrata
Version:DOORMAT'S EASY
Source:頭文字D
Tags:initial d schoolboy komore snownino_ cookiebite doormat gero alternator vroom racing cars eurobeat takumi fujiwara drifting sports first stage 頭文字D Inisharu Dī Super Eurobeat Vol. 182 nineties the golden age anime retro old Maurizio De Jorio 1998
BeatmapID:1632045
BeatmapSetID:739262

[Difficulty]
HPDrainRate:2
CircleSize:3
OverallDifficulty:2
ApproachRate:3
SliderMultiplier:1
SliderTickRate:1

[Events]
//Background and Video events
0,0,"598779.jpg",0,0
//Break Periods
2,12729,17146
2,85410,95884
2,145978,150395
2,158092,160994
2,163949,167051
2,206546,210963
//Storyboard Layer 0 (Background)
//Storyboard Layer 1 (Fail)
//Storyboard Layer 2 (Pass)
//Storyboard Layer 3 (Foreground)
//Storyboard Sound Samples

[TimingPoints]
416,378.548895899054,4,3,1,45,1,0
2308,-100,4,3,1,35,0,0
2687,-100,4,3,1,25,0,0
3065,-100,4,3,1,35,0,0
3444,-100,4,3,1,45,0,0
5337,-100,4,3,1,35,0,0
5715,-100,4,3,1,25,0,0
6094,-100,4,3,1,35,0,0
6472,-100,4,3,1,45,0,0
8365,-100,4,3,1,35,0,0
8743,-100,4,3,1,25,0,0
9122,-100,4,3,1,35,0,0
9500,-100,4,3,1,45,0,0
11393,-100,4,3,1,35,0,0
11771,-100,4,3,1,25,0,0
12150,-100,4,3,1,35,0,0
12528,-100,4,3,1,45,0,0
18586,-100,4,3,1,65,0,0
23318,-100,4,3,1,55,0,0
23507,-100,4,3,1,45,0,0
23696,-100,4,3,1,35,0,0
23886,-100,4,3,1,25,0,0
24075,-100,4,3,1,35,0,0
24264,-100,4,3,1,45,0,0
24453,-100,4,3,1,55,0,0
24643,-100,4,3,1,65,0,0
60983,-100,4,3,1,75,0,1
83507,-100,4,3,1,65,0,1
85210,-100,4,3,1,65,0,0
95810,-100,4,3,1,65,0,0
95999,-100,4,3,1,65,0,0
96188,-100,4,3,1,65,0,0
96377,-100,4,3,1,65,0,0
96567,-100,4,3,1,65,0,0
96756,-100,4,3,1,65,0,0
96945,-100,4,3,1,65,0,0
97134,-100,4,3,1,65,0,0
97324,-100,4,3,1,65,0,0
120794,-100,4,3,1,65,0,0
121551,-100,4,3,1,75,0,1
145778,-100,4,3,1,65,0,0
156378,-100,4,3,1,65,0,0
156567,-100,4,3,1,65,0,0
156756,-100,4,3,1,65,0,0
156945,-100,4,3,1,65,0,0
157135,-100,4,3,1,65,0,0
157324,-100,4,3,1,65,0,0
157513,-100,4,3,1,65,0,0
157702,-100,4,3,1,65,0,0
157892,-100,4,3,1,65,0,0
175305,-100,4,3,1,65,0,0
176062,-100,4,3,1,65,0,0
181362,-100,4,3,1,65,0,0
182119,-100,4,3,1,75,0,1
204832,-100,4,3,1,65,0,1
206346,-100,4,3,1,65,0,0
216945,-100,4,3,1,65,0,0
217134,-100,4,3,1,65,0,0
217323,-100,4,3,1,65,0,0
217512,-100,4,3,1,65,0,0
217702,-100,4,3,1,65,0,0
217891,-100,4,3,1,65,0,0
218080,-100,4,3,1,65,0,0
218269,-100,4,3,1,65,0,0
218460,-100,4,2,1,65,0,0
220002,387.096774193548,4,3,1,65,1,0
220002,-100,4,3,1,65,0,0
221550,378.548895899054,4,2,1,65,1,0

[Colours]
Combo1 : 157,157,206
Combo2 : 0,128,128
Combo3 : 255,128,128
Combo4 : 255,222,121

[HitObjects]
60,268,416,6,0,L|71:168,1,100,2|8,0:0|0:0,0:0:0:0:
156,204,1173,2,0,L|167:304,1,100,2|8,0:0|0:0,0:0:0:0:
248,344,1930,2,0,B|284:296|276:240|276:240|329:255|368:280|368:280|376:240|416:188,1,300,2|0,0:0|0:0,0:0:0:0:
427,112,3444,6,0,P|377:114|329:101,1,100,2|8,0:0|0:0,0:0:0:0:
256,48,4201,2,0,P|206:45|158:58,1,100,2|8,0:0|0:0,0:0:0:0:
84,112,4958,2,0,B|112:152|96:208|96:208|152:184|204:200|204:200|180:248|204:292,1,300,2|0,0:0|0:0,0:0:0:0:
268,344,6472,6,0,L|365:323,1,100,2|8,0:0|0:0,0:0:0:0:
452,300,7229,2,0,L|462:200,1,100,2|8,0:0|0:0,0:0:0:0:
420,120,7986,2,0,B|372:156|304:120|304:120|240:160|240:160|188:132|184:64,1,300,2|0,0:0|0:0,0:0:0:0:
100,52,9501,6,0,P|66:88|48:135,1,100,2|8,0:0|0:0,0:0:0:0:
76,220,10258,2,0,P|124:230|173:223,1,100,2|8,0:0|0:0,0:0:0:0:
256,188,11015,2,0,B|296:224|312:268|312:268|360:248|388:196|388:196|400:256|436:280|436:280|388:328|388:368,1,400,2|4,0:0|0:1,0:0:0:0:
368,48,18586,5,0,0:0:0:0:
420,120,18964,1,0,0:0:0:0:
348,172,19343,2,0,L|236:160,1,100,0|0,0:0|0:0,0:0:0:0:
192,92,20100,1,0,0:0:0:0:
122,148,20478,1,0,0:0:0:0:
178,217,20857,2,0,L|176:324,1,100,0|0,0:0|0:0,0:0:0:0:
248,372,21614,5,0,0:0:0:0:
312,312,21993,2,0,L|428:328,1,100,0|0,0:0|0:0,0:0:0:0:
480,268,22750,1,0,0:0:0:0:
422,199,23128,2,0,B|332:140|240:204|240:204|184:188|164:132,1,300,2|2,2:2|2:2,0:0:0:0:
200,52,24643,6,0,L|316:72,1,100,2|0,0:0|0:0,0:0:0:0:
380,28,25400,2,0,L|478:11,1,100,2|0,0:0|0:0,0:0:0:0:
508,95,26157,2,0,P|471:129|451:175,1,100,2|0,0:0|0:0,0:0:0:0:
376,224,26914,2,0,P|342:187|296:167,1,100,2|0,0:0|0:0,0:0:0:0:
212,192,27671,6,0,L|224:296,1,100,2|0,0:0|0:0,0:0:0:0:
132,288,28428,2,0,L|120:184,1,100,2|0,0:0|0:0,0:0:0:0:
60,120,29185,1,2,0:0:0:0:
116,52,29564,2,0,L|224:56,1,100,2|2,0:0|0:0,0:0:0:0:
300,20,30321,1,8,0:0:0:0:
368,80,30699,6,0,P|391:123|408:171,1,100,2|0,0:0|0:0,0:0:0:0:
324,204,31457,2,0,P|274:194|225:193,1,100,2|0,0:0|0:0,0:0:0:0:
144,232,32214,2,0,L|160:348,1,100,2|0,0:0|0:0,0:0:0:0:
237,374,32971,2,0,L|275:281,1,100,2|0,0:0|0:0,0:0:0:0:
323,203,33728,6,0,P|369:224|418:222,1,100,2|0,0:0|0:0,0:0:0:0:
436,136,34485,2,0,P|390:115|341:117,1,100,2|0,0:0|0:0,0:0:0:0:
256,140,35242,2,0,B|208:148|168:192|168:192|144:144|92:124|92:124|144:88|160:36,1,300,2|2,2:2|2:0,0:0:0:0:
228,8,36756,5,2,0:0:0:0:
300,64,37135,2,0,L|416:48,2,100,8|2|8,0:0|0:0|0:0,0:0:0:0:
256,140,38270,1,2,0:0:0:0:
184,196,38649,2,0,L|68:180,2,100,8|2|8,0:0|0:0|0:0,0:0:0:0:
228,272,39785,5,0,0:0:0:0:
300,328,40164,2,0,L|416:312,1,100,8|0,0:0|0:0,0:0:0:0:
456,244,40920,1,8,0:0:0:0:
392,180,41299,2,0,P|376:128|388:72,1,100,2|8,0:0|0:0,0:0:0:0:
296,60,42056,2,0,P|294:84|286:108,1,50,2|2,0:0|0:0,0:0:0:0:
184,196,42813,5,2,0:0:0:0:
256,248,43192,2,0,L|244:360,2,100,8|2|8,0:0|0:0|0:0,0:0:0:0:
332,196,44327,1,2,0:0:0:0:
404,144,44706,2,0,L|392:32,2,100,8|2|8,0:0|0:0|0:0,0:0:0:0:
476,196,45841,5,2,0:0:0:0:
452,284,46220,2,0,L|336:268,1,100,8|2,0:0|0:0,0:0:0:0:
284,324,46977,1,8,0:0:0:0:
204,280,47356,2,0,P|176:236|172:176,1,100,2|8,0:0|0:0,0:0:0:0:
219,116,48113,2,0,P|244:109|268:113,1,50,2|2,0:0|0:0,0:0:0:0:
396,156,48870,5,2,0:0:0:0:
468,104,49248,1,8,0:0:0:0:
412,32,49627,2,0,L|300:28,1,100,2|8,0:0|0:0,0:0:0:0:
232,68,50384,1,2,0:0:0:0:
144,44,50763,1,8,0:0:0:0:
64,88,51141,2,0,P|28:144|72:268,1,200,2|2,0:0|0:0,0:0:0:0:
132,328,52277,5,8,0:0:0:0:
208,284,52655,2,0,L|196:180,1,100,2|8,0:0|0:0,0:0:0:0:
245,108,53412,2,0,B|172:90|172:90|98:151,2,150,2|2|8,0:0|0:0|0:0,0:0:0:0:
327,144,54927,6,0,P|377:137|425:123,1,100,2|8,0:0|0:0,0:0:0:0:
452,212,55684,2,0,P|402:218|354:232,1,100,2|8,0:0|0:0,0:0:0:0:
304,308,56441,1,2,0:0:0:0:
228,260,56819,1,8,0:0:0:0:
168,328,57198,2,0,P|112:352|8:256,1,200,2|2,0:0|0:0,0:0:0:0:
12,188,58333,5,8,0:0:0:0:
88,236,58712,2,0,L|196:216,1,100,2|8,0:0|0:0,0:0:0:0:
248,152,59469,1,8,0:0:0:0:
329,190,59847,1,8,0:0:0:0:
317,279,60226,1,4,0:1:0:0:
398,317,60605,1,4,0:1:0:0:
459,251,60983,6,0,L|448:152,1,100,6|2,0:0|0:0,0:0:0:0:
472,64,61740,2,0,P|396:68|352:128,1,150,2|8,0:0|0:0,0:0:0:0:
300,196,62687,2,0,P|224:203|171:151,1,150,8|0,0:0|0:0,0:0:0:0:
124,80,63633,1,2,0:0:0:0:
48,128,64012,6,0,L|68:236,1,100,2|2,0:0|0:0,0:0:0:0:
140,280,64769,2,0,P|76:324|0:288,2,150,2|8|2,0:0|0:0|0:0,0:0:0:0:
208,224,66283,1,2,0:0:0:0:
292,256,66662,1,10,0:0:0:0:
376,288,67040,6,0,L|484:268,1,100,6|2,0:0|0:0,0:0:0:0:
488,180,67797,2,0,P|421:149|388:83,1,150,2|8,0:0|0:0,0:0:0:0:
304,48,68744,2,0,P|271:113|204:144,1,150,8|2,0:0|0:0,0:0:0:0:
72,120,69879,6,0,L|92:280,1,150,8|2,0:0|0:0,0:0:0:0:
36,344,70826,2,0,B|108:368|108:368|181:312,2,150,2|8|2,0:0|0:0|0:0,0:0:0:0:
90,268,72340,1,2,0:0:0:0:
14,213,72718,1,8,0:0:0:0:
68,137,73097,6,0,L|184:152,1,100,6|2,0:0|0:0,0:0:0:0:
240,199,73854,2,0,P|298:156|303:83,1,150,2|8,0:0|0:0,0:0:0:0:
364,16,74800,2,0,P|436:21|480:79,1,150,8|0,0:0|0:0,0:0:0:0:
484,168,75747,1,2,0:0:0:0:
416,224,76125,5,2,0:0:0:0:
336,180,76504,1,2,0:0:0:0:
268,236,76882,2,0,P|240:276|264:380,2,150,2|8|2,0:0|0:0|0:0,0:0:0:0:
336,180,78397,1,2,0:0:0:0:
416,224,78775,1,8,0:0:0:0:
484,168,79154,6,0,L|468:56,1,100,6|2,0:0|0:0,0:0:0:0:
392,19,79911,2,0,P|332:62|260:49,1,150,2|8,0:0|0:0,0:0:0:0:
176,24,80857,2,0,P|103:36|62:95,1,150,8|0,0:0|0:0,0:0:0:0:
164,184,81993,6,0,L|320:168,1,150,8|2,0:0|0:0,0:0:0:0:
324,256,82939,2,0,L|168:272,1,150,2|8,0:0|0:0,0:0:0:0:
256,192,83696,12,2,85210,0:0:0:0:
152,96,97324,5,2,0:0:0:0:
204,168,97703,1,8,0:0:0:0:
272,111,98081,2,0,P|359:70|446:112,1,200,2|2,0:0|0:0,0:0:0:0:
476,196,99217,1,8,0:0:0:0:
420,268,99595,2,0,L|260:248,1,150,2|2,0:0|0:0,0:0:0:0:
208,312,100542,5,0,0:0:0:0:
124,280,100920,2,0,P|83:218|112:148,1,150,0|8,0:0|0:0,0:0:0:0:
180,100,101867,1,2,0:0:0:0:
251,152,102246,1,8,0:0:0:0:
322,100,102624,2,0,L|316:32,1,50,2|2,0:0|0:0,0:0:0:0:
452,76,103381,5,2,0:0:0:0:
444,164,103759,1,8,0:0:0:0:
436,252,104138,2,0,P|404:288|264:264,1,200,2|2,0:0|0:0,0:0:0:0:
224,192,105274,1,8,0:0:0:0:
140,220,105652,2,0,L|160:372,1,150,2|2,0:0|0:0,0:0:0:0:
248,384,106598,5,0,0:0:0:0:
300,312,106977,2,0,L|452:292,1,150,0|8,0:0|0:0,0:0:0:0:
492,216,107923,1,2,0:0:0:0:
432,151,108302,1,8,0:0:0:0:
352,187,108680,2,0,L|285:195,1,50,2|2,0:0|0:0,0:0:0:0:
192,120,109438,5,2,0:0:0:0:
168,208,109816,1,8,0:0:0:0:
80,216,110195,2,0,L|68:100,1,100,2|8,0:0|0:0,0:0:0:0:
68,28,110952,1,2,0:0:0:0:
148,72,111330,1,8,0:0:0:0:
224,20,111709,2,0,L|340:28,1,100,2|8,0:0|0:0,0:0:0:0:
412,12,112466,5,2,0:0:0:0:
384,100,112845,1,8,0:0:0:0:
356,188,113223,2,0,P|304:200|244:176,1,100,2|8,0:0|0:0,0:0:0:0:
224,104,113980,2,0,P|184:132|176:236,2,150,2|2|8,0:0|0:0|0:0,0:0:0:0:
260,187,115494,5,2,0:0:0:0:
336,140,115873,1,8,0:0:0:0:
404,200,116251,2,0,L|396:304,1,100,2|8,0:0|0:0,0:0:0:0:
328,356,117009,1,2,0:0:0:0:
264,292,117387,1,8,0:0:0:0:
196,352,117766,2,0,L|84:344,1,100,2|8,0:0|0:0,0:0:0:0:
20,299,118523,6,0,P|46:257|56:209,1,100,2|8,0:0|0:0,0:0:0:0:
140,172,119280,2,0,P|150:220|178:261,1,100,2|8,0:0|0:0,0:0:0:0:
264,292,120037,1,8,0:0:0:0:
332,232,120415,1,8,0:0:0:0:
315,142,120794,1,4,0:1:0:0:
247,202,121172,1,4,0:1:0:0:
264,292,121551,6,0,P|272:340|320:384,1,100,6|2,0:0|0:0,0:0:0:0:
396,371,122308,2,0,P|424:304|406:232,1,150,2|8,0:0|0:0,0:0:0:0:
332,180,123255,2,0,P|313:108|342:40,1,150,8|0,0:0|0:0,0:0:0:0:
428,12,124201,1,2,0:0:0:0:
492,76,124580,6,0,L|484:192,1,100,2|2,0:0|0:0,0:0:0:0:
408,224,125337,2,0,P|352:168|280:168,2,150,2|8|2,0:0|0:0|0:0,0:0:0:0:
448,304,126851,1,2,0:0:0:0:
368,344,127229,1,8,0:0:0:0:
328,264,127608,6,0,L|212:276,1,100,6|2,0:0|0:0,0:0:0:0:
160,216,128365,2,0,P|208:149|188:75,1,150,2|8,0:0|0:0,0:0:0:0:
108,64,129311,2,0,P|59:130|79:204,1,150,8|0,0:0|0:0,0:0:0:0:
152,304,130447,6,0,L|312:280,1,150,8|2,0:0|0:0,0:0:0:0:
284,192,131393,2,0,B|212:170|212:170|147:208,2,150,2|8|2,0:0|0:0|0:0,0:0:0:0:
368,228,132908,1,2,0:0:0:0:
428,159,133287,1,8,0:0:0:0:
381,80,133665,5,6,0:0:0:0:
320,148,134044,1,2,0:0:0:0:
236,112,134422,2,0,P|165:90|98:120,1,150,2|8,0:0|0:0,0:0:0:0:
72,204,135368,2,0,P|106:268|175:295,1,150,8|0,0:0|0:0,0:0:0:0:
252,248,136315,1,2,0:0:0:0:
336,284,136693,6,0,L|332:392,1,100,2|2,0:0|0:0,0:0:0:0:
420,368,137450,2,0,P|464:276|448:228,2,150,2|8|0,0:0|0:0|0:0,0:0:0:0:
332,383,138964,1,2,0:0:0:0:
260,332,139343,1,2,0:0:0:0:
188,384,139721,5,6,0:0:0:0:
115,332,140100,1,2,0:0:0:0:
142,246,140479,2,0,P|145:173|97:118,1,150,2|8,0:0|0:0,0:0:0:0:
136,36,141425,2,0,P|205:58|271:26,1,150,8|0,0:0|0:0,0:0:0:0:
340,144,142561,6,0,L|332:296,1,150,8|2,0:0|0:0,0:0:0:0:
244,288,143507,2,0,L|252:136,1,150,2|8,0:0|0:0,0:0:0:0:
256,192,144264,12,2,145778,0:0:0:0:
72,116,151835,6,0,L|180:104,1,100,2|0,0:0|0:0,0:0:0:0:
188,192,152592,2,0,L|80:204,1,100,2|0,0:0|0:0,0:0:0:0:
68,292,153349,2,0,B|168:340|240:264|240:264|256:320|328:348,1,300,2|0,0:0|0:0,0:0:0:0:
404,332,154863,6,0,L|432:220,1,100,2|0,0:0|0:0,0:0:0:0:
472,156,155621,2,0,L|444:44,1,100,2|0,0:0|0:0,0:0:0:0:
364,24,156378,2,0,B|300:36|268:104|268:104|200:40|200:40|128:108|32:44,1,400,2|8,2:0|0:0,0:0:0:0:
92,160,162434,5,8,0:0:0:0:
164,108,162813,1,8,0:0:0:0:
216,180,163192,2,0,L|208:240,1,50,8|8,0:0|0:0,0:0:0:0:
420,224,168491,5,8,0:0:0:0:
348,276,168870,1,8,0:0:0:0:
296,204,169249,2,0,L|304:144,1,50,8|8,0:0|0:0,0:0:0:0:
188,84,170005,5,8,0:0:0:0:
116,140,170384,2,0,L|17:123,2,100,8|8|8,0:0|0:0|0:0,0:0:0:0:
180,204,171520,2,0,B|280:176|280:176|356:236|356:236|460:208,1,300,8|0,0:0|0:0,0:0:0:0:
504,136,173034,5,8,0:0:0:0:
424,96,173412,2,0,P|412:56|428:-4,2,100,8|8|8,0:0|0:0|0:0,0:0:0:0:
372,172,174548,1,8,0:0:0:0:
448,224,174927,1,8,0:0:0:0:
396,300,175305,1,8,0:0:0:0:
320,248,175683,1,12,0:0:0:0:
268,324,176062,5,8,0:0:0:0:
192,272,176441,2,0,L|204:152,2,100,8|8|8,0:0|0:0|0:0,0:0:0:0:
104,292,177576,2,0,B|60:204|60:204|120:120|120:120|64:80|80:16,1,300,8|0,0:0|0:0,0:0:0:0:
168,40,179091,5,8,0:0:0:0:
244,88,179469,2,0,L|356:64,2,100,8|8|8,0:0|0:0|0:0,0:0:0:0:
204,168,180605,1,8,0:0:0:0:
267,230,180983,1,8,0:0:0:0:
227,310,181362,1,8,0:0:0:0:
138,296,181740,1,12,0:0:0:0:
122,206,182119,6,0,P|115:157|115:107,1,100,6|2,0:0|0:0,0:0:0:0:
179,43,182876,2,0,P|251:65|313:106,1,150,2|8,0:0|0:0,0:0:0:0:
368,180,183822,2,0,P|326:242|305:313,1,150,8|0,0:0|0:0,0:0:0:0:
380,364,184769,1,2,0:0:0:0:
468,344,185147,6,0,L|476:228,1,100,2|2,0:0|0:0,0:0:0:0:
500,156,185904,2,0,P|427:161|385:221,2,150,2|8|2,0:0|0:0|0:0,0:0:0:0:
492,68,187419,1,2,0:0:0:0:
404,44,187797,1,10,0:0:0:0:
316,68,188176,6,0,L|200:56,1,100,6|2,0:0|0:0,0:0:0:0:
128,40,188933,2,0,L|135:189,1,150,2|8,0:0|0:0,0:0:0:0:
224,216,189879,2,0,L|366:169,1,150,8|0,0:0|0:0,0:0:0:0:
480,243,191015,6,0,P|429:297|356:298,1,150,8|2,0:0|0:0,0:0:0:0:
316,216,191961,2,0,P|366:162|439:161,2,150,2|8|2,0:0|0:0|0:0,0:0:0:0:
268,292,193475,1,2,0:0:0:0:
192,244,193854,1,8,0:0:0:0:
144,320,194232,5,6,0:0:0:0:
68,272,194611,1,2,0:0:0:0:
116,195,194990,2,0,P|132:123|105:54,1,150,2|8,0:0|0:0,0:0:0:0:
180,4,195936,2,0,P|245:38|319:30,1,150,8|0,0:0|0:0,0:0:0:0:
408,12,196882,1,2,0:0:0:0:
476,68,197261,6,0,P|460:116|456:184,1,100,2|2,0:0|0:0,0:0:0:0:
376,208,198018,2,0,P|341:143|264:103,2,150,2|8|0,0:0|0:0|0:0,0:0:0:0:
380,300,199532,1,2,0:0:0:0:
298,257,199910,1,8,0:0:0:0:
302,349,200289,5,6,0:0:0:0:
220,306,200668,1,2,0:0:0:0:
138,263,201046,2,0,P|91:206|96:133,1,150,2|8,0:0|0:0,0:0:0:0:
156,64,201993,2,0,P|228:52|289:92,1,150,8|0,0:0|0:0,0:0:0:0:
352,212,203128,6,0,L|328:376,1,150,8|2,0:0|0:0,0:0:0:0:
240,344,204075,2,0,L|218:195,1,150,2|8,0:0|0:0,0:0:0:0:
256,192,204832,12,2,206346,0:0:0:0:
376,68,212403,6,0,L|396:168,1,100,2|0,0:0|0:0,0:0:0:0:
356,248,213160,1,2,0:0:0:0:
284,304,213539,1,0,0:0:0:0:
208,256,213917,2,0,P|156:252|108:256,1,100,2|0,0:0|0:0,0:0:0:0:
108,164,214674,2,0,P|160:168|208:164,1,100,2|0,0:0|0:0,0:0:0:0:
296,144,215431,6,0,L|308:264,1,100,2|0,0:0|0:0,0:0:0:0:
344,324,216188,1,2,0:0:0:0:
436,316,216567,1,0,0:0:0:0:
504,260,216945,2,0,B|488:200|520:144|520:144|476:140|444:128|444:128|468:76|452:24,1,300,2|2,2:0|2:0,0:0:0:0:
364,12,218460,5,0,0:0:0:0:
300,76,218838,2,0,L|96:56,1,200,0|0,0:0|0:0,0:0:0:0:
28,116,220002,1,2,0:0:0:0:
76,192,220389,1,2,0:0:0:0:
163,168,220776,2,0,L|212:173,1,50,2|2,0:0|0:0,0:0:0:0:
256,192,221550,12,2,222874,0:0:0:0:
