osu file format v14

[General]
AudioFilename: audio.mp3
AudioLeadIn: 0
PreviewTime: -1
Countdown: 1
SampleSet: Normal
StackLeniency: 0.7
Mode: 0
LetterboxInBreaks: 0
WidescreenStoryboard: 1

[Editor]
Bookmarks: 3923,11307,33461,41076,44769,52153,55153,59538,61384,80538,91153
DistanceSpacing: 1
BeatDivisor: 4
GridSize: 4
TimelineZoom: 1.1

[Metadata]
Title:Tiny Desk Engineer Friend
TitleUnicode:Tiny Desk Engineer Friend
Artist:Max Box
ArtistUnicode:Max Box
Creator:CaptainBasculin
Version:Texas Ten Gallon
Source:Max Box
Tags:team fortress 2, engineer, tf2, valve, engie, heavy, wrangler, wrench, rescue ranger, widowmaker, free to play, gunslinger, sentry, gun, more gun, spy, bacon, mini,
BeatmapID:1632028
BeatmapSetID:776772

[Difficulty]
HPDrainRate:4
CircleSize:5
OverallDifficulty:5
ApproachRate:8
SliderMultiplier:1.4
SliderTickRate:2

[Events]
//Background and Video events
0,0,"bg.jpg",0,0
//Break Periods
2,21661,25557
2,47737,51403
//Storyboard Layer 0 (Background)
//Storyboard Layer 1 (Fail)
//Storyboard Layer 2 (Pass)
//Storyboard Layer 3 (Foreground)
//Storyboard Sound Samples

[TimingPoints]
0,230.769230769231,4,1,0,100,1,0
0,-100,4,1,0,100,0,0
346,-66.6666666666667,4,1,0,100,0,0
865,-100,4,1,0,100,0,0
1326,-66.6666666666667,4,1,0,100,0,0
1846,-100,4,1,0,100,0,0
4269,-100,4,1,0,100,0,0
10961,-66.6666666666667,4,1,0,100,0,0
12403,-100,4,1,0,100,0,0
14250,-100,4,1,0,100,0,0
26076,-83.3333333333333,4,1,0,100,0,0
29884,-50,4,1,0,100,0,0
30173,-100,4,1,0,100,0,0
41884,-66.6666666666667,4,1,0,100,0,0
42865,-100,4,1,0,100,0,0
43500,-133.333333333333,4,1,0,100,0,0
44192,-100,4,1,0,100,0,0
55615,-100,4,1,0,100,0,0
57461,-100,4,1,0,100,0,0
59884,-100,4,1,0,100,0,0
84980,-74.6268656716418,4,1,0,100,0,0

[HitObjects]
128,108,230,6,0,P|224:76|284:96,1,140
372,164,691,2,0,P|328:212|256:224,1,140
256,224,922,1,0,0:0:0:0:
100,84,1152,2,0,P|84:168|112:216,1,140
228,284,1613,2,0,P|336:308|368:296,1,140
360,299,1844,1,0,0:0:0:0:
444,108,2076,2,0,P|352:96|304:108,1,140
172,148,2537,2,0,P|136:224|156:276,1,140
153,272,3000,1,0,0:0:0:0:
312,96,3923,6,0,P|364:180|356:232,1,140
220,236,4384,2,0,P|120:180|112:88,1,210
252,96,5076,1,0,0:0:0:0:
280,376,5538,1,0,0:0:0:0:
364,352,5769,2,0,P|400:276|404:212,1,140
292,136,6231,2,0,P|200:124|88:172,1,210
200,160,6923,2,8,P|248:140|344:160,1,140
60,124,7615,6,0,P|144:92|208:116,1,140
192,168,8076,2,0,P|144:248|156:308,1,140
164,292,8423,2,0,P|260:272|328:172,1,210
184,116,9230,1,0,0:0:0:0:
116,240,9461,2,0,P|208:280|260:276,1,140
384,260,9923,2,0,P|376:152|348:112,1,140
360,127,10269,1,0,0:0:0:0:
152,124,10615,2,8,P|156:208|204:244,1,140
248,112,11076,6,0,P|356:184|368:220,1,140
372,256,11307,1,0,0:0:0:0:
168,300,11538,1,0,0:0:0:0:
224,96,11769,2,0,P|312:164|340:260,1,210.000008010865
132,236,12230,1,0,0:0:0:0:
240,144,12461,2,0,B|248:200|184:240,1,105
120,80,13153,6,0,P|168:64|256:92,2,140
132,220,13846,1,0,0:0:0:0:
264,264,14076,2,0,P|336:192|352:132,1,140
68,164,15000,6,0,B|136:212|134:215|134:215|184:143,1,140
308,176,15461,1,0,0:0:0:0:
280,312,15692,2,0,P|208:224|196:172,1,140
204,60,16153,2,0,P|272:88|412:240,1,280
292,312,16846,1,0,0:0:0:0:
240,184,17076,6,0,P|344:240|356:276,1,140
220,312,17538,1,0,0:0:0:0:
220,312,17769,1,0,0:0:0:0:
348,256,18000,2,0,P|320:220|288:208,1,70
232,196,18230,2,0,P|160:220|152:240,2,70
364,240,18692,5,0,0:0:0:0:
240,308,18923,2,0,P|200:236|208:168,1,140
340,144,19384,1,0,0:0:0:0:
208,92,19615,2,0,P|156:96|132:116,1,70
152,176,19846,2,0,P|204:148|208:136,1,70
396,232,20307,5,0,0:0:0:0:
260,200,20538,2,0,P|228:120|168:96,1,140
120,224,21000,2,0,P|164:248|192:256,2,70
252,172,21461,1,0,0:0:0:0:
180,136,26307,6,0,P|244:132|280:144,1,83.9999974365235
262,136,26538,2,0,P|260:240|232:304,1,167.999994873047
268,72,27230,6,0,P|328:104|352:152,1,83.9999974365235
336,115,27461,2,0,P|372:88|416:80,2,83.9999974365235
72,324,28153,2,0,P|164:293|249:278,1,167.999994873047
440,324,28615,2,0,P|401:235|355:162,1,167.999994873047
344,112,30000,6,0,P|252:88|196:104,1,140
210,97,30230,2,0,L|224:172,2,70
128,276,30923,6,0,P|152:220|168:212,2,70
164,272,31269,1,0,0:0:0:0:
148,304,31384,1,0,0:0:0:0:
368,196,31845,5,0,0:0:0:0:
364,192,31961,2,0,P|304:164|276:176,1,70
220,168,32308,1,0,0:0:0:0:
220,168,32423,2,0,P|188:192|164:236,1,70
284,72,33461,6,0,P|328:88|364:172,1,140
256,192,33923,1,0,0:0:0:0:
147,168,34153,2,0,P|167:103|228:72,1,140
256,192,34615,1,0,0:0:0:0:
227,311,34846,2,0,P|167:280|147:215,1,140
256,192,35307,1,0,0:0:0:0:
364,215,35538,2,0,P|344:280|284:311,1,140
116,312,36000,5,0,0:0:0:0:
112,144,36230,2,0,P|176:112|252:116,1,140
243,113,36692,1,0,0:0:0:0:
152,228,37384,6,0,P|256:236|300:216,1,140
260,84,37846,1,0,0:0:0:0:
400,84,38076,2,0,P|400:160|360:216,1,140
365,211,38423,1,0,0:0:0:0:
164,272,38769,6,0,P|168:196|220:144,1,140
348,156,39230,1,0,0:0:0:0:
252,260,39461,2,0,P|212:188|220:120,2,140
392,184,41076,6,0,P|368:252|296:280,1,140
196,196,41538,1,0,0:0:0:0:
280,84,41769,1,0,0:0:0:0:
248,292,42000,2,0,P|176:302|118:252,1,140
340,88,42461,1,0,0:0:0:0:
136,280,42923,6,0,P|184:288|208:276,1,70
192,220,43153,2,0,P|240:208|272:220,1,70
344,276,43384,1,0,0:0:0:0:
372,164,43615,2,0,P|284:136|176:184,1,210.000008010865
432,156,44769,5,0,0:0:0:0:
272,292,45000,2,0,P|232:248|244:152,1,140
160,180,45461,1,0,0:0:0:0:
96,196,45692,2,0,P|124:236|216:284,1,140
256,236,46153,1,0,0:0:0:0:
304,188,46384,2,0,P|392:184|404:116,1,140
320,112,46846,1,0,0:0:0:0:
320,112,46961,2,0,L|232:124,1,70
116,152,47307,2,0,P|120:200|168:280,1,140
168,124,52153,6,0,P|288:92|320:108,1,140
408,220,52615,1,0,0:0:0:0:
248,268,52846,2,0,P|175:235|128:173,1,140
256,72,53307,1,0,0:0:0:0:
364,200,53538,1,0,0:0:0:0:
236,308,53769,1,0,0:0:0:0:
139,189,54000,2,0,P|125:122|153:58,1,140
320,40,54461,1,0,0:0:0:0:
320,208,54692,2,8,B|316:292|316:292|248:292,1,140
240,244,55846,6,0,P|132:152|212:72,1,280
220,168,56538,5,0,0:0:0:0:
220,168,56769,2,0,P|271:106|330:103,2,140
240,264,57461,1,0,0:0:0:0:
340,264,57692,1,0,0:0:0:0:
340,264,57923,2,0,P|320:184|256:148,2,140
192,148,59538,5,0,0:0:0:0:
324,104,59769,2,0,P|336:216|304:256,1,140
256,236,60115,1,0,0:0:0:0:
256,236,60230,2,0,P|195:227|130:170,1,140
152,288,61384,6,0,P|224:296|300:276,1,140
428,284,61846,2,0,P|404:248|404:206,1,70
344,184,62076,2,0,P|280:152|264:84,1,140
320,216,63230,5,0,0:0:0:0:
180,228,63461,1,0,0:0:0:0:
264,116,63692,1,0,0:0:0:0:
296,252,63922,2,0,P|229:174|240:127,1,140
372,140,64384,1,0,0:0:0:0:
412,272,64615,1,0,0:0:0:0:
272,260,64846,1,0,0:0:0:0:
208,136,65076,6,0,P|248:92|328:112,1,140
392,228,65538,2,0,P|352:260|252:288,1,140
148,252,66000,6,0,B|168:212|168:212|208:216,5,70,8|8|8|8|8|8,0:0|0:0|0:0|0:0|0:0|0:0,0:0:0:0:
376,144,66923,5,0,0:0:0:0:
256,112,67153,2,0,P|184:116|124:164,1,140
212,252,67615,1,0,0:0:0:0:
296,268,67846,2,0,L|349:219,1,70
144,172,68769,6,0,B|160:212|180:256|180:256|240:224,1,140
296,188,69230,2,0,P|284:120|216:80,1,140
176,248,70615,1,0,0:0:0:0:
143,172,70846,2,0,P|119:120|134:36,1,140
212,244,71307,1,0,0:0:0:0:
127,308,71538,2,0,P|155:344|198:356,1,70
244,244,72000,1,0,0:0:0:0:
236,112,72230,2,0,B|276:84|276:84|356:144,1,140
280,244,72692,1,0,0:0:0:0:
376,240,72923,2,0,P|412:244|464:328,1,140
244,176,74076,5,0,0:0:0:0:
292,172,74307,2,0,L|384:168,1,70
372,316,75000,1,0,0:0:0:0:
324,320,75230,2,0,L|248:320,1,70
140,228,75692,1,0,0:0:0:0:
148,132,75923,2,0,P|220:112|296:128,1,140
292,220,76384,1,0,0:0:0:0:
392,220,76615,2,0,P|388:268|368:288,1,70
180,208,77076,2,8,P|192:120|244:88,1,140
500,172,77769,5,0,0:0:0:0:
328,144,78000,2,0,L|266:77,1,70
456,172,78461,1,0,0:0:0:0:
500,172,78692,1,0,0:0:0:0:
328,240,78923,2,0,L|270:315,1,70
456,172,79384,1,0,0:0:0:0:
324,184,79615,2,0,P|280:196|192:268,2,140
184,176,80307,1,0,0:0:0:0:
44,176,80538,1,0,0:3:0:0:
80,100,81461,6,0,P|148:80|240:104,1,140
215,91,81807,1,0,0:3:0:0:
456,283,82384,2,0,P|390:302|324:284,1,140
323,283,82730,1,0,0:3:0:0:
432,100,83307,6,0,P|364:80|272:104,1,140
296,91,83654,1,0,0:0:0:0:
56,283,84230,2,0,P|122:302|188:284,1,140
189,283,84576,1,0,0:3:0:0:
168,128,85153,6,0,P|280:160|352:132,1,186.199992328797
344,248,85615,2,0,L|333:237|333:45,1,186.199992328797
344,248,86076,2,0,L|152:248,1,186.199992328797
316,144,86538,1,0,0:0:0:0:
232,312,86769,2,0,P|160:224|168:152,1,186.199992328797
376,60,87230,1,0,0:0:0:0:
492,264,87461,2,0,P|384:308|316:280,1,186.199992328797
188,156,87923,1,0,0:0:0:0:
372,124,88153,2,0,P|408:184|384:208,2,93.0999961643983
312,124,89307,6,0,P|328:180|312:224,2,93.0999961643983
212,284,89769,1,0,0:0:0:0:
200,100,90000,1,0,0:0:0:0:
184,156,91153,6,0,P|296:128|368:164,1,186.199992328797
256,192,91615,12,0,95538,0:0:0:0:
