osu file format v14

[General]
AudioFilename: audio.mp3
AudioLeadIn: 0
PreviewTime: 49986
Countdown: 1
SampleSet: Soft
StackLeniency: 0.7
Mode: 0
LetterboxInBreaks: 0
WidescreenStoryboard: 1

[Editor]
DistanceSpacing: 1.3
BeatDivisor: 4
GridSize: 4
TimelineZoom: 1

[Metadata]
Title:Hohoemi no Bakudan (TV Size)
TitleUnicode:微笑みの爆弾 (TV Size)
Artist:Mawatari Matsuko
ArtistUnicode:馬渡松子
Creator:P o M u T a
Version:Normal
Source:幽☆遊☆白書
Tags:opening pomuta anime japanese pop jpop j-pop female vocal jycool weekly shonen jump YuYu Hakusho hakusyo urameshi yusuke pusuke hiei kurama genkai kuwabara kazuma yukimura keiko atsuko shizuru yukina hina rui shiori koenma saotome botan toguro yu yuu
BeatmapID:996220
BeatmapSetID:465326

[Difficulty]
HPDrainRate:4
CircleSize:3
OverallDifficulty:4
ApproachRate:5
SliderMultiplier:1.3
SliderTickRate:1

[Events]
//Background and Video events
Video,0,"video.avi"
0,0,"8cbba40bff528480f738714ac652f8d8.jpg",0,0
//Break Periods
2,46491,48815
//Storyboard Layer 0 (Background)
//Storyboard Layer 1 (Fail)
//Storyboard Layer 2 (Pass)
//Storyboard Layer 3 (Foreground)
//Storyboard Layer 4 (Overlay)
//Storyboard Sound Samples

[TimingPoints]
1595,465.585473733219,4,2,1,10,1,0
2526,-100,4,2,1,30,0,0
3457,-100,4,2,1,50,0,0
4388,-100,4,2,1,60,0,0
50015,-100,4,2,1,70,0,1
79813,-100,4,2,0,50,0,0
81675,-100,4,2,1,70,0,0
83072,-100,4,2,1,80,0,0

[Colours]
Combo1 : 188,255,121
Combo2 : 255,179,255
Combo3 : 189,234,255
Combo4 : 255,177,140

[HitObjects]
256,192,1595,12,4,5319,0:0:0:0:
66,87,7182,6,0,P|57:152|78:214,1,130,0|8,0:0|0:0,0:0:0:0:
150,254,7880,2,0,P|215:263|277:242,1,130,0|4,0:0|0:0,0:0:0:0:
326,175,8578,2,0,L|318:111,2,65,8|0|0,0:0|0:0|0:0,0:0:0:0:
340,343,9509,6,0,L|413:347,1,65,8|0,0:0|0:0,0:0:0:0:
239,310,10208,1,0,0:0:0:0:
153,316,10441,2,0,L|89:320,1,65,10|0,0:0|0:0,0:0:0:0:
31,381,10906,2,0,P|5:322|34:256,1,130,0|8,0:0|0:0,0:0:0:0:
82,199,11605,2,0,L|68:64,1,130,0|4,0:0|0:0,0:0:0:0:
148,43,12303,2,0,L|156:121,1,65,8|8,0:0|0:0,0:0:0:0:
211,170,12769,6,0,B|254:185|254:185|338:170,1,130,4|8,0:0|0:0,0:0:0:0:
406,121,13467,2,0,B|391:164|391:164|406:248,1,130,0|0,0:0|0:0,0:0:0:0:
427,328,14165,1,10,0:0:0:0:
258,310,14631,1,0,0:0:0:0:
184,352,14864,2,0,L|113:348,1,65,0|8,0:0|0:0,0:0:0:0:
52,295,15329,2,0,P|29:234|46:172,1,130,0|4,0:0|0:0,0:0:0:0:
83,97,16028,1,8,0:0:0:0:
249,128,16493,6,0,L|388:130,1,130,0|8,0:0|0:0,0:0:0:0:
403,211,17192,2,0,L|273:212,1,130,0|0,0:0|0:0,0:0:0:0:
188,219,17890,1,10,0:0:0:0:
181,303,18123,1,0,0:0:0:0:
234,368,18356,2,0,B|271:381|271:381|322:350|322:350|354:358,1,130,4|8,0:0|0:0,0:0:0:0:
436,352,19054,1,0,0:0:0:0:
498,295,19287,2,0,L|491:231,1,65,4|0,0:0|0:0,0:0:0:0:
406,230,19752,2,0,L|413:166,1,65,8|4,0:0|0:0,0:0:0:0:
328,154,20218,6,0,P|362:96|392:81,2,97.5,4|0|0,0:0|0:0|0:0,0:0:0:0:
256,307,21382,1,0,0:0:0:0:
184,261,21615,2,0,L|119:262,1,65,10|0,0:0|0:0,0:0:0:0:
39,234,22080,2,0,P|34:280|63:328,2,97.5,0|0|0,0:0|0:0|0:0,0:0:0:0:
103,77,23244,2,0,L|30:72,2,65,4|8|0,0:0|0:0|0:0,0:0:0:0:
182,46,23943,6,0,B|161:79|161:79|169:140,2,97.5,0|0|0,0:0|0:0|0:0,0:0:0:0:
347,81,25107,1,0,0:0:0:0:
430,70,25339,1,10,0:0:0:0:
510,61,25572,1,0,0:0:0:0:
479,139,25805,2,0,L|472:282,1,130,0|8,0:0|0:0,0:0:0:0:
394,235,26503,2,0,L|387:378,1,130,0|4,0:0|0:0,0:0:0:0:
309,331,27202,1,8,0:0:0:0:
151,271,27667,6,0,L|48:285,2,97.5,0|0|0,0:0|0:0|0:0,0:0:0:0:
259,141,28831,1,0,0:0:0:0:
182,101,29064,2,0,P|151:95|118:95,1,65,10|0,0:0|0:0,0:0:0:0:
45,139,29530,2,0,P|33:88|52:43,2,97.5,0|0|0,0:0|0:0|0:0,0:0:0:0:
183,236,30694,1,4,0:0:0:0:
123,295,30926,2,0,L|130:362,1,65,8|0,0:0|0:0,0:0:0:0:
212,377,31392,6,0,L|319:367,2,97.5,0|0|0,0:0|0:0|0:0,0:0:0:0:
47,336,32556,1,0,0:0:0:0:
3,263,32789,1,10,0:0:0:0:
30,182,33022,1,0,0:0:0:0:
111,162,33254,2,0,P|125:95|104:39,1,130,0|8,0:0|0:0,0:0:0:0:
186,17,33953,2,0,P|253:31|309:10,1,130,0|4,0:0|0:0,0:0:0:0:
393,19,34651,1,8,0:0:0:0:
383,103,34884,1,8,0:0:0:0:
373,187,35117,6,0,B|420:192|420:192|456:174|456:174|503:178,1,130,4|8,0:0|0:0,0:0:0:0:
512,262,35815,2,0,B|469:258|469:258|433:276|433:276|386:271,1,130
302,266,36513,1,8,0:0:0:0:
176,379,36979,2,0,L|37:375,1,130,0|8,0:0|0:0,0:0:0:0:
4,301,37677,2,0,B|3:234|3:234|30:171,1,130,0|4,0:0|0:0,0:0:0:0:
113,181,38376,2,0,L|184:185,1,65,8|0,0:0|0:0,0:0:0:0:
262,187,38841,5,0,0:0:0:0:
346,190,39074,2,0,P|372:131|359:67,2,130,0|0|0,0:0|0:0|0:0,0:0:0:0:
262,187,40238,1,8,0:0:0:0:
272,270,40471,1,0,0:0:0:0:
282,353,40704,2,0,L|421:361,1,130,0|8,0:0|0:0,0:0:0:0:
484,317,41402,2,0,P|503:257|487:189,1,130,0|12,0:0|0:0,0:0:0:0:
436,126,42100,1,8,0:0:0:0:
445,41,42333,1,0,0:0:0:0:
368,76,42566,6,0,L|260:65,2,97.5,4|0|2,0:0|0:0|0:0,0:0:0:0:
256,203,43730,1,0,0:0:0:0:
256,287,43963,1,8,0:0:0:0:
256,371,44196,1,0,0:0:0:0:
182,329,44428,2,0,L|78:329,2,97.5,4|0|2,0:0|0:0|0:0,0:0:0:0:
351,329,45592,1,0,0:0:0:0:
367,246,45825,1,8,0:0:0:0:
383,163,46058,1,0,0:0:0:0:
303,191,46291,5,4,0:0:0:0:
303,191,50015,6,0,L|173:176,1,130,4|8,0:0|0:0,0:0:0:0:
120,243,50714,2,0,P|89:180|113:118,1,130,0|0,0:0|0:0,0:0:0:0:
184,94,51412,2,0,L|274:104,1,65,10|0,0:0|0:0,0:0:0:0:
333,109,51878,6,0,P|400:117|462:90,1,130,0|8,0:0|0:0,0:0:0:0:
508,161,52576,2,0,L|498:299,1,130,0|4,0:0|0:0,0:0:0:0:
427,336,53274,1,8,0:0:0:0:
387,261,53507,1,0,0:0:0:0:
318,310,53740,6,0,P|257:317|191:302,1,130,0|8,0:0|0:0,0:0:0:0:
211,219,54438,2,0,P|275:208|330:172,1,130
382,106,55137,1,8,0:0:0:0:
238,18,55602,6,0,P|169:11|108:21,1,130,4|8,0:0|0:0,0:0:0:0:
92,104,56301,2,0,L|83:246,1,130,0|4,0:0|0:0,0:0:0:0:
24,293,56999,1,8,0:0:0:0:
24,293,57232,1,8,0:0:0:0:
101,328,57465,6,0,L|181:336,1,65,4|0,0:0|0:0,0:0:0:0:
250,335,57930,2,0,L|314:328,1,65,8|0,0:0|0:0,0:0:0:0:
398,315,58396,2,0,P|412:258|380:180,1,130,2|10,0:0|0:0,0:0:0:0:
312,159,59094,6,0,P|402:192|478:136,1,195,0|8,0:0|0:0,0:0:0:0:
502,58,60025,1,0,0:0:0:0:
430,12,60258,2,0,L|364:7,1,65,0|4,0:0|0:0,0:0:0:0:
280,0,60724,1,8,0:0:0:0:
317,164,61189,6,0,B|329:232|329:232|307:302,1,130,0|8,0:0|0:0,0:0:0:0:
246,346,61888,2,0,B|187:364|187:364|119:352,1,130,0|0,0:0|0:0,0:0:0:0:
78,278,62586,1,10,0:0:0:0:
122,205,62819,1,0,0:0:0:0:
86,128,63052,6,0,P|143:94|208:99,1,130,4|8,0:0|0:0,0:0:0:0:
256,164,63750,1,0,0:0:0:0:
304,233,63983,2,0,L|299:311,1,65,4|0,0:0|0:0,0:0:0:0:
379,326,64449,2,0,L|383:261,1,65,8|0,0:0|0:0,0:0:0:0:
462,289,64914,5,4,0:0:0:0:
506,125,65380,1,8,0:0:0:0:
446,65,65613,2,0,L|303:62,1,130,0|0,0:0|0:0,0:0:0:0:
231,58,66311,1,10,0:0:0:0:
146,55,66544,1,0,0:0:0:0:
72,96,66776,6,0,L|85:183,1,65,0|0,0:0|0:0,0:0:0:0:
18,217,67242,1,8,0:0:0:0:
88,263,67475,2,0,P|152:257|212:295,1,130,0|4,0:0|0:0,0:0:0:0:
256,357,68173,1,8,0:0:0:0:
256,357,68406,1,0,0:0:0:0:
304,289,68639,6,0,L|311:155,1,130,0|8,0:0|0:0,0:0:0:0:
243,107,69337,2,0,B|280:38|346:23,1,130
421,3,70036,1,8,0:0:0:0:
394,170,70501,6,0,L|403:305,1,130,4|8,0:0|0:0,0:0:0:0:
324,334,71200,2,0,L|315:204,1,130,0|4,0:0|0:0,0:0:0:0:
233,183,71898,1,8,0:0:0:0:
148,191,72131,1,8,0:0:0:0:
64,199,72363,6,0,P|51:163|54:130,1,65,4|0,0:0|0:0,0:0:0:0:
121,87,72829,2,0,P|157:100|190:97,1,65,8|0,0:0|0:0,0:0:0:0:
262,68,73295,2,0,P|330:64|389:89,1,130,2|10,0:0|0:0,0:0:0:0:
448,144,73993,6,0,P|477:209|474:273,1,130,0|0,0:0|0:0,0:0:0:0:
403,311,74691,2,0,L|328:320,1,65,8|0,0:0|0:0,0:0:0:0:
257,292,75157,2,0,L|257:224,2,65,0|4|8,0:0|0:0|0:0,0:0:0:0:
105,369,76088,6,0,P|75:311|95:242,1,130,0|8,0:0|0:0,0:0:0:0:
142,184,76787,2,0,P|172:126|152:57,1,130,0|0,0:0|0:0,0:0:0:0:
86,19,77485,1,10,0:0:0:0:
15,65,77718,1,0,0:0:0:0:
256,192,77951,12,2,79813,0:0:0:0:
132,260,81675,6,0,B|256:315|256:206|383:266,1,260,2|0,0:0|0:0,0:0:0:0:
448,319,82839,1,4,0:3:0:0:
448,319,83072,1,4,0:1:0:0:
