osu file format v14

[General]
AudioFilename: audio.mp3
AudioLeadIn: 0
PreviewTime: 49986
Countdown: 1
SampleSet: Soft
StackLeniency: 0.7
Mode: 0
LetterboxInBreaks: 0
WidescreenStoryboard: 1

[Editor]
Bookmarks: 39044
DistanceSpacing: 1.2
BeatDivisor: 4
GridSize: 4
TimelineZoom: 1.4

[Metadata]
Title:Hohoemi no Bakudan (TV Size)
TitleUnicode:微笑みの爆弾 (TV Size)
Artist:Mawatari Matsuko
ArtistUnicode:馬渡松子
Creator:P o M u T a
Version:Hard
Source:幽☆遊☆白書
Tags:opening pomuta anime japanese pop jpop j-pop female vocal jycool weekly shonen jump YuYu Hakusho hakusyo urameshi yusuke pusuke hiei kurama genkai kuwabara kazuma yukimura keiko atsuko shizuru yukina hina rui shiori koenma saotome botan toguro yu yuu
BeatmapID:997874
BeatmapSetID:465326

[Difficulty]
HPDrainRate:5
CircleSize:4
OverallDifficulty:6
ApproachRate:7
SliderMultiplier:1.6
SliderTickRate:1

[Events]
//Background and Video events
Video,0,"video.avi"
0,0,"8cbba40bff528480f738714ac652f8d8.jpg",0,0
//Break Periods
2,46491,48883
//Storyboard Layer 0 (Background)
//Storyboard Layer 1 (Fail)
//Storyboard Layer 2 (Pass)
//Storyboard Layer 3 (Foreground)
//Storyboard Layer 4 (Overlay)
//Storyboard Sound Samples

[TimingPoints]
1595,465.585473733219,4,2,1,10,1,0
2526,-100,4,2,1,30,0,0
3457,-100,4,2,1,50,0,0
4388,-100,4,2,1,60,0,0
50015,-100,4,2,1,70,0,1
79813,-100,4,2,0,50,0,0
80744,-100,4,2,0,60,0,0
81675,-100,4,2,1,70,0,0
83072,-100,4,2,1,80,0,0

[Colours]
Combo1 : 188,255,121
Combo2 : 255,179,255
Combo3 : 189,234,255
Combo4 : 255,177,140

[HitObjects]
256,192,1595,12,0,4388,0:0:0:0:
372,136,4854,5,8,0:2:0:0:
444,200,5086,1,8,0:2:0:0:
444,200,5203,1,8,0:2:0:0:
444,200,5319,6,0,L|432:284,1,80,4|0,0:0|0:0,0:0:0:0:
462,317,5668,2,0,P|419:286|351:298,1,120,0|0,0:0|0:0,0:0:0:0:
269,336,6250,2,0,L|223:337,3,40,2|2|0|2,0:0|0:0|0:0|0:0,0:0:0:0:
180,338,6716,2,0,P|172:355|170:378,1,40,10|0,0:0|0:0,0:0:0:0:
111,295,7065,6,0,P|119:278|65:155,1,160,0|0,0:0|0:0,0:0:0:0:
23,150,7647,1,8,0:0:0:0:
26,247,7880,2,0,L|145:214,1,120,0|0,0:0|0:0,0:0:0:0:
187,202,8345,1,4,0:0:0:0:
280,177,8578,1,8,0:0:0:0:
318,206,8695,2,0,L|328:110,1,80,0|0,0:0|0:0,0:0:0:0:
356,163,9044,6,0,L|365:284,1,120,0|0,0:0|0:0,0:0:0:0:
371,330,9509,1,8,0:0:0:0:
450,276,9742,2,0,P|460:235|454:194,1,80,0|2,0:0|0:0,0:0:0:0:
428,158,10091,2,0,P|472:162|505:147,1,80,2|2,0:0|0:0,0:0:0:0:
511,99,10441,2,0,L|502:19,1,80,10|0,0:0|0:0,0:0:0:0:
406,16,10906,5,0,0:0:0:0:
416,63,11023,2,0,P|374:59|336:77,1,80,0|0,0:0|0:0,0:0:0:0:
297,95,11372,2,0,L|300:14,1,80,8|0,0:0|0:0,0:0:0:0:
217,64,11837,1,0,0:0:0:0:
217,64,11954,1,0,0:0:0:0:
217,64,12070,2,0,L|220:145,1,80,4|8,0:0|0:0,0:0:0:0:
142,201,12536,1,8,0:0:0:0:
22,154,12769,6,0,P|13:208|40:279,1,120,4|0,0:0|0:0,0:0:0:0:
68,300,13234,1,8,0:0:0:0:
160,274,13467,1,0,0:0:0:0:
247,314,13700,2,0,L|251:354,3,40,2|2|0|2,0:0|0:0|0:0|0:0,0:0:0:0:
254,372,14165,2,0,B|296:373|296:373|335:356,1,80,10|0,0:0|0:0,0:0:0:0:
401,292,14631,5,0,0:0:0:0:
482,343,14864,1,0,0:0:0:0:
485,247,15096,1,8,0:0:0:0:
401,292,15329,2,0,L|407:377,1,80,0|0,0:0|0:0,0:0:0:0:
485,247,15795,2,0,L|490:167,1,80,4|8,0:0|0:0,0:0:0:0:
493,119,16144,1,0,0:0:0:0:
395,114,16377,1,0,0:0:0:0:
384,161,16493,6,0,L|260:149,1,120,0|0,0:0|0:0,0:0:0:0:
216,145,16959,1,8,0:0:0:0:
252,234,17192,2,0,L|128:222,1,120,0|2,0:0|0:0,0:0:0:0:
84,218,17658,1,0,0:0:0:0:
8,276,17890,2,0,P|-12:230|-10:200,1,80,10|0,0:0|0:0,0:0:0:0:
84,303,18356,6,0,L|78:350,1,40,4|0,0:0|0:0,0:0:0:0:
173,328,18705,1,0,0:0:0:0:
265,302,18938,2,0,L|271:349,1,40,0|0,0:0|0:0,0:0:0:0:
311,366,19170,1,0,0:0:0:0:
358,356,19287,2,0,L|438:350,1,80,4|0,0:0|0:0,0:0:0:0:
491,270,19752,1,8,0:0:0:0:
483,221,19869,1,0,0:0:0:0:
475,173,19985,1,4,0:0:0:0:
391,125,20218,6,0,P|354:139|278:112,1,120,4|0,0:0|0:0,0:0:0:0:
247,79,20684,2,0,P|207:74|167:85,1,80,8|0,0:0|0:0,0:0:0:0:
99,150,21149,1,2,0:0:0:0:
88,171,21265,1,2,0:0:0:0:
84,194,21382,1,0,0:0:0:0:
88,217,21498,1,2,0:0:0:0:
98,238,21615,2,0,L|187:229,1,80,10|0,0:0|0:0,0:0:0:0:
259,178,22080,6,0,P|316:176|372:217,1,120,0|0,0:0|0:0,0:0:0:0:
394,249,22546,2,0,P|402:290|392:342,1,80,8|0,0:0|0:0,0:0:0:0:
310,369,23011,1,0,0:0:0:0:
224,325,23244,1,4,0:0:0:0:
177,313,23361,1,0,0:0:0:0:
132,329,23477,2,0,P|91:337|51:320,1,80,8|0,0:0|0:0,0:0:0:0:
12,237,23943,6,0,L|7:109,1,120,0|0,0:0|0:0,0:0:0:0:
43,148,24408,2,0,L|46:243,1,80,8|0,0:0|0:0,0:0:0:0:
132,271,24874,1,2,0:0:0:0:
155,268,24990,1,2,0:0:0:0:
179,265,25107,1,0,0:0:0:0:
202,262,25223,1,2,0:0:0:0:
225,259,25339,1,10,0:0:0:0:
294,192,25572,1,0,0:0:0:0:
214,138,25805,6,0,P|209:96|222:54,1,80,0|0,0:0|0:0,0:0:0:0:
255,28,26154,1,0,0:0:0:0:
300,12,26271,2,0,L|398:17,1,80,8|0,0:0|0:0,0:0:0:0:
466,57,26736,1,0,0:0:0:0:
466,57,26853,1,0,0:0:0:0:
466,57,26969,2,0,P|470:97|459:137,1,80,4|8,0:0|0:0,0:0:0:0:
366,156,27434,2,0,L|369:202,1,40,0|0,0:0|0:0,0:0:0:0:
407,225,27667,6,0,B|379:216|379:216|318:233|318:233|290:222,1,120,0|0,0:0|0:0,0:0:0:0:
251,197,28133,2,0,P|241:157|249:107,1,80,8|0,0:0|0:0,0:0:0:0:
283,30,28598,1,2,0:0:0:0:
258,29,28715,1,2,0:0:0:0:
234,28,28831,1,0,0:0:0:0:
211,36,28948,1,2,0:0:0:0:
188,44,29064,1,10,0:0:0:0:
104,92,29297,1,0,0:0:0:0:
16,52,29530,6,0,P|7:91|40:166,1,120,0|0,0:0|0:0,0:0:0:0:
81,178,29995,2,0,L|167:178,1,80,8|0,0:0|0:0,0:0:0:0:
256,192,30461,1,0,0:0:0:0:
332,133,30694,2,0,L|325:91,2,40,4|0|8,0:0|0:0|0:0,0:0:0:0:
424,157,31159,1,0,0:0:0:0:
489,86,31392,6,0,P|518:136|504:211,1,120,0|0,0:0|0:0,0:0:0:0:
473,224,31858,2,0,P|464:264|472:306,1,80,8|0,0:0|0:0,0:0:0:0:
386,348,32323,2,0,L|334:341,1,40,2|2,0:0|0:0,0:0:0:0:
315,305,32556,2,0,L|263:298,1,40,0|2,0:0|0:0,0:0:0:0:
244,262,32789,1,10,0:0:0:0:
171,325,33022,1,0,0:0:0:0:
95,266,33254,6,0,P|76:308|97:387,1,120,0|0,0:0|0:0,0:0:0:0:
90,378,33720,1,8,0:0:0:0:
171,239,33953,2,0,L|161:158,1,80,0|0,0:0|0:0,0:0:0:0:
98,87,34418,1,4,0:0:0:0:
15,135,34651,1,8,0:0:0:0:
15,249,34884,1,8,0:0:0:0:
98,297,35117,6,0,B|137:289|137:289|213:320,1,120,4|0,0:0|0:0,0:0:0:0:
255,338,35582,1,8,0:0:0:0:
350,328,35815,1,0,0:0:0:0:
392,306,35931,2,0,P|409:242|389:195,1,120,2|0,0:0|0:0,0:0:0:0:
307,143,36513,1,8,0:0:0:0:
222,187,36746,1,0,0:0:0:0:
222,187,36863,1,0,0:0:0:0:
222,187,36979,6,0,B|185:198|185:198|145:178|145:178|109:187,1,120,0|0,0:0|0:0,0:0:0:0:
63,200,37445,1,8,0:0:0:0:
11,280,37677,2,0,P|77:323|124:271,1,160,0|4,0:0|0:0,0:0:0:0:
278,329,38376,2,0,L|199:333,1,80,8|0,0:0|0:0,0:0:0:0:
233,243,38841,5,0,0:0:0:0:
328,248,39074,2,0,L|407:251,1,80,0|8,0:0|0:0,0:0:0:0:
482,313,39540,2,0,P|505:249|463:171,1,160,0|0,0:0|0:0,0:0:0:0:
391,109,40238,2,0,L|384:26,1,80,8|0,0:0|0:0,0:0:0:0:
296,68,40704,6,0,L|285:190,1,120,0|0,0:0|0:0,0:0:0:0:
282,235,41169,1,8,0:0:0:0:
270,330,41402,2,0,P|198:357|119:324,1,160,0|12,0:0|0:0,0:0:0:0:
57,259,42100,1,8,0:0:0:0:
99,237,42217,1,8,0:0:0:0:
117,192,42333,1,0,0:0:0:0:
99,147,42450,1,0,0:0:0:0:
57,125,42566,6,0,L|185:114,1,120,4|0,0:0|0:0,0:0:0:0:
224,109,43032,1,8,0:0:0:0:
283,34,43264,2,0,P|316:97|288:178,1,160,2|0,0:0|0:0,0:0:0:0:
208,229,43963,1,8,0:0:0:0:
213,324,44196,1,0,0:0:0:0:
295,372,44428,6,0,L|429:364,1,120,4|0,0:0|0:0,0:0:0:0:
462,360,44894,1,8,0:0:0:0:
507,275,45127,2,0,P|513:216|457:133,1,160,2|0,0:0|0:0,0:0:0:0:
365,117,45825,1,8,0:0:0:0:
305,192,46058,1,0,0:0:0:0:
256,82,46291,5,4,0:0:0:0:
44,192,49783,6,0,L|40:145,2,40,0|8|4,0:0|0:0|0:0,0:0:0:0:
72,284,50248,1,0,0:0:0:0:
137,213,50481,1,8,0:0:0:0:
184,221,50597,1,0,0:0:0:0:
190,316,50830,2,0,P|248:291|311:298,1,120,0|0,0:0|0:0,0:0:0:0:
388,340,51412,1,10,0:0:0:0:
465,283,51645,1,0,0:0:0:0:
465,283,51761,1,0,0:0:0:0:
465,283,51878,6,0,P|469:220|445:166,1,120,0|0,0:0|0:0,0:0:0:0:
410,137,52343,1,8,0:0:0:0:
344,207,52576,2,0,P|269:192|200:234,1,160,0|4,0:0|0:0,0:0:0:0:
156,318,53274,1,8,0:0:0:0:
60,313,53507,1,0,0:0:0:0:
29,222,53740,6,0,B|25:181|25:181|37:138|37:138|33:98,1,120,0|0,0:0|0:0,0:0:0:0:
24,56,54206,1,8,0:0:0:0:
113,89,54438,2,0,L|277:68,1,160,0|0,0:0|0:0,0:0:0:0:
197,7,55137,2,0,L|109:18,1,80,10|0,0:0|0:0,0:0:0:0:
120,160,55602,6,0,L|284:139,1,160,4|8,0:0|0:0,0:0:0:0:
342,67,56301,2,0,L|393:225,1,160,0|4,0:0|0:0,0:0:0:0:
321,285,56999,1,8,0:0:0:0:
255,214,57232,1,8,0:0:0:0:
191,286,57465,6,0,P|154:297|100:286,1,80,4|0,0:0|0:0,0:0:0:0:
253,370,57930,2,0,P|290:359|344:370,1,80,8|0,0:0|0:0,0:0:0:0:
378,275,58396,2,0,P|443:294|509:239,1,160,2|10,0:0|0:0,0:0:0:0:
501,143,59094,1,0,0:0:0:0:
431,210,59327,6,0,L|468:371,1,160,0|8,0:0|0:0,0:0:0:0:
350,262,60025,1,0,0:0:0:0:
350,262,60258,2,0,L|364:351,1,80,0|4,0:0|0:0,0:0:0:0:
275,299,60724,2,0,L|265:379,1,80,8|0,0:0|0:0,0:0:0:0:
181,330,61189,6,0,P|112:351|42:302,1,160,0|8,0:0|0:0,0:0:0:0:
66,211,61888,2,0,P|135:190|205:239,1,160,0|0,0:0|0:0,0:0:0:0:
125,272,62586,1,10,0:0:0:0:
1,241,62819,1,0,0:0:0:0:
6,145,63052,5,4,0:0:0:0:
6,97,63168,2,0,B|21:80|21:80|93:80,1,80,0|0,0:0|0:0,0:0:0:0:
123,96,63517,1,8,0:0:0:0:
213,61,63750,1,0,0:0:0:0:
261,56,63867,1,0,0:0:0:0:
304,35,63983,2,0,P|341:27|385:43,1,80,4|0,0:0|0:0,0:0:0:0:
333,183,64449,2,0,P|325:144|338:107,1,80,8|0,0:0|0:0,0:0:0:0:
404,235,64914,5,4,0:0:0:0:
333,300,65147,2,0,L|240:294,1,80,0|8,0:0|0:0,0:0:0:0:
204,294,65496,2,0,P|194:333|202:384,1,80,0|0,0:0|0:0,0:0:0:0:
198,372,65845,1,2,0:0:0:0:
231,216,66078,1,0,0:0:0:0:
228,168,66194,1,2,0:0:0:0:
225,119,66311,1,10,0:0:0:0:
144,67,66544,2,0,L|98:72,1,40,0|0,0:0|0:0,0:0:0:0:
88,119,66776,6,0,P|91:70|9:-3,1,160,0|8,0:0|0:0,0:0:0:0:
0,90,67475,2,0,L|22:211,1,120,0|0,0:0|0:0,0:0:0:0:
35,253,67940,1,4,0:0:0:0:
119,206,68173,2,0,L|198:210,1,80,8|0,0:0|0:0,0:0:0:0:
273,148,68639,6,0,P|296:211|279:266,1,120,0|0,0:0|0:0,0:0:0:0:
251,296,69104,1,8,0:0:0:0:
331,347,69337,1,0,0:0:0:0:
404,284,69570,2,0,L|363:278,2,40,2|2|0,0:0|0:0|0:0,0:0:0:0:
451,288,69919,1,2,0:0:0:0:
498,293,70036,1,10,0:0:0:0:
432,362,70268,1,0,0:0:0:0:
419,211,70501,6,0,L|508:220,1,80,4|0,0:0|0:0,0:0:0:0:
344,204,70967,1,8,0:0:0:0:
266,260,71200,2,0,P|248:197|298:118,1,160,0|4,0:0|0:0,0:0:0:0:
307,73,71782,1,0,0:0:0:0:
287,29,71898,1,8,0:0:0:0:
191,20,72131,1,8,0:0:0:0:
135,98,72363,6,0,P|103:123|64:133,1,80,4|0,0:0|0:0,0:0:0:0:
65,251,72829,2,0,P|103:261|135:286,1,80,8|0,0:0|0:0,0:0:0:0:
215,339,73295,2,0,B|297:313|297:367|371:339,1,160,2|10,0:0|0:0,0:0:0:0:
451,286,73993,1,0,0:0:0:0:
388,212,74226,6,0,L|384:130,1,80,0|0,0:0|0:0,0:0:0:0:
291,156,74691,2,0,L|295:74,1,80,8|0,0:0|0:0,0:0:0:0:
203,106,75157,1,0,0:0:0:0:
227,13,75390,1,4,0:0:0:0:
134,40,75623,2,0,L|53:44,1,80,8|0,0:0|0:0,0:0:0:0:
5,126,76088,6,0,P|32:194|12:279,1,160,0|8,0:0|0:0,0:0:0:0:
118,234,76787,2,0,P|91:302|111:387,1,160,0|0,0:0|0:0,0:0:0:0:
202,359,77485,1,10,0:0:0:0:
256,279,77718,1,0,0:0:0:0:
256,182,77951,6,0,B|292:167|292:167|325:185|381:183,1,120,4|0,0:0|0:0,0:0:0:0:
413,162,78416,2,0,P|425:124|418:77,1,80,8|0,0:0|0:0,0:0:0:0:
397,253,78882,2,0,L|430:256,3,26.6666666666667,4|0|0|4,0:0|0:0|0:0|0:0,0:0:0:0:
473,337,79347,1,8,0:0:0:0:
376,340,79580,1,0,0:0:0:0:
279,343,79813,6,0,P|218:363|159:349,2,120,2|2|2,0:0|0:0|0:0,0:0:0:0:
272,247,80744,2,0,P|213:236|158:255,2,120,2|2|2,0:0|0:0|0:0,0:0:0:0:
359,287,81675,6,0,P|442:311|472:131,1,320,2|0,0:0|0:0,0:0:0:0:
438,108,82723,2,0,L|442:61,1,40,0|4,0:0|0:3,0:0:0:0:
425,215,83072,1,4,0:1:0:0:
