osu file format v14

[General]
AudioFilename: audio.mp3
AudioLeadIn: 0
PreviewTime: 20297
Countdown: 1
SampleSet: None
StackLeniency: 0.7
Mode: 0
LetterboxInBreaks: 0
WidescreenStoryboard: 0

[Editor]
DistanceSpacing: 1
BeatDivisor: 4
GridSize: 4
TimelineZoom: 1.1

[Metadata]
Title:Bibi und Tina (Remix)
TitleUnicode:Bibi und Tina (Remix)
Artist:Mavid
ArtistUnicode:Mavid
Creator:AnimeStyle
Version:Hard
Source:
Tags:
BeatmapID:1618809
BeatmapSetID:769921

[Difficulty]
HPDrainRate:6
CircleSize:4
OverallDifficulty:7.5
ApproachRate:8
SliderMultiplier:1.9
SliderTickRate:1

[Events]
//Background and Video events
0,0,"sb-bibi-tina-allgemein-100_1280x720.jpg",0,0
//Break Periods
2,50966,60421
//Storyboard Layer 0 (Background)
//Storyboard Layer 1 (Fail)
//Storyboard Layer 2 (Pass)
//Storyboard Layer 3 (Foreground)
//Storyboard Sound Samples

[TimingPoints]
141.580009992733,468.75,4,1,2,80,1,0
18657,-142.857142857143,4,1,2,70,0,0
18891,-166.666666666667,4,1,2,5,0,0
19125,-166.666666666667,4,1,2,40,0,0
20063,-100,4,1,2,5,0,0
20297,-100,4,1,2,90,0,0
20766,-83.3333333333333,4,1,1,100,0,1
25454,-125,4,1,1,100,0,1
26157,-83.3333333333333,4,1,1,100,0,1
31079,-125,4,1,1,100,0,1
31547,-83.3333333333333,4,1,1,100,0,1
35063,-83.3333333333333,4,1,1,30,0,0
35532,-83.3333333333333,4,1,1,5,0,0
35766,-83.3333333333333,4,1,1,100,0,1
40688,-125,4,1,1,100,0,1
41157,-83.3333333333333,4,1,1,100,0,1
46079,-125,4,1,1,100,0,1
46547,-83.3333333333333,4,1,1,100,0,1
50766,-83.3333333333333,4,1,1,100,0,0
51796,468.75,4,1,2,80,1,0
69608,526.315789473684,4,1,2,80,1,0
70923,545.454545454546,4,1,2,80,1,0
71195,566.037735849057,4,1,2,80,1,0
71761,588.235294117647,4,1,2,80,1,0
72055,833.333333333333,4,1,2,80,1,0
72795,468.75,4,1,2,80,1,0
72795,-100,4,1,1,80,0,0
73265,468.75,4,1,2,80,1,0
73265,-83.3333333333333,4,1,1,100,0,1
77952,-125,4,1,1,100,0,1
78421,-83.3333333333333,4,1,1,100,0,1
83577,-125,4,1,1,100,0,1
84046,-83.3333333333333,4,1,1,100,0,1
87210,-83.3333333333333,4,1,1,30,0,0
88147,-83.3333333333333,4,1,1,5,0,0
88265,-83.3333333333333,4,1,1,100,0,1
93186,-125,4,1,1,100,0,1
93655,-83.3333333333333,4,1,1,100,0,1
98577,-125,4,1,1,100,0,1
99046,-83.3333333333333,4,1,1,100,0,1
103265,-83.3333333333333,4,1,1,100,0,0

[Colours]
Combo1 : 255,100,100
Combo2 : 0,202,0
Combo3 : 66,151,255
Combo4 : 128,0,128
Combo5 : 255,208,66

[HitObjects]
40,92,141,5,0,0:0:0:0:
132,64,375,1,0,0:0:0:0:
172,152,610,1,8,0:0:0:0:
132,240,844,2,0,P|180:248|240:220,1,95
320,68,1547,1,8,0:0:0:0:
412,100,1782,2,0,L|440:148,1,47.5
460,180,2016,5,0,0:0:0:0:
472,276,2250,1,0,0:0:0:0:
388,324,2485,1,8,0:0:0:0:
300,284,2719,1,0,0:0:0:0:
288,188,2954,2,0,L|236:100,1,95
56,60,3657,1,0,0:0:0:0:
56,60,3891,6,0,L|104:141,1,95
152,224,4360,2,0,P|106:235|60:224,2,95,8|0|0,0:0|0:0|0:0,0:0:0:0:
456,324,5532,1,0,0:0:0:0:
456,324,5766,6,0,L|407:242,1,95
360,160,6235,2,0,P|405:148|451:159,2,95,8|0|0,0:0|0:0|0:0,0:0:0:0:
216,252,7641,6,0,P|170:263|48:100,1,285
140,96,8579,2,0,P|120:158|215:149,2,190,0|8|0,0:0|0:0|0:0,0:0:0:0:
96,24,12329,5,0,0:0:0:0:
187,55,12563,1,0,0:0:0:0:
279,86,12797,2,0,L|386:52,1,95,8|0,0:0|0:0,0:0:0:0:
465,78,13266,5,0,0:0:0:0:
401,148,13500,1,0,0:0:0:0:
336,221,13735,2,0,L|245:248,1,95,8|0,0:0|0:0,0:0:0:0:
182,320,14204,1,0,0:0:0:0:
152,229,14438,1,0,0:0:0:0:
128,136,14672,2,0,P|189:138|227:176,1,95,8|0,0:0|0:0,0:0:0:0:
246,249,15141,5,0,0:0:0:0:
152,229,15375,1,0,0:0:0:0:
60,203,15610,2,0,P|31:148|45:96,1,95,8|0,0:0|0:0,0:0:0:0:
128,136,16079,2,0,P|189:138|227:176,1,95
246,249,16547,1,8,0:0:0:0:
336,224,16782,1,0,0:0:0:0:
308,132,17016,6,0,P|310:70|348:32,1,95
400,108,17485,1,8,0:0:0:0:
480,280,17954,1,0,0:0:0:0:
408,340,18188,1,0,0:0:0:0:
316,320,18422,1,8,0:0:0:0:
236,372,18657,2,0,P|204:364|164:332,1,66.4999979705811
140,304,19125,6,0,P|168:168|120:100,1,227.999993041992
104,84,20297,1,0,0:0:0:0:
87,66,20532,1,0,0:0:0:0:
70,50,20766,6,0,L|213:36,1,113.999996520996,8|0,0:0|0:0,0:0:0:0:
276,104,21235,1,8,0:0:0:0:
489,144,21469,2,0,L|376:156,1,113.999996520996,0|10,0:0|0:0,0:0:0:0:
348,160,21821,1,2,0:0:0:0:
328,180,21938,1,2,0:0:0:0:
324,208,22055,1,2,0:0:0:0:
336,236,22172,1,10,0:0:0:0:
360,248,22290,1,2,0:0:0:0:
388,244,22407,1,2,0:0:0:0:
408,224,22524,1,2,0:0:0:0:
412,196,22641,6,0,L|398:53,1,113.999996520996,8|0,0:0|0:0,0:0:0:0:
256,256,23110,1,8,0:0:0:0:
111,82,23344,2,0,L|100:196,1,113.999996520996,0|8,0:0|0:0,0:0:0:0:
256,256,23813,1,2,0:0:0:0:
256,228,23930,1,2,0:0:0:0:
256,200,24047,1,10,0:0:0:0:
256,172,24165,1,2,0:0:0:0:
256,144,24282,1,2,0:0:0:0:
256,116,24399,1,2,0:0:0:0:
256,88,24516,6,0,P|352:36|448:88,1,227.999993041992,8|8,0:0|0:0,0:0:0:0:
352,168,25219,1,0,0:0:0:0:
324,288,25454,2,0,P|256:320|188:288,1,152,8|8,0:0|0:0,0:0:0:0:
160,168,26157,1,0,0:0:0:0:
256,88,26391,6,0,P|160:36|64:88,1,227.999993041992,8|8,0:0|0:0,0:0:0:0:
160,168,27094,1,0,0:0:0:0:
188,288,27329,2,0,P|256:320|340:208,1,227.999993041992,8|8,0:0|0:0,0:0:0:0:
396,120,28032,1,0,0:0:0:0:
292,72,28266,6,0,L|232:56,3,56.9999982604981,10|2|2|2,0:0|0:0|0:0|0:0,0:0:0:0:
208,68,28735,2,0,L|148:52,3,56.9999982604981,10|2|2|2,0:0|0:0|0:0|0:0,0:0:0:0:
124,64,29204,2,0,P|76:108|124:276,1,227.999993041992,8|8,0:0|0:0,0:0:0:0:
204,292,30141,6,0,L|264:308,3,56.9999982604981,10|2|2|2,0:0|0:0|0:0|0:0,0:0:0:0:
288,296,30610,2,0,L|348:312,3,56.9999982604981,10|2|2|2,0:0|0:0|0:0|0:0,0:0:0:0:
372,300,31079,2,0,P|420:256|412:148,1,152,8|8,0:0|0:0,0:0:0:0:
315,204,31782,1,0,0:0:0:0:
259,306,32016,6,0,L|203:291,1,56.9999982604981,10|2,0:0|0:0,0:0:0:0:
220,268,32250,2,0,L|179:227,1,56.9999982604981,2|2,0:0|0:0,0:0:0:0:
204,216,32485,2,0,L|189:160,1,56.9999982604981,10|2,0:0|0:0,0:0:0:0:
216,164,32719,2,0,L|230:108,1,56.9999982604981,2|2,0:0|0:0,0:0:0:0:
256,120,32954,2,0,B|344:48|344:48|452:88,1,227.999993041992,8|10,0:0|0:0,0:0:0:0:
468,112,33657,1,2,0:0:0:0:
472,140,33891,5,10,0:0:0:0:
460,168,34125,1,2,0:0:0:0:
436,184,34360,1,10,0:0:0:0:
408,188,34594,1,2,0:0:0:0:
348,152,35063,2,0,B|260:224|260:224|152:184,1,227.999993041992
152,184,35766,6,0,L|64:255,1,113.999996520996,8|0,0:0|0:0,0:0:0:0:
132,52,36235,1,8,0:0:0:0:
260,224,36469,2,0,L|348:152,1,113.999996520996,0|8,0:0|0:0,0:0:0:0:
372,132,36821,1,2,0:0:0:0:
400,131,36938,1,2,0:0:0:0:
421,148,37055,1,2,0:0:0:0:
433,178,37172,1,10,0:0:0:0:
423,202,37290,1,2,0:0:0:0:
401,219,37407,1,2,0:0:0:0:
372,219,37524,1,2,0:0:0:0:
350,201,37641,6,0,L|260:88,1,113.999996520996,8|0,0:0|0:0,0:0:0:0:
336,320,38110,1,8,0:0:0:0:
148,216,38344,2,0,L|218:305,1,113.999996520996,0|8,0:0|0:0,0:0:0:0:
188,136,38813,1,2,0:0:0:0:
170,113,38930,1,2,0:0:0:0:
153,91,39047,1,10,0:0:0:0:
136,69,39165,1,2,0:0:0:0:
119,47,39282,1,2,0:0:0:0:
101,25,39399,1,2,0:0:0:0:
84,4,39516,6,0,P|40:80|124:204,1,227.999993041992,8|8,0:0|0:0,0:0:0:0:
76,308,40219,1,0,0:0:0:0:
180,356,40454,1,8,0:0:0:0:
248,264,40688,2,0,P|316:235|386:262,1,152
452,352,41391,6,0,P|496:276|412:152,1,227.999993041992,8|8,0:0|0:0,0:0:0:0:
372,68,42094,1,0,0:0:0:0:
324,172,42329,2,0,P|280:248|364:372,1,227.999993041992,8|8,0:0|0:0,0:0:0:0:
385,261,43032,2,0,L|436:236,1,56.9999982604981
428,208,43266,6,0,L|450:156,3,56.9999982604981,10|2|2|2,0:0|0:0|0:0|0:0,0:0:0:0:
428,140,43735,2,0,L|412:85,3,56.9999982604981,10|2|2|2,0:0|0:0|0:0|0:0,0:0:0:0:
404,56,44204,2,0,P|304:20|204:76,1,227.999993041992,8|0,0:0|0:0,0:0:0:0:
160,180,45141,6,0,L|138:232,3,56.9999982604981,10|2|2|2,0:0|0:0|0:0|0:0,0:0:0:0:
160,248,45610,2,0,L|176:303,3,56.9999982604981,10|2|2|2,0:0|0:0|0:0|0:0,0:0:0:0:
184,332,46079,2,0,P|284:368|348:336,1,152,8|0,0:0|0:0,0:0:0:0:
272,252,46782,1,0,0:0:0:0:
160,248,47016,5,10,0:0:0:0:
152,221,47133,1,2,0:0:0:0:
145,194,47250,1,2,0:0:0:0:
138,167,47368,1,2,0:0:0:0:
129,142,47485,1,10,0:0:0:0:
155,130,47602,1,2,0:0:0:0:
180,118,47720,1,2,0:0:0:0:
205,107,47837,1,2,0:0:0:0:
230,95,47954,1,10,0:0:0:0:
340,120,48188,1,2,0:0:0:0:
264,204,48422,1,10,0:0:0:0:
228,84,48657,1,2,0:0:0:0:
348,124,48891,5,2,0:0:0:0:
260,216,49125,1,2,0:0:0:0:
224,72,49360,1,10,0:0:0:0:
360,128,49594,1,2,0:0:0:0:
248,228,49829,1,2,0:0:0:0:
216,48,50063,1,2,0:0:0:0:
375,135,50297,1,10,0:0:0:0:
220,228,50532,1,2,0:0:0:0:
216,48,50766,5,2,0:0:0:0:
416,360,61171,5,0,0:0:0:0:
325,329,61405,1,0,0:0:0:0:
233,298,61639,2,0,L|126:332,1,95,8|0,0:0|0:0,0:0:0:0:
47,306,62108,1,0,0:0:0:0:
111,236,62342,1,0,0:0:0:0:
176,163,62577,2,0,L|267:136,1,95,8|0,0:0|0:0,0:0:0:0:
330,64,63046,5,0,0:0:0:0:
360,155,63280,1,0,0:0:0:0:
384,248,63514,2,0,P|323:246|285:208,1,95,8|0,0:0|0:0,0:0:0:0:
266,135,63983,1,0,0:0:0:0:
360,155,64217,1,0,0:0:0:0:
452,181,64452,2,0,P|481:236|467:288,1,95,8|0,0:0|0:0,0:0:0:0:
384,248,64921,6,0,P|323:246|285:208,1,95
266,135,65389,1,8,0:0:0:0:
176,160,65624,1,0,0:0:0:0:
204,252,65858,2,0,P|202:314|164:352,1,95
112,276,66327,1,8,0:0:0:0:
88,184,66561,1,0,0:0:0:0:
113,95,66796,6,0,P|154:118|176:160,1,95
204,252,67264,1,8,0:0:0:0:
297,226,67499,1,0,0:0:0:0:
268,136,67733,2,0,P|332:80|432:112,1,190,0|8,0:0|0:0,0:0:0:0:
432,280,69139,6,0,P|388:300|328:284,1,95,8|0,0:0|0:0,0:0:0:0:
272,248,69608,2,0,P|225:241|183:261,1,95
100,220,70134,1,0,0:0:0:0:
176,164,70397,2,0,P|182:117|162:75,1,95
92,132,70923,1,0,0:0:0:0:
176,164,71195,1,0,0:0:0:0:
252,104,71478,2,0,L|312:92,1,47.5
340,116,71761,6,0,L|460:92,1,95
444,192,72471,1,0,0:0:0:0:
444,240,72680,1,0,0:0:0:0:
444,288,72795,2,0,L|480:284,6,23.75,2|2|2|2|2|2|2,0:0|0:0|0:0|0:0|0:0|0:0|0:0,0:0:0:0:
442,334,73265,6,0,L|299:348,1,113.999996520996,8|0,0:0|0:0,0:0:0:0:
236,280,73734,1,8,0:0:0:0:
23,240,73968,2,0,L|136:228,1,113.999996520996,0|10,0:0|0:0,0:0:0:0:
164,224,74320,1,2,0:0:0:0:
184,204,74437,1,2,0:0:0:0:
188,176,74554,1,2,0:0:0:0:
176,148,74671,1,10,0:0:0:0:
152,136,74789,1,2,0:0:0:0:
124,140,74906,1,2,0:0:0:0:
104,160,75023,1,2,0:0:0:0:
100,188,75140,6,0,L|114:331,1,113.999996520996,8|0,0:0|0:0,0:0:0:0:
256,128,75609,1,8,0:0:0:0:
401,302,75843,2,0,L|412:188,1,113.999996520996,0|8,0:0|0:0,0:0:0:0:
256,128,76312,1,2,0:0:0:0:
256,156,76429,1,2,0:0:0:0:
256,184,76546,1,10,0:0:0:0:
256,212,76664,1,2,0:0:0:0:
256,240,76781,1,2,0:0:0:0:
256,268,76898,1,2,0:0:0:0:
256,296,77015,6,0,P|160:348|64:296,1,227.999993041992,8|8,0:0|0:0,0:0:0:0:
160,216,77718,1,0,0:0:0:0:
188,96,77953,2,0,P|256:64|324:96,1,152,8|8,0:0|0:0,0:0:0:0:
352,216,78656,1,0,0:0:0:0:
256,296,78890,6,0,P|352:348|448:296,1,227.999993041992,8|8,0:0|0:0,0:0:0:0:
352,216,79593,1,0,0:0:0:0:
324,96,79828,2,0,P|256:64|172:176,1,227.999993041992,8|8,0:0|0:0,0:0:0:0:
116,264,80531,1,0,0:0:0:0:
220,312,80765,6,0,L|280:328,3,56.9999982604981,10|2|2|2,0:0|0:0|0:0|0:0,0:0:0:0:
304,316,81234,2,0,L|364:332,3,56.9999982604981,10|2|2|2,0:0|0:0|0:0|0:0,0:0:0:0:
388,320,81703,2,0,P|436:276|388:108,1,227.999993041992,8|8,0:0|0:0,0:0:0:0:
308,92,82640,6,0,L|248:76,3,56.9999982604981,10|2|2|2,0:0|0:0|0:0|0:0,0:0:0:0:
224,88,83109,2,0,L|164:72,3,56.9999982604981,10|2|2|2,0:0|0:0|0:0|0:0,0:0:0:0:
140,84,83578,2,0,P|92:128|100:236,1,152,8|8,0:0|0:0,0:0:0:0:
197,180,84281,1,0,0:0:0:0:
253,78,84515,6,0,L|309:93,1,56.9999982604981,10|2,0:0|0:0,0:0:0:0:
292,116,84749,2,0,L|333:157,1,56.9999982604981,2|2,0:0|0:0,0:0:0:0:
308,168,84984,2,0,L|323:224,1,56.9999982604981,10|2,0:0|0:0,0:0:0:0:
296,220,85218,2,0,L|282:276,1,56.9999982604981,2|2,0:0|0:0,0:0:0:0:
256,264,85453,2,0,B|168:336|168:336|60:296,1,227.999993041992,8|10,0:0|0:0,0:0:0:0:
44,272,86156,1,2,0:0:0:0:
40,244,86390,5,10,0:0:0:0:
52,216,86624,1,2,0:0:0:0:
76,200,86859,1,10,0:0:0:0:
104,196,87093,1,2,0:0:0:0:
104,196,87210,2,0,B|104:136|80:92|80:92|120:52|120:52|160:96|200:88|200:88|248:144|248:144|360:200,1,455.999986083985
360,200,88265,6,0,L|448:129,1,113.999996520996,8|0,0:0|0:0,0:0:0:0:
380,332,88734,1,8,0:0:0:0:
252,160,88968,2,0,L|164:232,1,113.999996520996,0|8,0:0|0:0,0:0:0:0:
140,252,89320,1,2,0:0:0:0:
112,253,89437,1,2,0:0:0:0:
91,236,89554,1,2,0:0:0:0:
79,206,89671,1,10,0:0:0:0:
89,182,89789,1,2,0:0:0:0:
111,165,89906,1,2,0:0:0:0:
140,165,90023,1,2,0:0:0:0:
162,183,90140,6,0,L|252:296,1,113.999996520996,8|0,0:0|0:0,0:0:0:0:
176,64,90609,1,8,0:0:0:0:
364,168,90843,2,0,L|294:79,1,113.999996520996,0|8,0:0|0:0,0:0:0:0:
324,248,91312,1,2,0:0:0:0:
342,271,91429,1,2,0:0:0:0:
359,293,91546,1,10,0:0:0:0:
376,315,91664,1,2,0:0:0:0:
393,337,91781,1,2,0:0:0:0:
411,359,91898,1,2,0:0:0:0:
428,380,92015,6,0,P|472:304|388:180,1,227.999993041992,8|8,0:0|0:0,0:0:0:0:
436,76,92718,1,0,0:0:0:0:
332,28,92953,1,8,0:0:0:0:
264,120,93187,2,0,P|196:149|126:122,1,152
60,32,93890,6,0,P|16:108|100:232,1,227.999993041992,8|8,0:0|0:0,0:0:0:0:
140,316,94593,1,0,0:0:0:0:
188,212,94828,2,0,P|232:136|148:12,1,227.999993041992,8|8,0:0|0:0,0:0:0:0:
127,123,95531,2,0,L|76:148,1,56.9999982604981
84,176,95765,6,0,L|62:228,3,56.9999982604981,10|2|2|2,0:0|0:0|0:0|0:0,0:0:0:0:
84,244,96234,2,0,L|100:299,3,56.9999982604981,10|2|2|2,0:0|0:0|0:0|0:0,0:0:0:0:
108,328,96703,2,0,P|208:364|308:308,1,227.999993041992,8|0,0:0|0:0,0:0:0:0:
352,204,97640,6,0,L|374:152,3,56.9999982604981,10|2|2|2,0:0|0:0|0:0|0:0,0:0:0:0:
352,136,98109,2,0,L|336:81,3,56.9999982604981,10|2|2|2,0:0|0:0|0:0|0:0,0:0:0:0:
328,52,98578,2,0,P|228:16|164:48,1,152,8|0,0:0|0:0,0:0:0:0:
240,132,99281,1,0,0:0:0:0:
352,136,99515,5,10,0:0:0:0:
360,163,99632,1,2,0:0:0:0:
367,190,99749,1,2,0:0:0:0:
374,217,99867,1,2,0:0:0:0:
383,242,99984,1,10,0:0:0:0:
357,254,100101,1,2,0:0:0:0:
332,266,100219,1,2,0:0:0:0:
307,277,100336,1,2,0:0:0:0:
282,289,100453,1,10,0:0:0:0:
172,264,100687,1,2,0:0:0:0:
248,180,100921,1,10,0:0:0:0:
284,300,101156,1,2,0:0:0:0:
164,260,101390,5,2,0:0:0:0:
252,168,101624,1,2,0:0:0:0:
288,312,101859,1,10,0:0:0:0:
152,256,102093,1,2,0:0:0:0:
264,156,102328,1,2,0:0:0:0:
296,336,102562,1,2,0:0:0:0:
137,249,102796,1,10,0:0:0:0:
292,156,103031,1,2,0:0:0:0:
296,336,103265,5,2,0:0:0:0:
