osu file format v14

[General]
AudioFilename: audio.mp3
AudioLeadIn: 0
PreviewTime: 49490
Countdown: 0
SampleSet: Soft
StackLeniency: 0.3
Mode: 0
LetterboxInBreaks: 0
WidescreenStoryboard: 1

[Editor]
Bookmarks: 85381,119346
DistanceSpacing: 0.56
BeatDivisor: 4
GridSize: 4
TimelineZoom: 2.3

[Metadata]
Title:opaque
TitleUnicode:opaque
Artist:Maverick
ArtistUnicode:Maverick
Creator:Niva
Version:Hard
Source:
Tags:ashrount xect. oasis nm2 arcade core down k-shootmania selection pack ver2 ver.2 ksm featured artist fa mappers' guild mpg electronic instrumental
BeatmapID:4049713
BeatmapSetID:1955283

[Difficulty]
HPDrainRate:6
CircleSize:3.8
OverallDifficulty:6
ApproachRate:8.2
SliderMultiplier:1.4
SliderTickRate:1

[Events]
//Background and Video events
0,0,"a Rain list.jpg",0,0
//Break Periods
//Storyboard Layer 0 (Background)
//Storyboard Layer 1 (Fail)
//Storyboard Layer 2 (Pass)
//Storyboard Layer 3 (Foreground)
//Storyboard Layer 4 (Overlay)
//Storyboard Sound Samples

[TimingPoints]
530,314.13612565445,4,2,77,60,1,0
530,-125,4,2,77,60,0,0
1786,-133.333333333333,4,2,77,60,0,0
3514,-166.666666666667,4,2,77,60,0,0
5556,-133.333333333333,4,2,77,60,0,0
6812,-153.846153846154,4,2,77,60,0,0
7440,-142.857142857143,4,2,77,60,0,0
8069,-125,4,2,77,60,0,0
9325,-142.857142857143,4,2,77,60,0,0
9954,-111.111111111111,4,2,77,60,0,0
10503,-111.111111111111,4,2,77,5,0,0
10582,-100,4,2,77,90,0,0
11053,-111.111111111111,4,2,77,90,0,0
11524,-100,4,2,77,90,0,0
11995,-111.111111111111,4,2,77,90,0,0
12467,-133.333333333333,4,2,77,90,0,0
12781,-117.647058823529,4,2,77,90,0,0
13095,-100,4,2,77,90,0,0
13331,-100,4,2,77,5,0,0
13409,-100,4,2,77,90,0,0
13566,-111.111111111111,4,2,77,90,0,0
13802,-111.111111111111,4,2,77,5,0,0
13880,-111.111111111111,4,2,77,90,0,0
14037,-95.2380952380952,4,2,77,90,0,0
14273,-95.2380952380952,4,2,77,5,0,0
14351,-95.2380952380952,4,2,77,90,0,0
14509,-111.111111111111,4,2,77,90,0,0
14744,-111.111111111111,4,2,77,5,0,0
14823,-111.111111111111,4,2,77,90,0,0
14980,-133.333333333333,4,2,77,90,0,0
15294,-125,4,2,77,90,0,0
15608,-117.647058823529,4,2,77,90,0,0
15765,-117.647058823529,4,2,77,70,0,0
15922,-117.647058823529,4,2,77,75,0,0
16708,-111.111111111111,4,2,77,80,0,0
17493,-100,4,2,77,80,0,0
18121,-100,4,2,77,85,0,0
18435,-125,4,2,77,85,0,0
18749,-100,4,2,77,85,0,0
18906,-100,4,2,77,90,0,0
18946,-100,4,2,77,60,0,0
19221,-100,4,2,77,90,0,0
19299,-100,4,2,77,5,0,0
19378,-125,4,2,77,90,0,0
20320,-100,4,2,77,90,0,0
20556,-100,4,2,77,5,0,0
20634,-125,4,2,77,75,0,0
21891,-111.111111111111,4,2,77,75,0,0
22833,-100,4,2,77,75,0,0
23776,-142.857142857143,4,2,77,75,0,0
24090,-125,4,2,77,75,0,0
24404,-111.111111111111,4,2,77,75,0,0
25032,-133.333333333333,4,2,77,75,0,0
25346,-117.647058823529,4,2,77,75,0,0
25386,-117.647058823529,4,2,77,55,0,0
25660,-117.647058823529,4,2,77,80,0,0
25975,-125,4,2,77,80,0,0
27231,-117.647058823529,4,2,77,80,0,0
28173,-117.647058823529,4,2,77,85,0,0
28409,-117.647058823529,4,2,77,5,0,0
28488,-125,4,2,77,85,0,0
28723,-125,4,2,77,5,0,0
28802,-105.263157894737,4,2,77,85,0,0
29037,-105.263157894737,4,2,77,5,0,0
29116,-90.9090909090909,4,2,77,85,0,0
29430,-37.5766346321653,4,2,77,85,0,0
29980,-90.9090909090909,4,2,77,5,0,0
30058,-111.111111111111,4,2,77,85,0,0
30687,-100,4,2,77,90,0,0
31943,-125,4,2,77,90,0,0
32179,-125,4,2,77,5,0,0
32257,-125,4,2,77,90,0,0
32493,-125,4,2,77,5,0,0
32571,-125,4,2,77,90,0,0
32650,-125,4,2,77,5,0,0
32728,-125,4,2,77,90,0,0
32807,-125,4,2,77,5,0,0
32886,-125,4,2,77,90,0,0
32964,-125,4,2,77,5,0,0
33031,-125,4,2,77,90,0,0
33121,-125,4,2,77,5,0,0
33200,-90.9090909090909,4,2,77,90,0,0
33828,-111.111111111111,4,2,77,90,0,0
34456,-125,4,2,77,90,0,0
34692,-125,4,2,77,5,0,0
34770,-111.111111111111,4,2,77,90,0,0
35006,-111.111111111111,4,2,77,5,0,0
35084,-111.111111111111,4,2,77,90,0,0
35163,-111.111111111111,4,2,77,5,0,0
35242,-111.111111111111,4,2,77,90,0,0
35320,-111.111111111111,4,2,77,5,0,0
35399,-111.111111111111,4,2,77,90,0,0
35477,-111.111111111111,4,2,77,5,0,0
35556,-111.111111111111,4,2,77,90,0,0
35634,-111.111111111111,4,2,77,5,0,0
35713,-133.333333333333,4,2,77,90,0,0
36027,-111.111111111111,4,2,77,90,0,0
36655,-99.9999999999999,4,2,77,90,0,0
36969,-133.333333333333,4,2,77,90,0,0
38226,-125,4,2,77,90,0,0
38854,-100,4,2,77,90,0,0
39522,-100,4,2,77,60,0,0
39797,-100,4,2,77,90,0,0
39836,-100,4,2,77,60,0,0
40111,-142.857142857143,4,2,77,90,0,0
40189,-142.857142857143,4,2,77,5,0,0
40268,-142.857142857143,4,2,77,90,0,0
40346,-142.857142857143,4,2,77,5,0,0
40425,-142.857142857143,4,2,77,90,0,0
40503,-142.857142857143,4,2,77,5,0,0
40582,-142.857142857143,4,2,77,90,0,0
40660,-142.857142857143,4,2,77,5,0,0
40739,-100,4,2,77,90,0,0
40975,-100,4,2,77,5,0,0
41053,-100,4,2,77,90,0,0
41367,-142.857142857143,4,2,77,90,0,0
41681,-125,4,2,77,90,0,0
41995,-100,4,2,77,90,0,0
42624,-125,4,2,77,90,0,0
43252,-100,4,2,77,90,0,0
43488,-100,4,2,77,5,0,0
43566,-100,4,2,77,90,0,0
43645,-100,4,2,77,5,0,0
43723,-100,4,2,77,90,0,0
44351,-111.111111111111,4,2,77,90,0,0
44587,-111.111111111111,4,2,77,5,0,0
44666,-111.111111111111,4,2,77,90,0,0
45137,-133.333333333333,4,2,77,90,0,0
45372,-133.333333333333,4,2,77,5,0,0
45451,-133.333333333333,4,2,77,90,0,0
45765,-125,4,2,77,90,0,0
47022,-111.111111111111,4,2,77,90,0,0
47964,-100,4,2,77,90,0,0
49221,-111.111111111111,4,2,77,90,0,0
49535,-133.333333333333,4,2,78,90,0,0
49849,-100,4,2,78,90,0,0
50163,-95.2380952380952,4,2,77,95,0,1
50320,-95.2380952380952,4,2,77,5,0,1
50399,-95.2380952380952,4,2,77,95,0,1
50556,-95.2380952380952,4,2,77,5,0,1
50634,-95.2380952380952,4,2,77,95,0,1
50713,-95.2380952380952,4,2,77,5,0,0
50791,-100,4,2,77,90,0,1
51577,-100,4,2,77,5,0,1
51655,-100,4,2,77,90,0,1
52676,-95.2380952380952,4,2,77,90,0,1
52833,-95.2380952380952,4,2,77,5,0,1
52912,-95.2380952380952,4,2,77,90,0,1
53304,-111.111111111111,4,2,77,90,0,1
53619,-133.333333333333,4,2,77,90,0,1
53933,-100,4,2,77,90,0,1
55268,-100,4,2,77,5,0,1
55346,-100,4,2,77,90,0,1
55425,-100,4,2,77,5,0,1
55503,-117.647058823529,4,2,77,90,0,1
55582,-117.647058823529,4,2,77,5,0,1
55660,-117.647058823529,4,2,77,90,0,1
55739,-117.647058823529,4,2,77,5,0,1
55817,-111.111111111111,4,2,77,90,0,1
57702,-133.333333333333,4,2,77,90,0,1
57781,-133.333333333333,4,2,77,5,0,1
57859,-133.333333333333,4,2,77,90,0,1
57938,-133.333333333333,4,2,77,5,0,1
58016,-117.647058823529,4,2,77,90,0,1
58095,-117.647058823529,4,2,77,5,0,1
58173,-117.647058823529,4,2,77,90,0,1
58252,-117.647058823529,4,2,77,5,0,1
58331,-100,4,2,77,90,0,1
58488,-100,4,2,77,5,0,1
58566,-100,4,2,77,90,0,1
58723,-100,4,2,77,5,0,1
58802,-100,4,2,77,90,0,1
58959,-100,4,2,77,5,0,1
59037,-100,4,2,77,90,0,1
59194,-100,4,2,77,5,0,1
59273,-100,4,2,77,90,0,1
59351,-100,4,2,77,5,0,1
59430,-100,4,2,77,90,0,1
59509,-100,4,2,77,5,0,1
59587,-100,4,2,77,90,0,1
60294,-100,4,2,77,5,0,1
60451,-100,4,2,77,90,0,1
60529,-100,4,2,77,5,0,1
60687,-100,4,2,77,90,0,1
60765,-100,4,2,77,5,0,0
60844,-100,4,2,77,90,0,1
61629,-100,4,2,77,5,0,1
61708,-100,4,2,77,90,0,1
62886,-100,4,2,77,5,0,1
62964,-100,4,2,77,90,0,1
63671,-125,4,2,77,90,0,1
64613,-111.111111111111,4,2,77,90,0,1
65242,-90.9090909090909,4,2,77,90,0,1
65399,-90.9090909090909,4,2,77,5,0,1
65477,-90.9090909090909,4,2,77,90,0,1
65634,-90.9090909090909,4,2,77,5,0,1
65713,-90.9090909090909,4,2,77,90,0,1
65791,-90.9090909090909,4,2,77,5,0,1
65870,-90.9090909090909,4,2,77,90,0,1
66498,-111.111111111111,4,2,77,90,0,1
66812,-133.333333333333,4,2,77,90,0,1
67126,-100,4,2,77,90,0,1
67755,-117.647058823529,4,2,77,90,0,1
67833,-117.647058823529,4,2,77,5,0,1
67912,-117.647058823529,4,2,77,90,0,1
67990,-117.647058823529,4,2,77,5,0,1
68069,-117.647058823529,4,2,77,90,0,1
68147,-117.647058823529,4,2,77,5,0,1
68226,-117.647058823529,4,2,77,90,0,1
68383,-100,4,2,77,90,0,1
70268,-95.2380952380952,4,2,77,90,0,1
70425,-95.2380952380952,4,2,77,5,0,1
70503,-95.2380952380952,4,2,77,90,0,1
70660,-95.2380952380952,4,2,77,5,0,1
70739,-95.2380952380952,4,2,77,90,0,1
70817,-95.2380952380952,4,2,77,5,0,1
70896,-125,4,2,77,90,0,0
70975,-125,4,2,77,60,0,0
72153,-166.666666666667,4,2,77,60,0,0
73095,-142.857142857143,4,2,77,60,0,0
74666,-166.666666666667,4,2,77,60,0,0
79692,-181.818181818182,4,2,77,60,0,0
80320,-142.857142857143,4,2,77,60,0,0
80870,-142.857142857143,4,2,77,5,0,0
80948,-133.333333333333,4,2,77,80,0,0
81027,-133.333333333333,4,2,77,70,0,0
81577,-133.333333333333,4,2,77,75,0,0
82205,-117.647058823529,4,2,77,80,0,0
82833,-117.647058823529,4,2,77,85,0,0
83147,-125,4,2,77,85,0,0
83226,-125,4,2,77,5,0,0
83304,-125,4,2,77,85,0,0
83383,-125,4,2,77,5,0,0
83461,-125,4,2,77,90,0,0
83776,-117.647058823529,4,2,77,90,0,0
84090,-111.111111111111,4,2,77,90,0,0
84718,-142.857142857143,4,2,77,90,0,0
85032,-125,4,2,77,90,0,0
85346,-105.263157894737,4,2,77,90,0,0
85386,-105.263157894737,4,2,77,60,0,0
85660,-95.2380952380952,4,2,77,90,0,0
85700,-95.2380952380952,4,2,77,60,0,0
85975,-153.846153846154,4,2,77,90,0,0
86053,-153.846153846154,4,2,77,60,0,0
88488,-133.333333333334,4,2,77,50,0,0
88645,-133.333333333334,4,2,77,55,0,0
88802,-125,4,2,77,60,0,0
88959,-125,4,2,77,65,0,0
89116,-125,4,2,77,70,0,0
89273,-125,4,2,77,75,0,0
89430,-100,4,2,77,80,0,0
89587,-100,4,2,77,85,0,0
89744,-90.9090909090909,4,2,77,90,0,0
90294,-90.9090909090909,4,2,77,5,0,0
90372,-90.9090909090909,4,2,77,80,0,0
90412,-90.9090909090909,4,2,77,5,0,0
90687,-90.9090909090909,4,2,77,80,0,0
90726,-90.9090909090909,4,2,77,5,0,0
91001,-100,4,2,77,90,0,1
91079,-100,4,2,77,90,0,0
91472,-100,4,2,77,90,0,1
91550,-100,4,2,77,90,0,0
91943,-100,4,2,77,90,0,1
92022,-100,4,2,77,90,0,0
92414,-100,4,2,77,90,0,1
92493,-100,4,2,77,90,0,0
92886,-111.111111111111,4,2,77,90,0,0
93200,-125,4,2,77,90,0,0
93435,-125,4,2,77,5,0,0
93514,-100,4,2,77,90,0,1
93592,-100,4,2,77,90,0,0
93985,-100,4,2,77,90,0,1
94064,-100,4,2,77,90,0,0
94456,-100,4,2,77,90,0,1
94535,-100,4,2,77,90,0,0
94927,-100,4,2,77,90,0,1
95006,-100,4,2,77,90,0,0
95399,-125,4,2,77,90,0,0
95713,-105.263157894737,4,2,77,90,0,0
95948,-105.263157894737,4,2,77,5,0,0
96027,-125,4,2,77,90,0,1
96105,-125,4,2,77,90,0,0
96498,-111.111111111111,4,2,77,90,0,1
96577,-111.111111111111,4,2,77,90,0,0
96969,-99.9999999999999,4,2,77,90,0,1
97048,-99.9999999999999,4,2,77,90,0,0
97440,-90.9090909090909,4,2,77,90,0,1
97519,-90.9090909090909,4,2,77,90,0,0
97912,-100,4,2,77,90,0,0
98226,-111.111111111111,4,2,77,90,0,0
98540,-100,4,2,77,90,0,1
98619,-100,4,2,77,90,0,0
99011,-90.9090909090909,4,2,77,90,0,1
99090,-90.9090909090909,4,2,77,90,0,0
99482,-133.333333333333,4,2,77,90,0,1
99561,-133.333333333333,4,2,77,90,0,0
99797,-133.333333333333,4,2,78,90,0,0
100111,-100,4,2,78,90,0,0
100425,-90.9090909090909,4,2,77,95,0,1
100582,-90.9090909090909,4,2,77,5,0,1
100660,-90.9090909090909,4,2,77,95,0,1
100817,-90.9090909090909,4,2,77,5,0,1
100896,-90.9090909090909,4,2,77,95,0,1
100975,-90.9090909090909,4,2,77,5,0,0
101053,-100,4,2,77,90,0,1
101838,-100,4,2,77,5,0,1
101917,-100,4,2,77,90,0,1
102310,-105.263157894737,4,2,77,90,0,1
102938,-90.9090909090909,4,2,77,90,0,1
103095,-90.9090909090909,4,2,77,5,0,1
103173,-90.9090909090909,4,2,77,90,0,1
103566,-111.111111111111,4,2,77,90,0,1
103880,-117.647058823529,4,2,77,90,0,1
104194,-100,4,2,77,90,0,1
105451,-111.111111111111,4,2,77,90,0,1
105529,-111.111111111111,4,2,77,5,0,1
105608,-111.111111111111,4,2,77,90,0,1
105687,-111.111111111111,4,2,77,5,0,1
105765,-111.111111111111,4,2,77,90,0,1
105844,-111.111111111111,4,2,77,5,0,1
105922,-111.111111111111,4,2,77,90,0,1
106001,-111.111111111111,4,2,77,5,0,1
106079,-100,4,2,77,90,0,1
107964,-125,4,2,77,90,0,1
108043,-125,4,2,77,5,0,1
108121,-125,4,2,77,90,0,1
108200,-125,4,2,77,5,0,1
108278,-125,4,2,77,90,0,1
108357,-125,4,2,77,5,0,1
108435,-125,4,2,77,90,0,1
108514,-125,4,2,77,5,0,1
108592,-100,4,2,77,90,0,1
108749,-100,4,2,77,5,0,1
108828,-100,4,2,77,90,0,1
108985,-100,4,2,77,5,0,1
109064,-100,4,2,77,90,0,1
109221,-100,4,2,77,5,0,1
109299,-95.2380952380952,4,2,77,90,0,1
109456,-95.2380952380952,4,2,77,5,0,1
109535,-95.2380952380952,4,2,77,90,0,1
109613,-95.2380952380952,4,2,77,5,0,1
109692,-95.2380952380952,4,2,77,90,0,1
109770,-95.2380952380952,4,2,77,5,0,1
109849,-111.111111111111,4,2,77,90,0,1
110477,-90.9090909090908,4,2,77,90,0,1
110556,-90.9090909090908,4,2,77,5,0,1
110713,-90.9090909090908,4,2,77,90,0,1
110791,-90.9090909090908,4,2,77,5,0,1
110948,-90.9090909090908,4,2,77,90,0,0
110968,-90.9090909090908,4,2,78,5,0,0
110988,-90.9090909090908,4,2,77,10,0,0
111027,-90.9090909090908,4,2,78,15,0,0
111066,-90.9090909090908,4,2,77,20,0,0
111105,-90.9090909090908,4,2,78,25,0,0
111341,-90.9090909090908,4,2,78,5,0,0
111420,-100,4,2,77,90,0,1
111655,-100,4,2,77,5,0,1
111734,-100,4,2,77,90,0,1
111891,-100,4,2,77,5,0,1
111969,-100,4,2,77,90,0,1
113147,-100,4,2,77,5,0,1
113226,-100,4,2,77,90,0,1
113619,-111.111111111111,4,2,77,90,0,1
113933,-125,4,2,77,90,0,1
114875,-125,4,2,77,90,0,1
115503,-95.2380952380952,4,2,77,90,0,1
115660,-95.2380952380952,4,2,77,5,0,1
115739,-95.2380952380952,4,2,77,90,0,1
115896,-95.2380952380952,4,2,77,5,0,1
115975,-95.2380952380952,4,2,77,90,0,1
116053,-95.2380952380952,4,2,77,5,0,1
116132,-95.2380952380952,4,2,77,90,0,1
116760,-111.111111111111,4,2,77,90,0,1
117074,-125,4,2,77,90,0,1
118016,-142.857142857143,4,2,77,90,0,1
118095,-142.857142857143,4,2,77,5,0,1
118173,-142.857142857143,4,2,77,90,0,1
118252,-142.857142857143,4,2,77,5,0,1
118331,-117.647058823529,4,2,77,90,0,1
118409,-117.647058823529,4,2,77,5,0,1
118488,-117.647058823529,4,2,77,90,0,1
118645,-100,4,2,77,90,0,1
120215,-111.111111111111,4,2,77,90,0,1
120529,-90.9090909090909,4,2,77,90,0,1
120687,-90.9090909090909,4,2,77,5,0,1
120765,-90.9090909090909,4,2,77,90,0,1
120922,-90.9090909090909,4,2,77,5,0,1
121001,-90.9090909090909,4,2,77,90,0,1
121079,-90.9090909090909,4,2,77,5,0,1
121158,-142.857142857143,4,2,77,90,0,0
121236,-142.857142857143,4,2,77,60,0,0
122414,-133.333333333333,4,2,77,60,0,0
123043,-153.846153846153,4,2,77,60,0,0
123671,-200,4,2,77,60,0,0
125870,-133.333333333333,4,2,77,60,0,0
126184,-153.846153846154,4,2,77,60,0,0
127440,-166.666666666667,4,2,77,60,0,0
128069,-153.846153846154,4,2,77,65,0,0
128697,-153.846153846154,4,2,77,70,0,0
128776,-153.846153846154,4,2,77,40,0,0
131210,-153.846153846154,4,2,77,5,0,0

[Colours]
Combo1 : 17,254,176
Combo2 : 173,255,95
Combo3 : 255,88,100
Combo4 : 255,94,55

[HitObjects]
81,127,530,6,0,B|98:97|98:97|175:87,1,112,2|0,0:0|0:0,0:0:0:0:
236,27,1001,1,2,0:0:0:0:
321,148,1315,1,2,0:0:0:0:
435,54,1629,1,2,0:0:0:0:
435,54,1786,6,0,B|403:39|403:15|403:15|403:39|372:54,1,105.000004005432,2|0,0:0|0:0,0:0:0:0:
359,134,2257,2,0,B|349:187|349:187|290:194|280:252,1,157.500006008148,2|0,0:0|0:0,0:0:0:0:
425,284,2886,5,2,0:0:0:0:
423,278,2964,1,2,0:0:0:0:
421,272,3043,2,0,L|477:272,2,52.5000020027161,2|2|0,0:0|0:0|0:0,0:0:0:0:
344,319,3514,2,0,B|320:278|266:269|221:298|213:350|232:390|268:386|276:355|255:354,1,209.999993591309,2|0,0:0|0:0,0:0:0:0:
97,172,4770,5,2,0:0:0:0:
131,102,4927,2,0,B|69:82,2,62.9999980773926,2|2|2,0:0|0:0|0:0,0:0:0:0:
184,215,5556,6,0,B|216:169|277:185,1,105.000004005432,2|0,0:0|0:0,0:0:0:0:
332,126,6027,1,2,0:0:0:0:
418,246,6341,1,2,0:0:0:0:
418,246,6812,6,0,L|368:234,1,45.4999979171754,2|0,0:0|0:0,0:0:0:0:
309,283,7126,2,0,L|261:271,1,45.4999979171754,2|0,0:0|0:0,0:0:0:0:
191,189,7440,6,0,L|246:176,1,48.9999985046387,2|0,0:0|0:0,0:0:0:0:
131,264,7755,2,0,L|114:318,1,48.9999985046387,2|0,0:0|0:0,0:0:0:0:
90,164,8069,6,0,B|26:159|19:91,1,112,2|0,0:0|0:0,0:0:0:0:
141,102,8540,5,2,0:0:0:0:
162,241,8854,1,2,0:0:0:0:
303,224,9168,1,2,0:0:0:0:
303,224,9325,6,0,L|401:248,1,97.9999970092774,2|0,0:0|0:0,0:0:0:0:
466,193,9797,5,2,0:0:0:0:
466,188,9875,1,2,0:0:0:0:
466,183,9954,2,0,B|466:153|466:153|412:138|360:165|353:236|402:266,1,220.499993270874,2|0,0:0|0:0,0:0:0:0:
429,289,10582,6,0,B|381:312|381:312|377:347|377:347|331:369,1,140,6|0,1:2|0:0,0:0:0:0:
240,346,11053,2,0,B|170:366|135:302,1,125.999996154785,6|0,1:2|0:0,0:0:0:0:
45,226,11524,6,0,B|61:184|61:184|160:165,1,140,6|0,1:2|0:0,0:0:0:0:
208,81,11995,2,0,B|234:148|177:192,1,125.999996154785,6|0,1:2|0:0,0:0:0:0:
128,63,12467,6,0,L|74:53,1,52.5000020027161,6|0,1:2|0:0,0:0:0:0:
298,97,12781,6,0,L|356:107,1,59.5000011348725,6|0,1:2|1:2,0:0:0:0:
366,98,13016,1,0,1:2:0:0:
376,88,13095,6,0,B|390:172|473:168,1,140,6|0,1:2|1:2,0:0:0:0:
501,75,13566,2,0,B|523:1|523:1|516:26|488:36,1,125.999996154785,6|0,1:2|1:2,0:0:0:0:
393,173,14037,6,0,B|410:221|410:221|368:257|390:309,1,146.999995513916,6|0,1:2|1:2,0:0:0:0:
433,384,14509,2,0,B|386:332|317:359,1,125.999996154785,6|0,1:2|1:2,0:0:0:0:
171,284,14980,6,0,L|225:291,1,52.5000020027161,6|0,1:2|0:0,0:0:0:0:
252,205,15294,6,0,B|286:204|305:174,1,56,6|0,1:2|1:2,0:0:0:0:
256,93,15608,6,0,L|256:31,1,59.5000011348725,6|0,1:2|0:0,0:0:0:0:
215,161,15922,1,10,0:2:0:0:
302,211,16079,1,0,0:0:0:0:
205,268,16236,2,0,L|142:259,2,59.5000011348725,2|0|10,1:2|0:0|0:0,0:0:0:0:
256,370,16708,6,0,B|292:309|368:331,1,125.999996154785,2|2,0:0|1:2,0:0:0:0:
449,348,17179,5,10,0:0:0:0:
512,280,17336,5,0,1:2:0:0:
466,192,17493,6,0,B|444:182|444:167|444:167|444:182|423:192,1,70,2|0,1:2|1:2,0:0:0:0:
328,115,17807,6,0,B|297:131|297:131|266:116,1,70,10|2,0:0|1:2,0:0:0:0:
160,205,18121,5,4,1:2:0:0:
232,239,18278,1,2,1:2:0:0:
160,193,18435,2,0,L|108:174,1,56,6|0,1:2|1:2,0:0:0:0:
191,314,18749,6,0,B|235:248|314:277,1,140,6|2,1:2|1:2,0:0:0:0:
386,213,19221,1,6,1:2:0:0:
331,132,19378,6,0,L|314:22,2,112,6|2|2,1:2|0:0|1:2,0:0:0:0:
382,197,20163,1,0,1:2:0:0:
384,205,20242,1,0,1:2:0:0:
386,213,20320,2,0,B|360:272|300:256,1,105,14|0,0:2|0:0,0:0:0:0:
293,289,20634,6,0,L|238:278,1,56,4|2,1:2|0:0,0:0:0:0:
224,355,20948,2,0,L|279:366,1,56,2|0,1:2|0:0,0:0:0:0:
146,305,21262,5,2,1:2:0:0:
76,336,21420,1,2,0:0:0:0:
23,280,21577,1,2,1:2:0:0:
61,212,21734,1,0,0:0:0:0:
137,227,21891,6,0,B|174:237|174:237|182:266|182:266|238:280,1,125.999996154785,2|2,1:2|1:2,0:0:0:0:
293,339,22362,1,2,0:0:0:0:
371,273,22519,6,0,B|387:247|387:247|376:217,1,62.9999980773926,2|2,1:2|0:0,0:0:0:0:
494,322,22833,6,0,P|476:347|440:353,1,70,2|2,1:2|0:0,0:0:0:0:
440,353,23304,5,2,0:0:0:0:
405,286,23461,1,2,1:2:0:0:
376,216,23619,1,0,0:0:0:0:
450,118,23776,6,0,B|474:139|452:159,1,48.9999985046387,2|2,1:2|0:0,0:0:0:0:
376,216,24090,6,0,L|319:216,1,56,2|0,1:2|0:0,0:0:0:0:
256,309,24404,6,0,B|206:312|195:264|195:264|155:254,1,125.999996154785,2|2,1:2|1:2,0:0:0:0:
115,324,24875,1,2,0:3:0:0:
83,220,25032,6,0,L|70:168,1,52.5000020027161,2|2,1:2|0:0,0:0:0:0:
24,324,25346,6,0,B|-7:335|-20:364,1,59.5000011348725,2|0,1:2|1:2,0:0:0:0:
0,213,25660,5,2,1:2:0:0:
0,213,25817,1,2,1:2:0:0:
0,213,25975,2,0,L|57:199,1,56,2|2,1:2|0:0,0:0:0:0:
137,206,26289,2,0,L|82:219,1,56,2|2,1:2|0:0,0:0:0:0:
152,121,26603,2,0,L|212:107,1,56,2|2,1:2|0:0,0:0:0:0:
314,236,26917,5,2,1:2:0:0:
314,236,27074,1,2,0:0:0:0:
314,236,27231,2,0,L|254:226,1,59.5000011348725,2|2,1:2|0:0,0:0:0:0:
372,157,27545,2,0,L|430:166,1,59.5000011348725,2|2,1:2|0:0,0:0:0:0:
498,208,27859,2,0,L|439:198,1,59.5000011348725,2|2,1:2|1:2,0:0:0:0:
512,313,28173,5,2,1:2:0:0:
512,313,28331,1,2,1:2:0:0:
512,313,28488,2,0,B|485:328|481:358,1,56,2|2,1:2|0:0,0:0:0:0:
400,277,28802,6,0,B|374:304|387:338,1,66.4999982242585,2|2,1:2|0:0,0:0:0:0:
266,262,29116,6,0,B|252:305|286:331,1,77.0000023498536,2|2,1:2|1:2,0:0:0:0:
141,304,29430,6,0,B|139:305|137:305|137:305|137:307|137:307|136:304|136:304|136:306|136:306|133:306|132:307|132:307|132:309|132:309|131:305|131:305|131:307|131:307|129:307|127:308|127:308|127:310|127:310|126:306|126:306|126:308|126:308|124:308|122:309|122:309|122:311|122:311|121:306|121:306|121:309|121:309|119:309|117:309|117:309|117:311|117:311|116:308|116:308|116:309|116:309|114:310|112:310|112:310|112:312|112:312|111:308|111:308|111:310|111:310|109:310|107:310|107:310|107:312|107:312|106:308|106:308|106:310|106:310|104:310|102:310|102:310|102:312|102:312|102:308|102:308|101:310|101:310|99:310|97:310|97:310|96:311|96:311|97:308|97:308|96:309|96:309|94:309|92:309|92:309|91:311|91:311|92:307|92:307|91:309|91:309|89:309|87:308|87:308|86:310|86:310|87:306|87:306|86:308|86:308|84:307|82:307|82:307|81:309|81:309|82:305|82:305|81:307|81:307|79:306|77:306|77:306|76:307|76:307|77:304|77:304|77:305|77:305|75:305|73:304|73:304|72:305|72:305|73:302|73:302|72:304|72:304|70:303|68:302|68:302|67:304|67:304|68:300|68:300|67:302|67:302|65:301|64:300|64:300|62:302|62:302|64:298|64:298|63:300|63:300|61:299|59:298|59:298|58:299|58:299|60:296|60:296|58:297|58:297|56:296|55:295|55:295|53:297|53:297|56:293|56:293|54:295|54:295|52:294|51:292|51:292|49:294|49:294|52:290|52:290|50:292|50:292|48:291|47:289|47:289|45:291|45:291|48:287|48:287|46:289|46:289|44:287|43:286|43:286|41:287|41:287|44:284|44:284|42:285|42:285|41:284|39:283|39:283|38:284|38:284|40:281|40:281|39:282|39:282|37:280|36:279|36:279|34:280|34:280|37:278|37:278|35:278|35:278|34:276|33:275|33:275|31:276|31:276|34:274|34:274|32:274|32:274|31:272|30:271|30:271|28:272|28:272|31:270|31:270|29:270|29:270|28:268|27:267|27:267|25:268|25:268|28:265|28:265|26:266|26:266|25:264|24:263|24:263|22:263|22:263|26:261|26:261|24:262|24:262|23:260|22:258|22:258|20:258|20:258|23:257|23:257|22:257|22:257|21:255|20:254|20:254|18:254|18:254|22:252|22:252|20:253|20:253|19:251|18:249|18:249|16:249|16:249|20:248|20:248|18:248|18:248|17:246|17:244|17:244|14:244|14:244|18:243|18:243|16:243|16:243|16:241|15:239|15:239|13:239|13:239|17:238|17:238|15:238|15:238|15:236|14:235|14:235|12:234|12:234|16:234|16:234|14:234|14:234|14:231|13:230|13:230|12:229|12:229|15:229|15:229|13:229|13:229|13:227|13:225|13:225|11:224|11:224|15:224|15:224|13:224|13:224|13:221|13:220|13:220|11:219|11:219|14:219|14:219|13:219|13:219|13:216|13:215|13:215|11:214|11:214|14:214|14:214|13:214|13:214|13:211|13:210|13:210|11:209|11:209|15:209|15:209|13:209|13:209|13:206|13:205|13:205|12:204|12:204|15:204|15:204|13:204|13:204|14:201|14:200|14:200|12:199|12:199|16:200|16:200|14:199|14:199|15:196|15:195|15:195|13:194|13:194|17:195|17:195|15:194|15:194|16:192|16:190|16:190|14:189|14:189|18:190|18:190|16:189|16:189|17:187|17:185|17:185|16:184|16:184|19:185|19:185|18:184|18:184|18:182|19:180|19:180|17:179|17:179|21:181|21:181|19:180|19:180|20:177|21:176|21:176|19:175|19:175|23:176|23:176|21:175|21:175|22:173|23:171|23:171|21:170|21:170|25:172|25:172|23:170|23:170|24:170,1,558.857940484466,6|0,1:2|0:0,0:0:0:0:
23,169,30058,6,0,L|87:161,1,62.9999980773926,6|2,1:2|0:0,0:0:0:0:
159,102,30372,1,6,1:2:0:0:
229,184,30529,1,6,1:2:0:0:
229,193,30608,1,0,1:2:0:0:
229,202,30687,6,0,B|251:254|194:288|194:288|136:322|157:380,1,210,6|0,1:2|0:0,0:0:0:0:
270,362,31315,6,0,B|272:303|206:288|206:288|142:274|147:217,1,210,2|0,1:2|0:0,0:0:0:0:
71,121,31943,6,0,L|17:110,1,56,2|0,1:2|0:0,0:0:0:0:
123,187,32257,2,0,L|178:197,1,56,10|0,0:0|0:0,0:0:0:0:
302,150,32571,5,2,1:2:0:0:
364,201,32728,1,2,0:0:0:0:
430,158,32886,1,10,0:0:0:0:
410,81,33042,1,2,1:2:0:0:
331,76,33200,6,0,B|295:53|227:66|205:146|262:210|328:187|324:150|301:150,1,231.000007049561,2|0,1:2|0:0,0:0:0:0:
414,225,33828,6,0,B|305:175|255:277,1,188.999994232178,2|0,1:2|0:0,0:0:0:0:
148,357,34456,6,0,L|209:342,1,56,2|0,1:2|0:0,0:0:0:0:
100,258,34770,6,0,L|38:248,1,62.9999980773926,10|0,0:0|0:0,0:0:0:0:
164,159,35084,5,6,1:2:0:0:
134,65,35242,1,2,1:2:0:0:
212,126,35399,1,10,0:2:0:0:
115,122,35556,1,2,1:2:0:0:
195,68,35713,6,0,B|206:45|206:45|195:19,1,52.5000020027161,6|0,1:2|1:2,0:0:0:0:
256,158,36027,6,0,B|242:185|242:185|256:214,1,62.9999980773926,0|0,1:2|1:2,0:0:0:0:
332,293,36341,5,14,0:0:0:0:
242,322,36498,1,4,1:2:0:0:
152,351,36655,2,0,B|126:300|66:305,1,105,4|0,1:2|1:2,0:0:0:0:
30,289,36969,6,0,L|84:274,1,52.5000020027161,6|0,1:2|1:2,0:0:0:0:
155,159,37283,6,0,L|141:210,1,52.5000020027161,2|0,1:2|1:2,0:0:0:0:
193,330,37598,5,14,1:2:0:0:
256,376,37755,1,6,1:2:0:0:
319,330,37912,1,6,1:2:0:0:
294,254,38069,1,2,1:2:0:0:
216,254,38226,6,0,B|161:225|182:158,1,112,6|10,1:2|0:2,0:0:0:0:
181,158,38697,1,2,1:2:0:0:
294,295,38854,6,0,B|214:267|173:335,1,140,6|10,1:2|0:2,0:0:0:0:
173,334,39325,1,2,1:2:0:0:
102,270,39482,5,6,1:2:0:0:
410,270,39797,1,6,1:2:0:0:
256,335,40111,6,0,L|256:383,1,48.9999985046387,6|2,1:2|1:2,0:0:0:0:
212,265,40425,5,14,0:2:0:0:
296,200,40582,5,6,1:2:0:0:
256,93,40739,6,0,B|219:166|140:141,1,140,6|10,1:2|0:0,0:0:0:0:
78,186,41210,1,2,0:0:0:0:
6,106,41367,6,0,L|59:96,1,48.9999985046387,2|2,0:0|1:2,0:0:0:0:
78,186,41681,6,0,L|135:203,1,56,2|10,0:0|0:0,0:0:0:0:
148,307,41995,6,0,B|163:342|203:344,1,70,2|2,0:0|1:2,0:0:0:0:
300,381,42310,5,10,0:0:0:0:
216,383,42467,1,2,0:0:0:0:
322,343,42624,6,0,L|378:343,2,56,2|2|10,1:2|1:2|0:0,0:0:0:0:
256,287,43095,1,2,1:2:0:0:
256,279,43173,1,2,1:2:0:0:
256,271,43252,6,0,B|239:224|279:193|279:193|260:145,1,140,6|10,1:2|0:0,0:0:0:0:
314,84,43723,5,6,1:2:0:0:
161,45,44037,5,6,1:2:0:0:
127,209,44351,6,0,B|168:153|238:176,1,125.999996154785,6|6,1:2|1:2,0:0:0:0:
321,156,44823,6,0,L|260:144,1,62.9999980773926,14|2,0:0|0:0,0:0:0:0:
346,257,45137,6,0,L|398:268,1,52.5000020027161,6|2,1:2|1:2,0:0:0:0:
485,192,45451,5,14,0:0:0:0:
485,192,45608,1,6,1:2:0:0:
485,192,45765,6,0,B|519:140|481:85,1,112,6|10,1:2|0:0,0:0:0:0:
432,30,46236,1,2,1:2:0:0:
356,21,46393,1,2,1:2:0:0:
292,61,46550,1,2,1:2:0:0:
283,136,46708,2,0,L|339:153,1,56,10|2,0:0|1:2,0:0:0:0:
232,229,47022,6,0,B|187:241|187:241|179:270|179:270|128:283,1,125.999996154785,6|10,1:2|0:0,0:0:0:0:
62,250,47493,1,2,1:2:0:0:
107,189,47650,1,2,1:2:0:0:
42,149,47807,1,6,1:2:0:0:
87,88,47964,2,0,B|111:83|111:66|111:66|111:82|133:88,1,70,10|6,0:0|1:2,0:0:0:0:
230,48,48278,6,0,B|266:79|266:79|239:167,1,140,6|10,1:2|0:0,0:0:0:0:
220,243,48749,5,2,1:2:0:0:
243,322,48906,5,6,1:2:0:0:
328,337,49064,5,2,1:2:0:0:
407,294,49221,6,0,B|382:271|389:236,1,62.9999980773926,10|2,0:0|1:2,0:0:0:0:
425,137,49535,6,0,L|373:123,1,52.5000020027161,6|2,1:2|1:2,0:0:0:0:
374,123,49849,6,0,L|443:102,1,70,2|2,1:2|1:2,0:0:0:0:
393,28,50163,6,0,B|327:37|302:-21,2,110.249996635437,6|6|6,1:2|1:2|1:2,0:0:0:0:
486,95,50791,5,6,1:2:0:0:
486,95,50948,2,0,B|521:144|488:193,1,105,2|2,0:0|0:0,0:0:0:0:
444,293,51341,1,0,0:0:0:0:
444,282,51420,2,0,B|484:295|484:295|490:317|490:317|529:328,2,105,2|2|2,1:2|0:0|0:0,0:0:0:0:
305,347,52048,5,2,1:2:0:0:
305,347,52205,2,0,B|297:311|328:286|328:286|320:252,1,105,2|2,0:0|0:0,0:0:0:0:
269,159,52598,1,0,0:0:0:0:
269,170,52676,2,0,B|207:188|176:128,2,110.249996635437,2|2|2,1:2|0:0|0:0,0:0:0:0:
357,131,53304,6,0,L|287:131,1,62.9999980773926,2|2,1:2|0:0,0:0:0:0:
382,253,53619,6,0,L|436:253,1,52.5000020027161,10|2,0:0|0:0,0:0:0:0:
489,313,53933,6,0,B|546:293|533:228,2,105,2|2|2,1:2|0:0|0:0,0:0:0:0:
434,253,54561,5,2,1:2:0:0:
407,377,54797,5,2,0:0:0:0:
283,350,55032,5,2,1:2:0:0:
320,279,55189,6,0,B|352:293|352:293|383:278,1,70,6|6,1:2|1:2,0:0:0:0:
213,218,55503,5,6,1:2:0:0:
138,218,55660,1,6,1:2:0:0:
256,141,55817,6,0,B|330:156|354:83,1,125.999996154785,6|10,1:2|0:0,0:0:0:0:
298,30,56289,1,2,0:0:0:0:
185,66,56446,6,0,L|90:53,2,94.499997116089,2|2|2,1:2|0:0|0:0,0:0:0:0:
256,113,57074,5,6,1:2:0:0:
203,241,57310,5,2,0:0:0:0:
308,341,57545,5,2,1:2:0:0:
308,334,57624,1,0,1:2:0:0:
308,327,57702,2,0,L|361:299,1,52.5000020027161,6|6,1:2|1:2,0:0:0:0:
301,234,58016,5,6,1:2:0:0:
203,218,58173,5,6,1:2:0:0:
105,247,58331,6,0,B|68:200|108:146,2,105,6|6|6,1:2|1:2|1:2,0:0:0:0:
117,378,59037,6,0,B|148:329|208:344,1,105,6|6,1:2|1:2,0:0:0:0:
256,275,59430,1,6,1:2:0:0:
365,302,59587,6,0,B|379:271|379:271|362:238,1,70,6|2,1:2|1:2,0:0:0:0:
316,164,59901,1,2,1:2:0:0:
328,158,59980,1,2,1:2:0:0:
341,153,60058,1,2,1:2:0:0:
354,148,60137,1,2,1:2:0:0:
368,142,60215,2,0,B|352:85|406:55,2,105,6|6|6,1:2|1:2|1:2,0:0:0:0:
276,73,60844,5,6,1:2:0:0:
276,73,61001,2,0,B|207:84|207:84|187:113,1,105,2|2,0:0|0:0,0:0:0:0:
130,192,61393,1,0,0:0:0:0:
130,181,61472,2,0,B|70:195|46:138,2,105,2|2|2,1:2|0:0|0:0,0:0:0:0:
207,259,62100,5,2,1:2:0:0:
207,259,62257,2,0,B|234:259|234:259|255:271|255:271|275:259|275:259|305:259,1,105,2|2,0:0|0:0,0:0:0:0:
382,181,62650,1,0,0:0:0:0:
382,192,62729,2,0,B|442:206|466:149,2,105,2|2|2,1:2|0:0|0:0,0:0:0:0:
337,71,63357,6,0,B|361:69|364:53|364:53|361:69|379:81,1,70,2|2,1:2|0:0,0:0:0:0:
265,111,63671,2,0,L|210:96,1,56,10|2,0:0|0:0,0:0:0:0:
110,24,63985,5,2,1:2:0:0:
57,84,64142,1,2,0:0:0:0:
96,152,64299,1,10,0:0:0:0:
173,136,64456,1,2,0:0:0:0:
244,59,64613,6,0,L|182:59,1,62.9999980773926,6|2,1:2|1:2,0:0:0:0:
316,136,64927,5,2,1:2:0:0:
330,127,65006,1,2,1:2:0:0:
344,136,65084,1,2,1:2:0:0:
358,128,65164,1,2,1:2:0:0:
372,136,65242,2,0,B|408:82|366:29,2,115.50000352478,6|6|6,1:2|1:2|1:2,0:0:0:0:
437,191,65870,5,6,1:2:0:0:
308,240,66105,5,6,1:2:0:0:
356,373,66341,5,6,1:2:0:0:
433,350,66498,6,0,L|370:334,1,62.9999980773926,6|2,1:2|1:2,0:0:0:0:
259,246,66812,6,0,L|310:262,1,52.5000020027161,6|6,1:2|1:2,0:0:0:0:
178,184,67126,6,0,B|130:218|81:185,2,105,6|6|6,1:2|1:2|1:2,0:0:0:0:
256,106,67755,6,0,B|237:100|237:87|237:87|237:100|217:105,1,59.5000011348725,6|6,1:2|1:2,0:0:0:0:
332,139,68069,1,6,1:2:0:0:
407,106,68226,1,6,1:2:0:0:
487,139,68383,6,0,B|522:91|485:43,2,105,6|6|6,1:2|1:2|1:2,0:0:0:0:
442,251,69090,6,0,B|405:206|347:222,1,105,6|6,1:2|1:2,0:0:0:0:
281,266,69482,1,6,1:2:0:0:
202,192,69639,5,6,1:2:0:0:
206,183,69718,1,2,1:2:0:0:
210,174,69797,1,2,1:2:0:0:
214,165,69875,1,2,1:2:0:0:
218,156,69954,2,0,B|183:164|183:164|155:143,1,70,10|2,0:2|1:2,0:0:0:0:
43,102,70268,6,0,B|25:67|50:34|50:34|34:0,2,110.249996635437,6|6|6,1:2|1:2|1:2,0:0:0:0:
0,176,70896,5,6,1:2:0:0:
128,207,71210,1,2,0:0:0:0:
43,102,71524,1,2,0:0:0:0:
53,239,71838,1,2,0:0:0:0:
123,126,72153,6,0,B|181:144|181:144|192:186|192:186|255:202,1,167.999994873047,2|0,0:0|0:0,0:0:0:0:
374,306,73095,2,0,L|329:325,1,48.9999985046387,2|2,0:0|0:0,0:0:0:0:
256,384,73409,5,2,0:0:0:0:
189,290,73723,5,2,0:0:0:0:
310,211,74037,5,2,0:0:0:0:
154,124,74351,5,2,0:0:0:0:
336,17,74666,6,0,B|319:80|256:81,1,111.999996582031,2|2,0:0|0:0,0:0:0:0:
255,81,75189,5,2,0:0:0:0:
255,81,75294,5,2,0:0:0:0:
482,341,75922,6,0,B|438:284|371:306,1,125.999996154785,2|0,0:0|0:0,0:0:0:0:
285,364,76550,6,0,B|225:325|257:253,1,125.999996154785,2|0,0:0|0:0,0:0:0:0:
335,162,77179,6,0,B|360:152|365:128|365:128|350:207,1,125.999996154785,2|0,0:0|0:0,0:0:0:0:
257,253,77807,5,2,0:0:0:0:
371,306,78121,1,2,0:0:0:0:
208,384,78435,1,2,0:0:0:0:
208,384,79064,5,2,0:0:0:0:
226,255,79378,1,2,0:0:0:0:
243,138,79692,6,0,B|210:195|145:176,1,115.50000352478,2|0,0:0|0:0,0:0:0:0:
57,112,80320,6,0,B|97:133|97:133|114:259,1,171.499994766236,2|0,0:0|0:0,0:0:0:0:
99,281,80948,6,0,L|147:306,1,52.5000020027161,6|2,1:2|0:0,0:0:0:0:
277,288,81262,6,0,L|231:264,1,52.5000020027161,10|2,0:0|0:0,0:0:0:0:
341,231,81577,2,0,L|316:184,1,52.5000020027161,2|2,1:2|0:0,0:0:0:0:
425,221,81891,2,0,L|439:171,1,52.5000020027161,10|2,0:0|0:0,0:0:0:0:
475,76,82205,6,0,B|445:138|375:119,1,119.000002269745,6|10,1:2|0:0,0:0:0:0:
301,98,82676,1,2,0:0:0:0:
225,113,82833,1,2,1:2:0:0:
191,182,82990,1,2,0:0:0:0:
207,259,83147,2,0,L|264:244,1,56,10|2,0:0|1:2,0:0:0:0:
377,282,83461,5,6,1:2:0:0:
377,282,83619,1,0,1:2:0:0:
377,282,83776,2,0,L|419:324,1,59.5000011348725,10|0,0:0|1:2,0:0:0:0:
344,170,84090,5,6,1:2:0:0:
344,170,84247,1,0,1:2:0:0:
344,170,84404,2,0,L|360:110,1,62.9999980773926,10|0,0:0|1:2,0:0:0:0:
356,99,84639,1,0,1:2:0:0:
351,89,84718,6,0,B|317:89|306:61,1,48.9999985046387,6|0,1:2|1:2,0:0:0:0:
248,150,85032,6,0,B|223:131|231:95,1,56,12|0,0:2|1:2,0:0:0:0:
119,153,85346,6,0,B|113:117|140:94,1,66.4999982242585,6|0,1:2|1:2,0:0:0:0:
9,72,85660,6,0,B|28:36|70:31,1,73.4999977569581,4|0,1:2|1:2,0:0:0:0:
39,181,85975,6,0,B|105:197|105:197|120:241|120:241|187:254,2,181.999991668702,6|2|0,1:2|0:0|0:0,0:0:0:0:
176,139,87545,5,0,0:0:0:0:
256,306,87859,1,2,0:0:0:0:
336,139,88173,1,0,0:0:0:0:
445,258,88488,6,0,L|394:247,1,52.5000020027161,2|0,1:2|1:2,0:0:0:0:
508,207,88802,6,0,B|543:157|507:101,1,112,0|0,1:2|1:2,0:0:0:0:
422,121,89273,1,0,1:2:0:0:
336,139,89430,2,0,B|321:108|321:108|335:75,1,70,0|0,1:2|1:2,0:0:0:0:
267,250,89744,6,0,B|183:311|75:259|93:140,1,269.500008224488,6|0,1:2|0:0,0:0:0:0:
62,113,90372,5,6,1:2:0:0:
206,93,90687,1,6,1:2:0:0:
62,113,91001,6,0,B|82:170|38:207,1,105,6|2,1:2|1:2,0:0:0:0:
24,208,91315,1,2,1:2:0:0:
54,296,91472,6,0,B|114:294|135:347,1,105,6|2,1:2|1:2,0:0:0:0:
132,361,91786,1,0,1:2:0:0:
225,360,91943,6,0,B|242:302|299:298,1,105,6|2,1:2|1:2,0:0:0:0:
311,306,92257,1,2,1:2:0:0:
338,217,92414,6,0,B|288:182|302:126,1,105,6|2,1:2|1:2,0:0:0:0:
313,118,92728,1,2,1:2:0:0:
313,15,92886,6,0,L|373:36,1,62.9999980773926,6|2,1:2|1:2,0:0:0:0:
442,87,93200,2,0,L|390:69,1,56,6|2,1:2|1:2,0:0:0:0:
512,164,93514,6,0,B|512:225|455:241,1,105,6|2,1:2|1:2,0:0:0:0:
455,254,93828,1,2,1:2:0:0:
438,346,93985,6,0,B|379:364|347:315,1,105,6|2,1:2|1:2,0:0:0:0:
334,319,94299,1,0,1:2:0:0:
242,331,94456,6,0,B|206:281|242:235,1,105,6|2,1:2|1:2,0:0:0:0:
235,224,94770,1,2,1:2:0:0:
195,139,94928,6,0,B|230:89|286:110,1,105,6|2,1:2|1:2,0:0:0:0:
295,100,95242,1,2,1:2:0:0:
370,37,95399,6,0,B|381:12|381:12|370:-15,1,56,6|2,1:2|1:2,0:0:0:0:
414,117,95713,6,0,B|399:89|399:89|413:57,1,66.4999982242585,6|2,1:2|1:2,0:0:0:0:
505,219,96027,6,0,B|482:206|486:184|486:184|482:206|456:209,1,84,6|2,1:2|1:2,0:0:0:0:
458,221,96341,1,2,1:2:0:0:
385,149,96498,6,0,B|355:149|348:126|348:126|355:149|334:169,1,94.499997116089,6|2,1:2|1:2,0:0:0:0:
335,181,96812,1,2,1:2:0:0:
240,137,96969,6,0,B|208:147|192:124|192:124|208:147|196:177,1,105,6|2,1:2|1:2,0:0:0:0:
198,185,97283,1,2,1:2:0:0:
85,184,97440,6,0,B|58:209|31:194|31:194|58:209|60:244,1,115.50000352478,6|2,1:2|1:2,0:0:0:0:
60,252,97754,1,2,1:2:0:0:
50,364,97912,6,0,B|118:344,1,70,6|2,1:2|1:2,0:0:0:0:
207,344,98226,2,0,L|146:363,1,62.9999980773926,6|2,1:2|1:2,0:0:0:0:
303,285,98540,6,0,B|350:251|335:191,1,105,6|2,1:2|1:2,0:0:0:0:
320,192,98854,1,2,1:2:0:0:
186,220,99011,6,0,B|137:181|161:115,1,115.50000352478,6|2,1:2|1:2,0:0:0:0:
176,116,99325,1,2,1:2:0:0:
256,5,99482,6,0,L|256:57,1,52.5000020027161,6|2,1:2|1:2,0:0:0:0:
343,161,99797,6,0,L|294:182,1,52.5000020027161,2|6,1:2|1:2,0:0:0:0:
294,181,100111,6,0,L|360:209,1,70,2|2,1:2|1:2,0:0:0:0:
318,284,100425,6,0,B|250:272|220:330,2,115.50000352478,6|6|6,1:2|1:2|1:2,0:0:0:0:
424,333,101053,5,6,1:2:0:0:
424,333,101210,2,0,B|458:311|458:311|465:246,1,105,2|2,0:0|0:0,0:0:0:0:
423,150,101603,1,0,0:0:0:0:
423,162,101681,2,0,B|365:143|374:78,2,105,2|2|2,1:2|0:0|0:0,0:0:0:0:
508,262,102310,5,2,1:2:0:0:
508,262,102467,2,0,B|422:316,1,99.7499973363877,2|2,0:0|0:0,0:0:0:0:
328,376,102859,1,0,0:0:0:0:
328,363,102938,2,0,B|287:311|225:333,2,115.50000352478,2|2|2,1:2|0:0|0:0,0:0:0:0:
311,204,103566,6,0,B|373:204,1,62.9999980773926,2|2,1:2|0:0,0:0:0:0:
182,183,103880,6,0,B|200:244,1,59.5000011348725,10|2,0:0|0:0,0:0:0:0:
236,117,104194,6,0,B|229:80|262:57|262:57|256:21,2,105,2|2|2,1:2|0:0|0:0,0:0:0:0:
182,183,104823,5,2,1:2:0:0:
311,204,105058,5,2,0:0:0:0:
287,335,105294,5,2,1:2:0:0:
209,296,105451,6,0,B|189:292|189:275|189:275|189:292|169:296,1,62.9999980773926,6|6,1:2|1:2,0:0:0:0:
311,204,105765,5,6,1:2:0:0:
232,184,105922,1,6,1:2:0:0:
346,101,106079,6,0,B|379:81|379:81|439:100|420:161,1,140,6|10,1:2|0:0,0:0:0:0:
482,212,106550,1,2,0:0:0:0:
391,295,106708,6,0,B|426:245|486:261,2,105,2|2|2,1:2|0:0|0:0,0:0:0:0:
393,374,107336,5,6,1:2:0:0:
256,334,107571,5,2,0:0:0:0:
296,195,107807,5,2,1:2:0:0:
296,202,107886,1,0,1:2:0:0:
296,209,107964,2,0,L|241:209,1,56,6|6,1:2|1:2,0:0:0:0:
160,238,108278,5,6,1:2:0:0:
77,209,108435,5,6,1:2:0:0:
63,120,108592,6,0,B|113:85|99:30,2,105,6|6|6,1:2|1:2|1:2,0:0:0:0:
7,236,109299,6,0,B|44:252|44:252|51:276|51:276|93:293,1,110.249996635437,6|4,1:2|1:2,0:0:0:0:
158,341,109692,1,4,1:2:0:0:
242,244,109849,6,0,B|223:237|223:222|223:222|223:237|204:244,1,62.9999980773926,6|2,1:2|1:2,0:0:0:0:
313,292,110163,1,2,1:2:0:0:
324,292,110242,1,2,1:2:0:0:
335,292,110320,1,2,1:2:0:0:
346,292,110399,1,2,1:2:0:0:
357,292,110477,6,0,B|389:292|389:292|412:307|412:307|435:292|435:292|469:292,2,115.50000352478,6|6|2,1:2|1:2|1:2,0:0:0:0:
260,109,111420,5,6,1:2:0:0:
260,109,111498,2,0,B|227:119|227:119|198:95,1,70,2|0,0:0|0:0,0:0:0:0:
200,80,111734,2,0,B|161:71|161:71|152:49|152:49|113:37,2,105,2|2|2,1:2|0:0|0:0,0:0:0:0:
285,0,112362,5,2,1:2:0:0:
285,0,112519,2,0,B|346:-11|369:48,1,105,2|2,0:0|0:0,0:0:0:0:
451,115,112912,1,0,0:0:0:0:
466,115,112990,2,0,B|494:80|494:80|474:20,2,105,2|2|2,1:2|0:0|0:0,0:0:0:0:
436,228,113619,6,0,L|381:194,1,62.9999980773926,2|2,1:2|0:0,0:0:0:0:
297,182,113933,2,0,L|344:212,1,56,10|2,0:0|0:0,0:0:0:0:
256,303,114247,5,2,1:2:0:0:
220,232,114404,1,2,0:0:0:0:
144,212,114561,1,10,0:0:0:0:
69,236,114718,1,2,0:0:0:0:
0,156,114875,6,0,B|17:151|17:137|17:137|17:151|35:156,1,56,6|2,1:2|1:2,0:0:0:0:
69,236,115189,5,2,1:2:0:0:
80,248,115268,1,2,1:2:0:0:
69,258,115346,1,2,1:2:0:0:
80,270,115425,1,2,1:2:0:0:
69,282,115503,2,0,B|5:271|-25:324,2,110.249996635437,6|6|6,1:2|1:2|1:2,0:0:0:0:
142,346,116132,5,6,1:2:0:0:
256,226,116367,5,6,1:2:0:0:
370,346,116603,5,6,1:2:0:0:
424,275,116760,6,0,B|444:304|481:304,1,62.9999980773926,6|2,1:2|1:2,0:0:0:0:
370,346,117074,6,0,L|312:347,1,56,6|6,1:2|1:2,0:0:0:0:
229,384,117388,5,6,1:2:0:0:
185,234,117624,5,6,1:2:0:0:
335,192,117859,5,6,1:2:0:0:
275,131,118016,6,0,L|266:82,1,48.9999985046387,6|6,1:2|1:2,0:0:0:0:
335,192,118331,6,0,L|346:250,1,59.5000011348725,6|6,1:2|1:2,0:0:0:0:
411,320,118645,6,0,B|372:275|314:295,2,105,6|6|6,1:2|1:2|1:2,0:0:0:0:
474,192,119351,6,0,B|509:144|470:93,1,105,6|6,1:2|1:2,0:0:0:0:
395,94,119744,1,6,1:2:0:0:
307,16,119901,5,6,1:2:0:0:
305,22,119980,1,2,1:2:0:0:
303,28,120058,1,2,1:2:0:0:
301,34,120137,1,2,1:2:0:0:
299,40,120215,2,0,L|237:40,1,62.9999980773926,10|2,0:0|1:2,0:0:0:0:
395,94,120529,6,0,B|400:53|441:40|441:40|444:1,2,115.50000352478,6|6|6,1:2|1:2|1:2,0:0:0:0:
434,192,121158,6,0,B|400:112|318:127,1,146.999995513916,6|0,1:2|0:0,0:0:0:0:
256,68,121786,2,0,B|279:219,1,146.999995513916,2|0,0:0|0:0,0:0:0:0:
256,331,122414,6,0,B|237:375|183:377|141:345|153:294|181:297|191:312|181:320,1,157.500006008148,2|0,0:0|0:0,0:0:0:0:
181,319,123043,2,0,B|132:335|132:335|123:366|123:366|72:382,1,136.499993751526,2|0,0:0|0:0,0:0:0:0:
0,243,123671,6,0,B|40:241|49:201|49:201|40:241|74:265,1,140,2|2,0:0|0:0,0:0:0:0:
197,340,124613,5,2,0:0:0:0:
310,277,124927,5,0,0:0:0:0:
359,374,125242,5,0,0:0:0:0:
172,311,125556,5,2,0:0:0:0:
319,225,125870,6,0,L|309:277,1,52.5000020027161,2|2,0:0|0:0,0:0:0:0:
256,177,126184,6,0,B|335:202|370:128,1,136.499993751526,2|0,0:0|0:0,0:0:0:0:
397,53,126812,2,0,L|432:190,1,136.499993751526,2|0,0:0|0:0,0:0:0:0:
462,319,127440,6,0,B|495:294|495:294|411:283,1,125.999996154785,2|0,0:0|0:0,0:0:0:0:
361,361,128069,2,0,B|285:388|256:304,1,136.499993751526,2|0,0:0|0:0,0:0:0:0:
256,192,128697,5,6,1:2:0:0:
256,192,128776,12,0,131210,0:0:0:0:
