osu file format v14

[General]
AudioFilename: audio.mp3
AudioLeadIn: 0
PreviewTime: 49490
Countdown: 0
SampleSet: Soft
StackLeniency: 0.4
Mode: 0
LetterboxInBreaks: 0
WidescreenStoryboard: 1

[Editor]
Bookmarks: 85381,119346
DistanceSpacing: 0.94
BeatDivisor: 8
GridSize: 32
TimelineZoom: 2.3

[Metadata]
Title:opaque
TitleUnicode:opaque
Artist:Maverick
ArtistUnicode:Maverick
Creator:Niva
Version:Down's Extra
Source:
Tags:ashrount xect. oasis nm2 arcade core down k-shootmania selection pack ver2 ver.2 ksm featured artist fa mappers' guild mpg electronic instrumental
BeatmapID:4049712
BeatmapSetID:1955283

[Difficulty]
HPDrainRate:5
CircleSize:4
OverallDifficulty:8.4
ApproachRate:9
SliderMultiplier:1.8
SliderTickRate:1

[Events]
//Background and Video events
0,0,"a Rain list.jpg",0,0
//Break Periods
2,71096,79092
//Storyboard Layer 0 (Background)
//Storyboard Layer 1 (Fail)
//Storyboard Layer 2 (Pass)
//Storyboard Layer 3 (Foreground)
//Storyboard Layer 4 (Overlay)
//Storyboard Sound Samples

[TimingPoints]
530,314.13612565445,4,2,77,60,1,0
530,-133.333333333333,4,2,77,60,0,0
10503,-133.333333333333,4,2,77,5,0,0
10582,-83.3333333333333,4,2,77,90,0,0
11289,-83.3333333333333,4,2,77,5,0,0
11367,-83.3333333333333,4,2,77,90,0,0
11446,-83.3333333333333,4,2,77,5,0,0
11524,-83.3333333333333,4,2,77,90,0,0
11760,-83.3333333333333,4,2,77,5,0,0
11838,-83.3333333333333,4,2,77,90,0,0
11917,-83.3333333333333,4,2,77,5,0,0
11995,-83.3333333333333,4,2,77,90,0,0
12231,-83.3333333333333,4,2,77,5,0,0
12310,-83.3333333333333,4,2,77,90,0,0
12388,-83.3333333333333,4,2,77,5,0,0
12467,-83.3333333333333,4,2,77,90,0,0
13331,-83.3333333333333,4,2,77,5,0,0
13409,-83.3333333333333,4,2,77,90,0,0
13488,-83.3333333333333,4,2,77,5,0,0
13566,-83.3333333333333,4,2,77,90,0,0
13802,-83.3333333333333,4,2,77,5,0,0
13880,-83.3333333333333,4,2,77,90,0,0
13959,-83.3333333333333,4,2,77,5,0,0
14037,-83.3333333333333,4,2,77,90,0,0
14273,-83.3333333333333,4,2,77,5,0,0
14351,-83.3333333333333,4,2,77,90,0,0
14430,-83.3333333333333,4,2,77,5,0,0
14509,-83.3333333333333,4,2,77,90,0,0
14744,-83.3333333333333,4,2,77,5,0,0
14823,-83.3333333333333,4,2,77,90,0,0
14901,-83.3333333333333,4,2,77,5,0,0
14980,-83.3333333333333,4,2,77,90,0,0
15765,-83.3333333333333,4,2,77,70,0,0
15922,-83.3333333333333,4,2,77,75,0,0
16708,-83.3333333333333,4,2,77,80,0,0
18121,-83.3333333333333,4,2,77,85,0,0
18906,-83.3333333333333,4,2,77,90,0,0
18946,-83.3333333333333,4,2,77,60,0,0
19064,-83.3333333333333,4,2,77,90,0,0
19142,-83.3333333333333,4,2,77,5,0,0
19221,-83.3333333333333,4,2,77,90,0,0
19260,-83.3333333333333,4,2,77,60,0,0
19378,-83.3333333333333,4,2,77,90,0,0
20556,-83.3333333333333,4,2,77,5,0,0
20634,-100,4,2,77,75,0,0
25386,-100,4,2,77,55,0,0
25660,-100,4,2,77,80,0,0
25739,-100,4,2,77,5,0,0
25817,-100,4,2,77,80,0,0
25896,-100,4,2,77,5,0,0
25975,-100,4,2,77,80,0,0
28173,-100,4,2,77,85,0,0
28252,-100,4,2,77,5,0,0
28331,-100,4,2,77,85,0,0
28409,-100,4,2,77,5,0,0
28488,-100,4,2,77,85,0,0
28723,-100,4,2,77,5,0,0
28802,-100,4,2,77,85,0,0
29666,-100,4,2,77,5,0,0
29744,-100,4,2,77,85,0,0
29823,-100,4,2,77,5,0,0
29901,-100,4,2,77,85,0,0
29980,-100,4,2,77,5,0,0
30058,-100,4,2,77,85,0,0
30215,-100,4,2,77,5,0,0
30294,-100,4,2,77,85,0,0
30687,-100,4,2,77,90,0,0
32179,-100,4,2,77,5,0,0
32257,-100,4,2,77,90,0,0
32650,-100,4,2,77,5,0,0
32728,-100,4,2,77,90,0,0
32807,-100,4,2,77,5,0,0
32886,-100,4,2,77,90,0,0
34692,-100,4,2,77,5,0,0
34770,-100,4,2,77,90,0,0
35006,-100,4,2,77,5,0,0
35084,-100,4,2,77,90,0,0
35163,-100,4,2,77,5,0,0
35242,-100,4,2,77,90,0,0
35320,-100,4,2,77,5,0,0
35399,-100,4,2,77,90,0,0
35477,-100,4,2,77,5,0,0
35556,-100,4,2,77,90,0,0
35634,-100,4,2,77,5,0,0
35713,-100,4,2,77,90,0,0
36420,-100,4,2,77,5,0,0
36498,-100,4,2,77,90,0,0
36577,-100,4,2,77,5,0,0
36655,-100,4,2,77,90,0,0
37676,-100,4,2,77,5,0,0
37755,-100,4,2,77,90,0,0
37833,-100,4,2,77,5,0,0
37912,-100,4,2,77,90,0,0
39522,-100,4,2,77,60,0,0
39797,-100,4,2,77,90,0,0
39836,-100,4,2,77,60,0,0
40111,-100,4,2,77,90,0,0
40189,-100,4,2,77,5,0,0
40268,-100,4,2,77,90,0,0
40346,-100,4,2,77,5,0,0
40425,-100,4,2,77,90,0,0
40503,-100,4,2,77,5,0,0
40582,-100,4,2,77,90,0,0
40660,-100,4,2,77,5,0,0
40739,-100,4,2,77,90,0,0
40975,-100,4,2,77,5,0,0
41053,-100,4,2,77,90,0,0
43488,-100,4,2,77,5,0,0
43566,-100,4,2,77,90,0,0
43645,-100,4,2,77,5,0,0
43723,-100,4,2,77,90,0,0
45372,-100,4,2,77,5,0,0
45451,-100,4,2,77,90,0,0
47846,-100,4,2,77,60,0,0
47964,-100,4,2,77,90,0,0
48160,-100,4,2,77,60,0,0
48278,-100,4,2,77,90,0,0
49535,-100,4,2,78,90,0,0
50163,-83.3333333333333,4,2,77,95,0,1
50320,-83.3333333333333,4,2,77,5,0,1
50399,-83.3333333333333,4,2,77,95,0,1
50556,-83.3333333333333,4,2,77,5,0,1
50634,-83.3333333333333,4,2,77,95,0,1
50713,-83.3333333333333,4,2,77,5,0,0
50791,-83.3333333333333,4,2,77,90,0,1
51341,-83.3333333333333,4,2,77,5,0,1
51420,-83.3333333333333,4,2,77,90,0,1
51577,-83.3333333333333,4,2,77,5,0,1
51655,-83.3333333333333,4,2,77,90,0,1
52598,-83.3333333333333,4,2,77,5,0,1
52676,-83.3333333333333,4,2,77,90,0,1
52833,-83.3333333333333,4,2,77,5,0,1
52912,-83.3333333333333,4,2,77,90,0,1
54090,-83.3333333333333,4,2,77,5,0,1
54168,-83.3333333333333,4,2,77,90,0,1
54718,-83.3333333333333,4,2,77,5,0,1
54797,-83.3333333333333,4,2,77,90,0,1
54954,-83.3333333333333,4,2,77,5,0,1
55032,-83.3333333333333,4,2,77,90,0,1
55111,-83.3333333333333,4,2,77,5,0,1
55189,-83.3333333333333,4,2,77,90,0,1
55268,-83.3333333333333,4,2,77,5,0,1
55346,-83.3333333333333,4,2,77,90,0,1
55425,-83.3333333333333,4,2,77,5,0,1
55503,-83.3333333333333,4,2,77,90,0,1
55582,-83.3333333333333,4,2,77,5,0,1
55660,-83.3333333333333,4,2,77,90,0,1
55739,-83.3333333333333,4,2,77,5,0,1
55817,-83.3333333333333,4,2,77,90,0,1
56603,-83.3333333333333,4,2,77,5,0,1
56681,-83.3333333333333,4,2,77,90,0,1
57231,-83.3333333333333,4,2,77,5,0,1
57310,-83.3333333333333,4,2,77,90,0,1
57467,-83.3333333333333,4,2,77,5,0,1
57545,-83.3333333333333,4,2,77,90,0,1
57781,-83.3333333333333,4,2,77,5,0,1
57859,-83.3333333333333,4,2,77,90,0,1
57938,-83.3333333333333,4,2,77,5,0,1
58016,-83.3333333333333,4,2,77,90,0,1
58095,-83.3333333333333,4,2,77,5,0,1
58173,-83.3333333333333,4,2,77,90,0,1
58252,-83.3333333333333,4,2,77,5,0,1
58331,-83.3333333333333,4,2,77,90,0,1
58488,-83.3333333333333,4,2,77,5,0,1
58566,-83.3333333333333,4,2,77,90,0,1
58723,-83.3333333333333,4,2,77,5,0,1
58802,-83.3333333333333,4,2,77,90,0,1
58959,-83.3333333333333,4,2,77,5,0,1
59037,-83.3333333333333,4,2,77,90,0,1
59194,-83.3333333333333,4,2,77,5,0,1
59273,-83.3333333333333,4,2,77,90,0,1
59351,-83.3333333333333,4,2,77,5,0,1
59430,-83.3333333333333,4,2,77,90,0,1
59509,-83.3333333333333,4,2,77,5,0,1
59587,-83.3333333333333,4,2,77,90,0,1
60294,-83.3333333333333,4,2,77,5,0,1
60451,-83.3333333333333,4,2,77,90,0,1
60529,-83.3333333333333,4,2,77,5,0,1
60687,-83.3333333333333,4,2,77,90,0,1
60765,-83.3333333333333,4,2,77,5,0,0
60844,-83.3333333333333,4,2,77,90,0,1
61393,-83.3333333333333,4,2,77,5,0,1
61472,-83.3333333333333,4,2,77,90,0,1
61629,-83.3333333333333,4,2,77,5,0,1
61708,-83.3333333333333,4,2,77,90,0,1
62650,-83.3333333333333,4,2,77,5,0,1
62728,-83.3333333333333,4,2,77,90,0,1
62886,-83.3333333333333,4,2,77,5,0,1
62964,-83.3333333333333,4,2,77,90,0,1
64692,-83.3333333333333,4,2,77,5,0,1
64770,-83.3333333333333,4,2,77,90,0,1
64849,-83.3333333333333,4,2,77,5,0,1
64927,-83.3333333333333,4,2,77,90,0,1
65399,-83.3333333333333,4,2,77,5,0,1
65477,-83.3333333333333,4,2,77,90,0,1
65634,-83.3333333333333,4,2,77,5,0,1
65713,-83.3333333333333,4,2,77,90,0,1
65791,-83.3333333333333,4,2,77,5,0,1
65870,-83.3333333333333,4,2,77,90,0,1
67833,-83.3333333333333,4,2,77,5,0,1
67912,-83.3333333333333,4,2,77,90,0,1
67990,-83.3333333333333,4,2,77,5,0,1
68069,-83.3333333333333,4,2,77,90,0,1
68147,-83.3333333333333,4,2,77,5,0,1
68226,-83.3333333333333,4,2,77,90,0,1
68304,-83.3333333333333,4,2,77,5,0,1
68383,-83.3333333333333,4,2,77,90,0,1
68422,-83.3333333333333,4,2,77,60,0,1
68619,-83.3333333333333,4,2,77,90,0,1
68658,-83.3333333333333,4,2,77,60,0,1
68854,-83.3333333333333,4,2,77,90,0,1
70425,-83.3333333333333,4,2,77,5,0,1
70503,-83.3333333333333,4,2,77,90,0,1
70660,-83.3333333333333,4,2,77,5,0,1
70739,-83.3333333333333,4,2,77,90,0,1
70817,-83.3333333333333,4,2,77,5,0,1
70896,-133.333333333333,4,2,77,90,0,0
70975,-133.333333333333,4,2,77,60,0,0
79692,-133.333333333333,4,2,77,30,0,0
79849,-133.333333333333,4,2,77,35,0,0
80006,-133.333333333333,4,2,77,40,0,0
80163,-133.333333333333,4,2,77,45,0,0
80320,-133.333333333333,4,2,77,50,0,0
80477,-133.333333333333,4,2,77,55,0,0
80634,-133.333333333333,4,2,77,50,0,0
80791,-133.333333333333,4,2,77,5,0,0
80870,-133.333333333333,4,2,77,5,0,0
80948,-100,4,2,77,80,0,0
81027,-100,4,2,77,70,0,0
81577,-100,4,2,77,75,0,0
82205,-100,4,2,77,80,0,0
82833,-100,4,2,77,85,0,0
83304,-100,4,2,77,85,0,0
83383,-100,4,2,77,5,0,0
83461,-100,4,2,77,90,0,0
85386,-100,4,2,77,60,0,0
85660,-100,4,2,77,90,0,0
85700,-100,4,2,77,60,0,0
85975,-100,4,2,77,90,0,0
86053,-100,4,2,77,60,0,0
88566,-100,4,2,77,50,0,0
88645,-100,4,2,77,55,0,0
88802,-100,4,2,77,60,0,0
88959,-100,4,2,77,65,0,0
89116,-100,4,2,77,70,0,0
89273,-100,4,2,77,75,0,0
89430,-100,4,2,77,80,0,0
89587,-100,4,2,77,85,0,0
89744,-100,4,2,77,90,0,0
90294,-100,4,2,77,5,0,0
90372,-100,4,2,77,80,0,0
90412,-100,4,2,77,5,0,0
90687,-100,4,2,77,80,0,0
90726,-100,4,2,77,5,0,0
91001,-83.3333333333333,4,2,77,90,0,1
91079,-83.3333333333333,4,2,77,90,0,0
91393,-83.3333333333333,4,2,77,5,0,0
91472,-83.3333333333333,4,2,77,90,0,1
91550,-83.3333333333333,4,2,77,90,0,0
91865,-83.3333333333333,4,2,77,5,0,0
91943,-83.3333333333333,4,2,77,90,0,1
92022,-83.3333333333333,4,2,77,90,0,0
92336,-83.3333333333333,4,2,77,5,0,0
92414,-83.3333333333333,4,2,77,90,0,1
92493,-83.3333333333333,4,2,77,90,0,0
92807,-83.3333333333333,4,2,77,5,0,0
92886,-83.3333333333333,4,2,77,90,0,0
93278,-83.3333333333333,4,2,77,5,0,0
93357,-83.3333333333333,4,2,77,90,0,0
93435,-83.3333333333333,4,2,77,5,0,0
93514,-83.3333333333333,4,2,77,90,0,1
93592,-83.3333333333333,4,2,77,90,0,0
93906,-83.3333333333333,4,2,77,5,0,0
93985,-83.3333333333333,4,2,77,90,0,1
94064,-83.3333333333333,4,2,77,90,0,0
94378,-83.3333333333333,4,2,77,5,0,0
94456,-83.3333333333333,4,2,77,90,0,1
94535,-83.3333333333333,4,2,77,90,0,0
94849,-83.3333333333333,4,2,77,5,0,0
94927,-83.3333333333333,4,2,77,90,0,1
95006,-83.3333333333333,4,2,77,90,0,0
95320,-83.3333333333333,4,2,77,5,0,0
95399,-83.3333333333333,4,2,77,90,0,0
95791,-83.3333333333333,4,2,77,5,0,0
95870,-83.3333333333333,4,2,77,90,0,0
95948,-83.3333333333333,4,2,77,5,0,0
96027,-83.3333333333333,4,2,77,90,0,1
96105,-83.3333333333333,4,2,77,90,0,0
96498,-83.3333333333333,4,2,77,90,0,1
96577,-83.3333333333333,4,2,77,90,0,0
96969,-83.3333333333333,4,2,77,90,0,1
97048,-83.3333333333333,4,2,77,90,0,0
97440,-83.3333333333333,4,2,77,90,0,1
97519,-83.3333333333333,4,2,77,90,0,0
98540,-83.3333333333333,4,2,77,90,0,1
98619,-83.3333333333333,4,2,77,90,0,0
99011,-83.3333333333333,4,2,77,90,0,1
99090,-83.3333333333333,4,2,77,90,0,0
99482,-83.3333333333333,4,2,77,90,0,1
99561,-83.3333333333333,4,2,77,90,0,0
99797,-83.3333333333333,4,2,78,90,0,0
99836,-83.3333333333333,4,2,78,50,0,0
99954,-83.3333333333333,4,2,78,60,0,0
100111,-83.3333333333333,4,2,78,70,0,0
100268,-83.3333333333333,4,2,78,80,0,0
100425,-83.3333333333333,4,2,77,95,0,1
100582,-83.3333333333333,4,2,77,5,0,1
100660,-83.3333333333333,4,2,77,95,0,1
100817,-83.3333333333333,4,2,77,5,0,1
100896,-83.3333333333333,4,2,77,95,0,1
100975,-83.3333333333333,4,2,77,5,0,0
101053,-83.3333333333333,4,2,77,90,0,1
101603,-83.3333333333333,4,2,77,5,0,1
101681,-83.3333333333333,4,2,77,90,0,1
101838,-83.3333333333333,4,2,77,5,0,1
101917,-83.3333333333333,4,2,77,90,0,1
102859,-83.3333333333333,4,2,77,5,0,1
102938,-83.3333333333333,4,2,77,90,0,1
103095,-83.3333333333333,4,2,77,5,0,1
103173,-83.3333333333333,4,2,77,90,0,1
104351,-83.3333333333333,4,2,77,5,0,1
104430,-83.3333333333333,4,2,77,90,0,1
105215,-83.3333333333333,4,2,77,5,0,1
105294,-83.3333333333333,4,2,77,90,0,1
105372,-83.3333333333333,4,2,77,5,0,1
105451,-83.3333333333333,4,2,77,90,0,1
105529,-83.3333333333333,4,2,77,5,0,1
105608,-83.3333333333333,4,2,77,90,0,1
105687,-83.3333333333333,4,2,77,5,0,1
105765,-83.3333333333333,4,2,77,90,0,1
105844,-83.3333333333333,4,2,77,5,0,1
105922,-83.3333333333333,4,2,77,90,0,1
106001,-83.3333333333333,4,2,77,5,0,1
106079,-83.3333333333333,4,2,77,90,0,1
106865,-83.3333333333333,4,2,77,5,0,1
106943,-83.3333333333333,4,2,77,90,0,1
107493,-83.3333333333333,4,2,77,5,0,1
107571,-83.3333333333333,4,2,77,90,0,1
108043,-83.3333333333333,4,2,77,5,0,1
108121,-83.3333333333333,4,2,77,90,0,1
108200,-83.3333333333333,4,2,77,5,0,1
108278,-83.3333333333333,4,2,77,90,0,1
108357,-83.3333333333333,4,2,77,5,0,1
108435,-83.3333333333333,4,2,77,90,0,1
108514,-83.3333333333333,4,2,77,5,0,1
108592,-83.3333333333333,4,2,77,90,0,1
108749,-83.3333333333333,4,2,77,5,0,1
108828,-83.3333333333333,4,2,77,90,0,1
108985,-83.3333333333333,4,2,77,5,0,1
109064,-83.3333333333333,4,2,77,90,0,1
109221,-83.3333333333333,4,2,77,5,0,1
109299,-83.3333333333333,4,2,77,90,0,1
109456,-83.3333333333333,4,2,77,5,0,1
109535,-83.3333333333333,4,2,77,90,0,1
109613,-83.3333333333333,4,2,77,5,0,1
109692,-83.3333333333333,4,2,77,90,0,1
109770,-83.3333333333333,4,2,77,5,0,1
109849,-83.3333333333333,4,2,77,90,0,1
110556,-83.3333333333333,4,2,77,5,0,1
110713,-83.3333333333333,4,2,77,90,0,1
110791,-83.3333333333333,4,2,77,5,0,1
110948,-83.3333333333333,4,2,77,90,0,1
110968,-83.3333333333333,4,2,78,5,0,1
110988,-83.3333333333333,4,2,77,10,0,1
111027,-83.3333333333333,4,2,78,15,0,1
111066,-83.3333333333333,4,2,77,20,0,1
111105,-83.3333333333333,4,2,78,75,0,0
111341,-83.3333333333333,4,2,78,5,0,0
111420,-83.3333333333333,4,2,77,90,0,1
111655,-83.3333333333333,4,2,77,5,0,1
111734,-83.3333333333333,4,2,77,90,0,1
111891,-83.3333333333333,4,2,77,5,0,1
111969,-83.3333333333333,4,2,77,90,0,1
112912,-83.3333333333333,4,2,77,5,0,1
112990,-83.3333333333333,4,2,77,90,0,1
113147,-83.3333333333333,4,2,77,5,0,1
113226,-83.3333333333333,4,2,77,90,0,1
114954,-83.3333333333333,4,2,77,5,0,1
115032,-83.3333333333333,4,2,77,90,0,1
115111,-83.3333333333333,4,2,77,5,0,1
115189,-83.3333333333333,4,2,77,90,0,1
115660,-83.3333333333333,4,2,77,5,0,1
115739,-83.3333333333333,4,2,77,90,0,1
115896,-83.3333333333333,4,2,77,5,0,1
115975,-83.3333333333333,4,2,77,90,0,1
116053,-83.3333333333333,4,2,77,5,0,1
116132,-83.3333333333333,4,2,77,90,0,1
118095,-83.3333333333333,4,2,77,5,0,1
118173,-83.3333333333333,4,2,77,90,0,1
118252,-83.3333333333333,4,2,77,5,0,1
118331,-83.3333333333333,4,2,77,90,0,1
118409,-83.3333333333333,4,2,77,5,0,1
118488,-83.3333333333333,4,2,77,90,0,1
118566,-83.3333333333333,4,2,77,5,0,1
118645,-83.3333333333333,4,2,77,90,0,1
118684,-83.3333333333333,4,2,77,60,0,1
118880,-83.3333333333333,4,2,77,90,0,1
118920,-83.3333333333333,4,2,77,60,0,1
119116,-83.3333333333333,4,2,77,90,0,1
120687,-83.3333333333333,4,2,77,5,0,1
120765,-83.3333333333333,4,2,77,90,0,1
120922,-83.3333333333333,4,2,77,5,0,1
121001,-83.3333333333333,4,2,77,90,0,1
121079,-83.3333333333333,4,2,77,5,0,1
121158,-133.333333333333,4,2,77,90,0,0
121236,-133.333333333333,4,2,77,60,0,0
128069,-133.333333333333,4,2,77,65,0,0
128697,-133.333333333333,4,2,77,70,0,0
128776,-133.333333333333,4,2,77,40,0,0
131210,-133.333333333333,4,2,77,5,0,0

[Colours]
Combo1 : 17,254,176
Combo2 : 173,255,95
Combo3 : 255,88,100
Combo4 : 255,94,55

[HitObjects]
236,185,530,6,0,P|250:227|259:267,2,67.5000025749208,2|0|0,0:0|0:0|0:0,0:0:0:0:
160,160,1001,2,0,P|224:144|314:111,2,135.000005149842,2|2|2,0:0|0:0|0:0,0:0:0:0:
38,50,1786,5,2,0:0:0:0:
110,99,1943,2,0,P|117:61|125:31,1,67.5000025749208
38,50,2257,1,2,0:0:0:0:
43,268,2886,5,2,0:0:0:0:
43,268,2964,1,2,0:0:0:0:
43,268,3043,2,0,P|51:306|59:337,2,67.5000025749208,2|2|0,0:0|0:0|0:0,0:0:0:0:
128,284,3514,1,2,0:0:0:0:
128,284,4770,5,2,0:0:0:0:
198,320,4927,2,0,P|257:305|297:297,2,101.250003862381,2|2|2,0:0|0:0|0:0,0:0:0:0:
128,284,5556,6,0,P|98:214|62:152,1,135.000005149842,2|0,0:0|0:0,0:0:0:0:
39,63,6027,2,0,P|69:114|141:124,1,135.000005149842,2|2,0:0|0:0,0:0:0:0:
139,124,6812,6,0,P|188:106|230:97,1,67.5000025749208,2|0,0:0|0:0,0:0:0:0:
302,25,7126,2,0,P|288:58|278:105,1,67.5000025749208,2|0,0:0|0:0,0:0:0:0:
239,242,7440,2,0,P|225:209|215:162,1,67.5000025749208,2|0,0:0|0:0,0:0:0:0:
358,144,7755,2,0,P|325:153|294:165,1,67.5000025749208,2|0,0:0|0:0,0:0:0:0:
330,359,8069,6,0,P|338:283|358:202,1,135.000005149842,2|0,0:0|0:0,0:0:0:0:
458,282,8540,2,0,P|439:244|423:202,2,67.5000025749208,2|0|2,0:0|0:0|0:0,0:0:0:0:
512,74,9168,1,2,0:0:0:0:
512,74,9325,6,0,P|482:69|358:51,1,135.000005149842,2|0,0:0|0:0,0:0:0:0:
214,182,9797,1,2,0:0:0:0:
214,182,9875,1,2,0:0:0:0:
214,182,9954,2,0,B|155:164|148:126|148:126|277:101|245:43,1,236.250009012223,2|0,0:0|0:0,0:0:0:0:
173,18,10582,6,0,B|151:26|151:26|192:103,1,107.999996704102,6|0,1:2|0:0,0:0:0:0:
287,151,10896,1,0,0:2:0:0:
178,252,11053,2,0,P|110:232|8:214,1,161.999995056153,6|0,1:2|0:0,0:0:0:0:
20,215,11367,2,0,P|8:187|0:152,1,53.9999983520508
37,27,11524,6,0,P|33:74|155:106,1,161.999995056153,6|0,1:2|0:0,0:0:0:0:
121,125,11838,2,0,L|187:145,1,53.9999983520508
396,53,11995,6,0,P|321:76|202:103,1,161.999995056153,6|0,1:2|0:0,0:0:0:0:
239,95,12310,2,0,L|196:20,1,53.9999983520508
281,210,12467,6,0,B|245:227|245:227|256:309,1,107.999996704102,6|0,1:2|0:0,0:0:0:0:
381,339,12781,2,0,B|417:322|417:322|406:240,1,107.999996704102,6|0,1:2|1:2,0:0:0:0:
333,277,13016,1,0,1:2:0:0:
333,277,13095,6,0,L|279:107,1,161.999995056153,6|0,1:2|0:2,0:0:0:0:
284,123,13409,2,0,L|302:42,1,53.9999983520508,0|0,1:2|0:0,0:0:0:0:
458,4,13566,6,0,P|404:18|390:122,1,161.999995056153,6|0,1:2|0:2,0:0:0:0:
384,112,13880,2,0,L|453:136,1,53.9999983520508,0|0,1:2|0:0,0:0:0:0:
407,254,14037,6,0,P|338:267|219:300,1,161.999995056153,6|0,1:2|0:2,0:0:0:0:
249,290,14351,2,0,L|193:228,1,53.9999983520508,0|0,1:2|0:0,0:0:0:0:
160,119,14509,6,0,B|90:130|90:130|148:215,1,161.999995056153,6|0,1:2|0:2,0:0:0:0:
141,205,14823,2,0,L|122:282,1,53.9999983520508,0|0,1:2|0:0,0:0:0:0:
256,144,14980,6,0,P|238:97|205:17,1,107.999996704102,6|0,1:2|0:0,0:0:0:0:
372,0,15294,2,0,P|390:47|423:127,1,107.999996704102,6|0,1:2|1:2,0:0:0:0:
159,119,15608,6,0,P|106:107|25:90,1,107.999996704102,6|0,1:2|0:0,0:0:0:0:
8,275,15922,1,10,0:2:0:0:
149,196,16079,1,0,0:0:0:0:
102,292,16236,6,0,P|78:234|63:191,1,107.999996704102,2|0,1:2|0:0,0:0:0:0:
165,43,16550,1,10,0:0:0:0:
309,125,16708,1,2,0:0:0:0:
358,17,16865,5,4,1:2:0:0:
242,168,17022,1,2,1:2:0:0:
395,215,17179,5,10,0:0:0:0:
286,54,17336,1,0,1:2:0:0:
462,147,17493,6,0,P|472:192|501:288,1,107.999996704102,2|0,1:2|1:2,0:0:0:0:
326,258,17807,1,10,0:0:0:0:
500,366,17964,1,2,1:2:0:0:
377,321,18121,5,4,1:2:0:0:
357,325,18199,1,0,1:2:0:0:
337,331,18278,1,2,1:2:0:0:
318,337,18356,1,0,1:2:0:0:
299,343,18435,1,6,1:2:0:0:
280,351,18513,1,0,1:2:0:0:
262,359,18592,1,0,1:2:0:0:
243,368,18670,1,0,1:2:0:0:
225,377,18749,6,0,L|239:296,1,53.9999983520508,6|0,1:2|0:0,0:0:0:0:
128,199,18906,2,0,L|109:159,2,26.9999991760254,0|0|4,1:2|1:2|1:2,0:0:0:0:
203,231,19064,6,0,L|284:217,1,53.9999983520508,2|0,1:2|0:2,0:0:0:0:
319,109,19221,2,0,L|338:69,2,26.9999991760254,6|0|0,1:2|1:2|1:2,0:0:0:0:
335,211,19378,6,0,B|354:194|374:189|374:189|261:164|225:49,2,215.999993408203,6|2|2,1:2|0:0|1:2,0:0:0:0:
86,373,20320,6,0,P|99:288|133:200,1,161.999995056153,14|0,0:2|0:0,0:0:0:0:
124,216,20634,6,0,P|114:180|92:103,1,90,4|2,1:2|0:0,0:0:0:0:
167,31,20948,1,2,1:2:0:0:
291,62,21105,1,0,0:0:0:0:
387,186,21262,5,2,1:2:0:0:
420,77,21420,1,2,0:0:0:0:
348,115,21577,1,2,1:2:0:0:
458,148,21734,1,0,0:0:0:0:
366,261,21891,6,0,P|288:281|169:310,1,180,2|2,1:2|1:2,0:0:0:0:
129,258,22362,1,2,0:0:0:0:
205,151,22519,5,2,1:2:0:0:
74,122,22676,1,2,0:0:0:0:
20,223,22833,5,2,1:2:0:0:
90,194,22990,1,2,0:0:0:0:
0,298,23147,6,0,P|47:313|94:330,1,90,0|2,1:2|0:0,0:0:0:0:
222,358,23461,1,2,1:2:0:0:
294,222,23619,1,0,0:0:0:0:
193,104,23776,5,2,1:2:0:0:
160,213,23934,1,2,0:0:0:0:
232,175,24091,1,2,1:2:0:0:
122,142,24248,1,0,0:0:0:0:
293,122,24404,6,0,P|302:71|314:29,1,90,2|0,1:2|0:0,0:0:0:0:
407,185,24718,1,2,1:2:0:0:
512,149,24875,1,2,0:3:0:0:
348,266,25032,1,2,1:2:0:0:
338,260,25110,1,0,0:0:0:0:
330,251,25189,1,2,0:0:0:0:
325,242,25267,1,0,0:0:0:0:
323,231,25346,2,0,L|339:167,3,45,2|0|0|0,1:2|0:0|1:2|0:0,0:0:0:0:
250,202,25660,6,0,P|232:216|186:252,1,45,2|0,1:2|0:0,0:0:0:0:
227,368,25817,2,0,B|214:369|214:369|196:313,1,45,2|0,1:2|0:0,0:0:0:0:
143,198,25975,5,2,1:2:0:0:
280,314,26132,1,2,0:0:0:0:
282,132,26289,6,0,P|289:77|305:6,1,90,2|2,1:2|0:0,0:0:0:0:
142,25,26603,1,2,1:2:0:0:
142,25,26681,1,2,0:0:0:0:
142,25,26760,1,2,0:0:0:0:
368,104,26917,6,0,P|380:128|391:154,2,45,2|0|2,1:2|0:0|0:0,0:0:0:0:
209,83,27231,1,2,1:2:0:0:
209,83,27310,1,2,0:0:0:0:
209,83,27388,1,2,0:0:0:0:
451,85,27545,6,0,P|455:66|474:25,2,45,2|2|2,1:2|0:0|0:0,0:0:0:0:
282,132,27859,1,2,1:2:0:0:
282,132,27938,1,2,0:0:0:0:
282,132,28016,1,2,1:2:0:0:
364,224,28173,6,0,P|370:254|379:288,1,45,2|0,1:2|0:0,0:0:0:0:
184,277,28331,2,0,B|196:292|196:292|248:292,1,45,2|0,1:2|0:0,0:0:0:0:
338,336,28488,5,2,1:2:0:0:
230,213,28645,1,2,0:0:0:0:
362,125,28802,1,2,1:2:0:0:
382,115,28880,1,2,0:0:0:0:
396,98,28959,1,2,0:0:0:0:
402,77,29037,1,0,0:0:0:0:
397,55,29116,2,0,P|364:63|289:78,1,90,2|2,1:2|1:2,0:0:0:0:
205,117,29351,1,0,1:2:0:0:
205,117,29430,6,0,B|153:77|153:77|222:4,1,135,6|0,1:2|0:0,0:0:0:0:
200,26,29744,2,0,L|276:51,1,45,0|0,1:2|0:0,0:0:0:0:
306,151,29901,2,0,L|282:207,1,45,0|0,1:2|0:0,0:0:0:0:
222,315,30058,5,6,1:2:0:0:
212,323,30137,2,0,B|194:319|194:319|180:276,1,45,0|2,1:2|0:0,0:0:0:0:
136,217,30294,1,0,1:2:0:0:
128,226,30372,5,6,1:2:0:0:
160,219,30450,1,0,1:2:0:0:
188,200,30529,1,6,1:2:0:0:
208,173,30607,1,0,1:2:0:0:
216,140,30687,6,0,P|203:109|173:31,1,90,6|0,1:2|0:0,0:0:0:0:
432,13,31001,1,10,0:0:0:0:
423,33,31079,1,2,0:0:0:0:
415,55,31158,1,2,0:0:0:0:
408,76,31236,1,2,0:0:0:0:
400,97,31315,1,2,1:2:0:0:
393,118,31393,1,0,0:0:0:0:
386,140,31472,1,0,0:0:0:0:
379,161,31550,1,0,0:0:0:0:
373,183,31629,2,0,B|380:206|380:206|415:241,3,45,10|2|2|2,0:0|0:0|0:0|0:0,0:0:0:0:
310,138,31943,6,0,P|262:131|203:113,1,90,2|0,1:2|0:0,0:0:0:0:
134,299,32257,2,0,P|177:287|221:281,1,90,10|0,0:0|0:0,0:0:0:0:
303,287,32493,1,0,0:0:0:0:
303,287,32571,2,0,P|294:254|287:226,1,45,2|0,1:2|0:0,0:0:0:0:
404,332,32728,2,0,P|395:365|388:393,1,45,2|0,0:0|0:0,0:0:0:0:
512,305,32886,1,10,0:0:0:0:
497,287,32964,1,0,0:0:0:0:
479,274,33043,1,2,1:2:0:0:
459,265,33121,1,0,0:0:0:0:
436,261,33200,6,0,P|422:226|406:166,1,90,2|0,1:2|0:0,0:0:0:0:
316,36,33514,1,10,0:0:0:0:
293,33,33592,1,2,0:0:0:0:
271,33,33671,1,2,0:0:0:0:
249,36,33749,1,2,0:0:0:0:
227,43,33828,1,2,1:2:0:0:
207,52,33906,1,0,0:0:0:0:
188,65,33985,1,0,0:0:0:0:
172,80,34063,1,0,0:0:0:0:
158,98,34142,2,0,P|139:90|99:83,3,45,10|2|2|2,0:0|0:0|0:0|0:0,0:0:0:0:
215,150,34456,6,0,P|228:187|255:270,1,90,2|0,1:2|0:0,0:0:0:0:
143,359,34770,1,10,0:0:0:0:
143,359,34849,1,0,0:0:0:0:
143,359,34927,1,0,0:0:0:0:
2,208,35084,6,0,P|35:217|58:222,1,45,6|0,1:2|0:0,0:0:0:0:
151,273,35242,2,0,P|118:282|95:287,1,45,2|0,1:2|0:0,0:0:0:0:
21,336,35399,6,0,P|28:302|35:275,1,45,10|0,0:2|0:0,0:0:0:0:
114,155,35556,2,0,P|121:189|128:216,1,45,2|0,1:2|0:0,0:0:0:0:
228,302,35713,5,6,1:2:0:0:
254,281,35791,1,0,1:2:0:0:
284,265,35870,1,0,1:2:0:0:
316,254,35948,1,0,1:2:0:0:
349,250,36027,1,0,1:2:0:0:
306,97,36184,1,0,1:2:0:0:
373,137,36341,6,0,P|383:109|395:74,1,45,14|0,0:0|0:0,0:0:0:0:
227,88,36498,2,0,P|237:60|249:25,1,45,4|0,1:2|0:0,0:0:0:0:
124,165,36655,1,4,1:2:0:0:
61,54,36812,1,0,1:2:0:0:
54,45,36891,1,0,1:2:0:0:
49,36,36969,5,6,1:2:0:0:
81,33,37047,1,0,1:2:0:0:
114,43,37126,1,0,1:2:0:0:
139,65,37204,1,0,1:2:0:0:
153,95,37283,1,2,1:2:0:0:
91,235,37440,1,0,1:2:0:0:
7,240,37598,6,0,P|18:266|36:308,1,45,14|0,1:2|0:0,0:0:0:0:
152,185,37755,2,0,P|163:211|181:253,1,45,6|0,1:2|0:0,0:0:0:0:
295,281,37912,1,6,1:2:0:0:
225,344,38069,1,2,1:2:0:0:
218,353,38148,1,0,1:2:0:0:
213,362,38226,5,6,1:2:0:0:
238,349,38304,1,0,1:2:0:0:
264,338,38383,1,0,1:2:0:0:
290,328,38461,1,0,1:2:0:0:
317,320,38540,1,10,0:2:0:0:
344,312,38618,1,2,1:2:0:0:
371,306,38697,1,2,1:2:0:0:
399,301,38775,1,2,1:2:0:0:
427,297,38854,2,0,L|439:234,3,45,6|0|0|0,1:2|1:2|1:2|1:2,0:0:0:0:
365,230,39168,5,10,0:2:0:0:
331,222,39246,1,2,1:2:0:0:
306,200,39325,1,2,1:2:0:0:
293,170,39403,1,2,1:2:0:0:
297,137,39482,6,0,L|290:114,6,22.5,6|0|0|0|0|0|0,1:2|1:2|1:2|1:2|1:2|0:0|0:0,0:0:0:0:
396,144,39797,2,0,L|389:167,6,22.5,6|0|0|0|0|0|0,1:2|1:2|1:2|1:2|1:2|0:0|0:0,0:0:0:0:
405,64,40111,6,0,P|383:70|346:78,1,45,6|0,1:2|0:0,0:0:0:0:
300,218,40268,2,0,P|278:212|241:204,1,45,2|0,1:2|0:0,0:0:0:0:
215,103,40425,6,0,P|193:109|156:117,1,45,14|0,0:2|0:0,0:0:0:0:
126,181,40582,2,0,P|104:175|67:167,1,45,6|0,1:2|0:0,0:0:0:0:
7,153,40739,5,6,1:2:0:0:
0,334,41053,1,10,0:0:0:0:
22,335,41131,1,2,0:0:0:0:
42,327,41210,1,2,0:0:0:0:
57,310,41288,1,2,0:0:0:0:
63,289,41367,5,2,0:0:0:0:
95,298,41445,1,2,0:0:0:0:
126,310,41524,1,2,1:2:0:0:
156,326,41602,1,2,0:0:0:0:
185,344,41681,2,0,P|195:365|216:404,3,45,2|2|10|2,0:0|0:0|0:0|0:0,0:0:0:0:
264,335,41995,5,2,0:0:0:0:
274,303,42073,1,2,0:0:0:0:
295,276,42152,1,2,1:2:0:0:
323,259,42230,1,2,0:0:0:0:
356,252,42310,5,10,0:0:0:0:
334,244,42388,1,2,0:0:0:0:
313,236,42467,1,2,0:0:0:0:
292,227,42545,1,8,0:0:0:0:
272,218,42624,2,0,B|260:213|260:213|248:162,3,45,2|2|2|2,1:2|0:0|1:2|0:0,0:0:0:0:
330,163,42938,5,10,0:0:0:0:
350,155,43016,1,0,0:0:0:0:
368,141,43095,1,2,1:2:0:0:
380,122,43173,1,2,1:2:0:0:
386,100,43252,6,0,L|242:60,1,135,6|0,1:2|0:0,0:0:0:0:
255,63,43566,2,0,L|186:91,1,45,10|0,0:0|0:0,0:0:0:0:
98,190,43723,6,0,B|94:108|5:73|5:73|29:36,2,180,6|6|6,1:2|1:2|1:2,0:0:0:0:
263,152,44509,1,2,0:0:0:0:
263,152,44587,1,2,0:0:0:0:
263,152,44666,2,0,L|250:220,1,45,6|2,1:2|0:0,0:0:0:0:
158,259,44823,5,14,0:0:0:0:
135,261,44901,1,2,0:0:0:0:
114,268,44980,1,2,0:0:0:0:
95,280,45058,1,0,0:0:0:0:
78,295,45137,2,0,L|59:371,3,45,6|2|2|0,1:2|1:2|1:2|0:0,0:0:0:0:
156,320,45451,5,14,0:0:0:0:
153,287,45529,1,2,0:0:0:0:
145,254,45608,1,6,1:2:0:0:
133,223,45686,1,2,0:0:0:0:
117,192,45765,6,0,P|130:147|146:78,1,90,6|0,1:2|1:2,0:0:0:0:
313,26,46079,1,10,0:0:0:0:
346,32,46157,1,2,0:0:0:0:
374,51,46236,1,2,1:2:0:0:
391,80,46314,1,2,0:0:0:0:
395,113,46393,5,2,1:2:0:0:
373,119,46471,1,2,0:0:0:0:
352,126,46550,1,2,1:2:0:0:
330,133,46628,1,0,0:0:0:0:
309,141,46708,2,0,L|301:205,3,45,10|2|2|2,0:0|0:0|1:2|1:2,0:0:0:0:
230,153,47022,6,0,P|192:137|184:80,1,90,6|0,1:2|1:2,0:0:0:0:
59,10,47336,1,10,0:0:0:0:
47,41,47414,1,2,0:0:0:0:
36,73,47493,1,2,1:2:0:0:
26,105,47571,1,2,0:0:0:0:
19,138,47650,6,0,P|47:155|86:176,1,45,2|2,1:2|0:0,0:0:0:0:
169,265,47807,2,0,L|203:259,2,22.5,6|0|0,1:2|0:0|0:0,0:0:0:0:
100,224,47964,6,0,P|94:247|85:280,1,45,10|2,0:0|0:0,0:0:0:0:
0,336,48121,2,0,L|10:364,2,22.5,6|0|2,1:2|0:0|1:2,0:0:0:0:
83,347,48278,5,6,1:2:0:0:
115,336,48356,1,0,0:0:0:0:
147,327,48435,1,0,1:2:0:0:
180,318,48513,1,0,0:0:0:0:
212,310,48592,1,10,0:0:0:0:
245,302,48670,1,2,1:2:0:0:
278,295,48749,1,2,1:2:0:0:
311,288,48827,1,2,1:2:0:0:
345,282,48906,6,0,P|351:243|363:214,3,45,6|2|2|2,1:2|1:2|1:2|1:2,0:0:0:0:
408,335,49221,1,10,0:0:0:0:
441,335,49299,1,2,1:2:0:0:
472,322,49378,1,2,1:2:0:0:
495,298,49456,1,2,1:2:0:0:
507,267,49535,6,0,L|491:192,1,45,6|2,1:2|1:2,0:0:0:0:
419,80,49692,2,0,B|408:85|408:85|388:138,1,45,2|2,1:2|1:2,0:0:0:0:
352,237,49849,6,0,P|387:225|433:217,1,45,2|2,1:2|1:2,0:0:0:0:
512,150,50006,2,0,P|477:138|431:130,1,45,2|2,1:2|1:2,0:0:0:0:
323,97,50163,6,0,B|289:107|247:168|247:168|264:122|241:92,2,161.999995056153,6|6|6,1:2|1:2|1:2,0:0:0:0:
153,28,50791,5,6,1:2:0:0:
153,28,50870,1,2,0:0:0:0:
153,28,50948,2,0,P|167:86|175:138,1,107.999996704102,2|8,0:0|0:0,0:0:0:0:
108,176,51184,2,0,P|54:185|53:239,1,107.999996704102,2|0,0:0|0:0,0:0:0:0:
0,298,51420,6,0,P|65:315|129:351,1,107.999996704102,2|0,1:2|0:0,0:0:0:0:
175,372,51655,1,2,0:0:0:0:
175,372,51734,2,0,B|192:358|192:358|165:266,1,107.999996704102,8|2,0:0|0:0,0:0:0:0:
432,199,52048,5,2,1:2:0:0:
432,199,52126,1,2,0:0:0:0:
432,199,52205,2,0,P|373:218|308:240,1,107.999996704102,2|8,0:0|0:0,0:0:0:0:
263,267,52440,2,0,B|245:259|245:259|268:139,1,107.999996704102,2|0,0:0|0:0,0:0:0:0:
196,130,52676,6,0,P|136:120|133:62,1,107.999996704102,2|0,1:2|0:0,0:0:0:0:
62,30,52912,1,2,0:0:0:0:
62,30,52990,2,0,P|41:82|24:160,1,107.999996704102,8|2,0:0|0:0,0:0:0:0:
0,286,53304,5,2,1:2:0:0:
16,274,53382,1,2,0:0:0:0:
33,263,53461,1,2,0:0:0:0:
51,253,53539,1,2,0:0:0:0:
69,244,53618,1,10,0:0:0:0:
87,236,53696,1,2,0:0:0:0:
106,229,53775,1,2,0:0:0:0:
126,223,53853,1,0,0:0:0:0:
145,218,53933,2,0,B|171:244|171:244|151:334,1,107.999996704102,2|0,1:2|0:0,0:0:0:0:
213,370,54168,1,2,0:0:0:0:
213,370,54247,2,0,P|276:355|368:332,1,107.999996704102,8|2,0:0|0:0,0:0:0:0:
462,215,54561,6,0,B|382:204|382:204|373:152,1,107.999996704102,2|0,1:2|0:0,0:0:0:0:
442,138,54797,1,2,0:0:0:0:
442,138,54875,2,0,B|440:121|440:121|393:81,1,53.9999983520508,8|0,0:0|0:0,0:0:0:0:
288,11,55032,2,0,L|262:71,1,53.9999983520508,2|0,1:2|0:0,0:0:0:0:
190,87,55189,6,0,B|184:98|184:98|241:135,1,53.9999983520508,6|0,1:2|0:0,0:0:0:0:
377,177,55346,2,0,P|349:186|297:207,1,53.9999983520508,6|0,1:2|0:0,0:0:0:0:
187,247,55503,6,0,P|200:211|208:170,1,53.9999983520508,6|0,1:2|0:0,0:0:0:0:
310,309,55660,2,0,P|323:345|331:386,1,53.9999983520508,6|0,1:2|0:0,0:0:0:0:
241,351,55817,6,0,P|191:326|76:299,1,161.999995056153,6|2,1:2|0:0,0:0:0:0:
63,309,56132,1,10,0:0:0:0:
38,298,56210,1,2,0:0:0:0:
21,277,56289,1,2,0:0:0:0:
17,251,56367,1,2,0:0:0:0:
25,226,56446,6,0,P|14:176|-1:97,1,107.999996704102,2|0,1:2|0:0,0:0:0:0:
61,64,56681,1,2,0:0:0:0:
61,64,56760,2,0,B|84:56|84:56|186:111,1,107.999996704102,8|2,0:0|0:0,0:0:0:0:
270,181,57074,6,0,L|425:146,1,107.999996704102,6|0,1:2|0:0,0:0:0:0:
410,90,57310,1,2,0:0:0:0:
410,90,57388,2,0,L|426:18,1,53.9999983520508,8|0,0:0|0:0,0:0:0:0:
512,176,57545,1,2,1:2:0:0:
512,176,57624,1,0,1:2:0:0:
512,176,57702,6,0,B|523:189|523:189|488:240,1,53.9999983520508,6|0,1:2|0:0,0:0:0:0:
388,349,57859,2,0,P|377:310|360:280,1,53.9999983520508,6|0,1:2|0:0,0:0:0:0:
375,157,58016,6,0,P|404:170|459:192,1,53.9999983520508,6|0,1:2|0:0,0:0:0:0:
512,295,58173,2,0,P|479:304|435:321,1,53.9999983520508,6|0,1:2|0:0,0:0:0:0:
285,308,58331,6,0,P|298:262|323:160,1,107.999996704102,6|0,1:2|0:0,0:0:0:0:
236,192,58566,2,0,B|214:190|214:190|184:93,1,107.999996704102,6|0,1:2|0:0,0:0:0:0:
240,46,58802,6,0,P|178:31|131:24,1,107.999996704102,6|0,1:2|0:0,0:0:0:0:
58,7,59037,2,0,B|49:25|49:25|94:144,1,107.999996704102,6|0,1:2|0:0,0:0:0:0:
75,191,59273,6,0,P|108:180|160:164,1,53.9999983520508,6|0,1:2|0:0,0:0:0:0:
77,328,59430,2,0,P|44:317|-8:301,1,53.9999983520508,6|0,1:2|0:0,0:0:0:0:
125,255,59587,6,0,P|147:299|171:362,1,107.999996704102,6|2,1:2|1:2,0:0:0:0:
320,265,59901,1,2,1:2:0:0:
333,241,59979,1,2,1:2:0:0:
351,221,60058,1,2,1:2:0:0:
373,205,60136,1,2,1:2:0:0:
396,192,60215,2,0,L|216:147,2,161.999995056153,6|6|6,1:2|1:2|1:2,0:0:0:0:
479,17,60844,5,6,1:2:0:0:
479,17,60922,1,2,0:0:0:0:
479,17,61001,2,0,P|499:78|518:136,1,107.999996704102,2|8,0:0|0:0,0:0:0:0:
476,186,61236,2,0,B|490:204|490:204|447:303,1,107.999996704102,2|0,0:0|0:0,0:0:0:0:
485,369,61472,6,0,P|440:356|379:343,1,107.999996704102,2|0,1:2|0:0,0:0:0:0:
311,376,61708,1,2,0:0:0:0:
311,376,61786,2,0,B|264:316|264:316|292:279,1,107.999996704102,8|2,0:0|0:0,0:0:0:0:
156,150,62100,5,2,1:2:0:0:
156,150,62179,1,2,0:0:0:0:
156,150,62257,2,0,P|94:136|26:111,1,107.999996704102,2|8,0:0|0:0,0:0:0:0:
3,179,62493,2,0,B|-16:192|-16:192|64:266,1,107.999996704102,2|0,0:0|0:0,0:0:0:0:
16,347,62728,6,0,P|85:317|132:302,1,107.999996704102,2|0,1:2|0:0,0:0:0:0:
182,357,62964,1,2,0:0:0:0:
182,357,63043,2,0,B|202:337|202:337|187:253,1,107.999996704102,8|2,0:0|0:0,0:0:0:0:
301,82,63357,5,2,1:2:0:0:
285,94,63435,1,2,0:0:0:0:
268,105,63514,1,2,0:0:0:0:
250,115,63592,1,2,0:0:0:0:
232,124,63671,1,10,0:0:0:0:
214,132,63749,1,2,0:0:0:0:
195,139,63828,1,2,0:0:0:0:
175,145,63906,1,0,0:0:0:0:
156,150,63986,2,0,B|144:142|144:142|157:90,3,53.9999983520508,2|2|2|2,1:2|0:0|0:0|0:0,0:0:0:0:
229,123,64299,5,10,0:0:0:0:
255,121,64377,1,2,0:0:0:0:
282,126,64456,1,2,0:0:0:0:
305,140,64534,1,2,0:0:0:0:
324,159,64613,6,0,P|318:187|311:238,1,53.9999983520508,6|0,1:2|0:0,0:0:0:0:
412,91,64770,2,0,P|406:62|399:12,1,53.9999983520508,2|0,1:2|0:0,0:0:0:0:
512,181,64927,1,2,1:2:0:0:
485,186,65005,1,2,1:2:0:0:
460,196,65084,1,2,1:2:0:0:
438,211,65162,1,2,1:2:0:0:
419,230,65242,6,0,L|253:269,2,161.999995056153,6|6|6,1:2|1:2|1:2,0:0:0:0:
427,87,65870,6,0,B|399:42|342:43|342:43|368:92|319:126,2,161.999995056153,6|6|6,1:2|1:2|1:2,0:0:0:0:
419,230,66498,1,6,1:2:0:0:
424,249,66576,1,2,0:0:0:0:
424,269,66655,1,2,1:2:0:0:
417,288,66733,1,2,0:0:0:0:
406,305,66812,1,6,1:2:0:0:
390,317,66890,1,2,0:0:0:0:
372,325,66969,1,6,1:2:0:0:
352,327,67047,1,0,0:0:0:0:
332,323,67126,6,0,B|255:311|245:243|245:243|281:210,2,161.999995056153,6|6|6,1:2|1:2|1:2,0:0:0:0:
352,205,67755,6,0,B|361:186|361:186|328:129,1,53.9999983520508,6|0,1:2|0:0,0:0:0:0:
266,33,67912,2,0,L|194:52,1,53.9999983520508,6|0,1:2|0:0,0:0:0:0:
166,112,68069,6,0,P|193:118|234:129,1,53.9999983520508,6|0,1:2|0:0,0:0:0:0:
337,58,68226,2,0,B|349:42|349:42|330:-15,1,53.9999983520508,6|0,1:2|0:0,0:0:0:0:
468,44,68383,6,0,L|481:79,2,26.9999991760254,6|0|0,1:2|1:2|1:2,0:0:0:0:
384,130,68540,1,0,1:2:0:0:
384,130,68619,2,0,L|397:95,4,26.9999991760254,6|0|0|0|0,1:2|1:2|1:2|1:2|1:2,0:0:0:0:
463,143,68854,6,0,B|475:154|475:154|487:200,1,53.9999983520508,6|0,1:2|1:2,0:0:0:0:
435,251,69011,1,0,1:2:0:0:
435,251,69090,2,0,L|299:226,1,107.999996704102,6|0,1:2|1:2,0:0:0:0:
287,292,69325,6,0,L|216:320,1,53.9999983520508,6|0,1:2|1:2,0:0:0:0:
119,242,69482,2,0,L|96:180,1,53.9999983520508,6|0,1:2|1:2,0:0:0:0:
220,132,69639,5,6,1:2:0:0:
259,130,69717,1,2,1:2:0:0:
291,105,69796,1,2,1:2:0:0:
302,66,69874,1,2,1:2:0:0:
288,29,69954,5,10,0:2:0:0:
276,35,70032,1,2,1:2:0:0:
264,41,70111,1,2,1:2:0:0:
251,46,70189,1,0,1:2:0:0:
239,51,70268,2,0,P|317:117|366:208,2,161.999995056153,6|6|6,1:2|1:2|1:2,0:0:0:0:
160,52,70896,5,6,1:2:0:0:
256,192,79692,12,0,80791,0:0:0:0:
160,52,80948,5,6,1:2:0:0:
160,52,81027,1,0,0:0:0:0:
160,52,81105,1,2,0:0:0:0:
281,172,81262,2,0,L|267:240,2,45,10|2|2,0:0|0:0|0:0,0:0:0:0:
353,70,81577,5,2,1:2:0:0:
353,70,81655,1,2,0:0:0:0:
353,70,81734,1,2,0:0:0:0:
199,177,81891,2,0,L|134:161,2,45,10|2|2,0:0|0:0|0:0,0:0:0:0:
317,299,82205,5,6,1:2:0:0:
317,299,82283,1,0,0:0:0:0:
317,299,82362,1,2,0:0:0:0:
466,221,82519,2,0,L|484:157,2,45,10|2|2,0:0|0:0|0:0,0:0:0:0:
376,368,82833,5,2,1:2:0:0:
376,368,82912,1,2,0:0:0:0:
376,368,82990,1,2,0:0:0:0:
246,335,83147,5,10,0:0:0:0:
246,335,83304,1,2,1:2:0:0:
111,313,83461,5,6,1:2:0:0:
70,177,83619,1,0,1:2:0:0:
44,278,83776,5,10,0:0:0:0:
136,142,83933,1,0,1:2:0:0:
0,76,84090,6,0,P|43:62|114:26,1,90,6|0,1:2|1:2,0:0:0:0:
194,190,84404,1,10,0:0:0:0:
294,102,84561,1,0,1:2:0:0:
286,92,84639,1,0,1:2:0:0:
276,83,84718,5,6,1:2:0:0:
304,83,84796,1,0,1:2:0:0:
331,89,84875,1,0,1:2:0:0:
357,100,84953,1,0,1:2:0:0:
381,115,85032,1,12,0:2:0:0:
401,134,85110,1,0,1:2:0:0:
418,156,85189,1,0,1:2:0:0:
430,182,85267,1,0,1:2:0:0:
438,209,85346,6,0,L|431:243,6,22.5,6|0|0|0|0|0|0,1:2|1:2|1:2|1:2|1:2|1:2|1:2,0:0:0:0:
357,263,85660,2,0,L|350:229,6,22.5,4|0|0|0|0|0|0,1:2|1:2|1:2|1:2|1:2|1:2|1:2,0:0:0:0:
276,224,85975,5,6,1:2:0:0:
276,224,87231,5,2,0:0:0:0:
276,224,88488,5,2,0:0:0:0:
256,192,88566,12,6,89744,1:2:0:0:
57,224,90372,5,6,1:2:0:0:
455,160,90687,5,6,1:2:0:0:
192,138,91001,5,6,1:2:0:0:
179,132,91079,1,2,0:0:0:0:
166,127,91158,1,2,1:2:0:0:
154,122,91236,1,2,1:2:0:0:
141,117,91315,2,0,L|126:39,1,53.9999983520508,2|0,1:2|0:0,0:0:0:0:
270,109,91472,5,6,1:2:0:0:
269,95,91550,1,2,0:0:0:0:
267,81,91629,1,2,1:2:0:0:
265,68,91707,1,2,1:2:0:0:
263,54,91786,2,0,L|323:2,1,53.9999983520508,0|0,1:2|0:0,0:0:0:0:
334,163,91943,5,6,1:2:0:0:
346,155,92021,1,2,0:0:0:0:
357,146,92100,1,2,1:2:0:0:
367,138,92178,1,2,1:2:0:0:
378,129,92257,2,0,L|453:155,1,53.9999983520508,2|0,1:2|0:0,0:0:0:0:
320,246,92414,5,6,1:2:0:0:
333,252,92492,1,2,0:0:0:0:
346,257,92571,1,2,1:2:0:0:
358,262,92649,1,2,1:2:0:0:
371,267,92728,2,0,L|386:345,1,53.9999983520508,2|0,1:2|0:0,0:0:0:0:
241,274,92886,5,6,1:2:0:0:
242,288,92964,1,2,1:2:0:0:
244,302,93043,1,2,1:2:0:0:
246,315,93121,1,2,1:2:0:0:
248,329,93200,2,0,L|188:381,1,53.9999983520508,6|0,1:2|0:0,0:0:0:0:
133,254,93357,2,0,L|58:228,1,53.9999983520508,2|0,1:2|0:0,0:0:0:0:
192,138,93514,5,6,1:2:0:0:
179,132,93592,1,2,0:0:0:0:
166,127,93671,1,2,1:2:0:0:
154,122,93749,1,2,1:2:0:0:
141,117,93828,2,0,L|80:136,1,53.9999983520508,2|0,1:2|0:0,0:0:0:0:
177,220,93985,5,6,1:2:0:0:
165,228,94063,1,2,0:0:0:0:
154,237,94142,1,2,1:2:0:0:
144,245,94220,1,2,1:2:0:0:
133,254,94299,2,0,L|119:316,1,53.9999983520508,0|0,1:2|0:0,0:0:0:0:
241,274,94456,5,6,1:2:0:0:
242,288,94534,1,2,0:0:0:0:
244,302,94613,1,2,1:2:0:0:
246,315,94691,1,2,1:2:0:0:
248,329,94770,2,0,L|295:372,1,53.9999983520508,2|0,1:2|0:0,0:0:0:0:
320,246,94927,5,6,1:2:0:0:
333,252,95005,1,2,0:0:0:0:
346,257,95084,1,2,1:2:0:0:
358,261,95162,1,2,1:2:0:0:
371,267,95242,2,0,L|432:248,1,53.9999983520508,2|0,1:2|0:0,0:0:0:0:
334,163,95399,5,6,1:2:0:0:
346,155,95477,1,2,1:2:0:0:
357,146,95556,1,2,1:2:0:0:
367,138,95634,1,2,1:2:0:0:
378,129,95713,2,0,L|392:67,1,53.9999983520508,6|0,1:2|0:0,0:0:0:0:
263,54,95870,2,0,L|216:11,1,53.9999983520508,2|0,1:2|0:0,0:0:0:0:
192,138,96027,5,6,1:2:0:0:
171,155,96105,1,2,1:2:0:0:
162,180,96184,1,2,1:2:0:0:
167,206,96262,1,2,1:2:0:0:
184,227,96341,1,2,1:2:0:0:
134,346,96498,5,6,1:2:0:0:
154,328,96576,1,2,1:2:0:0:
177,314,96655,1,2,1:2:0:0:
202,303,96733,1,2,1:2:0:0:
228,296,96812,1,2,1:2:0:0:
432,217,96969,6,0,B|455:223|455:223|463:271,1,53.9999983520508,6|2,1:2|1:2,0:0:0:0:
477,354,97126,2,0,P|447:346|403:341,1,53.9999983520508,2|2,1:2|1:2,0:0:0:0:
387,277,97283,1,2,1:2:0:0:
262,169,97440,5,6,1:2:0:0:
239,154,97518,1,2,1:2:0:0:
225,132,97597,1,2,1:2:0:0:
223,105,97675,1,2,1:2:0:0:
233,80,97754,1,2,1:2:0:0:
361,15,97912,5,6,1:2:0:0:
385,25,97990,1,2,1:2:0:0:
411,34,98069,1,2,1:2:0:0:
437,41,98147,1,2,1:2:0:0:
463,46,98226,2,0,L|487:114,3,53.9999983520508,6|2|2|0,1:2|1:2|1:2|1:2,0:0:0:0:
399,110,98540,5,6,1:2:0:0:
373,118,98618,1,2,1:2:0:0:
353,136,98697,1,2,1:2:0:0:
342,160,98775,1,2,1:2:0:0:
340,187,98854,2,0,L|380:251,1,53.9999983520508,2|2,1:2|1:2,0:0:0:0:
257,187,99011,5,6,1:2:0:0:
231,179,99089,1,2,1:2:0:0:
211,161,99168,1,2,1:2:0:0:
200,137,99246,1,2,1:2:0:0:
198,110,99325,2,0,L|238:46,1,53.9999983520508,2|2,1:2|1:2,0:0:0:0:
120,113,99482,5,6,1:2:0:0:
94,121,99560,1,2,1:2:0:0:
74,139,99639,1,2,1:2:0:0:
63,163,99717,1,2,1:2:0:0:
61,190,99796,6,0,L|82:232,14,26.9999991760254,2|0|2|0|6|0|2|0|2|0|2|0|2|0|2,1:2|1:2|1:2|1:2|1:2|1:2|1:2|1:2|1:2|1:2|1:2|1:2|1:2|1:2|1:2,0:0:0:0:
154,208,100425,6,0,B|136:194|136:194|63:225|57:328,2,161.999995056153,6|6|6,1:2|1:2|1:2,0:0:0:0:
265,299,101053,5,6,1:2:0:0:
265,299,101132,1,2,0:0:0:0:
265,299,101210,2,0,P|270:237|287:189,1,107.999996704102,2|8,0:0|0:0,0:0:0:0:
285,91,101446,2,0,P|339:100|340:154,1,107.999996704102,2|0,0:0|0:0,0:0:0:0:
284,193,101682,6,0,P|219:210|155:246,1,107.999996704102,2|0,1:2|0:0,0:0:0:0:
115,262,101917,1,2,0:0:0:0:
115,262,101996,2,0,B|98:248|98:248|125:156,1,107.999996704102,8|2,0:0|0:0,0:0:0:0:
232,336,102310,5,2,1:2:0:0:
232,336,102388,1,2,0:0:0:0:
232,336,102467,2,0,P|291:355|356:377,1,107.999996704102,2|8,0:0|0:0,0:0:0:0:
408,342,102702,2,0,B|431:320|431:320|360:248,1,107.999996704102,2|0,0:0|0:0,0:0:0:0:
337,200,102938,6,0,P|361:132|374:84,1,107.999996704102,2|0,1:2|0:0,0:0:0:0:
377,18,103174,1,2,0:0:0:0:
377,18,103252,2,0,P|325:39|247:56,1,107.999996704102,8|2,0:0|0:0,0:0:0:0:
263,224,103566,5,2,1:2:0:0:
247,212,103644,1,2,0:0:0:0:
230,201,103723,1,2,0:0:0:0:
212,191,103801,1,2,0:0:0:0:
194,182,103880,1,10,0:0:0:0:
176,174,103958,1,2,0:0:0:0:
157,167,104037,1,2,0:0:0:0:
137,161,104115,1,0,0:0:0:0:
118,156,104195,2,0,B|92:182|92:182|112:272,1,107.999996704102,2|0,1:2|0:0,0:0:0:0:
106,335,104430,1,2,0:0:0:0:
106,335,104509,2,0,P|169:320|261:297,1,107.999996704102,8|2,0:0|0:0,0:0:0:0:
362,367,104823,6,0,P|385:301|400:259,1,107.999996704102,2|0,1:2|0:0,0:0:0:0:
327,231,105059,1,2,0:0:0:0:
327,231,105137,2,0,B|299:154,1,53.9999983520508,8|0,0:0|0:0,0:0:0:0:
455,333,105294,2,0,L|512:347,1,53.9999983520508,2|0,1:2|0:0,0:0:0:0:
406,187,105451,6,0,B|480:214,1,53.9999983520508,6|2,1:2|0:0,0:0:0:0:
310,309,105608,2,0,L|251:324,1,53.9999983520508,6|0,1:2|0:0,0:0:0:0:
229,193,105765,6,0,L|252:121,1,53.9999983520508,6|0,1:2|0:0,0:0:0:0:
92,272,105922,2,0,L|123:343,1,53.9999983520508,6|0,1:2|0:0,0:0:0:0:
160,233,106079,6,0,P|72:219|58:136,1,161.999995056153,6|2,1:2|0:0,0:0:0:0:
77,162,106394,1,10,0:0:0:0:
102,151,106472,1,2,0:0:0:0:
119,130,106551,1,2,0:0:0:0:
123,104,106629,1,2,0:0:0:0:
115,79,106708,6,0,L|230:117,1,107.999996704102,2|0,1:2|0:0,0:0:0:0:
280,67,106943,1,2,0:0:0:0:
280,67,107022,2,0,B|303:75|303:75|405:20,1,107.999996704102,8|2,0:0|0:0,0:0:0:0:
506,161,107336,6,0,L|464:292,1,107.999996704102,6|0,1:2|0:0,0:0:0:0:
512,336,107572,1,2,0:0:0:0:
512,336,107650,2,0,L|427:360,1,53.9999983520508,8|0,0:0|0:0,0:0:0:0:
288,279,107807,1,2,1:2:0:0:
288,279,107886,1,0,1:2:0:0:
288,279,107964,6,0,B|277:266|277:266|312:215,1,53.9999983520508,6|0,1:2|0:0,0:0:0:0:
425,164,108121,2,0,L|340:180,1,53.9999983520508,6|0,1:2|0:0,0:0:0:0:
272,95,108278,6,0,P|301:108|356:130,1,53.9999983520508,6|0,1:2|0:0,0:0:0:0:
430,239,108435,2,0,L|345:255,1,53.9999983520508,6|0,1:2|0:0,0:0:0:0:
189,230,108593,6,0,P|202:276|227:378,1,107.999996704102,6|0,1:2|0:0,0:0:0:0:
122,275,108828,2,0,B|100:273|100:273|70:176,1,107.999996704102,6|0,1:2|0:0,0:0:0:0:
189,230,109064,6,0,P|251:215|298:208,1,107.999996704102,6|0,1:2|0:0,0:0:0:0:
313,138,109299,2,0,B|322:120|322:120|277:1,1,107.999996704102,6|0,1:2|0:0,0:0:0:0:
238,125,109535,6,0,P|205:114|153:98,1,53.9999983520508,4|0,1:2|0:0,0:0:0:0:
386,57,109692,2,0,P|419:46|471:30,1,53.9999983520508,4|0,1:2|0:0,0:0:0:0:
387,211,109849,6,0,P|365:255|341:318,1,107.999996704102,6|2,1:2|1:2,0:0:0:0:
127,169,110163,1,2,1:2:0:0:
114,145,110241,1,2,1:2:0:0:
96,125,110320,1,2,1:2:0:0:
74,109,110398,1,2,1:2:0:0:
51,96,110477,2,0,B|96:87|96:87|121:25|189:-7,2,161.999995056153,6|6|2,1:2|1:2|1:2,0:0:0:0:
42,20,111105,5,2,0:0:0:0:
403,68,111420,5,6,1:2:0:0:
403,68,111498,2,0,B|417:86|417:86|374:185,1,107.999996704102,2|0,0:0|0:0,0:0:0:0:
416,255,111734,6,0,P|371:242|310:229,1,107.999996704102,2|0,1:2|0:0,0:0:0:0:
239,261,111970,1,2,0:0:0:0:
239,261,112048,2,0,B|192:321|192:321|220:358,1,107.999996704102,8|2,0:0|0:0,0:0:0:0:
29,166,112362,5,2,1:2:0:0:
29,166,112441,1,2,0:0:0:0:
29,166,112519,2,0,P|43:228|68:296,1,107.999996704102,2|8,0:0|0:0,0:0:0:0:
33,343,112755,2,0,P|100:365|169:389,1,107.999996704102,2|0,0:0|0:0,0:0:0:0:
211,346,112990,6,0,P|280:316|327:301,1,107.999996704102,2|0,1:2|0:0,0:0:0:0:
378,357,113226,1,2,0:0:0:0:
378,357,113305,2,0,B|398:337|398:337|383:253,1,107.999996704102,8|2,0:0|0:0,0:0:0:0:
486,156,113619,5,2,1:2:0:0:
470,144,113697,1,2,0:0:0:0:
453,133,113776,1,2,0:0:0:0:
435,123,113854,1,2,0:0:0:0:
417,114,113933,1,10,0:0:0:0:
399,106,114011,1,2,0:0:0:0:
380,99,114090,1,2,0:0:0:0:
360,93,114168,1,0,0:0:0:0:
341,88,114248,2,0,B|329:96|329:96|342:148,3,53.9999983520508,2|2|2|2,1:2|0:0|0:0|0:0,0:0:0:0:
271,163,114561,5,10,0:0:0:0:
245,165,114639,1,2,0:0:0:0:
218,160,114718,1,2,0:0:0:0:
195,146,114796,1,2,0:0:0:0:
176,127,114875,6,0,P|182:99|189:48,1,53.9999983520508,6|0,1:2|0:0,0:0:0:0:
57,18,115032,2,0,P|51:47|44:97,1,53.9999983520508,2|0,1:2|0:0,0:0:0:0:
2,172,115189,1,2,1:2:0:0:
29,177,115267,1,2,1:2:0:0:
54,187,115346,1,2,1:2:0:0:
76,202,115424,1,2,1:2:0:0:
95,221,115504,6,0,B|104:259|32:311|32:311|77:302|94:354,2,161.999995056153,6|6|6,1:2|1:2|1:2,0:0:0:0:
176,127,116132,6,0,B|261:83|261:83|309:94|284:166,2,161.999995056153,6|6|6,1:2|1:2|1:2,0:0:0:0:
171,275,116760,1,6,1:2:0:0:
166,294,116838,1,2,0:0:0:0:
166,314,116917,1,2,1:2:0:0:
173,333,116995,1,2,0:0:0:0:
184,350,117074,1,6,1:2:0:0:
200,362,117152,1,2,0:0:0:0:
218,370,117231,1,6,1:2:0:0:
238,372,117309,1,0,1:2:0:0:
258,368,117388,6,0,B|288:299|359:283|359:283|361:244,2,161.999995056153,6|6|6,1:2|1:2|1:2,0:0:0:0:
290,229,118017,6,0,B|281:210|281:210|314:153,1,53.9999983520508,6|0,1:2|0:0,0:0:0:0:
380,357,118174,2,0,L|452:376,1,53.9999983520508,6|0,1:2|0:0,0:0:0:0:
491,248,118331,6,0,P|464:254|423:265,1,53.9999983520508,6|0,1:2|0:0,0:0:0:0:
308,323,118488,2,0,B|296:339|296:339|315:396,1,53.9999983520508,6|0,1:2|0:0,0:0:0:0:
219,261,118645,6,0,L|232:296,2,26.9999991760254,6|0|0,1:2|1:2|1:2,0:0:0:0:
135,230,118802,1,0,1:2:0:0:
135,230,118881,2,0,L|148:195,4,26.9999991760254,6|0|0|0|0,1:2|1:2|1:2|1:2|1:2,0:0:0:0:
80,289,119116,6,0,B|68:278|68:278|56:232,1,53.9999983520508,6|0,1:2|1:2,0:0:0:0:
0,194,119273,1,0,1:2:0:0:
0,194,119352,2,0,L|46:57,1,107.999996704102,6|0,1:2|1:2,0:0:0:0:
40,13,119587,6,0,L|111:41,1,53.9999983520508,6|0,1:2|1:2,0:0:0:0:
217,14,119744,2,0,L|194:76,1,53.9999983520508,6|0,1:2|1:2,0:0:0:0:
327,142,119901,5,6,1:2:0:0:
366,140,119979,1,2,1:2:0:0:
398,115,120058,1,2,1:2:0:0:
409,76,120136,1,2,1:2:0:0:
395,39,120216,5,10,0:0:0:0:
383,45,120294,1,2,1:2:0:0:
371,51,120373,1,2,1:2:0:0:
358,56,120451,1,0,1:2:0:0:
346,61,120530,2,0,P|449:80|529:100,2,161.999995056153,6|6|6,1:2|1:2|1:2,0:0:0:0:
298,1,121158,5,6,1:2:0:0:
142,62,121786,1,2,0:0:0:0:
142,62,122414,5,2,0:0:0:0:
183,193,123043,1,2,0:0:0:0:
349,233,123671,6,0,P|329:282|304:380,2,135.000005149842,2|0|2,0:0|0:0|0:0,0:0:0:0:
292,106,124613,1,2,0:0:0:0:
398,12,124927,5,0,0:0:0:0:
491,32,125242,1,0,0:0:0:0:
398,12,125556,1,2,0:0:0:0:
512,117,125870,5,2,0:0:0:0:
512,117,126027,1,2,0:0:0:0:
471,183,126184,6,0,P|422:193|325:223,1,135.000005149842,2|0,0:0|0:0,0:0:0:0:
340,217,126812,1,2,0:0:0:0:
41,183,127440,6,0,P|90:193|187:223,1,135.000005149842,2|0,0:0|0:0,0:0:0:0:
172,217,128068,1,2,0:0:0:0:
256,32,128697,5,6,1:2:0:0:
256,192,128776,12,0,131210,0:0:0:0:
