osu file format v14

[General]
AudioFilename: audio.mp3
AudioLeadIn: 0
PreviewTime: 257538
Countdown: 0
SampleSet: Soft
StackLeniency: 0.7
Mode: 3
LetterboxInBreaks: 0
SpecialStyle: 0
WidescreenStoryboard: 0

[Editor]
Bookmarks: 17009,22479,35273,40832,46656,57773,69067,77538,81950,93244,102950,104538,127126,138420,143891,151126,162420,173714,185009,199126,210420,221714,233009,247126,256832,258420,268126,269714,291597,303420
DistanceSpacing: 0.8
BeatDivisor: 4
GridSize: 16
TimelineZoom: 2.319999

[Metadata]
Title:Shironaga Star Jet -aquamarine mix-
TitleUnicode:シロナガスタージェット -aquamarine mix-
Artist:Maverick
ArtistUnicode:Maverick
Creator:_Kobii
Version:Cosmic Journey // 7K
Source:
Tags:Speed Star Remixes RTTF-0026 Ocean Rendezvous ぽんきち Ponkichi comiket91 c91 2016 Lude Faputa Peter Hoto Cocoa
BeatmapID:2119517
BeatmapSetID:1012634

[Difficulty]
HPDrainRate:8.4
CircleSize:7
OverallDifficulty:7.1
ApproachRate:5
SliderMultiplier:1.4
SliderTickRate:1

[Events]
//Background and Video events
0,0,"bg3.jpg",0,0
//Break Periods
//Storyboard Layer 0 (Background)
//Storyboard Layer 1 (Fail)
//Storyboard Layer 2 (Pass)
//Storyboard Layer 3 (Foreground)
//Storyboard Layer 4 (Overlay)
//Storyboard Sound Samples

[TimingPoints]
1479,352.941176470588,4,2,1,90,1,0
27420,-142.857142857143,4,2,1,90,0,0
27684,-58.8235294117647,4,2,1,90,0,0
27773,-142.857142857143,4,2,1,90,0,0
28037,-58.8235294117647,4,2,1,90,0,0
28126,-100,4,2,1,90,0,0
67655,-142.857142857143,4,2,1,90,0,0
67920,-58.8235294117647,4,2,1,90,0,0
68008,-142.857142857143,4,2,1,90,0,0
68273,-58.8235294117647,4,2,1,90,0,0
68361,-142.857142857143,4,2,1,90,0,0
68626,-58.8235294117647,4,2,1,90,0,0
68714,-142.857142857143,4,2,1,90,0,0
68978,-58.8235294117647,4,2,1,90,0,0
69067,-100,4,2,1,90,0,0
93155,-100,4,2,1,90,0,1
102949,-100,4,2,1,90,0,0
104449,-100,4,2,1,90,0,1
127126,-100,4,2,1,90,0,0
143890,-33.3333333333333,4,2,1,90,0,0
143912,-333.333333333333,4,2,1,90,0,0
143934,-100,4,2,1,90,0,0
144596,-33.3333333333333,4,2,1,90,0,0
144618,-333.333333333333,4,2,1,90,0,0
144640,-100,4,2,1,90,0,0
145302,-33.3333333333333,4,2,1,90,0,0
145324,-333.333333333333,4,2,1,90,0,0
145346,-100,4,2,1,90,0,0
150773,-10,4,2,1,90,0,0
150784,-1000,4,2,1,90,0,0
150795,-100,4,2,1,90,0,0
186331,-33.3333333333333,4,2,1,90,0,0
186353,-333.333333333333,4,2,1,90,0,0
186375,-100,4,2,1,90,0,0
187743,-33.3333333333333,4,2,1,90,0,0
187765,-333.333333333333,4,2,1,90,0,0
187787,-100,4,2,1,90,0,0
188449,-33.3333333333333,4,2,1,90,0,0
188471,-333.333333333333,4,2,1,90,0,0
188493,-100,4,2,1,90,0,0
189155,-33.3333333333333,4,2,1,90,0,0
189177,-333.333333333333,4,2,1,90,0,0
189199,-100,4,2,1,90,0,0
258420,-100,4,2,1,90,0,1
268126,-100,4,2,1,90,0,0
269714,-100,4,2,1,90,0,1
291596,-100,4,2,1,90,0,0
296361,-142.857142857143,4,2,1,90,0,0
296626,-58.8235294117647,4,2,1,90,0,0
296714,-142.857142857143,4,2,1,90,0,0
296978,-58.8235294117647,4,2,1,90,0,0
297067,-142.857142857143,4,2,1,90,0,0
297331,-58.8235294117647,4,2,1,90,0,0
297420,-142.857142857143,4,2,1,90,0,0
297684,-58.8235294117647,4,2,1,90,0,0
297773,-100,4,2,1,90,0,0
302008,-142.857142857143,4,2,1,90,0,0
302273,-58.8235294117647,4,2,1,90,0,0
302361,-142.857142857143,4,2,1,90,0,0
302626,-58.8235294117647,4,2,1,90,0,0
302714,-142.857142857143,4,2,1,90,0,0
302978,-58.8235294117647,4,2,1,90,0,0
303067,-142.857142857143,4,2,1,90,0,0
303331,-58.8235294117647,4,2,1,90,0,0
303420,-100,4,2,1,90,0,0
310185,352.941176470588,4,2,1,90,1,8
310361,368.098159509202,4,2,1,90,1,0
310361,-96.1538461538461,4,2,1,90,0,0
310545,375,4,2,1,90,1,0
310545,-94.3396226415094,4,2,1,90,0,0
312045,397.350993377483,4,2,1,90,1,0
312045,-89.2857142857143,4,2,1,90,0,0
313634,397.350993377483,4,2,1,90,1,8
313833,397.350993377483,4,2,1,90,1,0
313833,-89.2857142857143,4,2,1,90,0,0
314230,402.684563758389,4,2,1,90,1,0
314230,-87.719298245614,4,2,1,90,0,0
314632,402.684563758389,4,2,1,90,1,0
314632,-87.719298245614,4,2,1,90,0,0
315035,416.666666666667,4,2,1,90,1,0
315035,-84.7457627118644,4,2,1,90,0,0
315451,416.666666666667,4,2,1,90,1,0
315451,-84.7457627118644,4,2,1,90,0,0
316076,434.782608695652,4,2,1,90,1,0
316076,-81.3008130081301,4,2,1,90,0,0
317162,434.782608695652,4,2,1,90,1,0
317162,-81.3008130081301,4,2,1,90,0,0
317597,428.571428571429,4,2,1,90,1,0
317597,-82.6446280991736,4,2,1,90,0,0
318882,451.127819548872,4,2,1,90,1,0
318882,-78.125,4,2,1,90,0,0
319558,458.015267175573,4,2,1,90,1,0
319558,-76.9230769230769,4,2,1,90,0,0
320245,465.116279069767,4,2,1,90,1,0
320245,-76.3358778625954,4,2,1,90,0,0
320710,465.116279069767,4,2,1,90,1,0
320710,-76.3358778625954,4,2,1,90,0,0

[HitObjects]
182,192,11008,128,0,11096:0:0:0:0:
402,192,11008,128,0,11096:0:0:0:0:
256,192,11096,128,0,11184:0:0:0:0:
475,192,11096,128,0,11184:0:0:0:0:
109,192,11184,128,0,11273:0:0:0:0:
329,192,11184,128,0,11273:0:0:0:0:
182,192,11273,128,0,11361:0:0:0:0:
402,192,11273,128,0,11361:0:0:0:0:
36,192,11361,1,0,0:0:0:80:kick.wav
109,192,11361,1,0,0:0:0:70:windchime.wav
256,192,11361,128,0,12420:0:0:0:0:
329,192,11361,1,0,0:0:0:0:
475,192,11361,128,0,11449:0:0:0:0:
329,192,11537,128,0,11626:0:0:0:0:
36,192,11714,1,0,0:0:0:0:
182,192,11714,128,0,11802:0:0:0:0:
109,192,11890,1,0,0:0:0:80:kick.wav
402,192,11890,1,0,0:0:0:0:
475,192,11890,128,0,11978:0:0:0:0:
36,192,12067,1,0,0:0:0:40:clap.wav
182,192,12067,1,0,0:0:0:0:
329,192,12067,128,0,12155:0:0:0:0:
475,192,12067,1,0,0:0:0:0:
182,192,12243,128,0,12331:0:0:0:0:
36,192,12420,128,0,12773:0:0:0:0:
475,192,12420,128,0,12508:0:0:0:0:
109,192,12596,1,0,0:0:0:80:kick.wav
256,192,12596,128,0,12773:0:0:0:0:
329,192,12596,128,0,12684:0:0:0:0:
182,192,12773,128,0,12861:0:0:0:0:
109,192,12949,128,0,13126:0:0:0:0:
475,192,12949,128,0,13037:0:0:0:0:
36,192,13126,1,0,0:0:0:80:kick.wav
329,192,13126,128,0,13214:0:0:0:0:
402,192,13126,1,0,0:0:0:0:
182,192,13302,128,0,13390:0:0:0:0:
256,192,13302,128,0,13478:0:0:0:0:
36,192,13478,1,0,0:0:0:40:clap.wav
109,192,13478,1,0,0:0:0:0:
329,192,13478,1,0,0:0:0:0:
475,192,13478,1,0,0:0:0:0:
182,192,13655,1,0,0:0:0:80:kick.wav
402,192,13655,128,0,14184:0:0:0:0:
475,192,13655,1,0,0:0:0:0:
36,192,13831,1,0,0:0:0:0:
256,192,13831,1,0,0:0:0:0:
182,192,14008,1,0,0:0:0:0:
36,192,14184,128,0,14537:0:0:0:80:kick.wav
109,192,14184,128,0,14537:0:0:0:100:cymbal.wav
256,192,14184,1,0,0:0:0:0:
329,192,14184,128,0,14537:0:0:0:0:
475,192,14184,128,0,14537:0:0:0:0:
182,192,14537,128,0,14714:0:0:0:0:
402,192,14537,128,0,14714:0:0:0:0:
36,192,14714,128,0,14890:0:0:0:80:kick.wav
109,192,14714,128,0,14890:0:0:0:100:cymbal.wav
256,192,14714,128,0,14890:0:0:0:0:
329,192,14714,1,0,0:0:0:0:
475,192,14714,128,0,14890:0:0:0:0:
36,192,15067,128,0,15243:0:0:0:80:kick.wav
182,192,15067,128,0,15243:0:0:0:100:cymbal.wav
329,192,15067,128,0,15243:0:0:0:0:
402,192,15067,1,0,0:0:0:0:
475,192,15067,128,0,15243:0:0:0:0:
36,192,15420,128,0,15773:0:0:0:80:kick.wav
109,192,15420,128,0,15949:0:0:0:100:cymbal.wav
182,192,15420,128,0,15684:0:0:0:0:
329,192,15420,128,0,15684:0:0:0:0:
402,192,15420,128,0,15949:0:0:0:0:
475,192,15420,128,0,15773:0:0:0:0:
182,192,15773,128,0,15949:0:0:0:0:
329,192,15773,128,0,15949:0:0:0:0:
36,192,15949,128,0,16126:0:0:0:0:
256,192,15949,128,0,16126:0:0:0:0:
475,192,15949,128,0,16214:0:0:0:0:
109,192,16037,128,0,16126:0:0:0:0:
329,192,16037,128,0,16126:0:0:0:0:
182,192,16126,128,0,16302:0:0:0:0:
402,192,16126,128,0,16390:0:0:0:0:
36,192,16214,128,0,16302:0:0:0:0:
256,192,16214,128,0,16302:0:0:0:0:
109,192,16302,128,0,16478:0:0:0:0:
329,192,16302,128,0,16478:0:0:0:0:
182,192,16390,128,0,16478:0:0:0:0:
475,192,16390,128,0,16478:0:0:0:0:
36,192,16478,128,0,16743:0:0:0:0:
256,192,16478,128,0,16655:0:0:0:0:
182,192,16567,128,0,16655:0:0:0:0:
402,192,16567,128,0,16655:0:0:0:0:
109,192,16655,128,0,16920:0:0:0:0:
329,192,16655,128,0,16831:0:0:0:0:
256,192,16743,128,0,16831:0:0:0:0:
475,192,16743,128,0,16831:0:0:0:0:
182,192,16831,128,0,16920:0:0:0:0:
402,192,16831,128,0,17008:0:0:0:0:
36,192,16920,128,0,17008:0:0:0:0:
329,192,16920,128,0,17008:0:0:0:0:
109,192,17008,1,0,0:0:0:80:kick.wav
182,192,17008,1,0,0:0:0:100:cymbal.wav
256,192,17008,128,0,17890:0:0:0:0:
475,192,17008,1,0,0:0:0:0:
182,192,17184,1,0,0:0:0:0:
402,192,17184,1,0,0:0:0:0:
36,192,17361,1,0,0:0:0:80:kick.wav
109,192,17361,1,0,0:0:0:0:
329,192,17361,1,0,0:0:0:0:
475,192,17361,1,0,0:0:0:0:
182,192,17537,1,0,0:0:0:0:
329,192,17537,1,0,0:0:0:0:
36,192,17714,1,0,0:0:0:80:kick.wav
109,192,17714,1,0,0:0:0:0:
402,192,17714,1,0,0:0:0:0:
475,192,17714,1,0,0:0:0:0:
36,192,17890,128,0,18155:0:0:0:0:
109,192,17890,128,0,18155:0:0:0:0:
182,192,18067,1,0,0:0:0:80:kick.wav
329,192,18067,1,0,0:0:0:0:
402,192,18067,128,0,18155:0:0:0:0:
475,192,18067,128,0,18155:0:0:0:0:
36,192,18243,1,0,0:0:0:80:kick.wav
109,192,18243,1,0,0:0:0:0:
256,192,18243,128,0,19302:0:0:0:0:
402,192,18243,1,0,0:0:0:0:
475,192,18243,1,0,0:0:0:0:
36,192,18420,1,0,0:0:0:80:kick.wav
109,192,18420,1,0,0:0:0:100:cymbal.wav
182,192,18420,1,0,0:0:0:0:
329,192,18420,1,0,0:0:0:0:
402,192,18420,1,0,0:0:0:0:
475,192,18420,1,0,0:0:0:0:
182,192,18596,1,0,0:0:0:0:
402,192,18596,1,0,0:0:0:0:
36,192,18773,1,0,0:0:0:80:kick.wav
109,192,18773,1,0,0:0:0:0:
329,192,18773,1,0,0:0:0:0:
475,192,18773,1,0,0:0:0:0:
109,192,18949,1,0,0:0:0:0:
402,192,18949,1,0,0:0:0:0:
36,192,19126,1,0,0:0:0:80:kick.wav
182,192,19126,1,0,0:0:0:0:
402,192,19126,1,0,0:0:0:0:
475,192,19126,1,0,0:0:0:0:
36,192,19302,128,0,19567:0:0:0:0:
182,192,19302,128,0,19567:0:0:0:0:
109,192,19478,1,0,0:0:0:80:kick.wav
329,192,19478,128,0,19567:0:0:0:0:
402,192,19478,1,0,0:0:0:0:
475,192,19478,128,0,19567:0:0:0:0:
36,192,19655,1,0,0:0:0:80:kick.wav
109,192,19655,1,0,0:0:0:0:
256,192,19655,128,0,20714:0:0:0:0:
402,192,19655,1,0,0:0:0:0:
475,192,19655,1,0,0:0:0:0:
36,192,19831,1,0,0:0:0:80:kick.wav
109,192,19831,1,0,0:0:0:100:cymbal.wav
182,192,19831,1,0,0:0:0:0:
329,192,19831,1,0,0:0:0:0:
402,192,19831,1,0,0:0:0:0:
475,192,19831,1,0,0:0:0:0:
36,192,20008,1,0,0:0:0:80:kick.wav
182,192,20008,1,0,0:0:0:0:
329,192,20008,1,0,0:0:0:0:
475,192,20008,1,0,0:0:0:0:
109,192,20184,1,0,0:0:0:80:kick.wav
182,192,20184,1,0,0:0:0:0:
329,192,20184,1,0,0:0:0:0:
402,192,20184,1,0,0:0:0:0:
36,192,20361,1,0,0:0:0:80:kick.wav
182,192,20361,1,0,0:0:0:0:
329,192,20361,1,0,0:0:0:0:
475,192,20361,1,0,0:0:0:0:
36,192,20537,1,0,0:0:0:80:kick.wav
109,192,20537,1,0,0:0:0:100:cymbal.wav
182,192,20537,1,0,0:0:0:0:
329,192,20537,1,0,0:0:0:0:
402,192,20537,1,0,0:0:0:0:
475,192,20537,1,0,0:0:0:0:
36,192,20714,1,0,0:0:0:80:kick.wav
109,192,20714,1,0,0:0:0:0:
329,192,20714,1,0,0:0:0:0:
475,192,20714,1,0,0:0:0:0:
329,192,20890,1,0,0:0:0:80:kick.wav
402,192,20890,1,0,0:0:0:0:
475,192,20890,1,0,0:0:0:0:
36,192,20978,1,0,0:0:0:80:kick.wav
109,192,20978,1,0,0:0:0:0:
182,192,20978,1,0,0:0:0:0:
256,192,21067,1,0,0:0:0:80:kick.wav
402,192,21067,1,0,0:0:0:0:
475,192,21067,1,0,0:0:0:0:
36,192,21155,1,0,0:0:0:80:kick.wav
109,192,21155,1,0,0:0:0:0:
329,192,21155,1,0,0:0:0:0:
182,192,21243,1,0,0:0:0:80:kick.wav
256,192,21243,1,0,0:0:0:100:cymbal.wav
402,192,21243,1,0,0:0:0:0:
475,192,21243,1,0,0:0:0:0:
36,192,21420,1,0,0:0:0:0:
475,192,21420,1,0,0:0:0:0:
182,192,21508,1,0,0:0:0:0:
329,192,21508,1,0,0:0:0:0:
36,192,21596,1,0,0:0:0:0:
475,192,21596,1,0,0:0:0:0:
36,192,21773,1,0,0:0:0:80:kick.wav
182,192,21773,1,0,0:0:0:100:cymbal.wav
256,192,21773,1,0,0:0:0:0:
329,192,21773,1,0,0:0:0:0:
475,192,21773,1,0,0:0:0:0:
109,192,21949,1,0,0:0:0:0:
402,192,21949,1,0,0:0:0:0:
182,192,22037,1,0,0:0:0:0:
329,192,22037,1,0,0:0:0:0:
109,192,22126,1,0,0:0:0:0:
402,192,22126,1,0,0:0:0:0:
36,192,22302,1,0,0:0:0:80:kick.wav
182,192,22302,1,0,0:0:0:0:
256,192,22302,1,0,0:0:0:0:
329,192,22302,1,0,0:0:0:0:
475,192,22302,1,0,0:0:0:0:
36,192,22478,128,0,22831:0:0:0:80:kick.wav
109,192,22478,128,0,22743:0:0:0:100:cymbal.wav
182,192,22478,1,0,0:0:0:0:
256,192,22478,128,0,22743:0:0:0:0:
329,192,22478,1,0,0:0:0:0:
402,192,22478,1,0,0:0:0:0:
475,192,22478,1,0,0:0:0:0:
402,192,22743,128,0,22831:0:0:0:0:
475,192,22743,128,0,22831:0:0:0:0:
109,192,22831,1,0,0:0:0:80:kick.wav
182,192,22831,128,0,22920:0:0:0:0:
256,192,22831,128,0,23008:0:0:0:0:
329,192,22920,128,0,23008:0:0:0:0:
475,192,22920,128,0,23008:0:0:0:0:
36,192,23008,1,0,0:0:0:80:kick.wav
109,192,23008,128,0,23096:0:0:0:0:
182,192,23008,128,0,23184:0:0:0:0:
256,192,23096,128,0,23184:0:0:0:0:
402,192,23096,128,0,23184:0:0:0:0:
36,192,23184,128,0,23273:0:0:0:0:
109,192,23184,128,0,23361:0:0:0:0:
182,192,23273,128,0,23361:0:0:0:0:
329,192,23273,128,0,23361:0:0:0:0:
36,192,23361,128,0,23537:0:0:0:80:kick.wav
402,192,23361,1,0,0:0:0:0:
475,192,23361,128,0,23449:0:0:0:0:
109,192,23449,128,0,23537:0:0:0:0:
256,192,23449,128,0,23537:0:0:0:0:
182,192,23626,128,0,23714:0:0:0:0:
402,192,23626,128,0,23714:0:0:0:0:
36,192,23714,1,0,0:0:0:80:kick.wav
109,192,23714,1,0,0:0:0:0:
329,192,23714,1,0,0:0:0:0:
256,192,23802,128,0,23890:0:0:0:0:
475,192,23802,128,0,23890:0:0:0:0:
36,192,23890,128,0,24243:0:0:0:0:
182,192,23890,128,0,24243:0:0:0:0:
256,192,24067,1,0,0:0:0:80:kick.wav
329,192,24067,1,0,0:0:0:0:
475,192,24067,1,0,0:0:0:0:
402,192,24243,128,0,24331:0:0:0:0:
475,192,24243,128,0,24331:0:0:0:0:
109,192,24331,128,0,24420:0:0:0:0:
256,192,24331,128,0,24420:0:0:0:0:
329,192,24420,1,0,0:0:0:80:kick.wav
402,192,24420,128,0,24508:0:0:0:0:
475,192,24420,128,0,24508:0:0:0:0:
36,192,24508,128,0,24596:0:0:0:0:
182,192,24508,128,0,24596:0:0:0:0:
256,192,24596,128,0,24684:0:0:0:0:
329,192,24596,128,0,24684:0:0:0:0:
36,192,24773,128,0,24949:0:0:0:80:kick.wav
109,192,24773,128,0,24949:0:0:0:0:
182,192,24773,1,0,0:0:0:0:
256,192,24861,128,0,24949:0:0:0:0:
402,192,24861,128,0,24949:0:0:0:0:
329,192,25037,128,0,25214:0:0:0:0:
475,192,25037,128,0,25214:0:0:0:0:
36,192,25126,128,0,25214:0:0:0:80:kick.wav
109,192,25126,128,0,25214:0:0:0:0:
182,192,25126,1,0,0:0:0:0:
256,192,25214,128,0,25302:0:0:0:0:
402,192,25214,128,0,25302:0:0:0:0:
36,192,25302,128,0,25655:0:0:0:80:kick.wav
109,192,25302,128,0,25655:0:0:0:100:cymbal.wav
182,192,25302,128,0,25478:0:0:0:0:
329,192,25302,1,0,0:0:0:0:
475,192,25302,128,0,25655:0:0:0:0:
182,192,25655,128,0,25831:0:0:0:80:kick.wav
256,192,25655,1,0,0:0:0:0:
402,192,25655,128,0,25831:0:0:0:0:
109,192,25743,128,0,25920:0:0:0:0:
329,192,25743,128,0,25920:0:0:0:0:
36,192,25831,128,0,26096:0:0:0:80:kick.wav
256,192,25831,128,0,26096:0:0:0:0:
475,192,25831,1,0,0:0:0:0:
182,192,26008,128,0,26096:0:0:0:0:
402,192,26008,128,0,26096:0:0:0:0:
329,192,26184,128,0,26273:0:0:0:80:kick.wav
402,192,26184,1,0,0:0:0:0:
475,192,26184,128,0,26273:0:0:0:0:
36,192,26273,128,0,26361:0:0:0:0:
182,192,26273,128,0,26361:0:0:0:0:
329,192,26361,128,0,26449:0:0:0:0:
475,192,26361,128,0,26449:0:0:0:0:
109,192,26449,128,0,26537:0:0:0:0:
256,192,26449,128,0,26537:0:0:0:0:
36,192,26537,1,0,0:0:0:80:kick.wav
402,192,26537,1,0,0:0:0:0:
475,192,26537,1,0,0:0:0:0:
182,192,26626,128,0,26714:0:0:0:0:
329,192,26626,128,0,26714:0:0:0:0:
36,192,26714,128,0,26978:0:0:0:80:kick.wav
109,192,26714,128,0,26978:0:0:0:100:cymbal.wav
256,192,26714,128,0,26978:0:0:0:0:
402,192,26714,1,0,0:0:0:0:
475,192,26714,128,0,26978:0:0:0:0:
36,192,27067,128,0,27155:0:0:0:80:kick.wav
109,192,27067,128,0,27155:0:0:0:0:
329,192,27067,128,0,27155:0:0:0:0:
402,192,27067,128,0,27155:0:0:0:0:
256,192,27155,128,0,27243:0:0:0:0:
109,192,27243,128,0,27331:0:0:0:80:kick.wav
182,192,27243,128,0,27331:0:0:0:0:
402,192,27243,128,0,27331:0:0:0:0:
475,192,27243,128,0,27331:0:0:0:0:
329,192,27331,128,0,27420:0:0:0:0:
36,192,27420,1,0,0:0:0:80:kick.wav
109,192,27420,1,0,0:0:0:100:cymbal.wav
182,192,27420,1,0,0:0:0:0:
256,192,27420,1,0,0:0:0:0:
402,192,27420,1,0,0:0:0:0:
475,192,27420,1,0,0:0:0:0:
36,192,27773,1,0,0:0:0:80:kick.wav
109,192,27773,1,0,0:0:0:100:cymbal.wav
182,192,27773,1,0,0:0:0:0:
329,192,27773,1,0,0:0:0:0:
402,192,27773,1,0,0:0:0:0:
475,192,27773,1,0,0:0:0:0:
36,192,28126,128,0,28655:0:0:0:80:kick.wav
109,192,28126,128,0,28567:0:0:0:100:cymbal.wav
182,192,28126,128,0,28478:0:0:0:0:
256,192,28126,128,0,28390:0:0:0:0:
329,192,28126,128,0,28302:0:0:0:0:
475,192,28126,1,0,0:0:0:0:
256,192,28478,128,0,28655:0:0:0:80:kick.wav
475,192,28478,128,0,28567:0:0:0:0:
182,192,28567,128,0,28743:0:0:0:0:
402,192,28567,128,0,28655:0:0:0:0:
109,192,28655,128,0,28831:0:0:0:80:kick.wav
329,192,28655,128,0,28743:0:0:0:0:
36,192,28743,128,0,28920:0:0:0:0:
256,192,28743,128,0,28831:0:0:0:0:
475,192,28743,128,0,28920:0:0:0:0:
182,192,28831,128,0,28920:0:0:0:0:
402,192,28831,128,0,29008:0:0:0:0:
109,192,28920,128,0,29008:0:0:0:0:
329,192,28920,128,0,29096:0:0:0:0:
36,192,29008,128,0,29184:0:0:0:80:kick.wav
256,192,29008,128,0,29184:0:0:0:0:
475,192,29008,1,0,0:0:0:0:
109,192,29184,128,0,29273:0:0:0:0:
329,192,29184,1,0,0:0:0:0:
182,192,29243,128,0,29331:0:0:0:0:
402,192,29243,1,0,0:0:0:0:
256,192,29302,128,0,29390:0:0:0:0:
475,192,29302,1,0,0:0:0:0:
36,192,29361,1,0,0:0:0:80:kick.wav
109,192,29361,1,0,0:0:0:0:
329,192,29361,1,0,0:0:0:0:
182,192,29449,128,0,29537:0:0:0:0:
402,192,29449,128,0,29537:0:0:0:0:
36,192,29537,128,0,29802:0:0:0:80:kick.wav
109,192,29537,128,0,29802:0:0:0:100:cymbal.wav
256,192,29537,128,0,29802:0:0:0:0:
329,192,29537,128,0,29802:0:0:0:0:
475,192,29537,128,0,29802:0:0:0:0:
182,192,29890,1,0,0:0:0:80:kick.wav
402,192,29890,128,0,29978:0:0:0:0:
475,192,29890,1,0,0:0:0:0:
109,192,29949,1,0,0:0:0:0:
329,192,29949,128,0,30037:0:0:0:0:
36,192,30008,1,0,0:0:0:0:
256,192,30008,128,0,30096:0:0:0:0:
182,192,30067,128,0,30155:0:0:0:80:kick.wav
402,192,30067,1,0,0:0:0:0:
475,192,30067,1,0,0:0:0:0:
109,192,30243,128,0,30331:0:0:0:0:
329,192,30243,1,0,0:0:0:0:
182,192,30302,128,0,30390:0:0:0:0:
402,192,30302,1,0,0:0:0:0:
256,192,30361,128,0,30449:0:0:0:0:
475,192,30361,1,0,0:0:0:0:
36,192,30420,1,0,0:0:0:80:kick.wav
109,192,30420,1,0,0:0:0:0:
329,192,30420,128,0,30508:0:0:0:0:
182,192,30508,1,0,0:0:0:0:
475,192,30508,128,0,30596:0:0:0:0:
329,192,30596,1,0,0:0:0:0:
402,192,30596,128,0,30684:0:0:0:0:
36,192,30684,128,0,30773:0:0:0:0:
182,192,30684,1,0,0:0:0:0:
109,192,30773,128,0,30861:0:0:0:80:kick.wav
256,192,30773,1,0,0:0:0:0:
475,192,30773,1,0,0:0:0:0:
182,192,30861,128,0,30949:0:0:0:0:
329,192,30861,1,0,0:0:0:0:
36,192,30949,1,0,0:0:0:80:kick.wav
109,192,30949,1,0,0:0:0:100:cymbal.wav
256,192,30949,1,0,0:0:0:0:
402,192,30949,1,0,0:0:0:0:
475,192,30949,1,0,0:0:0:0:
182,192,31037,1,0,0:0:0:80:kick.wav
329,192,31037,1,0,0:0:0:0:
36,192,31126,1,0,0:0:0:80:kick.wav
402,192,31126,1,0,0:0:0:0:
475,192,31126,1,0,0:0:0:0:
36,192,31302,1,0,0:0:0:80:kick.wav
109,192,31302,1,0,0:0:0:0:
329,192,31302,1,0,0:0:0:0:
182,192,31390,1,0,0:0:0:0:
402,192,31390,1,0,0:0:0:0:
256,192,31478,128,0,31655:0:0:0:80:kick.wav
329,192,31478,128,0,31655:0:0:0:0:
475,192,31478,128,0,31655:0:0:0:0:
36,192,31655,1,0,0:0:0:80:kick.wav
109,192,31655,1,0,0:0:0:0:
182,192,31655,1,0,0:0:0:0:
329,192,31743,1,0,0:0:0:0:
36,192,31831,1,0,0:0:0:80:kick.wav
109,192,31831,1,0,0:0:0:100:cymbal.wav
182,192,31831,1,0,0:0:0:0:
402,192,31831,1,0,0:0:0:0:
475,192,31831,1,0,0:0:0:0:
36,192,31920,1,0,0:0:0:80:kick.wav
109,192,31920,1,0,0:0:0:100:cymbal.wav
182,192,31920,1,0,0:0:0:0:
402,192,31920,1,0,0:0:0:0:
475,192,31920,1,0,0:0:0:0:
36,192,32096,1,0,0:0:0:80:kick.wav
182,192,32096,1,0,0:0:0:100:cymbal.wav
256,192,32096,1,0,0:0:0:0:
329,192,32096,1,0,0:0:0:0:
475,192,32096,1,0,0:0:0:0:
36,192,32273,1,0,0:0:0:80:kick.wav
182,192,32273,1,0,0:0:0:0:
329,192,32273,1,0,0:0:0:0:
475,192,32273,1,0,0:0:0:0:
36,192,32361,128,0,33949:0:0:0:80:kick.wav
182,192,32361,128,0,33949:0:0:0:0:
329,192,32361,128,0,33949:0:0:0:0:
475,192,32361,128,0,35273:0:0:0:0:
109,192,33949,128,0,35273:0:0:0:0:
256,192,33949,128,0,35273:0:0:0:0:
402,192,33949,128,0,35273:0:0:0:0:
36,192,34655,128,0,35273:0:0:0:0:
36,192,35361,128,0,35626:0:0:0:80:kick.wav
109,192,35361,128,0,35802:0:0:0:70:windchime.wav
182,192,35361,128,0,36508:0:0:0:0:
256,192,35361,128,0,39331:0:0:0:0:
329,192,35361,128,0,36508:0:0:0:0:
402,192,35361,128,0,36155:0:0:0:0:
475,192,35361,128,0,37920:0:0:0:0:
36,192,35714,128,0,39331:0:0:0:0:
109,192,35890,128,0,37743:0:0:0:0:
402,192,36243,128,0,37920:0:0:0:0:
182,192,36596,128,0,38626:0:0:0:0:
329,192,36596,128,0,38449:0:0:0:0:
109,192,37831,128,0,38978:0:0:0:0:
402,192,38008,128,0,39773:0:0:0:0:
475,192,38008,128,0,39861:0:0:0:0:
329,192,38537,128,0,39684:0:0:0:0:
182,192,38714,128,0,40214:0:0:0:0:
109,192,39067,128,0,40214:0:0:0:0:
36,192,39420,128,0,40214:0:0:0:0:
256,192,39420,128,0,40214:0:0:0:0:
329,192,39773,128,0,40037:0:0:0:0:
402,192,39861,128,0,40743:0:0:0:0:
475,192,39949,128,0,40390:0:0:0:0:
329,192,40126,128,0,40567:0:0:0:0:
36,192,40302,128,0,40390:0:0:0:80:kick.wav
109,192,40302,128,0,40390:0:0:0:100:cymbal.wav
182,192,40302,128,0,40390:0:0:0:0:
256,192,40302,128,0,40390:0:0:0:0:
36,192,40478,128,0,40743:0:0:0:80:kick.wav
109,192,40478,128,0,40743:0:0:0:100:cymbal.wav
182,192,40478,128,0,40743:0:0:0:0:
256,192,40478,128,0,40743:0:0:0:0:
475,192,40478,128,0,40743:0:0:0:0:
329,192,40655,128,0,40743:0:0:0:0:
36,192,40831,128,0,41008:0:0:0:80:kick.wav
109,192,40831,128,0,41008:0:0:0:70:windchime.wav
256,192,40831,128,0,41008:0:0:0:0:
402,192,40831,128,0,41273:0:0:0:0:
475,192,40831,128,0,41273:0:0:0:0:
36,192,41184,128,0,41273:0:0:0:0:
182,192,41184,128,0,41273:0:0:0:0:
256,192,41184,128,0,41273:0:0:0:0:
36,192,41361,128,0,41449:0:0:0:80:kick.wav
182,192,41361,128,0,41449:0:0:0:70:snare.wav
256,192,41361,128,0,41449:0:0:0:0:
329,192,41361,1,0,0:0:0:0:
475,192,41361,1,0,0:0:0:0:
109,192,41537,1,0,0:0:0:0:
402,192,41537,1,0,0:0:0:0:
36,192,41714,128,0,41802:0:0:0:80:kick.wav
182,192,41714,128,0,41802:0:0:0:0:
256,192,41714,128,0,41802:0:0:0:0:
109,192,41890,128,0,41978:0:0:0:0:
256,192,41890,128,0,41978:0:0:0:0:
329,192,41890,128,0,41978:0:0:0:0:
36,192,42067,1,0,0:0:0:80:kick.wav
182,192,42067,128,0,42155:0:0:0:70:snare.wav
329,192,42067,128,0,42155:0:0:0:0:
402,192,42067,128,0,42155:0:0:0:0:
475,192,42067,1,0,0:0:0:0:
256,192,42243,128,0,42331:0:0:0:0:
402,192,42243,128,0,42331:0:0:0:0:
475,192,42243,128,0,42331:0:0:0:0:
182,192,42420,1,0,0:0:0:80:kick.wav
329,192,42420,1,0,0:0:0:0:
475,192,42420,1,0,0:0:0:0:
36,192,42596,128,0,42684:0:0:0:0:
109,192,42596,128,0,42684:0:0:0:0:
182,192,42596,128,0,42684:0:0:0:0:
256,192,42684,128,0,42773:0:0:0:0:
402,192,42684,1,0,0:0:0:0:
36,192,42773,128,0,42861:0:0:0:80:kick.wav
109,192,42773,128,0,42861:0:0:0:70:snare.wav
182,192,42773,1,0,0:0:0:0:
329,192,42773,1,0,0:0:0:0:
475,192,42773,128,0,42861:0:0:0:0:
256,192,42861,1,0,0:0:0:0:
402,192,42861,128,0,42949:0:0:0:0:
182,192,42949,1,0,0:0:0:0:
329,192,42949,128,0,43037:0:0:0:0:
109,192,43037,1,0,0:0:0:0:
256,192,43037,128,0,43126:0:0:0:0:
36,192,43126,1,0,0:0:0:80:kick.wav
182,192,43126,128,0,43214:0:0:0:0:
475,192,43126,1,0,0:0:0:0:
109,192,43302,128,0,43390:0:0:0:0:
256,192,43302,128,0,43390:0:0:0:0:
329,192,43302,128,0,43390:0:0:0:0:
36,192,43478,1,0,0:0:0:80:kick.wav
182,192,43478,128,0,43567:0:0:0:70:snare.wav
329,192,43478,128,0,43567:0:0:0:0:
402,192,43478,128,0,43567:0:0:0:0:
475,192,43478,1,0,0:0:0:0:
109,192,43611,128,0,43699:0:0:0:0:
256,192,43655,128,0,43743:0:0:0:0:
402,192,43655,128,0,44096:0:0:0:0:
475,192,43655,128,0,44096:0:0:0:0:
36,192,43831,1,0,0:0:0:80:kick.wav
182,192,43831,1,0,0:0:0:0:
329,192,43831,1,0,0:0:0:0:
36,192,44008,128,0,44096:0:0:0:0:
256,192,44008,128,0,44096:0:0:0:0:
36,192,44184,1,0,0:0:0:80:kick.wav
182,192,44184,1,0,0:0:0:70:snare.wav
329,192,44184,128,0,44273:0:0:0:0:
402,192,44184,1,0,0:0:0:0:
475,192,44184,1,0,0:0:0:0:
109,192,44273,128,0,44361:0:0:0:0:
475,192,44361,128,0,44449:0:0:0:0:
256,192,44449,128,0,44537:0:0:0:0:
36,192,44537,1,0,0:0:0:80:kick.wav
109,192,44537,128,0,44626:0:0:0:100:cymbal.wav
182,192,44537,128,0,44626:0:0:0:0:
329,192,44537,128,0,44626:0:0:0:0:
402,192,44537,1,0,0:0:0:0:
109,192,44714,1,0,0:0:0:80:kick.wav
182,192,44714,128,0,44802:0:0:0:100:cymbal.wav
256,192,44714,128,0,44802:0:0:0:0:
402,192,44714,128,0,44802:0:0:0:0:
475,192,44714,1,0,0:0:0:0:
36,192,44890,1,0,0:0:0:80:kick.wav
182,192,44890,1,0,0:0:0:100:cymbal.wav
256,192,44890,128,0,44978:0:0:0:0:
329,192,44890,128,0,44978:0:0:0:0:
475,192,44890,128,0,44978:0:0:0:0:
36,192,45067,1,0,0:0:0:80:kick.wav
182,192,45067,1,0,0:0:0:100:cymbal.wav
256,192,45067,128,0,45243:0:0:0:0:
402,192,45067,128,0,45243:0:0:0:0:
475,192,45067,128,0,46478:0:0:0:0:
329,192,45420,128,0,45684:0:0:0:0:
182,192,45596,128,0,45684:0:0:0:0:
109,192,45773,128,0,46126:0:0:0:0:
256,192,45773,1,0,0:0:0:0:
36,192,46302,128,0,46478:0:0:0:80:kick.wav
109,192,46302,1,0,0:0:0:100:cymbal.wav
182,192,46302,128,0,46478:0:0:0:0:
329,192,46302,128,0,46478:0:0:0:0:
402,192,46302,1,0,0:0:0:0:
36,192,46655,1,0,0:0:0:80:kick.wav
109,192,46655,1,0,0:0:0:100:cymbal.wav
182,192,46655,128,0,47537:0:0:0:70:windchime.wav
329,192,46655,1,0,0:0:0:0:
475,192,46655,1,0,0:0:0:0:
256,192,46831,1,0,0:0:0:0:
36,192,47008,1,0,0:0:0:0:
402,192,47008,1,0,0:0:0:0:
475,192,47008,1,0,0:0:0:0:
256,192,47184,1,0,0:0:0:0:
36,192,47537,128,0,47890:0:0:0:80:kick.wav
109,192,47537,1,0,0:0:0:0:
402,192,47537,1,0,0:0:0:0:
182,192,47714,128,0,47890:0:0:0:0:
329,192,47714,1,0,0:0:0:0:
475,192,47714,1,0,0:0:0:0:
256,192,47890,1,0,0:0:0:0:
402,192,47890,128,0,48067:0:0:0:0:
36,192,48067,1,0,0:0:0:80:kick.wav
182,192,48067,1,0,0:0:0:0:
329,192,48067,1,0,0:0:0:0:
256,192,48243,128,0,48420:0:0:0:0:
402,192,48243,1,0,0:0:0:0:
182,192,48420,1,0,0:0:0:0:
329,192,48420,1,0,0:0:0:0:
475,192,48420,1,0,0:0:0:0:
36,192,48596,128,0,49126:0:0:0:0:
256,192,48596,1,0,0:0:0:0:
329,192,48773,1,0,0:0:0:0:
182,192,48949,128,0,49126:0:0:0:80:kick.wav
256,192,48949,1,0,0:0:0:0:
402,192,48949,1,0,0:0:0:0:
109,192,49126,1,0,0:0:0:0:
329,192,49126,1,0,0:0:0:0:
475,192,49126,1,0,0:0:0:0:
256,192,49302,1,0,0:0:0:0:
329,192,49302,128,0,50537:0:0:0:0:
36,192,49478,1,0,0:0:0:80:kick.wav
109,192,49478,1,0,0:0:0:0:
475,192,49478,1,0,0:0:0:0:
256,192,49655,1,0,0:0:0:0:
36,192,49831,1,0,0:0:0:0:
182,192,49831,1,0,0:0:0:0:
402,192,49831,1,0,0:0:0:0:
256,192,50008,1,0,0:0:0:0:
109,192,50361,1,0,0:0:0:80:kick.wav
182,192,50361,128,0,50537:0:0:0:0:
402,192,50361,1,0,0:0:0:0:
36,192,50537,1,0,0:0:0:0:
256,192,50537,1,0,0:0:0:0:
475,192,50537,128,0,50890:0:0:0:0:
109,192,50714,1,0,0:0:0:0:
329,192,50714,128,0,50890:0:0:0:0:
36,192,50890,1,0,0:0:0:80:kick.wav
182,192,50890,1,0,0:0:0:0:
402,192,50890,1,0,0:0:0:0:
109,192,51067,1,0,0:0:0:0:
256,192,51067,128,0,51243:0:0:0:0:
182,192,51243,1,0,0:0:0:0:
329,192,51243,1,0,0:0:0:0:
475,192,51243,1,0,0:0:0:0:
109,192,51420,128,0,51596:0:0:0:0:
256,192,51420,1,0,0:0:0:0:
36,192,51596,1,0,0:0:0:80:kick.wav
182,192,51596,1,0,0:0:0:100:cymbal.wav
329,192,51596,1,0,0:0:0:0:
402,192,51596,1,0,0:0:0:0:
475,192,51596,1,0,0:0:0:0:
36,192,51773,128,0,52655:0:0:0:80:kick.wav
182,192,51773,128,0,51861:0:0:0:100:cymbal.wav
329,192,51773,128,0,51861:0:0:0:0:
402,192,51773,1,0,0:0:0:0:
475,192,51773,1,0,0:0:0:0:
109,192,51949,128,0,52478:0:0:0:0:
256,192,51949,128,0,52037:0:0:0:0:
402,192,51949,128,0,52037:0:0:0:0:
182,192,52126,128,0,52302:0:0:0:80:kick.wav
256,192,52126,1,0,0:0:0:100:cymbal.wav
329,192,52126,128,0,52302:0:0:0:0:
402,192,52126,1,0,0:0:0:0:
475,192,52126,128,0,52302:0:0:0:0:
182,192,52478,128,0,52567:0:0:0:0:
329,192,52478,128,0,52567:0:0:0:0:
475,192,52478,128,0,53361:0:0:0:0:
109,192,52655,128,0,52743:0:0:0:0:
256,192,52655,128,0,52743:0:0:0:0:
402,192,52655,128,0,53184:0:0:0:0:
36,192,52831,128,0,53008:0:0:0:80:kick.wav
109,192,52831,1,0,0:0:0:100:cymbal.wav
182,192,52831,128,0,53008:0:0:0:0:
256,192,52831,1,0,0:0:0:0:
329,192,52831,128,0,53008:0:0:0:0:
36,192,53184,128,0,54420:0:0:0:0:
182,192,53184,128,0,53273:0:0:0:0:
329,192,53184,128,0,53273:0:0:0:0:
109,192,53361,128,0,54067:0:0:0:0:
256,192,53361,128,0,53449:0:0:0:0:
402,192,53361,128,0,53449:0:0:0:0:
182,192,53537,128,0,53714:0:0:0:80:kick.wav
256,192,53537,1,0,0:0:0:100:cymbal.wav
329,192,53537,128,0,53714:0:0:0:0:
402,192,53537,1,0,0:0:0:0:
475,192,53537,128,0,53714:0:0:0:0:
182,192,53890,128,0,54067:0:0:0:0:
256,192,53890,128,0,54067:0:0:0:0:
402,192,53890,128,0,54067:0:0:0:0:
109,192,54243,128,0,54420:0:0:0:80:kick.wav
182,192,54243,128,0,54420:0:0:0:0:
329,192,54243,128,0,54420:0:0:0:0:
475,192,54243,1,0,0:0:0:0:
182,192,54596,1,0,0:0:0:80:kick.wav
329,192,54596,128,0,54861:0:0:0:0:
402,192,54596,128,0,54861:0:0:0:0:
475,192,54596,128,0,54861:0:0:0:0:
36,192,54773,128,0,54861:0:0:0:0:
109,192,54773,128,0,54861:0:0:0:0:
182,192,54773,128,0,54861:0:0:0:0:
36,192,54949,128,0,55478:0:0:0:80:kick.wav
182,192,54949,128,0,55478:0:0:0:0:
256,192,54949,128,0,55478:0:0:0:0:
329,192,54949,128,0,55126:0:0:0:0:
475,192,54949,128,0,55126:0:0:0:0:
329,192,55302,1,0,0:0:0:80:kick.wav
402,192,55302,1,0,0:0:0:0:
475,192,55302,1,0,0:0:0:0:
109,192,55478,1,0,0:0:0:80:kick.wav
329,192,55478,1,0,0:0:0:70:snare.wav
402,192,55478,1,0,0:0:0:0:
475,192,55478,1,0,0:0:0:0:
36,192,55655,128,0,56096:0:0:0:0:
109,192,55655,128,0,55743:0:0:0:0:
256,192,55655,128,0,55743:0:0:0:0:
109,192,55831,128,0,56273:0:0:0:80:kick.wav
182,192,55831,128,0,55920:0:0:0:0:
329,192,55831,128,0,55920:0:0:0:0:
475,192,55831,128,0,55920:0:0:0:0:
182,192,56008,128,0,56449:0:0:0:0:
256,192,56008,128,0,56096:0:0:0:0:
402,192,56008,128,0,56096:0:0:0:0:
36,192,56184,128,0,56273:0:0:0:80:kick.wav
256,192,56184,128,0,56626:0:0:0:70:snare.wav
329,192,56184,128,0,56273:0:0:0:0:
475,192,56184,128,0,56273:0:0:0:0:
36,192,56361,128,0,56626:0:0:0:80:kick.wav
109,192,56361,128,0,56449:0:0:0:100:cymbal.wav
329,192,56361,128,0,56626:0:0:0:0:
402,192,56361,128,0,56802:0:0:0:0:
475,192,56361,128,0,56978:0:0:0:0:
36,192,56714,128,0,56802:0:0:0:80:kick.wav
109,192,56714,128,0,56802:0:0:0:0:
182,192,56714,128,0,56802:0:0:0:0:
329,192,56714,128,0,56802:0:0:0:0:
36,192,56890,128,0,56978:0:0:0:80:kick.wav
182,192,56890,128,0,56978:0:0:0:0:
256,192,56890,128,0,56978:0:0:0:0:
402,192,56890,128,0,56978:0:0:0:0:
36,192,57067,128,0,57243:0:0:0:80:kick.wav
109,192,57067,128,0,57243:0:0:0:0:
256,192,57067,128,0,57243:0:0:0:0:
329,192,57067,128,0,57243:0:0:0:0:
475,192,57067,128,0,57243:0:0:0:0:
36,192,57420,128,0,57684:0:0:0:80:kick.wav
109,192,57420,1,0,0:0:0:0:
182,192,57420,1,0,0:0:0:0:
256,192,57420,128,0,57684:0:0:0:0:
402,192,57420,1,0,0:0:0:0:
329,192,57596,128,0,57684:0:0:0:0:
475,192,57596,128,0,57684:0:0:0:0:
36,192,57773,128,0,58302:0:0:0:80:kick.wav
109,192,57773,1,0,0:0:0:0:
182,192,57773,128,0,58302:0:0:0:0:
402,192,57773,1,0,0:0:0:0:
475,192,57773,1,0,0:0:0:0:
256,192,57949,1,0,0:0:0:80:kick.wav
402,192,57949,1,0,0:0:0:0:
475,192,57949,1,0,0:0:0:0:
256,192,58126,128,0,58302:0:0:0:80:kick.wav
402,192,58126,128,0,58302:0:0:0:0:
475,192,58126,128,0,58302:0:0:0:0:
36,192,58478,128,0,58655:0:0:0:0:
109,192,58478,128,0,58655:0:0:0:0:
329,192,58478,128,0,58655:0:0:0:0:
402,192,58655,128,0,58831:0:0:0:0:
475,192,58655,128,0,58831:0:0:0:0:
109,192,58831,128,0,59008:0:0:0:0:
256,192,58831,128,0,59008:0:0:0:0:
36,192,59008,128,0,59714:0:0:0:80:kick.wav
182,192,59008,128,0,59184:0:0:0:0:
329,192,59008,1,0,0:0:0:0:
402,192,59008,1,0,0:0:0:0:
475,192,59008,1,0,0:0:0:0:
109,192,59184,128,0,59714:0:0:0:80:kick.wav
256,192,59184,128,0,59714:0:0:0:70:windchime.wav
329,192,59184,1,0,0:0:0:0:
402,192,59184,1,0,0:0:0:0:
475,192,59184,1,0,0:0:0:0:
182,192,59537,1,0,0:0:0:0:
329,192,59537,128,0,59714:0:0:0:0:
475,192,59537,128,0,59714:0:0:0:0:
36,192,59890,128,0,60508:0:0:0:80:kick.wav
109,192,59890,1,0,0:0:0:0:
256,192,59890,128,0,60243:0:0:0:0:
329,192,59890,1,0,0:0:0:0:
475,192,59890,1,0,0:0:0:0:
109,192,60243,128,0,60508:0:0:0:80:kick.wav
182,192,60243,1,0,0:0:0:0:
329,192,60243,128,0,60508:0:0:0:0:
402,192,60243,1,0,0:0:0:0:
475,192,60243,1,0,0:0:0:0:
182,192,60420,128,0,60508:0:0:0:0:
402,192,60420,128,0,60508:0:0:0:0:
36,192,60596,1,0,0:0:0:80:kick.wav
109,192,60596,1,0,0:0:0:0:
256,192,60596,128,0,61126:0:0:0:0:
402,192,60596,1,0,0:0:0:0:
475,192,60596,128,0,61126:0:0:0:0:
36,192,60949,1,0,0:0:0:0:
109,192,60949,128,0,61126:0:0:0:0:
329,192,60949,128,0,61126:0:0:0:0:
109,192,61302,1,0,0:0:0:80:kick.wav
256,192,61302,1,0,0:0:0:0:
329,192,61302,128,0,61478:0:0:0:0:
402,192,61302,1,0,0:0:0:0:
475,192,61302,128,0,61478:0:0:0:0:
36,192,61655,1,0,0:0:0:80:kick.wav
182,192,61655,128,0,61920:0:0:0:0:
256,192,61655,1,0,0:0:0:0:
402,192,61655,128,0,61920:0:0:0:0:
475,192,61655,1,0,0:0:0:0:
109,192,61831,128,0,61920:0:0:0:0:
329,192,61831,128,0,61920:0:0:0:0:
36,192,62008,128,0,62890:0:0:0:80:kick.wav
109,192,62008,1,0,0:0:0:0:
256,192,62008,128,0,62890:0:0:0:0:
402,192,62008,1,0,0:0:0:0:
475,192,62008,1,0,0:0:0:0:
182,192,62361,1,0,0:0:0:0:
475,192,62361,1,0,0:0:0:0:
329,192,62537,1,0,0:0:0:0:
109,192,62714,1,0,0:0:0:0:
402,192,62714,1,0,0:0:0:0:
182,192,62890,1,0,0:0:0:80:kick.wav
329,192,62890,1,0,0:0:0:0:
475,192,62890,1,0,0:0:0:0:
36,192,63067,128,0,63331:0:0:0:80:kick.wav
109,192,63067,128,0,63331:0:0:0:0:
256,192,63067,1,0,0:0:0:0:
329,192,63067,1,0,0:0:0:0:
475,192,63067,1,0,0:0:0:0:
182,192,63243,128,0,63331:0:0:0:0:
402,192,63243,128,0,63331:0:0:0:0:
36,192,63420,1,0,0:0:0:80:kick.wav
109,192,63420,1,0,0:0:0:0:
256,192,63420,128,0,63773:0:0:0:0:
329,192,63420,1,0,0:0:0:0:
475,192,63420,128,0,64037:0:0:0:0:
36,192,63773,1,0,0:0:0:0:
182,192,63773,128,0,64037:0:0:0:0:
402,192,63773,128,0,64037:0:0:0:0:
109,192,63949,128,0,64037:0:0:0:0:
329,192,63949,128,0,64037:0:0:0:0:
36,192,64126,1,0,0:0:0:80:kick.wav
182,192,64126,1,0,0:0:0:0:
256,192,64126,1,0,0:0:0:0:
402,192,64126,128,0,64478:0:0:0:0:
475,192,64126,128,0,64478:0:0:0:0:
109,192,64478,128,0,64567:0:0:0:80:kick.wav
182,192,64478,1,0,0:0:0:0:
329,192,64478,128,0,64567:0:0:0:0:
36,192,64567,128,0,64655:0:0:0:0:
256,192,64567,128,0,64655:0:0:0:0:
182,192,64655,128,0,64743:0:0:0:0:
402,192,64655,128,0,64743:0:0:0:0:
109,192,64743,128,0,64831:0:0:0:0:
329,192,64743,128,0,64831:0:0:0:0:
36,192,64831,128,0,65184:0:0:0:80:kick.wav
182,192,64831,1,0,0:0:0:0:
256,192,64831,128,0,65184:0:0:0:0:
402,192,64831,1,0,0:0:0:0:
475,192,64831,1,0,0:0:0:0:
182,192,65184,1,0,0:0:0:0:
402,192,65184,128,0,65449:0:0:0:0:
475,192,65184,128,0,65449:0:0:0:0:
109,192,65361,128,0,65449:0:0:0:0:
256,192,65361,128,0,65449:0:0:0:0:
36,192,65537,128,0,66155:0:0:0:80:kick.wav
182,192,65537,128,0,65890:0:0:0:0:
329,192,65537,1,0,0:0:0:0:
402,192,65537,1,0,0:0:0:0:
475,192,65537,1,0,0:0:0:0:
109,192,65890,128,0,66155:0:0:0:80:kick.wav
256,192,65890,128,0,66155:0:0:0:0:
329,192,65890,1,0,0:0:0:0:
402,192,65890,1,0,0:0:0:0:
475,192,65890,1,0,0:0:0:0:
329,192,66067,128,0,66155:0:0:0:0:
475,192,66067,128,0,66155:0:0:0:0:
36,192,66243,128,0,66596:0:0:0:0:
182,192,66243,1,0,0:0:0:0:
475,192,66243,128,0,66596:0:0:0:0:
109,192,66596,128,0,66684:0:0:0:0:
402,192,66596,128,0,66684:0:0:0:0:
182,192,66684,128,0,66773:0:0:0:0:
329,192,66684,128,0,66773:0:0:0:0:
109,192,66773,128,0,66949:0:0:0:0:
402,192,66773,128,0,66949:0:0:0:0:
36,192,66949,128,0,67037:0:0:0:80:kick.wav
256,192,66949,1,0,0:0:0:0:
475,192,66949,128,0,67037:0:0:0:0:
182,192,67037,128,0,67126:0:0:0:0:
329,192,67037,128,0,67126:0:0:0:0:
36,192,67126,128,0,67302:0:0:0:0:
475,192,67126,128,0,67302:0:0:0:0:
182,192,67302,128,0,67361:0:0:0:80:kick.wav
256,192,67302,1,0,0:0:0:0:
329,192,67302,128,0,67361:0:0:0:0:
109,192,67361,128,0,67420:0:0:0:0:
402,192,67361,128,0,67420:0:0:0:0:
36,192,67420,128,0,67478:0:0:0:0:
475,192,67420,128,0,67478:0:0:0:0:
182,192,67478,128,0,67537:0:0:0:0:
329,192,67478,128,0,67537:0:0:0:0:
36,192,67655,1,0,0:0:0:80:kick.wav
182,192,67655,1,0,0:0:0:100:cymbal.wav
256,192,67655,1,0,0:0:0:0:
329,192,67655,1,0,0:0:0:0:
402,192,67655,1,0,0:0:0:0:
475,192,67655,1,0,0:0:0:0:
36,192,68008,1,0,0:0:0:80:kick.wav
109,192,68008,1,0,0:0:0:100:cymbal.wav
256,192,68008,1,0,0:0:0:0:
329,192,68008,1,0,0:0:0:0:
402,192,68008,1,0,0:0:0:0:
475,192,68008,1,0,0:0:0:0:
36,192,68361,1,0,0:0:0:80:kick.wav
109,192,68361,1,0,0:0:0:100:cymbal.wav
182,192,68361,1,0,0:0:0:0:
329,192,68361,1,0,0:0:0:0:
402,192,68361,1,0,0:0:0:0:
475,192,68361,1,0,0:0:0:0:
36,192,68714,1,0,0:0:0:80:kick.wav
109,192,68714,1,0,0:0:0:100:cymbal.wav
182,192,68714,1,0,0:0:0:0:
256,192,68714,1,0,0:0:0:0:
402,192,68714,1,0,0:0:0:0:
475,192,68714,1,0,0:0:0:0:
36,192,69067,1,0,0:0:0:80:kick.wav
109,192,69067,1,0,0:0:0:100:cymbal.wav
182,192,69067,1,0,0:0:0:70:windchime.wav
256,192,69067,1,0,0:0:0:0:
329,192,69067,1,0,0:0:0:0:
402,192,69067,128,0,69773:0:0:0:0:
475,192,69067,128,0,69773:0:0:0:0:
36,192,69420,1,0,0:0:0:80:kick.wav
109,192,69420,1,0,0:0:0:0:
256,192,69420,1,0,0:0:0:0:
36,192,69596,1,0,0:0:0:80:kick.wav
109,192,69596,128,0,69773:0:0:0:0:
256,192,69596,128,0,69773:0:0:0:0:
182,192,69773,1,0,0:0:0:0:
329,192,69773,1,0,0:0:0:0:
36,192,69949,1,0,0:0:0:80:kick.wav
182,192,69949,128,0,70037:0:0:0:0:
402,192,69949,128,0,70037:0:0:0:0:
475,192,69949,1,0,0:0:0:0:
109,192,70126,128,0,70214:0:0:0:0:
329,192,70126,128,0,70214:0:0:0:0:
402,192,70126,1,0,0:0:0:0:
36,192,70302,128,0,70390:0:0:0:80:kick.wav
182,192,70302,1,0,0:0:0:0:
256,192,70302,128,0,70390:0:0:0:0:
329,192,70302,1,0,0:0:0:0:
109,192,70478,128,0,71008:0:0:0:0:
329,192,70478,128,0,71008:0:0:0:0:
475,192,70478,1,0,0:0:0:0:
36,192,70655,1,0,0:0:0:80:kick.wav
256,192,70655,1,0,0:0:0:0:
402,192,70655,1,0,0:0:0:0:
182,192,70831,1,0,0:0:0:0:
256,192,70831,128,0,71008:0:0:0:0:
475,192,70831,128,0,71008:0:0:0:0:
36,192,71008,1,0,0:0:0:80:kick.wav
182,192,71008,1,0,0:0:0:0:
402,192,71008,1,0,0:0:0:0:
36,192,71184,128,0,71361:0:0:0:0:
109,192,71184,128,0,71361:0:0:0:0:
329,192,71184,1,0,0:0:0:0:
182,192,71361,1,0,0:0:0:80:kick.wav
402,192,71361,1,0,0:0:0:0:
475,192,71361,1,0,0:0:0:0:
109,192,71537,128,0,71626:0:0:0:0:
256,192,71537,1,0,0:0:0:0:
329,192,71537,128,0,71626:0:0:0:0:
36,192,71714,1,0,0:0:0:80:kick.wav
182,192,71714,128,0,71802:0:0:0:0:
329,192,71714,1,0,0:0:0:0:
402,192,71714,128,0,71802:0:0:0:0:
256,192,71890,128,0,72420:0:0:0:0:
402,192,71890,1,0,0:0:0:0:
475,192,71890,128,0,72420:0:0:0:0:
36,192,72067,1,0,0:0:0:80:kick.wav
109,192,72067,1,0,0:0:0:0:
329,192,72067,1,0,0:0:0:0:
36,192,72243,128,0,72420:0:0:0:0:
182,192,72243,128,0,72420:0:0:0:0:
402,192,72243,1,0,0:0:0:0:
109,192,72420,1,0,0:0:0:80:kick.wav
329,192,72420,1,0,0:0:0:0:
402,192,72420,1,0,0:0:0:0:
182,192,72596,1,0,0:0:0:0:
402,192,72596,128,0,72773:0:0:0:0:
475,192,72596,128,0,72773:0:0:0:0:
36,192,72773,1,0,0:0:0:80:kick.wav
109,192,72773,1,0,0:0:0:0:
256,192,72773,1,0,0:0:0:0:
182,192,72949,1,0,0:0:0:0:
329,192,72949,128,0,73214:0:0:0:0:
475,192,72949,128,0,73214:0:0:0:0:
109,192,73126,128,0,73214:0:0:0:80:kick.wav
256,192,73126,128,0,73214:0:0:0:0:
402,192,73126,1,0,0:0:0:0:
36,192,73302,128,0,73920:0:0:0:0:
182,192,73302,128,0,73655:0:0:0:0:
256,192,73302,1,0,0:0:0:0:
329,192,73478,1,0,0:0:0:80:kick.wav
402,192,73478,1,0,0:0:0:0:
475,192,73478,1,0,0:0:0:0:
109,192,73655,128,0,73920:0:0:0:0:
256,192,73655,1,0,0:0:0:0:
329,192,73655,128,0,73831:0:0:0:0:
182,192,73743,128,0,73920:0:0:0:0:
402,192,73743,128,0,73920:0:0:0:0:
256,192,73831,128,0,74184:0:0:0:80:kick.wav
475,192,73831,128,0,74184:0:0:0:0:
36,192,74008,128,0,74184:0:0:0:0:
182,192,74008,128,0,74184:0:0:0:0:
329,192,74008,1,0,0:0:0:0:
109,192,74184,1,0,0:0:0:80:kick.wav
329,192,74184,1,0,0:0:0:0:
402,192,74184,1,0,0:0:0:0:
109,192,74361,1,0,0:0:0:0:
182,192,74361,128,0,74449:0:0:0:0:
402,192,74361,128,0,74449:0:0:0:0:
256,192,74449,128,0,74537:0:0:0:0:
475,192,74449,128,0,74537:0:0:0:0:
36,192,74537,1,0,0:0:0:80:kick.wav
109,192,74537,128,0,74626:0:0:0:0:
329,192,74537,128,0,74626:0:0:0:0:
182,192,74626,128,0,74714:0:0:0:0:
402,192,74626,128,0,74714:0:0:0:0:
36,192,74714,128,0,74978:0:0:0:80:kick.wav
109,192,74714,128,0,74978:0:0:0:100:cymbal.wav
256,192,74714,128,0,74978:0:0:0:0:
329,192,74714,1,0,0:0:0:0:
475,192,74714,128,0,74978:0:0:0:0:
36,192,75067,1,0,0:0:0:80:kick.wav
109,192,75067,1,0,0:0:0:0:
329,192,75067,128,0,75243:0:0:0:0:
475,192,75067,128,0,75243:0:0:0:0:
36,192,75243,1,0,0:0:0:80:kick.wav
109,192,75243,1,0,0:0:0:0:
256,192,75243,1,0,0:0:0:0:
256,192,75420,128,0,75773:0:0:0:0:
402,192,75420,1,0,0:0:0:0:
475,192,75420,128,0,76037:0:0:0:0:
36,192,75596,1,0,0:0:0:80:kick.wav
182,192,75596,1,0,0:0:0:0:
329,192,75596,1,0,0:0:0:0:
329,192,75773,128,0,76037:0:0:0:0:
402,192,75773,128,0,76037:0:0:0:0:
36,192,75949,1,0,0:0:0:80:kick.wav
109,192,75949,128,0,76037:0:0:0:0:
182,192,75949,128,0,76037:0:0:0:0:
256,192,75949,1,0,0:0:0:0:
36,192,76126,128,0,76390:0:0:0:80:kick.wav
182,192,76126,1,0,0:0:0:100:cymbal.wav
256,192,76126,128,0,76390:0:0:0:0:
402,192,76126,1,0,0:0:0:0:
475,192,76126,128,0,76390:0:0:0:0:
182,192,76390,128,0,76478:0:0:0:0:
329,192,76390,128,0,76478:0:0:0:0:
36,192,76478,128,0,76655:0:0:0:80:kick.wav
256,192,76478,1,0,0:0:0:100:cymbal.wav
475,192,76478,128,0,76655:0:0:0:0:
109,192,76567,128,0,76743:0:0:0:0:
402,192,76567,128,0,76743:0:0:0:0:
182,192,76655,128,0,76920:0:0:0:0:
329,192,76655,128,0,76920:0:0:0:0:
36,192,76831,1,0,0:0:0:80:kick.wav
109,192,76831,1,0,0:0:0:100:cymbal.wav
256,192,76831,1,0,0:0:0:0:
402,192,76831,128,0,76920:0:0:0:0:
475,192,76831,128,0,76920:0:0:0:0:
109,192,77008,128,0,77273:0:0:0:0:
256,192,77008,128,0,77273:0:0:0:0:
36,192,77184,1,0,0:0:0:80:kick.wav
182,192,77184,1,0,0:0:0:100:cymbal.wav
329,192,77184,128,0,77273:0:0:0:0:
402,192,77184,128,0,77273:0:0:0:0:
475,192,77184,1,0,0:0:0:0:
36,192,77361,128,0,77449:0:0:0:80:kick.wav
182,192,77361,128,0,77449:0:0:0:100:cymbal.wav
256,192,77361,1,0,0:0:0:0:
475,192,77361,1,0,0:0:0:0:
36,192,77537,128,0,78067:0:0:0:80:kick.wav
109,192,77537,128,0,78067:0:0:0:100:cymbal.wav
256,192,77537,128,0,78067:0:0:0:0:
329,192,77537,128,0,78067:0:0:0:0:
475,192,77537,128,0,77714:0:0:0:0:
402,192,77890,128,0,78067:0:0:0:0:
475,192,77890,128,0,78067:0:0:0:0:
36,192,78243,128,0,78773:0:0:0:80:kick.wav
182,192,78243,128,0,78596:0:0:0:100:cymbal.wav
256,192,78243,128,0,78773:0:0:0:0:
402,192,78243,128,0,78596:0:0:0:0:
475,192,78243,128,0,78773:0:0:0:0:
109,192,78596,128,0,78773:0:0:0:0:
329,192,78596,128,0,78773:0:0:0:0:
182,192,78773,128,0,78949:0:0:0:0:
402,192,78773,128,0,78949:0:0:0:0:
36,192,78949,128,0,80537:0:0:0:80:kick.wav
109,192,78949,128,0,80537:0:0:0:100:cymbal.wav
256,192,78949,128,0,80537:0:0:0:0:
329,192,78949,128,0,80537:0:0:0:0:
475,192,78949,128,0,80537:0:0:0:0:
182,192,79655,128,0,79831:0:0:0:0:
402,192,79831,128,0,80537:0:0:0:0:
182,192,80537,128,0,80626:0:0:0:0:
36,192,80626,128,0,80714:0:0:0:0:
256,192,80714,128,0,80802:0:0:0:0:
109,192,80802,128,0,80890:0:0:0:0:
329,192,80890,128,0,80978:0:0:0:0:
182,192,80978,128,0,81067:0:0:0:0:
36,192,81067,128,0,81243:0:0:0:80:kick.wav
109,192,81067,128,0,81243:0:0:0:100:cymbal.wav
256,192,81067,128,0,81243:0:0:0:0:
402,192,81067,128,0,81243:0:0:0:0:
475,192,81067,128,0,81243:0:0:0:0:
329,192,81243,128,0,81420:0:0:0:0:
182,192,81331,128,0,81420:0:0:0:0:
36,192,81420,128,0,81596:0:0:0:80:kick.wav
109,192,81420,128,0,81596:0:0:0:100:cymbal.wav
256,192,81420,128,0,81596:0:0:0:0:
402,192,81420,128,0,81596:0:0:0:0:
475,192,81420,128,0,81596:0:0:0:0:
329,192,81596,128,0,81684:0:0:0:0:
36,192,81684,128,0,81773:0:0:0:80:kick.wav
109,192,81684,128,0,81773:0:0:0:100:cymbal.wav
256,192,81684,128,0,81773:0:0:0:0:
402,192,81684,128,0,81773:0:0:0:0:
475,192,81684,128,0,81773:0:0:0:0:
36,192,81861,128,0,81949:0:0:0:80:kick.wav
109,192,81861,128,0,82037:0:0:0:70:windchime.wav
256,192,81861,128,0,82126:0:0:0:0:
402,192,81861,128,0,82214:0:0:0:0:
475,192,81861,128,0,82302:0:0:0:0:
109,192,82126,128,0,82214:0:0:0:0:
256,192,82214,128,0,82302:0:0:0:0:
402,192,82302,128,0,82390:0:0:0:0:
475,192,82390,128,0,82478:0:0:0:0:
182,192,82478,1,0,0:0:0:0:
402,192,82567,128,0,82655:0:0:0:0:
109,192,82655,1,0,0:0:0:0:
329,192,82743,128,0,82831:0:0:0:0:
182,192,82831,128,0,82920:0:0:0:0:
36,192,82920,128,0,83008:0:0:0:0:
182,192,83008,128,0,83096:0:0:0:0:
329,192,83096,128,0,83184:0:0:0:0:
109,192,83184,1,0,0:0:0:0:
402,192,83273,128,0,83361:0:0:0:0:
109,192,83361,1,0,0:0:0:0:
256,192,83449,128,0,83537:0:0:0:0:
475,192,83537,128,0,83626:0:0:0:0:
182,192,83626,128,0,83714:0:0:0:0:
402,192,83714,128,0,83802:0:0:0:0:
109,192,83802,128,0,83890:0:0:0:0:
329,192,83890,128,0,83978:0:0:0:0:
475,192,83890,1,0,0:0:0:0:
36,192,83978,128,0,84067:0:0:0:0:
256,192,84067,128,0,84155:0:0:0:0:
36,192,84155,128,0,84243:0:0:0:0:
329,192,84243,1,0,0:0:0:0:
109,192,84331,128,0,84420:0:0:0:0:
402,192,84420,1,0,0:0:0:0:
182,192,84508,128,0,84596:0:0:0:0:
329,192,84596,128,0,84684:0:0:0:0:
475,192,84684,128,0,84773:0:0:0:0:
402,192,84773,128,0,84949:0:0:0:0:
182,192,84949,1,0,0:0:0:0:
256,192,85037,128,0,85214:0:0:0:0:
36,192,85214,1,0,0:0:0:0:
109,192,85302,128,0,85478:0:0:0:0:
329,192,85478,1,0,0:0:0:0:
109,192,85567,128,0,85655:0:0:0:0:
256,192,85655,128,0,85743:0:0:0:0:
36,192,85743,1,0,0:0:0:0:
402,192,85831,128,0,85920:0:0:0:0:
182,192,85920,1,0,0:0:0:0:
256,192,86008,128,0,86096:0:0:0:0:
109,192,86096,128,0,86273:0:0:0:0:
329,192,86273,1,0,0:0:0:0:
36,192,86361,128,0,86449:0:0:0:0:
182,192,86449,128,0,86537:0:0:0:0:
256,192,86537,128,0,86626:0:0:0:0:
329,192,86626,128,0,86714:0:0:0:0:
36,192,86714,1,0,0:0:0:0:
475,192,86714,128,0,86978:0:0:0:0:
182,192,86978,1,0,0:0:0:0:
329,192,87067,128,0,87155:0:0:0:0:
402,192,87067,1,0,0:0:0:0:
36,192,87155,1,0,0:0:0:0:
182,192,87243,128,0,87420:0:0:0:0:
329,192,87420,128,0,87508:0:0:0:0:
182,192,87508,128,0,87684:0:0:0:0:
402,192,87596,1,0,0:0:0:80:kick.wav
475,192,87596,1,0,0:0:0:0:
109,192,87684,1,0,0:0:0:0:
329,192,87773,1,0,0:0:0:0:
36,192,87861,1,0,0:0:0:0:
256,192,87949,1,0,0:0:0:80:kick.wav
329,192,87949,128,0,88126:0:0:0:0:
475,192,87949,1,0,0:0:0:0:
109,192,88037,128,0,88126:0:0:0:0:
182,192,88126,1,0,0:0:0:0:
329,192,88214,128,0,88390:0:0:0:0:
402,192,88302,1,0,0:0:0:80:kick.wav
475,192,88302,1,0,0:0:0:0:
36,192,88390,128,0,88478:0:0:0:0:
475,192,88478,128,0,88655:0:0:0:0:
256,192,88567,128,0,88655:0:0:0:0:
36,192,88655,128,0,88831:0:0:0:80:kick.wav
109,192,88655,1,0,0:0:0:0:
402,192,88655,1,0,0:0:0:0:
256,192,88743,128,0,88831:0:0:0:0:
329,192,88831,1,0,0:0:0:0:
109,192,88920,128,0,89096:0:0:0:0:
402,192,89008,1,0,0:0:0:80:kick.wav
475,192,89008,1,0,0:0:0:0:
256,192,89096,128,0,89273:0:0:0:0:
475,192,89184,128,0,89273:0:0:0:0:
36,192,89361,128,0,89537:0:0:0:80:kick.wav
109,192,89361,1,0,0:0:0:0:
329,192,89361,1,0,0:0:0:0:
256,192,89537,128,0,89626:0:0:0:80:kick.wav
402,192,89537,1,0,0:0:0:0:
109,192,89626,1,0,0:0:0:80:kick.wav
475,192,89626,128,0,89714:0:0:0:0:
36,192,89714,1,0,0:0:0:80:kick.wav
182,192,89714,128,0,89802:0:0:0:0:
329,192,89714,1,0,0:0:0:0:
402,192,89802,128,0,89890:0:0:0:0:
109,192,89890,128,0,89978:0:0:0:80:kick.wav
256,192,89890,1,0,0:0:0:0:
329,192,89978,128,0,90067:0:0:0:0:
36,192,90067,128,0,90155:0:0:0:80:kick.wav
182,192,90067,1,0,0:0:0:0:
475,192,90067,1,0,0:0:0:0:
256,192,90155,128,0,90243:0:0:0:0:
402,192,90243,1,0,0:0:0:80:kick.wav
475,192,90243,128,0,90331:0:0:0:0:
36,192,90331,1,0,0:0:0:80:kick.wav
182,192,90331,128,0,90420:0:0:0:0:
402,192,90420,128,0,90596:0:0:0:80:kick.wav
475,192,90420,1,0,0:0:0:0:
36,192,90508,1,0,0:0:0:80:kick.wav
109,192,90508,128,0,90596:0:0:0:0:
182,192,90596,1,0,0:0:0:80:kick.wav
329,192,90596,1,0,0:0:0:0:
402,192,90684,128,0,90861:0:0:0:80:kick.wav
475,192,90684,1,0,0:0:0:0:
256,192,90773,1,0,0:0:0:0:
36,192,90861,1,0,0:0:0:80:kick.wav
109,192,90861,1,0,0:0:0:0:
182,192,90949,1,0,0:0:0:80:kick.wav
329,192,90949,1,0,0:0:0:0:
475,192,90949,128,0,91126:0:0:0:0:
36,192,91126,1,0,0:0:0:80:kick.wav
109,192,91126,1,0,0:0:0:100:cymbal.wav
182,192,91126,1,0,0:0:0:0:
256,192,91126,1,0,0:0:0:0:
402,192,91126,128,0,91302:0:0:0:0:
36,192,91302,1,0,0:0:0:80:kick.wav
109,192,91302,1,0,0:0:0:100:cymbal.wav
182,192,91302,1,0,0:0:0:0:
329,192,91302,128,0,91478:0:0:0:0:
475,192,91302,1,0,0:0:0:0:
36,192,91478,1,0,0:0:0:80:kick.wav
109,192,91478,1,0,0:0:0:100:cymbal.wav
256,192,91478,128,0,91655:0:0:0:0:
402,192,91478,1,0,0:0:0:0:
475,192,91478,1,0,0:0:0:0:
36,192,91655,1,0,0:0:0:80:kick.wav
182,192,91655,128,0,91831:0:0:0:100:cymbal.wav
329,192,91655,1,0,0:0:0:0:
402,192,91655,1,0,0:0:0:0:
475,192,91655,1,0,0:0:0:0:
36,192,92361,128,0,92537:0:0:0:80:kick.wav
182,192,92361,128,0,92537:0:0:0:100:cymbal.wav
329,192,92361,128,0,92537:0:0:0:0:
402,192,92361,1,0,0:0:0:0:
475,192,92361,128,0,92537:0:0:0:0:
109,192,92537,128,0,92626:0:0:0:0:
256,192,92537,128,0,92714:0:0:0:0:
402,192,92626,128,0,92714:0:0:0:0:
36,192,92714,128,0,92890:0:0:0:80:kick.wav
109,192,92714,1,0,0:0:0:100:cymbal.wav
182,192,92714,128,0,92890:0:0:0:0:
329,192,92714,128,0,92890:0:0:0:0:
475,192,92714,128,0,92890:0:0:0:0:
256,192,92890,128,0,92978:0:0:0:0:
402,192,92890,128,0,92978:0:0:0:0:
36,192,92978,128,0,93067:0:0:0:80:kick.wav
109,192,92978,1,0,0:0:0:100:cymbal.wav
182,192,92978,128,0,93067:0:0:0:0:
329,192,92978,128,0,93067:0:0:0:0:
475,192,92978,128,0,93067:0:0:0:0:
36,192,93155,128,0,93331:0:0:0:80:kick.wav
109,192,93155,128,0,93331:0:0:0:100:cymbal.wav
256,192,93155,128,0,93331:0:0:0:70:windchime.wav
329,192,93155,128,0,93331:0:0:0:0:
475,192,93155,128,0,93331:0:0:0:0:
109,192,93420,128,0,93508:0:0:0:80:kick.wav
256,192,93420,128,0,93508:0:0:0:0:
402,192,93420,1,0,0:0:0:0:
182,192,93508,128,0,93596:0:0:0:80:kick.wav
329,192,93508,128,0,93596:0:0:0:0:
475,192,93508,1,0,0:0:0:0:
36,192,93596,1,0,0:0:0:80:kick.wav
109,192,93596,1,0,0:0:0:100:cymbal.wav
256,192,93596,128,0,93684:0:0:0:0:
402,192,93596,128,0,93684:0:0:0:0:
329,192,93684,128,0,93773:0:0:0:0:
475,192,93684,128,0,93773:0:0:0:0:
36,192,93773,1,0,0:0:0:0:
182,192,93773,1,0,0:0:0:0:
109,192,93861,128,0,93949:0:0:0:0:
402,192,93861,128,0,93949:0:0:0:0:
182,192,93949,128,0,94037:0:0:0:80:kick.wav
256,192,93949,1,0,0:0:0:0:
329,192,93949,128,0,94037:0:0:0:0:
36,192,94037,128,0,94302:0:0:0:0:
475,192,94037,128,0,94302:0:0:0:0:
109,192,94126,128,0,94214:0:0:0:0:
402,192,94126,128,0,94214:0:0:0:0:
182,192,94214,128,0,94302:0:0:0:0:
329,192,94214,128,0,94302:0:0:0:0:
109,192,94302,128,0,94390:0:0:0:80:kick.wav
256,192,94302,1,0,0:0:0:70:snare.wav
402,192,94302,128,0,94390:0:0:0:0:
36,192,94390,128,0,94478:0:0:0:0:
475,192,94390,128,0,94478:0:0:0:0:
182,192,94478,1,0,0:0:0:0:
329,192,94478,1,0,0:0:0:0:
36,192,94567,1,0,0:0:0:0:
109,192,94567,128,0,94655:0:0:0:0:
256,192,94567,128,0,94655:0:0:0:0:
329,192,94655,128,0,94920:0:0:0:80:kick.wav
402,192,94655,1,0,0:0:0:0:
475,192,94655,128,0,94743:0:0:0:0:
36,192,94743,128,0,95008:0:0:0:0:
182,192,94743,128,0,94831:0:0:0:0:
256,192,94831,128,0,95096:0:0:0:0:
402,192,94831,128,0,94920:0:0:0:0:
109,192,94920,128,0,95008:0:0:0:0:
475,192,94920,128,0,95184:0:0:0:0:
182,192,95008,128,0,95273:0:0:0:80:kick.wav
329,192,95008,128,0,95096:0:0:0:70:snare.wav
36,192,95096,128,0,95184:0:0:0:0:
402,192,95096,128,0,95361:0:0:0:0:
109,192,95184,128,0,95449:0:0:0:0:
256,192,95184,128,0,95273:0:0:0:0:
36,192,95273,128,0,95626:0:0:0:0:
329,192,95273,128,0,95537:0:0:0:0:
475,192,95273,128,0,95361:0:0:0:0:
182,192,95361,128,0,95449:0:0:0:80:kick.wav
256,192,95449,128,0,95714:0:0:0:0:
402,192,95449,128,0,95537:0:0:0:0:
109,192,95537,128,0,95626:0:0:0:0:
182,192,95626,128,0,95714:0:0:0:0:
329,192,95626,128,0,95714:0:0:0:0:
36,192,95714,1,0,0:0:0:80:kick.wav
402,192,95714,128,0,95802:0:0:0:70:snare.wav
475,192,95714,128,0,95802:0:0:0:0:
109,192,95802,128,0,95890:0:0:0:0:
256,192,95802,128,0,95890:0:0:0:0:
182,192,95890,128,0,95978:0:0:0:0:
329,192,95890,128,0,95978:0:0:0:0:
256,192,95978,128,0,96067:0:0:0:0:
402,192,95978,128,0,96067:0:0:0:0:
36,192,96067,128,0,96243:0:0:0:80:kick.wav
109,192,96067,128,0,96243:0:0:0:100:cymbal.wav
182,192,96067,128,0,96155:0:0:0:0:
329,192,96067,128,0,96155:0:0:0:0:
475,192,96067,128,0,96155:0:0:0:0:
256,192,96243,1,0,0:0:0:0:
402,192,96243,1,0,0:0:0:0:
36,192,96331,128,0,96420:0:0:0:80:kick.wav
109,192,96331,128,0,96420:0:0:0:100:cymbal.wav
182,192,96331,128,0,96420:0:0:0:0:
329,192,96331,128,0,96508:0:0:0:0:
475,192,96331,128,0,96508:0:0:0:0:
109,192,96508,1,0,0:0:0:0:
256,192,96508,1,0,0:0:0:0:
36,192,96596,128,0,96773:0:0:0:80:kick.wav
182,192,96596,128,0,96773:0:0:0:100:cymbal.wav
329,192,96596,128,0,96773:0:0:0:0:
402,192,96596,128,0,96773:0:0:0:0:
475,192,96596,128,0,96773:0:0:0:0:
36,192,96861,1,0,0:0:0:80:kick.wav
109,192,96861,1,0,0:0:0:100:cymbal.wav
256,192,96861,1,0,0:0:0:0:
329,192,96861,1,0,0:0:0:0:
402,192,96861,1,0,0:0:0:0:
109,192,96949,128,0,97037:0:0:0:80:kick.wav
182,192,96949,128,0,97037:0:0:0:100:cymbal.wav
329,192,96949,128,0,97037:0:0:0:0:
402,192,96949,128,0,97037:0:0:0:0:
475,192,96949,128,0,97037:0:0:0:0:
182,192,97126,128,0,97214:0:0:0:80:kick.wav
256,192,97126,128,0,97214:0:0:0:100:cymbal.wav
329,192,97126,128,0,97214:0:0:0:0:
402,192,97126,128,0,97214:0:0:0:0:
475,192,97126,128,0,97214:0:0:0:0:
109,192,97302,1,0,0:0:0:80:kick.wav
182,192,97302,1,0,0:0:0:100:cymbal.wav
256,192,97302,1,0,0:0:0:0:
402,192,97302,1,0,0:0:0:0:
475,192,97302,1,0,0:0:0:0:
36,192,97390,128,0,97567:0:0:0:80:kick.wav
182,192,97390,128,0,97567:0:0:0:100:cymbal.wav
256,192,97390,128,0,97567:0:0:0:0:
402,192,97390,128,0,97567:0:0:0:0:
475,192,97390,128,0,97567:0:0:0:0:
109,192,97567,128,0,97655:0:0:0:0:
329,192,97567,128,0,97655:0:0:0:0:
36,192,97655,1,0,0:0:0:80:kick.wav
182,192,97655,128,0,97743:0:0:0:0:
402,192,97655,128,0,97743:0:0:0:0:
256,192,97743,128,0,97831:0:0:0:0:
475,192,97743,128,0,97831:0:0:0:0:
36,192,97831,1,0,0:0:0:80:kick.wav
109,192,97831,128,0,97920:0:0:0:0:
329,192,97831,128,0,97920:0:0:0:0:
182,192,97920,128,0,98008:0:0:0:80:kick.wav
256,192,97920,1,0,0:0:0:0:
402,192,97920,128,0,98008:0:0:0:0:
36,192,98008,128,0,98273:0:0:0:80:kick.wav
109,192,98008,128,0,98273:0:0:0:100:cymbal.wav
329,192,98008,128,0,98273:0:0:0:0:
475,192,98008,128,0,98273:0:0:0:0:
256,192,98273,128,0,98361:0:0:0:0:
109,192,98361,1,0,0:0:0:80:kick.wav
329,192,98361,128,0,98449:0:0:0:0:
402,192,98361,1,0,0:0:0:0:
475,192,98361,128,0,98449:0:0:0:0:
182,192,98449,128,0,98537:0:0:0:0:
36,192,98537,1,0,0:0:0:80:kick.wav
256,192,98537,128,0,98626:0:0:0:0:
329,192,98537,1,0,0:0:0:0:
402,192,98537,128,0,98626:0:0:0:0:
36,192,98714,1,0,0:0:0:80:kick.wav
109,192,98714,1,0,0:0:0:0:
182,192,98714,1,0,0:0:0:0:
329,192,98714,128,0,98802:0:0:0:0:
475,192,98714,128,0,98802:0:0:0:0:
36,192,98802,128,0,98978:0:0:0:80:kick.wav
109,192,98802,128,0,98978:0:0:0:100:cymbal.wav
182,192,98802,1,0,0:0:0:0:
256,192,98802,128,0,98978:0:0:0:0:
402,192,98802,128,0,98978:0:0:0:0:
36,192,99067,128,0,99155:0:0:0:80:kick.wav
182,192,99067,128,0,99155:0:0:0:0:
329,192,99067,1,0,0:0:0:0:
475,192,99067,1,0,0:0:0:0:
256,192,99155,1,0,0:0:0:80:kick.wav
402,192,99155,1,0,0:0:0:0:
36,192,99243,128,0,99420:0:0:0:80:kick.wav
109,192,99243,1,0,0:0:0:70:snare.wav
182,192,99243,128,0,99420:0:0:0:0:
329,192,99243,1,0,0:0:0:0:
402,192,99331,128,0,99420:0:0:0:0:
475,192,99331,128,0,99420:0:0:0:0:
109,192,99420,1,0,0:0:0:0:
256,192,99420,1,0,0:0:0:0:
329,192,99508,128,0,99684:0:0:0:0:
475,192,99508,128,0,99773:0:0:0:0:
36,192,99596,1,0,0:0:0:80:kick.wav
109,192,99596,1,0,0:0:0:0:
182,192,99596,1,0,0:0:0:0:
256,192,99684,128,0,99773:0:0:0:0:
402,192,99684,128,0,99773:0:0:0:0:
36,192,99773,1,0,0:0:0:0:
109,192,99831,1,0,0:0:0:0:
402,192,99861,128,0,99949:0:0:0:0:
475,192,99861,128,0,99949:0:0:0:0:
182,192,99890,1,0,0:0:0:0:
36,192,99949,128,0,100126:0:0:0:80:kick.wav
109,192,99949,128,0,100126:0:0:0:70:snare.wav
256,192,99949,1,0,0:0:0:0:
329,192,99949,1,0,0:0:0:0:
402,192,100037,128,0,100126:0:0:0:0:
475,192,100037,128,0,100126:0:0:0:0:
182,192,100126,1,0,0:0:0:0:
329,192,100126,1,0,0:0:0:0:
36,192,100214,128,0,100478:0:0:0:0:
256,192,100214,128,0,100478:0:0:0:0:
109,192,100302,1,0,0:0:0:80:kick.wav
402,192,100302,1,0,0:0:0:0:
475,192,100302,1,0,0:0:0:0:
182,192,100390,128,0,100478:0:0:0:0:
329,192,100390,128,0,100478:0:0:0:0:
402,192,100478,128,0,100655:0:0:0:0:
475,192,100478,128,0,100655:0:0:0:0:
36,192,100655,128,0,100831:0:0:0:80:kick.wav
109,192,100655,128,0,100831:0:0:0:70:snare.wav
182,192,100655,1,0,0:0:0:0:
329,192,100655,1,0,0:0:0:0:
182,192,100831,128,0,101008:0:0:0:0:
402,192,100831,128,0,100920:0:0:0:0:
109,192,100920,128,0,101096:0:0:0:0:
329,192,100920,128,0,101008:0:0:0:0:
36,192,101008,128,0,101184:0:0:0:80:kick.wav
256,192,101008,128,0,101096:0:0:0:0:
475,192,101008,128,0,101184:0:0:0:0:
182,192,101096,128,0,101184:0:0:0:0:
402,192,101096,128,0,101273:0:0:0:0:
109,192,101184,128,0,101273:0:0:0:0:
329,192,101184,128,0,101361:0:0:0:0:
36,192,101273,128,0,101361:0:0:0:0:
256,192,101273,128,0,101449:0:0:0:0:
182,192,101361,128,0,101537:0:0:0:80:kick.wav
402,192,101361,128,0,101537:0:0:0:70:snare.wav
475,192,101361,128,0,101449:0:0:0:0:
109,192,101449,128,0,101626:0:0:0:0:
329,192,101449,128,0,101626:0:0:0:0:
36,192,101537,128,0,101626:0:0:0:0:
256,192,101537,128,0,101714:0:0:0:0:
182,192,101626,128,0,101714:0:0:0:0:
36,192,101714,128,0,101802:0:0:0:80:kick.wav
109,192,101714,128,0,101802:0:0:0:100:cymbal.wav
329,192,101714,128,0,101890:0:0:0:0:
402,192,101714,128,0,101802:0:0:0:0:
475,192,101714,128,0,101802:0:0:0:0:
182,192,101802,128,0,101978:0:0:0:0:
256,192,101802,128,0,101890:0:0:0:0:
109,192,101890,128,0,101978:0:0:0:0:
402,192,101890,128,0,101978:0:0:0:0:
256,192,101978,128,0,102067:0:0:0:0:
329,192,101978,128,0,102155:0:0:0:0:
36,192,102067,128,0,102155:0:0:0:80:kick.wav
109,192,102067,128,0,102155:0:0:0:0:
182,192,102067,128,0,102155:0:0:0:0:
402,192,102067,128,0,102155:0:0:0:0:
475,192,102067,128,0,102155:0:0:0:0:
36,192,102243,128,0,102420:0:0:0:80:kick.wav
182,192,102243,128,0,102420:0:0:0:100:cymbal.wav
256,192,102243,1,0,0:0:0:0:
329,192,102243,128,0,102420:0:0:0:0:
475,192,102243,128,0,102420:0:0:0:0:
109,192,102420,128,0,102596:0:0:0:0:
402,192,102420,128,0,102596:0:0:0:0:
36,192,102596,128,0,102773:0:0:0:80:kick.wav
182,192,102596,128,0,102773:0:0:0:100:cymbal.wav
256,192,102596,128,0,102773:0:0:0:0:
329,192,102596,128,0,102773:0:0:0:0:
475,192,102596,128,0,102773:0:0:0:0:
109,192,102773,128,0,102949:0:0:0:0:
402,192,102773,128,0,102949:0:0:0:0:
36,192,102949,128,0,103037:0:0:0:80:kick.wav
182,192,102949,128,0,103126:0:0:0:100:cymbal.wav
256,192,102949,1,0,0:0:0:0:
329,192,102949,128,0,103126:0:0:0:0:
475,192,102949,128,0,103126:0:0:0:0:
36,192,103126,128,0,103214:0:0:0:0:
256,192,103126,128,0,103302:0:0:0:0:
109,192,103214,128,0,103302:0:0:0:0:
329,192,103214,128,0,103390:0:0:0:0:
182,192,103302,128,0,103390:0:0:0:0:
402,192,103302,128,0,103478:0:0:0:0:
36,192,103390,128,0,103478:0:0:0:0:
256,192,103390,128,0,103478:0:0:0:0:
475,192,103390,128,0,103567:0:0:0:0:
109,192,103478,128,0,103567:0:0:0:0:
329,192,103478,128,0,103567:0:0:0:0:
182,192,103567,128,0,103655:0:0:0:0:
402,192,103567,128,0,103655:0:0:0:0:
36,192,103655,128,0,103920:0:0:0:80:kick.wav
109,192,103655,128,0,103920:0:0:0:100:cymbal.wav
256,192,103655,128,0,103920:0:0:0:0:
329,192,103655,128,0,103920:0:0:0:0:
475,192,103655,128,0,103920:0:0:0:0:
36,192,104008,128,0,104096:0:0:0:80:kick.wav
182,192,104008,128,0,104096:0:0:0:100:cymbal.wav
329,192,104008,128,0,104096:0:0:0:0:
402,192,104008,128,0,104096:0:0:0:0:
475,192,104008,128,0,104096:0:0:0:0:
36,192,104184,1,0,0:0:0:80:kick.wav
109,192,104184,1,0,0:0:0:100:cymbal.wav
182,192,104184,1,0,0:0:0:0:
329,192,104184,1,0,0:0:0:0:
402,192,104184,1,0,0:0:0:0:
109,192,104273,128,0,104361:0:0:0:80:kick.wav
182,192,104273,128,0,104361:0:0:0:100:cymbal.wav
329,192,104273,128,0,104361:0:0:0:0:
402,192,104273,128,0,104361:0:0:0:0:
475,192,104273,128,0,104361:0:0:0:0:
36,192,104449,128,0,104626:0:0:0:80:kick.wav
109,192,104449,128,0,104626:0:0:0:100:cymbal.wav
256,192,104449,128,0,104714:0:0:0:70:windchime.wav
329,192,104449,128,0,104714:0:0:0:0:
475,192,104449,128,0,104714:0:0:0:0:
36,192,104714,128,0,104802:0:0:0:80:kick.wav
182,192,104714,128,0,104802:0:0:0:0:
402,192,104714,1,0,0:0:0:0:
109,192,104802,1,0,0:0:0:80:kick.wav
329,192,104802,128,0,104890:0:0:0:0:
475,192,104802,128,0,104890:0:0:0:0:
182,192,104890,1,0,0:0:0:80:kick.wav
256,192,104890,128,0,105155:0:0:0:70:snare.wav
402,192,104890,128,0,104978:0:0:0:0:
36,192,104978,128,0,105067:0:0:0:0:
475,192,104978,1,0,0:0:0:0:
109,192,105067,128,0,105155:0:0:0:0:
329,192,105067,1,0,0:0:0:0:
182,192,105155,128,0,105243:0:0:0:0:
402,192,105155,128,0,105243:0:0:0:0:
475,192,105155,128,0,105508:0:0:0:0:
36,192,105243,128,0,105508:0:0:0:80:kick.wav
109,192,105243,1,0,0:0:0:0:
256,192,105243,128,0,105420:0:0:0:0:
182,192,105420,128,0,105508:0:0:0:0:
402,192,105420,1,0,0:0:0:0:
109,192,105508,1,0,0:0:0:0:
329,192,105508,128,0,105596:0:0:0:0:
36,192,105596,128,0,105684:0:0:0:80:kick.wav
182,192,105596,1,0,0:0:0:70:snare.wav
256,192,105596,128,0,105861:0:0:0:0:
329,192,105684,1,0,0:0:0:0:
402,192,105684,128,0,105773:0:0:0:0:
475,192,105684,128,0,105773:0:0:0:0:
36,192,105773,128,0,105861:0:0:0:0:
109,192,105773,1,0,0:0:0:0:
182,192,105861,1,0,0:0:0:0:
329,192,105861,128,0,105949:0:0:0:0:
475,192,105861,128,0,106214:0:0:0:0:
36,192,105949,128,0,106214:0:0:0:80:kick.wav
256,192,105949,128,0,106126:0:0:0:0:
402,192,105949,1,0,0:0:0:0:
109,192,106126,1,0,0:0:0:0:
182,192,106126,128,0,106214:0:0:0:0:
329,192,106126,128,0,106214:0:0:0:0:
36,192,106302,128,0,106390:0:0:0:80:kick.wav
256,192,106302,128,0,106567:0:0:0:70:snare.wav
402,192,106302,1,0,0:0:0:0:
182,192,106390,128,0,106478:0:0:0:0:
329,192,106390,128,0,106478:0:0:0:0:
475,192,106390,1,0,0:0:0:0:
36,192,106478,128,0,106567:0:0:0:0:
109,192,106478,1,0,0:0:0:0:
329,192,106567,1,0,0:0:0:0:
402,192,106567,128,0,106655:0:0:0:0:
475,192,106567,128,0,106655:0:0:0:0:
36,192,106655,128,0,106920:0:0:0:80:kick.wav
109,192,106655,128,0,106743:0:0:0:0:
182,192,106655,1,0,0:0:0:0:
256,192,106743,1,0,0:0:0:0:
402,192,106743,128,0,106920:0:0:0:0:
475,192,106743,128,0,106920:0:0:0:0:
109,192,106831,1,0,0:0:0:0:
182,192,106831,128,0,106920:0:0:0:0:
329,192,106831,128,0,106920:0:0:0:0:
36,192,107008,1,0,0:0:0:80:kick.wav
109,192,107008,128,0,107096:0:0:0:70:snare.wav
256,192,107008,128,0,107273:0:0:0:0:
182,192,107096,128,0,107184:0:0:0:0:
402,192,107096,1,0,0:0:0:0:
475,192,107096,128,0,107184:0:0:0:0:
36,192,107184,128,0,107273:0:0:0:0:
329,192,107184,1,0,0:0:0:0:
109,192,107273,1,0,0:0:0:0:
402,192,107273,128,0,107449:0:0:0:0:
475,192,107273,128,0,107626:0:0:0:0:
36,192,107361,128,0,107626:0:0:0:80:kick.wav
182,192,107361,1,0,0:0:0:0:
256,192,107361,128,0,107537:0:0:0:0:
109,192,107537,1,0,0:0:0:0:
402,192,107537,128,0,107626:0:0:0:0:
182,192,107626,1,0,0:0:0:0:
329,192,107626,128,0,107714:0:0:0:0:
36,192,107714,1,0,0:0:0:80:kick.wav
109,192,107714,128,0,107802:0:0:0:70:snare.wav
256,192,107714,128,0,107978:0:0:0:0:
182,192,107802,128,0,107890:0:0:0:0:
402,192,107802,1,0,0:0:0:0:
475,192,107802,128,0,107890:0:0:0:0:
36,192,107890,128,0,107978:0:0:0:0:
329,192,107890,1,0,0:0:0:0:
109,192,107978,1,0,0:0:0:0:
475,192,107978,128,0,108331:0:0:0:0:
36,192,108067,128,0,108331:0:0:0:80:kick.wav
182,192,108067,1,0,0:0:0:0:
256,192,108067,128,0,108243:0:0:0:0:
402,192,108155,128,0,108243:0:0:0:0:
182,192,108243,128,0,108331:0:0:0:0:
329,192,108243,128,0,108331:0:0:0:0:
36,192,108420,128,0,108508:0:0:0:80:kick.wav
109,192,108420,1,0,0:0:0:70:snare.wav
256,192,108420,128,0,108684:0:0:0:0:
329,192,108508,128,0,108596:0:0:0:0:
402,192,108508,1,0,0:0:0:0:
475,192,108508,128,0,108596:0:0:0:0:
36,192,108596,128,0,108684:0:0:0:0:
182,192,108596,1,0,0:0:0:0:
109,192,108684,1,0,0:0:0:0:
402,192,108684,128,0,108949:0:0:0:0:
475,192,108684,128,0,108949:0:0:0:0:
36,192,108773,128,0,109037:0:0:0:80:kick.wav
256,192,108773,1,0,0:0:0:0:
329,192,108773,128,0,108949:0:0:0:0:
109,192,108949,128,0,109037:0:0:0:0:
182,192,108949,1,0,0:0:0:0:
329,192,109037,128,0,109126:0:0:0:0:
475,192,109037,128,0,109126:0:0:0:0:
36,192,109126,128,0,109214:0:0:0:80:kick.wav
109,192,109126,128,0,109214:0:0:0:70:snare.wav
182,192,109126,128,0,109214:0:0:0:0:
256,192,109126,128,0,109214:0:0:0:0:
402,192,109126,128,0,109214:0:0:0:0:
329,192,109214,128,0,109302:0:0:0:0:
475,192,109214,128,0,109302:0:0:0:0:
36,192,109302,128,0,109390:0:0:0:0:
182,192,109302,128,0,109390:0:0:0:0:
329,192,109390,128,0,109478:0:0:0:0:
475,192,109390,128,0,109478:0:0:0:0:
36,192,109478,128,0,109567:0:0:0:80:kick.wav
182,192,109478,128,0,109655:0:0:0:100:cymbal.wav
256,192,109478,128,0,109567:0:0:0:0:
402,192,109478,128,0,109655:0:0:0:0:
109,192,109567,128,0,109655:0:0:0:0:
329,192,109567,128,0,109655:0:0:0:0:
475,192,109567,128,0,109655:0:0:0:0:
36,192,109743,128,0,109831:0:0:0:80:kick.wav
182,192,109743,1,0,0:0:0:100:cymbal.wav
256,192,109743,128,0,109831:0:0:0:0:
329,192,109743,1,0,0:0:0:0:
402,192,109743,128,0,109831:0:0:0:0:
475,192,109743,128,0,109831:0:0:0:0:
36,192,109920,128,0,110008:0:0:0:80:kick.wav
109,192,109920,128,0,110008:0:0:0:100:cymbal.wav
256,192,109920,1,0,0:0:0:0:
329,192,109920,128,0,110008:0:0:0:0:
402,192,109920,1,0,0:0:0:0:
475,192,109920,128,0,110008:0:0:0:0:
36,192,110096,128,0,110273:0:0:0:80:kick.wav
109,192,110096,128,0,110273:0:0:0:100:cymbal.wav
182,192,110096,128,0,110273:0:0:0:0:
329,192,110096,1,0,0:0:0:0:
402,192,110096,128,0,110273:0:0:0:0:
475,192,110096,1,0,0:0:0:0:
36,192,110361,1,0,0:0:0:80:kick.wav
109,192,110361,1,0,0:0:0:0:
329,192,110361,128,0,110449:0:0:0:0:
475,192,110361,128,0,110449:0:0:0:0:
256,192,110449,128,0,110537:0:0:0:80:kick.wav
402,192,110449,128,0,110537:0:0:0:0:
36,192,110537,128,0,110626:0:0:0:80:kick.wav
109,192,110537,1,0,0:0:0:100:cymbal.wav
182,192,110537,128,0,110626:0:0:0:0:
329,192,110537,128,0,110626:0:0:0:0:
475,192,110537,128,0,110626:0:0:0:0:
109,192,110714,128,0,110802:0:0:0:0:
36,192,110714,128,0,110890:0:0:0:0:
475,192,110714,1,0,0:0:0:0:
182,192,110802,128,0,110890:0:0:0:0:
329,192,110802,128,0,110890:0:0:0:0:
402,192,110802,1,0,0:0:0:0:
36,192,110978,1,0,0:0:0:0:
475,192,110978,128,0,111155:0:0:0:0:
402,192,110978,128,0,111067:0:0:0:0:
109,192,111067,1,0,0:0:0:0:
182,192,111067,128,0,111155:0:0:0:0:
329,192,111067,128,0,111155:0:0:0:0:
109,192,111243,128,0,111331:0:0:0:80:kick.wav
36,192,111243,128,0,111420:0:0:0:70:snare.wav
475,192,111243,1,0,0:0:0:0:
182,192,111331,128,0,111420:0:0:0:0:
329,192,111331,128,0,111420:0:0:0:0:
402,192,111331,1,0,0:0:0:0:
109,192,111420,1,0,0:0:0:80:kick.wav
256,192,111420,1,0,0:0:0:0:
182,192,111508,1,0,0:0:0:80:kick.wav
329,192,111508,128,0,111596:0:0:0:0:
475,192,111508,128,0,111596:0:0:0:0:
36,192,111596,1,0,0:0:0:80:kick.wav
109,192,111596,1,0,0:0:0:100:cymbal.wav
256,192,111596,1,0,0:0:0:0:
402,192,111596,1,0,0:0:0:0:
329,192,111684,128,0,111861:0:0:0:0:
475,192,111684,128,0,111861:0:0:0:0:
36,192,111773,128,0,111949:0:0:0:0:
182,192,111773,128,0,111949:0:0:0:0:
109,192,111949,1,0,0:0:0:80:kick.wav
329,192,111949,1,0,0:0:0:70:snare.wav
402,192,111949,128,0,112126:0:0:0:0:
475,192,111949,128,0,112126:0:0:0:0:
36,192,112037,128,0,112126:0:0:0:0:
182,192,112037,128,0,112126:0:0:0:0:
36,192,112214,1,0,0:0:0:80:kick.wav
109,192,112214,1,0,0:0:0:100:cymbal.wav
256,192,112214,128,0,112302:0:0:0:0:
402,192,112214,128,0,112302:0:0:0:0:
475,192,112214,128,0,112302:0:0:0:0:
36,192,112390,1,0,0:0:0:80:kick.wav
109,192,112390,1,0,0:0:0:100:cymbal.wav
256,192,112390,128,0,112567:0:0:0:0:
402,192,112390,128,0,112567:0:0:0:0:
475,192,112390,128,0,112567:0:0:0:0:
182,192,112478,128,0,112567:0:0:0:0:
329,192,112478,128,0,112567:0:0:0:0:
36,192,112655,128,0,112831:0:0:0:80:kick.wav
109,192,112655,128,0,112831:0:0:0:100:cymbal.wav
256,192,112655,128,0,112831:0:0:0:0:
402,192,112655,1,0,0:0:0:0:
475,192,112655,1,0,0:0:0:0:
182,192,112743,128,0,112831:0:0:0:80:kick.wav
329,192,112743,128,0,112831:0:0:0:100:cymbal.wav
402,192,112743,1,0,0:0:0:0:
475,192,112743,1,0,0:0:0:0:
36,192,112920,128,0,113184:0:0:0:80:kick.wav
182,192,112920,128,0,113008:0:0:0:100:cymbal.wav
256,192,112920,128,0,113096:0:0:0:0:
402,192,112920,128,0,113008:0:0:0:0:
475,192,112920,128,0,113096:0:0:0:0:
109,192,113096,128,0,113273:0:0:0:0:
329,192,113096,128,0,113184:0:0:0:0:
182,192,113184,128,0,113361:0:0:0:80:kick.wav
256,192,113184,1,0,0:0:0:0:
402,192,113184,128,0,113273:0:0:0:0:
329,192,113273,128,0,113449:0:0:0:0:
475,192,113273,128,0,113361:0:0:0:0:
36,192,113361,128,0,113449:0:0:0:80:kick.wav
109,192,113361,1,0,0:0:0:70:snare.wav
256,192,113361,128,0,113537:0:0:0:0:
182,192,113449,128,0,113626:0:0:0:0:
475,192,113449,128,0,113537:0:0:0:0:
36,192,113537,128,0,113626:0:0:0:0:
329,192,113537,128,0,113714:0:0:0:0:
402,192,113626,128,0,113714:0:0:0:0:
475,192,113626,128,0,113714:0:0:0:0:
36,192,113714,1,0,0:0:0:80:kick.wav
109,192,113714,1,0,0:0:0:0:
182,192,113714,1,0,0:0:0:0:
36,192,113802,128,0,113978:0:0:0:80:kick.wav
256,192,113802,128,0,113978:0:0:0:100:cymbal.wav
329,192,113802,128,0,113890:0:0:0:0:
402,192,113802,128,0,113890:0:0:0:0:
475,192,113802,128,0,113978:0:0:0:0:
329,192,113978,128,0,114067:0:0:0:0:
402,192,113978,128,0,114067:0:0:0:0:
36,192,114067,128,0,114243:0:0:0:80:kick.wav
109,192,114067,128,0,114155:0:0:0:100:cymbal.wav
182,192,114067,128,0,114155:0:0:0:0:
256,192,114067,128,0,114243:0:0:0:0:
475,192,114067,128,0,114243:0:0:0:0:
109,192,114243,128,0,114331:0:0:0:0:
182,192,114243,128,0,114331:0:0:0:0:
36,192,114331,128,0,114508:0:0:0:80:kick.wav
256,192,114331,128,0,114508:0:0:0:100:cymbal.wav
329,192,114331,128,0,114508:0:0:0:0:
402,192,114331,128,0,114508:0:0:0:0:
475,192,114331,128,0,114508:0:0:0:0:
36,192,114596,128,0,114684:0:0:0:80:kick.wav
109,192,114596,128,0,114684:0:0:0:100:cymbal.wav
329,192,114596,128,0,114684:0:0:0:0:
402,192,114596,128,0,114684:0:0:0:0:
475,192,114596,128,0,114684:0:0:0:0:
256,192,114684,128,0,114773:0:0:0:0:
36,192,114773,128,0,114861:0:0:0:80:kick.wav
109,192,114773,128,0,114861:0:0:0:100:cymbal.wav
182,192,114773,128,0,114861:0:0:0:0:
402,192,114773,128,0,114861:0:0:0:0:
475,192,114773,128,0,114861:0:0:0:0:
329,192,114861,128,0,114949:0:0:0:0:
36,192,114949,128,0,115126:0:0:0:80:kick.wav
109,192,114949,128,0,115126:0:0:0:100:cymbal.wav
182,192,114949,128,0,115126:0:0:0:0:
256,192,114949,128,0,115126:0:0:0:0:
402,192,114949,128,0,115126:0:0:0:0:
475,192,114949,128,0,115126:0:0:0:0:
36,192,115214,1,0,0:0:0:80:kick.wav
182,192,115214,1,0,0:0:0:100:cymbal.wav
329,192,115214,1,0,0:0:0:0:
402,192,115214,1,0,0:0:0:0:
475,192,115214,1,0,0:0:0:0:
109,192,115302,1,0,0:0:0:0:
256,192,115302,1,0,0:0:0:0:
36,192,115478,1,0,0:0:0:80:kick.wav
109,192,115478,1,0,0:0:0:100:cymbal.wav
182,192,115478,1,0,0:0:0:0:
329,192,115478,1,0,0:0:0:0:
402,192,115478,1,0,0:0:0:0:
109,192,115567,128,0,115655:0:0:0:80:kick.wav
182,192,115567,128,0,115655:0:0:0:100:cymbal.wav
329,192,115567,128,0,115655:0:0:0:0:
402,192,115567,128,0,115655:0:0:0:0:
475,192,115567,128,0,115655:0:0:0:0:
36,192,115743,128,0,115920:0:0:0:80:kick.wav
109,192,115743,128,0,115920:0:0:0:100:cymbal.wav
256,192,115743,128,0,115920:0:0:0:70:windchime.wav
402,192,115743,128,0,116096:0:0:0:0:
475,192,115743,128,0,116096:0:0:0:0:
36,192,116008,128,0,116096:0:0:0:80:kick.wav
109,192,116008,128,0,116096:0:0:0:0:
182,192,116008,128,0,116096:0:0:0:0:
329,192,116008,128,0,116096:0:0:0:0:
36,192,116184,128,0,116273:0:0:0:80:kick.wav
109,192,116184,128,0,116361:0:0:0:70:snare.wav
256,192,116184,128,0,116449:0:0:0:0:
329,192,116184,1,0,0:0:0:0:
182,192,116273,128,0,116449:0:0:0:0:
402,192,116273,1,0,0:0:0:0:
475,192,116273,128,0,116361:0:0:0:0:
36,192,116361,1,0,0:0:0:0:
329,192,116361,128,0,116449:0:0:0:0:
109,192,116449,1,0,0:0:0:0:
402,192,116449,128,0,116626:0:0:0:0:
475,192,116449,128,0,116802:0:0:0:0:
36,192,116537,128,0,116802:0:0:0:80:kick.wav
182,192,116537,1,0,0:0:0:0:
256,192,116537,128,0,116714:0:0:0:0:
182,192,116714,1,0,0:0:0:0:
402,192,116714,128,0,116802:0:0:0:0:
109,192,116802,1,0,0:0:0:0:
329,192,116802,128,0,116890:0:0:0:0:
36,192,116890,1,0,0:0:0:80:kick.wav
182,192,116890,128,0,117067:0:0:0:70:snare.wav
256,192,116890,128,0,117155:0:0:0:0:
329,192,116978,128,0,117155:0:0:0:0:
402,192,116978,128,0,117067:0:0:0:0:
475,192,116978,1,0,0:0:0:0:
36,192,117067,1,0,0:0:0:0:
109,192,117067,128,0,117155:0:0:0:0:
182,192,117155,1,0,0:0:0:0:
402,192,117155,128,0,117331:0:0:0:0:
475,192,117155,128,0,117508:0:0:0:0:
36,192,117243,128,0,117508:0:0:0:80:kick.wav
109,192,117243,128,0,117420:0:0:0:0:
329,192,117243,1,0,0:0:0:0:
182,192,117420,128,0,117508:0:0:0:0:
329,192,117420,128,0,117508:0:0:0:0:
402,192,117420,1,0,0:0:0:0:
36,192,117596,128,0,117773:0:0:0:80:kick.wav
109,192,117596,1,0,0:0:0:70:snare.wav
256,192,117596,128,0,117861:0:0:0:0:
329,192,117684,128,0,117773:0:0:0:0:
402,192,117684,1,0,0:0:0:0:
475,192,117684,128,0,117773:0:0:0:0:
109,192,117773,128,0,117861:0:0:0:0:
182,192,117773,1,0,0:0:0:0:
329,192,117861,1,0,0:0:0:0:
402,192,117861,128,0,117949:0:0:0:0:
475,192,117861,128,0,117949:0:0:0:0:
36,192,117949,128,0,118214:0:0:0:80:kick.wav
109,192,117949,1,0,0:0:0:0:
182,192,117949,128,0,118037:0:0:0:0:
256,192,118037,1,0,0:0:0:0:
402,192,118037,128,0,118214:0:0:0:0:
475,192,118037,128,0,118214:0:0:0:0:
109,192,118126,128,0,118214:0:0:0:0:
182,192,118126,1,0,0:0:0:0:
329,192,118126,128,0,118214:0:0:0:0:
36,192,118302,1,0,0:0:0:80:kick.wav
109,192,118302,128,0,118478:0:0:0:70:snare.wav
256,192,118302,128,0,118567:0:0:0:0:
182,192,118390,128,0,118567:0:0:0:0:
402,192,118390,1,0,0:0:0:0:
475,192,118390,128,0,118478:0:0:0:0:
36,192,118478,1,0,0:0:0:0:
329,192,118478,128,0,118567:0:0:0:0:
109,192,118567,1,0,0:0:0:0:
402,192,118567,128,0,118743:0:0:0:0:
475,192,118567,128,0,118920:0:0:0:0:
36,192,118655,128,0,118920:0:0:0:80:kick.wav
182,192,118655,1,0,0:0:0:0:
256,192,118655,128,0,118831:0:0:0:0:
109,192,118831,1,0,0:0:0:0:
402,192,118831,128,0,118920:0:0:0:0:
182,192,118920,1,0,0:0:0:0:
329,192,118920,128,0,119008:0:0:0:0:
36,192,119008,1,0,0:0:0:80:kick.wav
109,192,119008,128,0,119184:0:0:0:70:snare.wav
256,192,119008,128,0,119273:0:0:0:0:
182,192,119096,128,0,119273:0:0:0:0:
402,192,119096,1,0,0:0:0:0:
475,192,119096,128,0,119184:0:0:0:0:
36,192,119184,1,0,0:0:0:0:
329,192,119184,128,0,119273:0:0:0:0:
109,192,119273,1,0,0:0:0:0:
402,192,119273,128,0,119449:0:0:0:0:
475,192,119273,128,0,119626:0:0:0:0:
36,192,119361,128,0,119626:0:0:0:80:kick.wav
182,192,119361,128,0,119537:0:0:0:0:
256,192,119361,1,0,0:0:0:0:
109,192,119537,128,0,119626:0:0:0:0:
329,192,119537,128,0,119626:0:0:0:0:
402,192,119537,1,0,0:0:0:0:
36,192,119714,1,0,0:0:0:80:kick.wav
182,192,119714,128,0,119802:0:0:0:70:snare.wav
256,192,119714,128,0,119978:0:0:0:0:
329,192,119802,128,0,119890:0:0:0:0:
402,192,119802,1,0,0:0:0:0:
475,192,119802,128,0,119890:0:0:0:0:
36,192,119890,128,0,119978:0:0:0:0:
109,192,119890,1,0,0:0:0:0:
182,192,119978,128,0,120067:0:0:0:0:
329,192,119978,128,0,120331:0:0:0:0:
475,192,119978,1,0,0:0:0:0:
36,192,120067,128,0,120331:0:0:0:80:kick.wav
109,192,120067,128,0,120243:0:0:0:0:
256,192,120067,1,0,0:0:0:0:
256,192,120243,128,0,120331:0:0:0:0:
402,192,120243,128,0,120331:0:0:0:0:
475,192,120243,128,0,120331:0:0:0:0:
182,192,120331,128,0,120420:0:0:0:0:
36,192,120420,128,0,120508:0:0:0:80:kick.wav
109,192,120420,128,0,120508:0:0:0:70:snare.wav
329,192,120420,128,0,120508:0:0:0:0:
475,192,120420,128,0,120508:0:0:0:0:
182,192,120508,128,0,120596:0:0:0:0:
256,192,120596,128,0,120684:0:0:0:0:
402,192,120596,128,0,120684:0:0:0:0:
475,192,120596,128,0,120684:0:0:0:0:
36,192,120773,128,0,120949:0:0:0:80:kick.wav
109,192,120773,128,0,120861:0:0:0:100:cymbal.wav
256,192,120773,128,0,120861:0:0:0:0:
329,192,120773,128,0,120861:0:0:0:0:
475,192,120773,128,0,120949:0:0:0:0:
182,192,120861,128,0,120949:0:0:0:80:kick.wav
402,192,120861,128,0,120949:0:0:0:100:cymbal.wav
36,192,121037,128,0,121126:0:0:0:80:kick.wav
109,192,121037,128,0,121126:0:0:0:100:cymbal.wav
182,192,121037,1,0,0:0:0:0:
256,192,121037,128,0,121126:0:0:0:0:
475,192,121037,128,0,121126:0:0:0:0:
329,192,121126,128,0,121214:0:0:0:0:
36,192,121214,128,0,121302:0:0:0:80:kick.wav
109,192,121214,1,0,0:0:0:100:cymbal.wav
182,192,121214,128,0,121302:0:0:0:0:
402,192,121214,128,0,121302:0:0:0:0:
475,192,121214,128,0,121302:0:0:0:0:
256,192,121302,128,0,121390:0:0:0:0:
36,192,121390,1,0,0:0:0:80:kick.wav
109,192,121390,128,0,121567:0:0:0:100:cymbal.wav
182,192,121390,1,0,0:0:0:0:
329,192,121390,128,0,121567:0:0:0:0:
402,192,121390,128,0,121567:0:0:0:0:
475,192,121390,128,0,121567:0:0:0:0:
36,192,121655,1,0,0:0:0:80:kick.wav
256,192,121655,1,0,0:0:0:0:
402,192,121655,128,0,121743:0:0:0:0:
475,192,121655,128,0,121743:0:0:0:0:
109,192,121743,1,0,0:0:0:80:kick.wav
182,192,121743,1,0,0:0:0:0:
36,192,121831,1,0,0:0:0:80:kick.wav
256,192,121831,1,0,0:0:0:100:cymbal.wav
329,192,121831,1,0,0:0:0:0:
402,192,121831,128,0,122008:0:0:0:0:
475,192,121831,128,0,122008:0:0:0:0:
109,192,121920,128,0,122008:0:0:0:0:
182,192,121920,128,0,122008:0:0:0:0:
402,192,122096,128,0,122184:0:0:0:0:
475,192,122096,128,0,122184:0:0:0:0:
36,192,122184,1,0,0:0:0:80:kick.wav
109,192,122184,1,0,0:0:0:0:
329,192,122184,1,0,0:0:0:0:
182,192,122273,128,0,122449:0:0:0:0:
256,192,122273,128,0,122361:0:0:0:0:
402,192,122273,128,0,122537:0:0:0:0:
475,192,122273,128,0,122714:0:0:0:0:
36,192,122361,128,0,122449:0:0:0:0:
109,192,122361,128,0,122449:0:0:0:0:
256,192,122449,128,0,122626:0:0:0:0:
329,192,122449,128,0,122537:0:0:0:0:
36,192,122537,128,0,122802:0:0:0:80:kick.wav
109,192,122537,128,0,122626:0:0:0:70:snare.wav
182,192,122537,128,0,122626:0:0:0:0:
329,192,122626,128,0,122802:0:0:0:0:
402,192,122626,128,0,122714:0:0:0:0:
109,192,122714,128,0,122802:0:0:0:80:kick.wav
182,192,122714,128,0,122890:0:0:0:0:
256,192,122714,128,0,122802:0:0:0:0:
402,192,122802,128,0,122890:0:0:0:0:
475,192,122802,128,0,122890:0:0:0:0:
36,192,122890,128,0,123067:0:0:0:80:kick.wav
109,192,122890,128,0,123067:0:0:0:100:cymbal.wav
256,192,122890,128,0,123067:0:0:0:0:
329,192,122890,128,0,123067:0:0:0:0:
475,192,123067,1,0,0:0:0:0:
182,192,123155,128,0,123243:0:0:0:0:
402,192,123155,128,0,123243:0:0:0:0:
109,192,123243,1,0,0:0:0:80:kick.wav
329,192,123243,1,0,0:0:0:70:snare.wav
475,192,123243,1,0,0:0:0:0:
36,192,123331,128,0,123684:0:0:0:0:
256,192,123331,128,0,123508:0:0:0:0:
109,192,123508,128,0,123684:0:0:0:0:
329,192,123508,128,0,123684:0:0:0:0:
182,192,123596,1,0,0:0:0:80:kick.wav
402,192,123596,1,0,0:0:0:0:
475,192,123596,1,0,0:0:0:0:
182,192,123773,128,0,123831:0:0:0:0:
402,192,123773,128,0,123831:0:0:0:0:
36,192,123831,128,0,123890:0:0:0:0:
329,192,123831,128,0,123890:0:0:0:0:
109,192,123890,128,0,123949:0:0:0:0:
256,192,123890,128,0,123949:0:0:0:0:
182,192,123949,128,0,124008:0:0:0:80:kick.wav
402,192,123949,1,0,0:0:0:70:snare.wav
475,192,123949,1,0,0:0:0:0:
36,192,124126,1,0,0:0:0:80:kick.wav
109,192,124126,128,0,124214:0:0:0:0:
329,192,124126,128,0,124214:0:0:0:0:
475,192,124126,1,0,0:0:0:0:
182,192,124214,128,0,124302:0:0:0:0:
402,192,124214,128,0,124302:0:0:0:0:
36,192,124302,128,0,124478:0:0:0:80:kick.wav
109,192,124302,128,0,124478:0:0:0:100:cymbal.wav
256,192,124302,128,0,124478:0:0:0:0:
329,192,124302,1,0,0:0:0:0:
475,192,124302,128,0,124478:0:0:0:0:
329,192,124478,1,0,0:0:0:0:
182,192,124567,128,0,124655:0:0:0:0:
402,192,124567,128,0,124655:0:0:0:0:
109,192,124655,1,0,0:0:0:80:kick.wav
329,192,124655,1,0,0:0:0:70:snare.wav
475,192,124655,1,0,0:0:0:0:
36,192,124743,128,0,124920:0:0:0:0:
256,192,124743,128,0,124920:0:0:0:0:
109,192,124920,128,0,125096:0:0:0:0:
329,192,124920,128,0,125096:0:0:0:0:
36,192,125008,1,0,0:0:0:80:kick.wav
256,192,125008,1,0,0:0:0:100:cymbal.wav
402,192,125008,1,0,0:0:0:0:
475,192,125008,1,0,0:0:0:0:
182,192,125184,128,0,125243:0:0:0:0:
402,192,125184,128,0,125243:0:0:0:0:
36,192,125243,128,0,125302:0:0:0:0:
329,192,125243,128,0,125302:0:0:0:0:
109,192,125302,128,0,125361:0:0:0:0:
256,192,125302,128,0,125361:0:0:0:0:
182,192,125361,128,0,125420:0:0:0:80:kick.wav
402,192,125361,1,0,0:0:0:70:snare.wav
475,192,125361,1,0,0:0:0:0:
36,192,125449,1,0,0:0:0:80:kick.wav
109,192,125449,1,0,0:0:0:0:
329,192,125449,1,0,0:0:0:0:
182,192,125537,1,0,0:0:0:80:kick.wav
402,192,125537,1,0,0:0:0:0:
475,192,125537,1,0,0:0:0:0:
36,192,125626,1,0,0:0:0:80:kick.wav
109,192,125626,1,0,0:0:0:0:
256,192,125626,1,0,0:0:0:0:
36,192,125714,1,0,0:0:0:80:kick.wav
182,192,125714,1,0,0:0:0:0:
329,192,125714,1,0,0:0:0:0:
402,192,125714,1,0,0:0:0:0:
475,192,125714,1,0,0:0:0:0:
329,192,125802,1,0,0:0:0:80:kick.wav
402,192,125802,1,0,0:0:0:0:
475,192,125802,1,0,0:0:0:0:
36,192,125978,1,0,0:0:0:80:kick.wav
182,192,125978,1,0,0:0:0:0:
329,192,125978,1,0,0:0:0:0:
402,192,125978,1,0,0:0:0:0:
475,192,125978,1,0,0:0:0:0:
36,192,126155,1,0,0:0:0:80:kick.wav
182,192,126155,1,0,0:0:0:0:
329,192,126155,1,0,0:0:0:0:
402,192,126155,1,0,0:0:0:0:
475,192,126155,1,0,0:0:0:0:
36,192,126331,1,0,0:0:0:80:kick.wav
182,192,126331,1,0,0:0:0:0:
329,192,126331,1,0,0:0:0:0:
402,192,126331,1,0,0:0:0:0:
475,192,126331,1,0,0:0:0:0:
109,192,126420,128,0,126508:0:0:0:0:
256,192,126420,128,0,126508:0:0:0:0:
182,192,126596,128,0,126684:0:0:0:0:
329,192,126596,128,0,126684:0:0:0:0:
256,192,126773,128,0,126861:0:0:0:0:
402,192,126773,128,0,126861:0:0:0:0:
329,192,126949,128,0,127037:0:0:0:0:
475,192,126949,128,0,127037:0:0:0:0:
36,192,127126,1,0,0:0:0:0:
109,192,127126,1,0,0:0:0:0:
256,192,127126,128,0,127214:0:0:0:0:
402,192,127126,128,0,127214:0:0:0:0:
475,192,127126,1,0,0:0:0:0:
182,192,127302,1,0,0:0:0:0:
256,192,127478,1,0,0:0:0:0:
329,192,127655,128,0,127743:0:0:0:0:
402,192,127655,1,0,0:0:0:0:
475,192,127655,128,0,127743:0:0:0:0:
109,192,128008,128,0,128096:0:0:0:0:
256,192,128184,128,0,128273:0:0:0:0:
402,192,128184,128,0,128273:0:0:0:0:
36,192,128361,1,0,0:0:0:0:
182,192,128361,128,0,128449:0:0:0:0:
329,192,128361,128,0,128449:0:0:0:0:
182,192,128714,1,0,0:0:0:0:
109,192,128890,128,0,128978:0:0:0:0:
256,192,128890,128,0,128978:0:0:0:0:
329,192,128890,1,0,0:0:0:0:
475,192,129067,1,0,0:0:0:0:
36,192,129420,128,0,129508:0:0:0:0:
329,192,129420,128,0,129508:0:0:0:0:
109,192,129596,128,0,129684:0:0:0:0:
402,192,129596,128,0,129684:0:0:0:0:
182,192,129773,128,0,129861:0:0:0:0:
475,192,129773,128,0,129861:0:0:0:0:
36,192,129949,128,0,130037:0:0:0:0:
256,192,129949,128,0,130037:0:0:0:0:
182,192,130126,1,0,0:0:0:0:
329,192,130302,128,0,130390:0:0:0:0:
402,192,130302,128,0,130390:0:0:0:0:
36,192,130478,1,0,0:0:0:0:
109,192,130478,128,0,130567:0:0:0:0:
182,192,130478,128,0,130567:0:0:0:0:
36,192,130831,128,0,130920:0:0:0:0:
109,192,130831,1,0,0:0:0:0:
182,192,130831,128,0,130920:0:0:0:0:
256,192,131008,1,0,0:0:0:0:
329,192,131184,128,0,131273:0:0:0:0:
402,192,131184,1,0,0:0:0:0:
475,192,131184,128,0,131273:0:0:0:0:
109,192,131537,1,0,0:0:0:0:
36,192,131714,128,0,131802:0:0:0:0:
182,192,131714,128,0,131802:0:0:0:0:
329,192,131714,1,0,0:0:0:0:
475,192,131890,1,0,0:0:0:0:
109,192,132067,128,0,132155:0:0:0:0:
256,192,132067,128,0,132155:0:0:0:0:
182,192,132243,128,0,132331:0:0:0:0:
329,192,132243,128,0,132331:0:0:0:0:
256,192,132420,128,0,132508:0:0:0:0:
402,192,132420,128,0,132508:0:0:0:0:
329,192,132596,128,0,132684:0:0:0:0:
475,192,132596,128,0,132684:0:0:0:0:
109,192,132773,1,0,0:0:0:0:
256,192,132773,128,0,132861:0:0:0:0:
402,192,132773,128,0,132861:0:0:0:0:
182,192,132949,1,0,0:0:0:0:
256,192,133126,1,0,0:0:0:0:
329,192,133302,128,0,133390:0:0:0:0:
402,192,133302,1,0,0:0:0:0:
475,192,133302,128,0,133390:0:0:0:0:
109,192,133655,1,0,0:0:0:0:
256,192,133831,128,0,133920:0:0:0:0:
402,192,133831,128,0,133920:0:0:0:0:
36,192,134008,1,0,0:0:0:0:
182,192,134008,128,0,134096:0:0:0:0:
329,192,134008,128,0,134096:0:0:0:0:
182,192,134361,1,0,0:0:0:0:
109,192,134537,128,0,134626:0:0:0:0:
256,192,134537,128,0,134626:0:0:0:0:
329,192,134537,1,0,0:0:0:0:
402,192,134714,1,0,0:0:0:0:
475,192,134890,128,0,134978:0:0:0:0:
329,192,135067,128,0,135155:0:0:0:0:
182,192,135243,128,0,135331:0:0:0:0:
36,192,135420,128,0,135508:0:0:0:0:
109,192,135596,1,0,0:0:0:0:
329,192,135596,128,0,135684:0:0:0:0:
475,192,135596,128,0,135684:0:0:0:0:
256,192,135773,1,0,0:0:0:0:
36,192,135949,128,0,136037:0:0:0:0:
182,192,135949,128,0,136037:0:0:0:0:
402,192,135949,1,0,0:0:0:0:
329,192,136126,128,0,136214:0:0:0:0:
475,192,136126,128,0,136214:0:0:0:0:
402,192,136302,1,0,0:0:0:0:
109,192,136478,128,0,136567:0:0:0:0:
182,192,136478,128,0,136567:0:0:0:0:
329,192,136831,128,0,136920:0:0:0:0:
402,192,136831,128,0,136920:0:0:0:0:
182,192,137184,1,0,0:0:0:0:
36,192,137361,128,0,138420:0:0:0:0:
256,192,137361,128,0,137449:0:0:0:0:
402,192,137361,128,0,137449:0:0:0:0:
109,192,137714,128,0,137802:0:0:0:0:
256,192,137714,128,0,137802:0:0:0:0:
182,192,137890,128,0,137978:0:0:0:0:
329,192,137890,128,0,137978:0:0:0:0:
256,192,138067,128,0,138155:0:0:0:0:
402,192,138067,128,0,138155:0:0:0:0:
329,192,138243,128,0,138331:0:0:0:0:
475,192,138243,128,0,138331:0:0:0:0:
256,192,138420,128,0,138508:0:0:0:0:
402,192,138420,128,0,138508:0:0:0:0:
36,192,138684,1,0,0:0:0:0:
182,192,138684,1,0,0:0:0:0:
402,192,138773,1,0,0:0:0:0:
36,192,138861,1,0,0:0:0:0:
182,192,138861,1,0,0:0:0:0:
329,192,138949,128,0,139037:0:0:0:0:
475,192,138949,128,0,139037:0:0:0:0:
182,192,139126,1,0,0:0:0:0:
402,192,139126,1,0,0:0:0:0:
109,192,139302,1,0,0:0:0:0:
256,192,139478,128,0,139567:0:0:0:0:
402,192,139478,128,0,139567:0:0:0:0:
182,192,139655,128,0,139743:0:0:0:0:
329,192,139655,128,0,139743:0:0:0:0:
182,192,140008,1,0,0:0:0:0:
109,192,140184,128,0,140273:0:0:0:0:
256,192,140184,128,0,140273:0:0:0:0:
329,192,140184,1,0,0:0:0:0:
402,192,140361,1,0,0:0:0:0:
256,192,140537,1,0,0:0:0:0:
475,192,140537,1,0,0:0:0:0:
36,192,140714,128,0,140802:0:0:0:0:
329,192,140714,128,0,140802:0:0:0:0:
109,192,140890,128,0,140978:0:0:0:0:
402,192,140890,128,0,140978:0:0:0:0:
182,192,141067,128,0,141155:0:0:0:0:
475,192,141067,128,0,141155:0:0:0:0:
36,192,141243,128,0,141331:0:0:0:0:
256,192,141243,128,0,141331:0:0:0:0:
329,192,141243,1,0,0:0:0:0:
36,192,141508,1,0,0:0:0:0:
182,192,141508,1,0,0:0:0:0:
329,192,141596,128,0,141684:0:0:0:0:
402,192,141596,128,0,141684:0:0:0:0:
256,192,141684,1,0,0:0:0:0:
475,192,141684,1,0,0:0:0:0:
109,192,141773,128,0,141861:0:0:0:0:
182,192,141773,128,0,141861:0:0:0:0:
329,192,141949,1,0,0:0:0:0:
402,192,141949,1,0,0:0:0:0:
36,192,142126,128,0,142214:0:0:0:0:
109,192,142126,1,0,0:0:0:0:
182,192,142126,128,0,142214:0:0:0:0:
36,192,142302,1,0,0:0:0:0:
256,192,142302,1,0,0:0:0:0:
329,192,142478,128,0,142567:0:0:0:0:
402,192,142478,1,0,0:0:0:0:
475,192,142478,128,0,142567:0:0:0:0:
182,192,142567,1,0,0:0:0:0:
329,192,142655,1,0,0:0:0:0:
182,192,142743,1,0,0:0:0:0:
36,192,142831,128,0,142920:0:0:0:0:
329,192,142831,1,0,0:0:0:0:
256,192,142920,1,0,0:0:0:0:
402,192,143008,1,0,0:0:0:0:
475,192,143008,1,0,0:0:0:0:
36,192,143184,1,0,0:0:0:0:
182,192,143184,128,0,143273:0:0:0:0:
329,192,143184,128,0,143273:0:0:0:0:
256,192,143361,128,0,143449:0:0:0:0:
402,192,143361,128,0,143449:0:0:0:0:
182,192,143537,128,0,143626:0:0:0:0:
329,192,143537,128,0,143626:0:0:0:0:
109,192,143714,128,0,143802:0:0:0:0:
256,192,143714,128,0,143802:0:0:0:0:
36,192,143890,128,0,144155:0:0:0:80:kick.wav
182,192,143890,128,0,144155:0:0:0:100:cymbal.wav
329,192,143890,128,0,144155:0:0:0:0:
402,192,143890,128,0,144155:0:0:0:0:
475,192,143890,128,0,144155:0:0:0:0:
256,192,144243,1,0,0:0:0:0:
402,192,144243,1,0,0:0:0:0:
36,192,144331,1,0,0:0:0:0:
182,192,144331,1,0,0:0:0:0:
256,192,144420,1,0,0:0:0:0:
402,192,144420,1,0,0:0:0:0:
36,192,144596,128,0,144861:0:0:0:80:kick.wav
109,192,144596,128,0,144861:0:0:0:100:cymbal.wav
182,192,144596,128,0,144861:0:0:0:0:
329,192,144596,128,0,144861:0:0:0:0:
475,192,144596,128,0,144861:0:0:0:0:
109,192,144949,1,0,0:0:0:0:
256,192,144949,1,0,0:0:0:0:
329,192,145037,1,0,0:0:0:0:
475,192,145037,1,0,0:0:0:0:
109,192,145126,1,0,0:0:0:0:
256,192,145126,1,0,0:0:0:0:
36,192,145302,128,0,145567:0:0:0:80:kick.wav
182,192,145302,128,0,145567:0:0:0:100:cymbal.wav
256,192,145302,128,0,145567:0:0:0:0:
329,192,145302,128,0,145743:0:0:0:0:
475,192,145302,128,0,145743:0:0:0:0:
36,192,145655,1,0,0:0:0:80:kick.wav
109,192,145655,128,0,145743:0:0:0:0:
256,192,145655,128,0,145743:0:0:0:0:
402,192,145655,1,0,0:0:0:0:
182,192,145831,1,0,0:0:0:80:kick.wav
256,192,145831,128,0,146096:0:0:0:0:
402,192,145831,128,0,146096:0:0:0:0:
475,192,145831,1,0,0:0:0:0:
36,192,146008,128,0,146096:0:0:0:0:
182,192,146008,128,0,146096:0:0:0:0:
36,192,146184,1,0,0:0:0:80:kick.wav
182,192,146184,128,0,146449:0:0:0:100:cymbal.wav
256,192,146184,1,0,0:0:0:0:
329,192,146184,128,0,146449:0:0:0:0:
475,192,146184,1,0,0:0:0:0:
109,192,146361,128,0,146449:0:0:0:0:
475,192,146361,128,0,146449:0:0:0:0:
36,192,146537,1,0,0:0:0:80:kick.wav
182,192,146537,128,0,146802:0:0:0:100:cymbal.wav
256,192,146537,1,0,0:0:0:0:
329,192,146537,128,0,146802:0:0:0:0:
475,192,146537,1,0,0:0:0:0:
36,192,146714,128,0,147420:0:0:0:80:kick.wav
402,192,146714,128,0,146802:0:0:0:0:
475,192,146714,128,0,147420:0:0:0:0:
182,192,147067,1,0,0:0:0:0:
329,192,147067,1,0,0:0:0:0:
402,192,147155,1,0,0:0:0:0:
109,192,147243,1,0,0:0:0:0:
256,192,147243,1,0,0:0:0:0:
329,192,147331,1,0,0:0:0:0:
109,192,147420,1,0,0:0:0:50:kick.wav
402,192,147420,1,0,0:0:0:0:
182,192,147464,1,0,0:0:0:50:kick.wav
256,192,147508,1,0,0:0:0:50:kick.wav
329,192,147552,1,0,0:0:0:50:kick.wav
402,192,147596,1,0,0:0:0:50:kick.wav
475,192,147596,1,0,0:0:0:0:
182,192,147684,1,0,0:0:0:80:kick.wav
329,192,147684,1,0,0:0:0:0:
36,192,147773,1,0,0:0:0:80:kick.wav
109,192,147773,1,0,0:0:0:100:cymbal.wav
256,192,147773,1,0,0:0:0:0:
402,192,147773,1,0,0:0:0:0:
475,192,147773,1,0,0:0:0:0:
182,192,147861,1,0,0:0:0:80:kick.wav
329,192,147861,1,0,0:0:0:0:
36,192,147949,1,0,0:0:0:80:kick.wav
109,192,147949,1,0,0:0:0:100:cymbal.wav
256,192,147949,1,0,0:0:0:0:
402,192,147949,1,0,0:0:0:0:
475,192,147949,1,0,0:0:0:0:
182,192,148037,1,0,0:0:0:80:kick.wav
329,192,148037,1,0,0:0:0:0:
36,192,148126,128,0,150684:0:0:0:80:kick.wav
109,192,148126,128,0,150684:0:0:0:100:cymbal.wav
256,192,148126,128,0,150684:0:0:0:0:
402,192,148126,128,0,150684:0:0:0:0:
475,192,148126,128,0,150684:0:0:0:0:
182,192,149655,128,0,149890:0:0:0:0:
329,192,149714,128,0,149846:0:0:0:0:
329,192,149934,128,0,150684:0:0:0:0:
182,192,149978,128,0,150684:0:0:0:0:
36,192,150773,1,0,0:0:0:80:kick.wav
109,192,150773,1,0,0:0:0:100:cymbal.wav
256,192,150773,1,0,0:0:0:0:
402,192,150773,1,0,0:0:0:0:
475,192,150773,1,0,0:0:0:0:
36,192,151126,1,0,0:0:0:80:kick.wav
182,192,151126,1,0,0:0:0:70:windchime.wav
256,192,151126,128,0,151214:0:0:0:0:
402,192,151126,1,0,0:0:0:0:
475,192,151126,1,0,0:0:0:0:
36,192,151302,128,0,151346:0:0:0:0:
329,192,151302,1,0,0:0:0:0:
109,192,151478,128,0,151523:0:0:0:80:kick.wav
402,192,151478,1,0,0:0:0:0:
475,192,151478,1,0,0:0:0:0:
182,192,151655,128,0,151699:0:0:0:0:
329,192,151655,1,0,0:0:0:0:
36,192,151831,1,0,0:0:0:80:kick.wav
109,192,151831,1,0,0:0:0:0:
256,192,151831,128,0,151920:0:0:0:0:
182,192,152008,1,0,0:0:0:0:
329,192,152008,128,0,152052:0:0:0:0:
36,192,152184,1,0,0:0:0:80:kick.wav
109,192,152184,128,0,152273:0:0:0:0:
475,192,152184,128,0,152228:0:0:0:0:
256,192,152361,128,0,152449:0:0:0:0:
402,192,152361,128,0,152405:0:0:0:0:
36,192,152537,1,0,0:0:0:80:kick.wav
109,192,152537,1,0,0:0:0:0:
475,192,152537,1,0,0:0:0:0:
329,192,152714,1,0,0:0:0:0:
36,192,152890,128,0,152978:0:0:0:80:kick.wav
109,192,152890,1,0,0:0:0:0:
402,192,152890,1,0,0:0:0:0:
329,192,153067,1,0,0:0:0:0:
256,192,153243,128,0,153331:0:0:0:80:kick.wav
402,192,153243,1,0,0:0:0:0:
475,192,153243,1,0,0:0:0:0:
109,192,153420,1,0,0:0:0:0:
329,192,153596,128,0,153684:0:0:0:80:kick.wav
402,192,153596,1,0,0:0:0:0:
475,192,153596,1,0,0:0:0:0:
109,192,153773,1,0,0:0:0:0:
182,192,153949,128,0,153993:0:0:0:80:kick.wav
402,192,153949,128,0,154037:0:0:0:0:
475,192,153949,1,0,0:0:0:0:
182,192,154126,128,0,154170:0:0:0:0:
329,192,154126,1,0,0:0:0:0:
109,192,154302,128,0,154346:0:0:0:80:kick.wav
256,192,154302,1,0,0:0:0:0:
475,192,154302,128,0,154390:0:0:0:0:
36,192,154478,128,0,154523:0:0:0:0:
402,192,154478,128,0,154567:0:0:0:0:
256,192,154655,128,0,154699:0:0:0:80:kick.wav
402,192,154655,1,0,0:0:0:0:
475,192,154655,1,0,0:0:0:0:
182,192,154831,128,0,154876:0:0:0:0:
329,192,154831,128,0,154920:0:0:0:0:
109,192,155008,128,0,155052:0:0:0:80:kick.wav
402,192,155008,1,0,0:0:0:0:
475,192,155008,1,0,0:0:0:0:
36,192,155184,128,0,155228:0:0:0:0:
256,192,155184,128,0,155273:0:0:0:0:
182,192,155361,1,0,0:0:0:80:kick.wav
402,192,155361,1,0,0:0:0:0:
475,192,155361,1,0,0:0:0:0:
329,192,155537,1,0,0:0:0:0:
109,192,155714,1,0,0:0:0:80:kick.wav
402,192,155714,1,0,0:0:0:0:
475,192,155714,1,0,0:0:0:0:
256,192,155890,1,0,0:0:0:0:
36,192,156067,1,0,0:0:0:80:kick.wav
109,192,156067,1,0,0:0:0:0:
329,192,156067,1,0,0:0:0:0:
182,192,156243,1,0,0:0:0:0:
36,192,156420,128,0,156508:0:0:0:80:kick.wav
109,192,156420,1,0,0:0:0:0:
402,192,156420,1,0,0:0:0:0:
329,192,156596,1,0,0:0:0:0:
256,192,156773,128,0,156861:0:0:0:80:kick.wav
402,192,156773,1,0,0:0:0:0:
475,192,156773,1,0,0:0:0:0:
109,192,156949,128,0,156993:0:0:0:0:
329,192,156949,1,0,0:0:0:0:
182,192,157126,128,0,157170:0:0:0:80:kick.wav
402,192,157126,1,0,0:0:0:0:
475,192,157126,1,0,0:0:0:0:
329,192,157302,1,0,0:0:0:0:
36,192,157478,1,0,0:0:0:80:kick.wav
109,192,157478,1,0,0:0:0:0:
256,192,157478,128,0,157567:0:0:0:0:
182,192,157655,1,0,0:0:0:0:
329,192,157655,128,0,157699:0:0:0:0:
36,192,157831,1,0,0:0:0:80:kick.wav
109,192,157831,128,0,157920:0:0:0:0:
475,192,157831,128,0,157876:0:0:0:0:
256,192,158008,128,0,158096:0:0:0:0:
402,192,158008,128,0,158052:0:0:0:0:
36,192,158184,1,0,0:0:0:80:kick.wav
109,192,158184,1,0,0:0:0:0:
402,192,158184,1,0,0:0:0:0:
256,192,158361,1,0,0:0:0:0:
36,192,158537,128,0,158626:0:0:0:80:kick.wav
109,192,158537,1,0,0:0:0:0:
329,192,158537,1,0,0:0:0:0:
182,192,158714,1,0,0:0:0:0:
329,192,158890,128,0,158978:0:0:0:80:kick.wav
402,192,158890,1,0,0:0:0:0:
475,192,158890,1,0,0:0:0:0:
109,192,159067,1,0,0:0:0:0:
256,192,159243,128,0,159331:0:0:0:80:kick.wav
402,192,159243,1,0,0:0:0:0:
475,192,159243,1,0,0:0:0:0:
182,192,159420,1,0,0:0:0:0:
36,192,159596,1,0,0:0:0:80:kick.wav
109,192,159596,128,0,159684:0:0:0:0:
402,192,159596,128,0,159640:0:0:0:0:
256,192,159773,1,0,0:0:0:0:
402,192,159773,128,0,159817:0:0:0:0:
36,192,159949,1,0,0:0:0:80:kick.wav
182,192,159949,128,0,159993:0:0:0:0:
329,192,159949,1,0,0:0:0:0:
36,192,160126,128,0,160170:0:0:0:0:
256,192,160126,128,0,160214:0:0:0:0:
182,192,160302,128,0,160346:0:0:0:80:kick.wav
329,192,160302,1,0,0:0:0:0:
475,192,160302,1,0,0:0:0:0:
256,192,160478,128,0,160523:0:0:0:0:
402,192,160478,1,0,0:0:0:0:
36,192,160655,1,0,0:0:0:80:kick.wav
109,192,160655,128,0,160743:0:0:0:0:
329,192,160655,128,0,160699:0:0:0:0:
256,192,160831,1,0,0:0:0:0:
475,192,160831,128,0,160876:0:0:0:0:
36,192,161008,1,0,0:0:0:80:kick.wav
109,192,161008,1,0,0:0:0:0:
402,192,161008,1,0,0:0:0:0:
256,192,161184,128,0,161273:0:0:0:0:
329,192,161184,1,0,0:0:0:0:
36,192,161361,1,0,0:0:0:80:kick.wav
109,192,161361,1,0,0:0:0:0:
475,192,161361,1,0,0:0:0:0:
329,192,161537,1,0,0:0:0:0:
182,192,161714,1,0,0:0:0:80:kick.wav
402,192,161714,1,0,0:0:0:0:
475,192,161714,1,0,0:0:0:0:
36,192,161890,1,0,0:0:0:0:
109,192,162067,128,0,162420:0:0:0:80:kick.wav
402,192,162067,1,0,0:0:0:0:
475,192,162067,1,0,0:0:0:0:
329,192,162243,1,0,0:0:0:0:
36,192,162420,1,0,0:0:0:80:kick.wav
256,192,162420,128,0,163067:0:0:0:0:
402,192,162420,1,0,0:0:0:0:
475,192,162420,1,0,0:0:0:0:
109,192,162596,1,0,0:0:0:0:
329,192,162596,1,0,0:0:0:0:
182,192,162773,1,0,0:0:0:80:kick.wav
402,192,162773,1,0,0:0:0:0:
475,192,162773,1,0,0:0:0:0:
36,192,162949,1,0,0:0:0:0:
329,192,162949,1,0,0:0:0:0:
109,192,163067,1,0,0:0:0:0:
256,192,163126,128,0,163478:0:0:0:80:kick.wav
402,192,163126,1,0,0:0:0:0:
475,192,163126,1,0,0:0:0:0:
36,192,163302,1,0,0:0:0:0:
182,192,163302,1,0,0:0:0:0:
109,192,163478,128,0,163655:0:0:0:80:kick.wav
402,192,163478,1,0,0:0:0:0:
475,192,163478,1,0,0:0:0:0:
256,192,163655,128,0,164184:0:0:0:0:
329,192,163655,1,0,0:0:0:0:
36,192,163831,1,0,0:0:0:80:kick.wav
402,192,163831,1,0,0:0:0:0:
475,192,163831,1,0,0:0:0:0:
109,192,164008,1,0,0:0:0:0:
182,192,164008,1,0,0:0:0:0:
36,192,164184,128,0,164537:0:0:0:80:kick.wav
402,192,164184,1,0,0:0:0:0:
475,192,164184,1,0,0:0:0:0:
182,192,164361,1,0,0:0:0:0:
329,192,164361,1,0,0:0:0:0:
256,192,164537,128,0,164890:0:0:0:80:kick.wav
402,192,164537,1,0,0:0:0:0:
475,192,164537,1,0,0:0:0:0:
36,192,164714,1,0,0:0:0:0:
182,192,164714,1,0,0:0:0:0:
329,192,164890,128,0,165243:0:0:0:80:kick.wav
402,192,164890,1,0,0:0:0:0:
475,192,164890,1,0,0:0:0:0:
109,192,165067,1,0,0:0:0:0:
256,192,165067,1,0,0:0:0:0:
36,192,165243,1,0,0:0:0:80:kick.wav
182,192,165243,1,0,0:0:0:0:
402,192,165243,128,0,165596:0:0:0:0:
256,192,165420,1,0,0:0:0:0:
329,192,165420,1,0,0:0:0:0:
36,192,165596,1,0,0:0:0:80:kick.wav
182,192,165596,1,0,0:0:0:0:
475,192,165596,128,0,165773:0:0:0:0:
109,192,165773,128,0,165831:0:0:0:0:
182,192,165773,1,0,0:0:0:0:
256,192,165831,128,0,165890:0:0:0:0:
402,192,165890,128,0,166126:0:0:0:0:
36,192,165949,1,0,0:0:0:80:kick.wav
109,192,165949,1,0,0:0:0:0:
329,192,165949,1,0,0:0:0:0:
182,192,166126,1,0,0:0:0:0:
329,192,166126,128,0,166478:0:0:0:0:
36,192,166302,1,0,0:0:0:80:kick.wav
109,192,166302,1,0,0:0:0:0:
475,192,166302,1,0,0:0:0:0:
256,192,166478,128,0,167008:0:0:0:0:
402,192,166478,1,0,0:0:0:0:
36,192,166655,1,0,0:0:0:80:kick.wav
109,192,166655,1,0,0:0:0:0:
329,192,166655,1,0,0:0:0:0:
182,192,166831,1,0,0:0:0:0:
402,192,166831,1,0,0:0:0:0:
36,192,167008,1,0,0:0:0:80:kick.wav
109,192,167008,1,0,0:0:0:0:
475,192,167008,1,0,0:0:0:0:
36,192,167184,1,0,0:0:0:80:kick.wav
109,192,167184,1,0,0:0:0:0:
256,192,167184,128,0,167537:0:0:0:0:
36,192,167537,1,0,0:0:0:80:kick.wav
109,192,167537,1,0,0:0:0:0:
329,192,167537,1,0,0:0:0:0:
329,192,167714,1,0,0:0:0:80:kick.wav
402,192,167714,1,0,0:0:0:0:
475,192,167714,1,0,0:0:0:0:
36,192,167802,1,0,0:0:0:80:kick.wav
109,192,167802,1,0,0:0:0:0:
256,192,167802,1,0,0:0:0:0:
182,192,167890,1,0,0:0:0:80:kick.wav
402,192,167890,1,0,0:0:0:0:
475,192,167890,1,0,0:0:0:0:
36,192,167978,1,0,0:0:0:80:kick.wav
109,192,167978,1,0,0:0:0:0:
329,192,167978,1,0,0:0:0:0:
182,192,168067,1,0,0:0:0:80:kick.wav
256,192,168067,128,0,168773:0:0:0:100:cymbal.wav
402,192,168067,1,0,0:0:0:0:
475,192,168067,1,0,0:0:0:0:
109,192,168243,1,0,0:0:0:0:
402,192,168596,1,0,0:0:0:0:
109,192,168949,128,0,169302:0:0:0:0:
402,192,169126,128,0,169302:0:0:0:0:
36,192,169302,1,0,0:0:0:80:kick.wav
182,192,169302,1,0,0:0:0:100:cymbal.wav
256,192,169302,128,0,170184:0:0:0:0:
329,192,169302,1,0,0:0:0:0:
475,192,169302,1,0,0:0:0:0:
109,192,169655,1,0,0:0:0:0:
402,192,170008,1,0,0:0:0:0:
109,192,170361,128,0,170714:0:0:0:0:
475,192,170537,128,0,170714:0:0:0:0:
36,192,170714,1,0,0:0:0:80:kick.wav
182,192,170714,1,0,0:0:0:100:cymbal.wav
256,192,170714,128,0,172302:0:0:0:0:
329,192,170714,1,0,0:0:0:0:
402,192,170714,1,0,0:0:0:0:
36,192,172302,1,0,0:0:0:80:kick.wav
109,192,172302,1,0,0:0:0:100:cymbal.wav
182,192,172302,1,0,0:0:0:0:
329,192,172302,1,0,0:0:0:0:
402,192,172302,1,0,0:0:0:0:
475,192,172302,1,0,0:0:0:0:
256,192,172655,1,0,0:0:0:80:kick.wav
402,192,172655,1,0,0:0:0:0:
475,192,172655,1,0,0:0:0:0:
36,192,172831,1,0,0:0:0:80:kick.wav
109,192,172831,1,0,0:0:0:100:cymbal.wav
182,192,172831,1,0,0:0:0:0:
329,192,172831,128,0,172920:0:0:0:0:
475,192,172831,1,0,0:0:0:0:
109,192,173008,128,0,173096:0:0:0:0:
36,192,173184,1,0,0:0:0:80:kick.wav
182,192,173184,128,0,173273:0:0:0:100:cymbal.wav
256,192,173184,1,0,0:0:0:0:
402,192,173184,1,0,0:0:0:0:
475,192,173184,1,0,0:0:0:0:
329,192,173361,1,0,0:0:0:80:kick.wav
402,192,173361,128,0,173449:0:0:0:0:
475,192,173361,1,0,0:0:0:0:
36,192,173449,1,0,0:0:0:80:kick.wav
109,192,173449,1,0,0:0:0:100:cymbal.wav
182,192,173449,1,0,0:0:0:0:
256,192,173449,128,0,173537:0:0:0:0:
36,192,173626,128,0,173802:0:0:0:80:kick.wav
182,192,173626,128,0,173802:0:0:0:100:cymbal.wav
256,192,173626,1,0,0:0:0:70:windchime.wav
329,192,173626,128,0,173802:0:0:0:0:
402,192,173626,128,0,173802:0:0:0:0:
475,192,173626,128,0,173802:0:0:0:0:
256,192,173890,1,0,0:0:0:80:kick.wav
329,192,173890,1,0,0:0:0:0:
475,192,173890,1,0,0:0:0:0:
36,192,173978,1,0,0:0:0:80:kick.wav
109,192,173978,1,0,0:0:0:0:
182,192,173978,1,0,0:0:0:0:
329,192,174067,128,0,174155:0:0:0:80:kick.wav
402,192,174067,1,0,0:0:0:0:
475,192,174067,1,0,0:0:0:0:
256,192,174111,128,0,174199:0:0:0:0:
36,192,174155,128,0,174243:0:0:0:0:
109,192,174199,128,0,174287:0:0:0:0:
182,192,174243,128,0,174331:0:0:0:0:
475,192,174243,128,0,174331:0:0:0:0:
402,192,174287,128,0,174376:0:0:0:0:
329,192,174331,128,0,174420:0:0:0:0:
256,192,174376,128,0,174464:0:0:0:0:
36,192,174420,128,0,174508:0:0:0:80:kick.wav
182,192,174420,1,0,0:0:0:0:
475,192,174420,1,0,0:0:0:0:
109,192,174508,128,0,174596:0:0:0:0:
329,192,174508,128,0,174684:0:0:0:0:
182,192,174596,128,0,174684:0:0:0:0:
402,192,174596,128,0,174773:0:0:0:0:
256,192,174684,128,0,174773:0:0:0:0:
475,192,174684,128,0,174861:0:0:0:0:
36,192,174773,128,0,174861:0:0:0:80:kick.wav
109,192,174773,1,0,0:0:0:0:
329,192,174773,128,0,174861:0:0:0:0:
256,192,174949,1,0,0:0:0:0:
475,192,174949,1,0,0:0:0:0:
36,192,175037,128,0,175214:0:0:0:80:kick.wav
182,192,175037,128,0,175214:0:0:0:0:
329,192,175037,128,0,175214:0:0:0:0:
402,192,175037,128,0,175214:0:0:0:0:
36,192,175302,1,0,0:0:0:80:kick.wav
256,192,175302,1,0,0:0:0:0:
475,192,175302,1,0,0:0:0:0:
109,192,175390,1,0,0:0:0:0:
329,192,175390,1,0,0:0:0:0:
36,192,175478,1,0,0:0:0:80:kick.wav
182,192,175478,1,0,0:0:0:100:cymbal.wav
256,192,175478,1,0,0:0:0:0:
402,192,175478,1,0,0:0:0:0:
475,192,175478,1,0,0:0:0:0:
329,192,175655,1,0,0:0:0:80:kick.wav
402,192,175655,1,0,0:0:0:0:
475,192,175655,1,0,0:0:0:0:
36,192,175743,1,0,0:0:0:80:kick.wav
182,192,175743,128,0,175831:0:0:0:100:cymbal.wav
256,192,175743,1,0,0:0:0:0:
329,192,175743,1,0,0:0:0:0:
402,192,175743,1,0,0:0:0:0:
475,192,175743,1,0,0:0:0:0:
36,192,175920,1,0,0:0:0:80:kick.wav
109,192,175920,1,0,0:0:0:100:cymbal.wav
256,192,175920,128,0,176008:0:0:0:0:
329,192,175920,1,0,0:0:0:0:
402,192,175920,1,0,0:0:0:0:
475,192,175920,1,0,0:0:0:0:
36,192,176096,1,0,0:0:0:80:kick.wav
109,192,176096,1,0,0:0:0:100:cymbal.wav
182,192,176096,1,0,0:0:0:0:
329,192,176096,128,0,176184:0:0:0:0:
402,192,176096,1,0,0:0:0:0:
475,192,176096,1,0,0:0:0:0:
36,192,176361,128,0,176537:0:0:0:80:kick.wav
109,192,176361,128,0,176537:0:0:0:100:cymbal.wav
182,192,176361,128,0,176537:0:0:0:0:
256,192,176361,1,0,0:0:0:0:
329,192,176361,128,0,176537:0:0:0:0:
402,192,176361,128,0,176537:0:0:0:0:
475,192,176361,128,0,176537:0:0:0:0:
36,192,176714,1,0,0:0:0:80:kick.wav
109,192,176714,1,0,0:0:0:100:cymbal.wav
182,192,176714,1,0,0:0:0:0:
256,192,176714,1,0,0:0:0:0:
329,192,176714,1,0,0:0:0:0:
475,192,176714,128,0,176802:0:0:0:0:
36,192,176978,1,0,0:0:0:80:kick.wav
109,192,176978,1,0,0:0:0:100:cymbal.wav
182,192,176978,1,0,0:0:0:0:
256,192,176978,1,0,0:0:0:0:
402,192,176978,128,0,177067:0:0:0:0:
475,192,176978,1,0,0:0:0:0:
36,192,177155,1,0,0:0:0:80:kick.wav
109,192,177155,1,0,0:0:0:100:cymbal.wav
182,192,177155,1,0,0:0:0:0:
329,192,177155,128,0,177243:0:0:0:0:
402,192,177155,1,0,0:0:0:0:
475,192,177155,1,0,0:0:0:0:
36,192,177420,1,0,0:0:0:80:kick.wav
182,192,177420,128,0,177508:0:0:0:100:cymbal.wav
109,192,177420,1,0,0:0:0:0:
329,192,177420,1,0,0:0:0:0:
402,192,177420,1,0,0:0:0:0:
475,192,177420,1,0,0:0:0:0:
36,192,177684,1,0,0:0:0:80:kick.wav
109,192,177684,128,0,177773:0:0:0:100:cymbal.wav
256,192,177684,1,0,0:0:0:0:
329,192,177684,1,0,0:0:0:0:
402,192,177684,1,0,0:0:0:0:
475,192,177684,1,0,0:0:0:0:
36,192,177861,128,0,177949:0:0:0:80:kick.wav
182,192,177861,1,0,0:0:0:100:cymbal.wav
256,192,177861,1,0,0:0:0:0:
329,192,177861,1,0,0:0:0:0:
402,192,177861,1,0,0:0:0:0:
475,192,177861,1,0,0:0:0:0:
36,192,178126,1,0,0:0:0:80:kick.wav
109,192,178126,1,0,0:0:0:100:cymbal.wav
182,192,178126,1,0,0:0:0:0:
329,192,178126,128,0,178214:0:0:0:0:
402,192,178126,1,0,0:0:0:0:
475,192,178126,1,0,0:0:0:0:
256,192,178302,1,0,0:0:0:80:kick.wav
329,192,178302,1,0,0:0:0:0:
475,192,178302,1,0,0:0:0:0:
36,192,178390,1,0,0:0:0:80:kick.wav
109,192,178390,1,0,0:0:0:0:
182,192,178390,1,0,0:0:0:0:
36,192,178478,128,0,178655:0:0:0:80:kick.wav
109,192,178478,128,0,178655:0:0:0:100:cymbal.wav
182,192,178478,128,0,178655:0:0:0:0:
329,192,178478,128,0,178655:0:0:0:0:
402,192,178478,128,0,178655:0:0:0:0:
475,192,178478,128,0,178655:0:0:0:0:
329,192,178831,1,0,0:0:0:50:kick.wav
475,192,178831,128,0,178920:0:0:0:0:
256,192,178876,1,0,0:0:0:50:kick.wav
182,192,178920,1,0,0:0:0:50:kick.wav
109,192,178964,1,0,0:0:0:50:kick.wav
36,192,179008,1,0,0:0:0:80:kick.wav
402,192,179008,1,0,0:0:0:0:
475,192,179008,1,0,0:0:0:0:
182,192,179096,1,0,0:0:0:80:kick.wav
329,192,179096,1,0,0:0:0:0:
36,192,179184,1,0,0:0:0:80:kick.wav
109,192,179184,1,0,0:0:0:100:cymbal.wav
256,192,179184,128,0,179537:0:0:0:0:
402,192,179184,1,0,0:0:0:0:
475,192,179184,1,0,0:0:0:0:
36,192,179537,128,0,179626:0:0:0:80:kick.wav
182,192,179537,1,0,0:0:0:0:
329,192,179537,1,0,0:0:0:0:
256,192,179714,1,0,0:0:0:80:kick.wav
329,192,179714,1,0,0:0:0:0:
475,192,179714,1,0,0:0:0:0:
109,192,179802,128,0,179890:0:0:0:0:
182,192,179802,1,0,0:0:0:0:
402,192,179890,1,0,0:0:0:0:
475,192,179890,1,0,0:0:0:0:
36,192,180067,1,0,0:0:0:80:kick.wav
182,192,180067,128,0,180155:0:0:0:0:
329,192,180067,1,0,0:0:0:0:
402,192,180067,1,0,0:0:0:0:
109,192,180243,1,0,0:0:0:0:
256,192,180243,128,0,180331:0:0:0:0:
36,192,180420,1,0,0:0:0:80:kick.wav
182,192,180420,1,0,0:0:0:0:
329,192,180420,128,0,180508:0:0:0:0:
475,192,180420,1,0,0:0:0:0:
36,192,180596,1,0,0:0:0:80:kick.wav
182,192,180596,1,0,0:0:0:100:cymbal.wav
256,192,180596,128,0,180773:0:0:0:0:
402,192,180596,1,0,0:0:0:0:
475,192,180596,128,0,180949:0:0:0:0:
109,192,180684,128,0,180861:0:0:0:0:
329,192,180684,128,0,180861:0:0:0:0:
182,192,180773,128,0,180949:0:0:0:0:
402,192,180773,128,0,181126:0:0:0:0:
36,192,180861,128,0,181037:0:0:0:0:
256,192,180861,128,0,181037:0:0:0:0:
109,192,180949,128,0,181126:0:0:0:80:kick.wav
329,192,180949,128,0,181302:0:0:0:0:
182,192,181037,128,0,181214:0:0:0:0:
475,192,181037,128,0,181214:0:0:0:0:
36,192,181126,128,0,181302:0:0:0:80:kick.wav
256,192,181126,128,0,181478:0:0:0:0:
109,192,181214,128,0,181390:0:0:0:0:
402,192,181214,128,0,181390:0:0:0:0:
182,192,181302,128,0,181655:0:0:0:0:
475,192,181302,128,0,181478:0:0:0:0:
36,192,181390,128,0,181567:0:0:0:0:
329,192,181390,128,0,181567:0:0:0:0:
109,192,181478,128,0,181831:0:0:0:80:kick.wav
402,192,181478,128,0,181655:0:0:0:0:
256,192,181567,128,0,181743:0:0:0:0:
475,192,181567,128,0,181743:0:0:0:0:
36,192,181655,128,0,182008:0:0:0:0:
329,192,181655,128,0,181831:0:0:0:0:
182,192,181743,128,0,181920:0:0:0:0:
402,192,181743,128,0,181920:0:0:0:0:
256,192,181831,128,0,182008:0:0:0:80:kick.wav
475,192,181831,128,0,181920:0:0:0:0:
109,192,181920,128,0,182008:0:0:0:0:
329,192,181920,128,0,182008:0:0:0:0:
182,192,182008,128,0,182184:0:0:0:80:kick.wav
402,192,182008,1,0,0:0:0:100:cymbal.wav
475,192,182008,1,0,0:0:0:0:
36,192,182361,1,0,0:0:0:80:kick.wav
182,192,182361,1,0,0:0:0:100:cymbal.wav
329,192,182361,128,0,182449:0:0:0:0:
402,192,182361,1,0,0:0:0:0:
475,192,182361,1,0,0:0:0:0:
36,192,182626,1,0,0:0:0:80:kick.wav
182,192,182626,1,0,0:0:0:100:cymbal.wav
329,192,182626,128,0,182714:0:0:0:0:
402,192,182626,1,0,0:0:0:0:
475,192,182626,1,0,0:0:0:0:
36,192,182802,1,0,0:0:0:80:kick.wav
109,192,182802,1,0,0:0:0:100:cymbal.wav
256,192,182802,1,0,0:0:0:0:
329,192,182802,128,0,182890:0:0:0:0:
402,192,182802,1,0,0:0:0:0:
475,192,182802,1,0,0:0:0:0:
36,192,183067,1,0,0:0:0:80:kick.wav
256,192,183067,1,0,0:0:0:100:cymbal.wav
329,192,183067,128,0,183155:0:0:0:0:
402,192,183067,1,0,0:0:0:0:
475,192,183067,1,0,0:0:0:0:
109,192,183243,1,0,0:0:0:80:kick.wav
182,192,183243,1,0,0:0:0:0:
402,192,183243,1,0,0:0:0:0:
36,192,183331,1,0,0:0:0:80:kick.wav
256,192,183331,1,0,0:0:0:100:cymbal.wav
329,192,183331,128,0,183420:0:0:0:0:
475,192,183331,1,0,0:0:0:0:
36,192,183508,1,0,0:0:0:80:kick.wav
109,192,183508,1,0,0:0:0:100:cymbal.wav
182,192,183508,1,0,0:0:0:0:
256,192,183508,1,0,0:0:0:0:
402,192,183508,1,0,0:0:0:0:
475,192,183508,128,0,183596:0:0:0:0:
182,192,183773,1,0,0:0:0:80:kick.wav
329,192,183773,1,0,0:0:0:0:
402,192,183773,128,0,183861:0:0:0:0:
475,192,183773,1,0,0:0:0:0:
36,192,183949,1,0,0:0:0:80:kick.wav
182,192,183949,128,0,184037:0:0:0:0:
256,192,183949,1,0,0:0:0:0:
475,192,183949,1,0,0:0:0:0:
36,192,184126,1,0,0:0:0:80:kick.wav
109,192,184126,1,0,0:0:0:100:cymbal.wav
256,192,184126,1,0,0:0:0:0:
329,192,184126,128,0,184302:0:0:0:0:
475,192,184184,128,0,184361:0:0:0:0:
182,192,184390,128,0,184478:0:0:0:0:
329,192,184390,128,0,184478:0:0:0:0:
36,192,184478,128,0,184567:0:0:0:80:kick.wav
109,192,184478,128,0,184567:0:0:0:100:cymbal.wav
475,192,184478,1,0,0:0:0:0:
256,192,184567,128,0,184655:0:0:0:0:
402,192,184567,128,0,184655:0:0:0:0:
109,192,184655,128,0,184743:0:0:0:0:
182,192,184655,128,0,184743:0:0:0:0:
36,192,184743,1,0,0:0:0:80:kick.wav
329,192,184743,128,0,184831:0:0:0:100:cymbal.wav
402,192,184743,1,0,0:0:0:0:
475,192,184743,128,0,184831:0:0:0:0:
182,192,184831,128,0,184920:0:0:0:0:
256,192,184831,128,0,184920:0:0:0:0:
36,192,184920,128,0,185184:0:0:0:80:kick.wav
109,192,184920,128,0,185184:0:0:0:100:cymbal.wav
329,192,184920,1,0,0:0:0:0:
402,192,184920,1,0,0:0:0:0:
475,192,184920,1,0,0:0:0:0:
182,192,185184,1,0,0:0:0:80:kick.wav
402,192,185184,128,0,185273:0:0:0:0:
475,192,185184,128,0,185273:0:0:0:0:
36,192,185273,1,0,0:0:0:80:kick.wav
109,192,185273,1,0,0:0:0:0:
256,192,185273,1,0,0:0:0:0:
182,192,185361,128,0,185449:0:0:0:80:kick.wav
329,192,185361,128,0,185449:0:0:0:0:
475,192,185361,1,0,0:0:0:0:
36,192,185449,1,0,0:0:0:0:
256,192,185449,128,0,185537:0:0:0:0:
402,192,185449,128,0,185537:0:0:0:0:
36,192,185626,128,0,185978:0:0:0:0:
109,192,185626,128,0,185978:0:0:0:0:
182,192,185626,1,0,0:0:0:0:
256,192,185714,1,0,0:0:0:80:kick.wav
329,192,185714,1,0,0:0:0:0:
475,192,185714,1,0,0:0:0:0:
182,192,185890,1,0,0:0:0:0:
402,192,185890,128,0,185978:0:0:0:0:
475,192,185890,128,0,185978:0:0:0:0:
36,192,186067,1,0,0:0:0:80:kick.wav
109,192,186067,1,0,0:0:0:0:
256,192,186067,128,0,186155:0:0:0:0:
402,192,186067,128,0,186155:0:0:0:0:
182,192,186155,1,0,0:0:0:0:
329,192,186155,128,0,186243:0:0:0:0:
475,192,186155,128,0,186243:0:0:0:0:
36,192,186331,128,0,186684:0:0:0:80:kick.wav
109,192,186331,128,0,186684:0:0:0:100:cymbal.wav
182,192,186331,1,0,0:0:0:0:
329,192,186331,1,0,0:0:0:0:
402,192,186331,1,0,0:0:0:0:
475,192,186331,1,0,0:0:0:0:
256,192,186596,1,0,0:0:0:80:kick.wav
402,192,186596,128,0,186684:0:0:0:0:
475,192,186596,128,0,186684:0:0:0:0:
36,192,186773,128,0,186861:0:0:0:80:kick.wav
109,192,186773,1,0,0:0:0:0:
182,192,186773,128,0,186861:0:0:0:0:
329,192,186773,1,0,0:0:0:0:
402,192,186861,128,0,186949:0:0:0:0:
475,192,186861,128,0,186949:0:0:0:0:
36,192,187037,128,0,187126:0:0:0:80:kick.wav
109,192,187037,1,0,0:0:0:0:
182,192,187037,128,0,187126:0:0:0:0:
329,192,187037,1,0,0:0:0:0:
329,192,187214,128,0,187302:0:0:0:80:kick.wav
402,192,187214,128,0,187302:0:0:0:0:
475,192,187214,1,0,0:0:0:0:
36,192,187302,128,0,187390:0:0:0:80:kick.wav
109,192,187302,128,0,187390:0:0:0:0:
256,192,187302,1,0,0:0:0:0:
36,192,187478,1,0,0:0:0:80:kick.wav
182,192,187478,128,0,187567:0:0:0:0:
329,192,187478,128,0,187567:0:0:0:0:
475,192,187478,1,0,0:0:0:0:
109,192,187567,1,0,0:0:0:0:
256,192,187567,128,0,187655:0:0:0:0:
402,192,187567,128,0,187655:0:0:0:0:
36,192,187743,128,0,188096:0:0:0:80:kick.wav
109,192,187743,128,0,188096:0:0:0:100:cymbal.wav
182,192,187743,1,0,0:0:0:0:
329,192,187743,1,0,0:0:0:0:
402,192,187743,1,0,0:0:0:0:
475,192,187743,1,0,0:0:0:0:
256,192,188008,1,0,0:0:0:80:kick.wav
402,192,188008,128,0,188096:0:0:0:0:
475,192,188008,128,0,188096:0:0:0:0:
36,192,188184,1,0,0:0:0:80:kick.wav
182,192,188184,128,0,188273:0:0:0:0:
329,192,188184,128,0,188273:0:0:0:0:
475,192,188184,1,0,0:0:0:0:
109,192,188273,1,0,0:0:0:0:
256,192,188273,128,0,188361:0:0:0:0:
402,192,188273,128,0,188361:0:0:0:0:
36,192,188449,128,0,188802:0:0:0:80:kick.wav
109,192,188449,128,0,188802:0:0:0:100:cymbal.wav
182,192,188449,1,0,0:0:0:0:
329,192,188449,1,0,0:0:0:0:
402,192,188449,1,0,0:0:0:0:
475,192,188449,1,0,0:0:0:0:
256,192,188714,1,0,0:0:0:80:kick.wav
329,192,188714,128,0,188802:0:0:0:0:
402,192,188714,1,0,0:0:0:0:
475,192,188714,128,0,188802:0:0:0:0:
36,192,188890,1,0,0:0:0:80:kick.wav
109,192,188890,1,0,0:0:0:0:
329,192,188890,128,0,188978:0:0:0:0:
475,192,188890,128,0,188978:0:0:0:0:
182,192,188978,128,0,189067:0:0:0:0:
256,192,188978,128,0,189067:0:0:0:0:
402,192,188978,1,0,0:0:0:0:
36,192,189155,128,0,189508:0:0:0:80:kick.wav
109,192,189155,128,0,189420:0:0:0:100:cymbal.wav
182,192,189155,1,0,0:0:0:0:
329,192,189155,1,0,0:0:0:0:
402,192,189155,1,0,0:0:0:0:
475,192,189155,1,0,0:0:0:0:
256,192,189420,1,0,0:0:0:50:kick.wav
475,192,189420,1,0,0:0:0:0:
402,192,189478,1,0,0:0:0:50:kick.wav
182,192,189508,1,0,0:0:0:0:
329,192,189537,1,0,0:0:0:50:kick.wav
36,192,189596,1,0,0:0:0:80:kick.wav
109,192,189596,1,0,0:0:0:0:
256,192,189596,1,0,0:0:0:0:
182,192,189684,1,0,0:0:0:80:kick.wav
402,192,189684,1,0,0:0:0:0:
36,192,189773,128,0,189949:0:0:0:80:kick.wav
109,192,189773,128,0,189949:0:0:0:100:cymbal.wav
256,192,189773,1,0,0:0:0:0:
329,192,189773,1,0,0:0:0:0:
475,192,189773,1,0,0:0:0:0:
329,192,189949,128,0,190126:0:0:0:0:
36,192,190126,1,0,0:0:0:80:kick.wav
109,192,190126,1,0,0:0:0:100:cymbal.wav
182,192,190126,128,0,190302:0:0:0:0:
402,192,190126,128,0,190302:0:0:0:0:
256,192,190302,128,0,190478:0:0:0:0:
475,192,190302,128,0,190478:0:0:0:0:
36,192,190478,128,0,190831:0:0:0:80:kick.wav
109,192,190478,128,0,190773:0:0:0:100:cymbal.wav
182,192,190478,128,0,190714:0:0:0:0:
329,192,190478,128,0,190714:0:0:0:0:
402,192,190478,1,0,0:0:0:0:
182,192,190831,1,0,0:0:0:80:kick.wav
402,192,190831,128,0,190949:0:0:0:0:
475,192,190831,1,0,0:0:0:0:
109,192,190890,1,0,0:0:0:0:
329,192,190890,128,0,191008:0:0:0:0:
36,192,190949,1,0,0:0:0:0:
256,192,190949,128,0,191067:0:0:0:0:
182,192,191008,128,0,191184:0:0:0:80:kick.wav
402,192,191008,1,0,0:0:0:0:
475,192,191008,128,0,191184:0:0:0:0:
109,192,191184,128,0,191361:0:0:0:0:
329,192,191184,128,0,191273:0:0:0:0:
402,192,191273,128,0,191361:0:0:0:0:
36,192,191361,128,0,191537:0:0:0:80:kick.wav
182,192,191361,128,0,191537:0:0:0:100:cymbal.wav
256,192,191361,128,0,191537:0:0:0:0:
329,192,191361,1,0,0:0:0:0:
475,192,191361,128,0,191537:0:0:0:0:
109,192,191537,128,0,191626:0:0:0:0:
402,192,191537,128,0,191626:0:0:0:0:
36,192,191626,128,0,191802:0:0:0:80:kick.wav
182,192,191626,1,0,0:0:0:100:cymbal.wav
256,192,191626,128,0,191802:0:0:0:0:
329,192,191626,128,0,191802:0:0:0:0:
475,192,191626,128,0,191802:0:0:0:0:
109,192,191802,128,0,191890:0:0:0:0:
402,192,191802,128,0,191890:0:0:0:0:
36,192,191890,128,0,192155:0:0:0:80:kick.wav
182,192,191890,128,0,192155:0:0:0:100:cymbal.wav
256,192,191890,128,0,192155:0:0:0:0:
329,192,191890,1,0,0:0:0:0:
475,192,191890,128,0,192155:0:0:0:0:
36,192,192243,1,0,0:0:0:80:kick.wav
256,192,192243,128,0,192331:0:0:0:100:cymbal.wav
329,192,192243,1,0,0:0:0:0:
475,192,192243,128,0,192331:0:0:0:0:
182,192,192331,128,0,192420:0:0:0:0:
402,192,192331,128,0,192420:0:0:0:0:
36,192,192420,1,0,0:0:0:80:kick.wav
109,192,192420,128,0,192508:0:0:0:100:cymbal.wav
256,192,192420,1,0,0:0:0:0:
329,192,192420,128,0,192508:0:0:0:0:
475,192,192420,128,0,192508:0:0:0:0:
36,192,192596,128,0,192773:0:0:0:0:
256,192,192596,128,0,192773:0:0:0:0:
109,192,192773,128,0,192861:0:0:0:80:kick.wav
329,192,192773,128,0,192861:0:0:0:0:
475,192,192773,1,0,0:0:0:0:
182,192,192861,128,0,192949:0:0:0:0:
402,192,192861,128,0,192949:0:0:0:0:
256,192,193037,128,0,193126:0:0:0:0:
475,192,193037,128,0,193126:0:0:0:0:
36,192,193126,1,0,0:0:0:80:kick.wav
329,192,193126,1,0,0:0:0:0:
402,192,193126,1,0,0:0:0:0:
109,192,193214,128,0,193302:0:0:0:0:
182,192,193214,128,0,193302:0:0:0:0:
36,192,193302,1,0,0:0:0:80:kick.wav
256,192,193302,128,0,193523:0:0:0:100:cymbal.wav
329,192,193302,128,0,193545:0:0:0:0:
402,192,193302,128,0,193567:0:0:0:0:
475,192,193302,128,0,193589:0:0:0:0:
36,192,193655,128,0,193743:0:0:0:80:kick.wav
109,192,193655,1,0,0:0:0:0:
182,192,193655,128,0,193743:0:0:0:0:
329,192,193743,128,0,193831:0:0:0:0:
475,192,193743,128,0,193831:0:0:0:0:
36,192,193831,1,0,0:0:0:80:kick.wav
109,192,193831,128,0,193920:0:0:0:0:
182,192,193831,128,0,193920:0:0:0:0:
329,192,193920,128,0,194008:0:0:0:0:
402,192,193920,128,0,194008:0:0:0:0:
36,192,194008,128,0,194295:0:0:0:80:kick.wav
109,192,194008,128,0,194273:0:0:0:100:cymbal.wav
182,192,194008,128,0,194251:0:0:0:0:
256,192,194008,128,0,194228:0:0:0:0:
475,192,194008,1,0,0:0:0:0:
329,192,194361,128,0,194449:0:0:0:80:kick.wav
402,192,194361,1,0,0:0:0:0:
475,192,194361,128,0,194449:0:0:0:0:
36,192,194449,128,0,194537:0:0:0:80:kick.wav
109,192,194449,1,0,0:0:0:0:
182,192,194449,128,0,194537:0:0:0:0:
329,192,194537,128,0,194626:0:0:0:80:kick.wav
402,192,194537,128,0,194626:0:0:0:0:
475,192,194537,1,0,0:0:0:0:
109,192,194626,128,0,194714:0:0:0:80:kick.wav
182,192,194626,128,0,194714:0:0:0:0:
36,192,194714,1,0,0:0:0:80:kick.wav
256,192,194714,128,0,194934:0:0:0:100:cymbal.wav
329,192,194714,128,0,194956:0:0:0:0:
402,192,194714,128,0,194978:0:0:0:0:
475,192,194714,128,0,195001:0:0:0:0:
182,192,195067,128,0,195155:0:0:0:50:kick.wav
256,192,195067,128,0,195155:0:0:0:0:
329,192,195067,1,0,0:0:0:0:
402,192,195126,1,0,0:0:0:50:kick.wav
36,192,195155,128,0,195243:0:0:0:0:
109,192,195155,128,0,195243:0:0:0:0:
475,192,195184,1,0,0:0:0:50:kick.wav
256,192,195243,128,0,195331:0:0:0:80:kick.wav
329,192,195243,128,0,195331:0:0:0:0:
109,192,195331,128,0,195420:0:0:0:80:kick.wav
182,192,195331,128,0,195420:0:0:0:0:
402,192,195331,1,0,0:0:0:0:
36,192,195420,128,0,195684:0:0:0:80:kick.wav
256,192,195420,1,0,0:0:0:100:cymbal.wav
329,192,195420,128,0,195684:0:0:0:0:
475,192,195420,128,0,195684:0:0:0:0:
182,192,195773,1,0,0:0:0:50:kick.wav
329,192,195773,128,0,195861:0:0:0:0:
475,192,195773,128,0,195861:0:0:0:0:
109,192,195831,1,0,0:0:0:50:kick.wav
36,192,195890,1,0,0:0:0:50:kick.wav
256,192,195949,128,0,196037:0:0:0:80:kick.wav
402,192,195949,128,0,196037:0:0:0:0:
109,192,196037,1,0,0:0:0:80:kick.wav
182,192,196037,1,0,0:0:0:0:
36,192,196126,128,0,197537:0:0:0:80:kick.wav
256,192,196126,1,0,0:0:0:100:cymbal.wav
329,192,196126,1,0,0:0:0:0:
475,192,196126,1,0,0:0:0:0:
256,192,196478,1,0,0:0:0:80:kick.wav
402,192,196478,1,0,0:0:0:0:
475,192,196478,1,0,0:0:0:0:
109,192,196655,1,0,0:0:0:80:kick.wav
182,192,196655,1,0,0:0:0:0:
329,192,196655,1,0,0:0:0:0:
256,192,196831,1,0,0:0:0:80:kick.wav
402,192,196831,1,0,0:0:0:0:
475,192,196831,1,0,0:0:0:0:
109,192,196920,1,0,0:0:0:80:kick.wav
329,192,196920,1,0,0:0:0:0:
182,192,197008,1,0,0:0:0:80:kick.wav
475,192,197008,1,0,0:0:0:0:
109,192,197096,1,0,0:0:0:80:kick.wav
329,192,197096,1,0,0:0:0:0:
256,192,197184,1,0,0:0:0:80:kick.wav
402,192,197184,1,0,0:0:0:0:
475,192,197184,1,0,0:0:0:0:
182,192,197273,1,0,0:0:0:80:kick.wav
329,192,197273,1,0,0:0:0:0:
109,192,197361,1,0,0:0:0:50:kick.wav
475,192,197361,1,0,0:0:0:0:
402,192,197405,1,0,0:0:0:50:kick.wav
329,192,197449,1,0,0:0:0:50:kick.wav
256,192,197493,1,0,0:0:0:50:kick.wav
109,192,197537,1,0,0:0:0:50:kick.wav
182,192,197537,1,0,0:0:0:100:cymbal.wav
402,192,197537,1,0,0:0:0:0:
475,192,197537,128,0,199126:0:0:0:0:
36,192,199126,128,0,201949:0:0:0:80:kick.wav
182,192,199126,128,0,199214:0:0:0:70:windchime.wav
256,192,199126,1,0,0:0:0:0:
402,192,199126,1,0,0:0:0:0:
475,192,199302,1,0,0:0:0:0:
329,192,199478,1,0,0:0:0:0:
109,192,199655,1,0,0:0:0:0:
256,192,199655,128,0,201243:0:0:0:0:
182,192,199831,1,0,0:0:0:0:
475,192,200008,1,0,0:0:0:0:
329,192,200184,1,0,0:0:0:0:
109,192,200361,1,0,0:0:0:0:
182,192,200537,1,0,0:0:0:0:
475,192,200714,1,0,0:0:0:0:
329,192,200890,1,0,0:0:0:0:
109,192,201067,1,0,0:0:0:0:
182,192,201243,1,0,0:0:0:0:
329,192,201243,128,0,201331:0:0:0:0:
475,192,201420,1,0,0:0:0:0:
256,192,201596,128,0,201684:0:0:0:0:
329,192,201596,1,0,0:0:0:0:
109,192,201773,1,0,0:0:0:0:
182,192,201949,128,0,202037:0:0:0:0:
329,192,201949,1,0,0:0:0:0:
402,192,201949,128,0,204773:0:0:0:0:
475,192,202126,1,0,0:0:0:0:
182,192,202302,1,0,0:0:0:0:
109,192,202478,1,0,0:0:0:0:
256,192,202478,128,0,204243:0:0:0:0:
329,192,202655,1,0,0:0:0:0:
475,192,202831,1,0,0:0:0:0:
182,192,203008,1,0,0:0:0:0:
109,192,203184,1,0,0:0:0:0:
329,192,203361,1,0,0:0:0:0:
475,192,203537,1,0,0:0:0:0:
182,192,203714,1,0,0:0:0:0:
109,192,203890,1,0,0:0:0:0:
329,192,204067,1,0,0:0:0:0:
475,192,204243,1,0,0:0:0:0:
182,192,204420,1,0,0:0:0:0:
256,192,204420,128,0,204508:0:0:0:0:
109,192,204596,1,0,0:0:0:0:
36,192,204773,128,0,210331:0:0:0:0:
329,192,204773,1,0,0:0:0:0:
475,192,204773,128,0,204861:0:0:0:0:
109,192,204949,1,0,0:0:0:0:
402,192,205126,1,0,0:0:0:0:
182,192,205302,1,0,0:0:0:0:
402,192,205302,128,0,205390:0:0:0:0:
329,192,205478,1,0,0:0:0:0:
109,192,205655,1,0,0:0:0:0:
256,192,205831,128,0,207067:0:0:0:0:
402,192,205831,1,0,0:0:0:0:
182,192,206008,1,0,0:0:0:0:
329,192,206184,1,0,0:0:0:0:
109,192,206361,1,0,0:0:0:0:
402,192,206537,1,0,0:0:0:0:
182,192,206714,1,0,0:0:0:0:
329,192,206890,1,0,0:0:0:0:
109,192,207067,1,0,0:0:0:0:
256,192,207243,128,0,207331:0:0:0:0:
402,192,207243,1,0,0:0:0:0:
182,192,207420,1,0,0:0:0:0:
329,192,207596,128,0,210331:0:0:0:0:
475,192,207596,128,0,207684:0:0:0:0:
402,192,208126,128,0,208214:0:0:0:0:
256,192,208655,128,0,210331:0:0:0:0:
182,192,209008,128,0,210331:0:0:0:0:
475,192,210067,128,0,210331:0:0:0:0:
36,192,210420,1,0,0:0:0:80:kick.wav
182,192,210420,128,0,210508:0:0:0:100:cymbal.wav
256,192,210420,1,0,0:0:0:70:windchime.wav
402,192,210420,1,0,0:0:0:0:
475,192,210420,1,0,0:0:0:0:
109,192,210596,1,0,0:0:0:0:
329,192,210596,1,0,0:0:0:0:
182,192,210684,1,0,0:0:0:0:
36,192,210773,1,0,0:0:0:0:
329,192,210773,1,0,0:0:0:0:
475,192,210773,1,0,0:0:0:0:
109,192,210949,1,0,0:0:0:0:
256,192,210949,128,0,211037:0:0:0:0:
402,192,211037,1,0,0:0:0:0:
36,192,211126,1,0,0:0:0:0:
182,192,211126,1,0,0:0:0:0:
329,192,211214,1,0,0:0:0:0:
402,192,211302,1,0,0:0:0:0:
475,192,211302,1,0,0:0:0:0:
182,192,211390,1,0,0:0:0:0:
36,192,211478,1,0,0:0:0:0:
329,192,211478,1,0,0:0:0:0:
475,192,211478,1,0,0:0:0:0:
182,192,211655,1,0,0:0:0:0:
402,192,211655,1,0,0:0:0:0:
329,192,211743,1,0,0:0:0:0:
36,192,211831,1,0,0:0:0:0:
109,192,211831,1,0,0:0:0:0:
256,192,211920,1,0,0:0:0:0:
402,192,212008,1,0,0:0:0:0:
475,192,212008,1,0,0:0:0:0:
182,192,212096,1,0,0:0:0:0:
36,192,212184,1,0,0:0:0:0:
329,192,212184,1,0,0:0:0:0:
475,192,212184,1,0,0:0:0:0:
182,192,212361,1,0,0:0:0:0:
402,192,212361,1,0,0:0:0:0:
256,192,212449,1,0,0:0:0:0:
109,192,212537,1,0,0:0:0:0:
329,192,212537,128,0,212626:0:0:0:0:
182,192,212626,1,0,0:0:0:0:
402,192,212714,1,0,0:0:0:0:
475,192,212714,1,0,0:0:0:0:
36,192,212890,1,0,0:0:0:80:kick.wav
182,192,212890,1,0,0:0:0:100:cymbal.wav
256,192,212890,128,0,212978:0:0:0:0:
329,192,212890,1,0,0:0:0:0:
475,192,212890,1,0,0:0:0:0:
109,192,213067,1,0,0:0:0:0:
329,192,213067,128,0,213243:0:0:0:0:
36,192,213243,1,0,0:0:0:80:kick.wav
109,192,213243,1,0,0:0:0:100:cymbal.wav
182,192,213243,128,0,213331:0:0:0:70:windchime.wav
402,192,213243,1,0,0:0:0:0:
475,192,213243,1,0,0:0:0:0:
256,192,213420,1,0,0:0:0:0:
402,192,213420,1,0,0:0:0:0:
36,192,213596,1,0,0:0:0:0:
329,192,213596,1,0,0:0:0:0:
475,192,213596,1,0,0:0:0:0:
256,192,213773,128,0,213861:0:0:0:0:
402,192,213773,1,0,0:0:0:0:
109,192,213861,1,0,0:0:0:0:
329,192,213949,1,0,0:0:0:0:
475,192,213949,1,0,0:0:0:0:
182,192,214037,1,0,0:0:0:0:
256,192,214126,1,0,0:0:0:0:
402,192,214126,1,0,0:0:0:0:
109,192,214214,1,0,0:0:0:0:
36,192,214302,1,0,0:0:0:0:
329,192,214302,1,0,0:0:0:0:
475,192,214302,1,0,0:0:0:0:
109,192,214478,1,0,0:0:0:0:
256,192,214478,1,0,0:0:0:0:
182,192,214567,1,0,0:0:0:0:
36,192,214655,1,0,0:0:0:0:
329,192,214655,1,0,0:0:0:0:
475,192,214655,1,0,0:0:0:0:
182,192,214831,1,0,0:0:0:0:
402,192,214831,1,0,0:0:0:0:
36,192,215008,1,0,0:0:0:0:
329,192,215008,1,0,0:0:0:0:
475,192,215008,1,0,0:0:0:0:
109,192,215184,1,0,0:0:0:0:
402,192,215184,1,0,0:0:0:0:
182,192,215273,1,0,0:0:0:0:
36,192,215361,1,0,0:0:0:0:
329,192,215361,1,0,0:0:0:0:
475,192,215361,1,0,0:0:0:0:
256,192,215449,1,0,0:0:0:0:
109,192,215537,1,0,0:0:0:0:
402,192,215537,1,0,0:0:0:0:
36,192,215626,1,0,0:0:0:0:
256,192,215714,128,0,215802:0:0:0:0:
329,192,215714,1,0,0:0:0:0:
475,192,215714,1,0,0:0:0:0:
109,192,215890,1,0,0:0:0:0:
329,192,215890,128,0,216067:0:0:0:0:
36,192,216067,1,0,0:0:0:80:kick.wav
182,192,216067,1,0,0:0:0:100:cymbal.wav
256,192,216067,1,0,0:0:0:0:
402,192,216067,1,0,0:0:0:0:
475,192,216067,128,0,216155:0:0:0:0:
109,192,216243,1,0,0:0:0:0:
256,192,216243,1,0,0:0:0:0:
36,192,216420,1,0,0:0:0:0:
329,192,216420,1,0,0:0:0:0:
475,192,216420,1,0,0:0:0:0:
182,192,216596,1,0,0:0:0:0:
402,192,216596,128,0,216684:0:0:0:0:
109,192,216684,1,0,0:0:0:0:
256,192,216773,1,0,0:0:0:0:
402,192,216773,1,0,0:0:0:0:
36,192,216949,1,0,0:0:0:0:
329,192,216949,1,0,0:0:0:0:
109,192,217037,1,0,0:0:0:0:
256,192,217126,128,0,217214:0:0:0:0:
329,192,217126,1,0,0:0:0:0:
475,192,217126,1,0,0:0:0:0:
182,192,217302,128,0,217478:0:0:0:0:
402,192,217302,1,0,0:0:0:0:
36,192,217478,1,0,0:0:0:80:kick.wav
109,192,217478,1,0,0:0:0:100:cymbal.wav
256,192,217478,1,0,0:0:0:0:
329,192,217478,1,0,0:0:0:0:
475,192,217478,1,0,0:0:0:0:
182,192,217655,1,0,0:0:0:0:
402,192,217655,1,0,0:0:0:0:
36,192,217831,1,0,0:0:0:0:
329,192,217831,1,0,0:0:0:0:
475,192,217831,1,0,0:0:0:0:
182,192,218008,1,0,0:0:0:0:
402,192,218008,1,0,0:0:0:0:
109,192,218096,1,0,0:0:0:0:
256,192,218184,1,0,0:0:0:0:
329,192,218184,1,0,0:0:0:0:
36,192,218273,1,0,0:0:0:0:
182,192,218361,1,0,0:0:0:0:
402,192,218361,1,0,0:0:0:0:
109,192,218449,1,0,0:0:0:0:
256,192,218537,128,0,218626:0:0:0:0:
329,192,218537,1,0,0:0:0:0:
475,192,218537,1,0,0:0:0:0:
182,192,218714,128,0,218890:0:0:0:0:
402,192,218714,1,0,0:0:0:0:
36,192,218890,1,0,0:0:0:80:kick.wav
109,192,218890,1,0,0:0:0:100:cymbal.wav
256,192,218890,1,0,0:0:0:0:
329,192,218890,1,0,0:0:0:0:
475,192,218890,128,0,218978:0:0:0:0:
182,192,219067,1,0,0:0:0:0:
402,192,219067,1,0,0:0:0:0:
109,192,219155,1,0,0:0:0:0:
36,192,219243,1,0,0:0:0:0:
329,192,219243,1,0,0:0:0:0:
475,192,219243,1,0,0:0:0:0:
182,192,219420,128,0,219596:0:0:0:0:
402,192,219420,128,0,219508:0:0:0:0:
36,192,219596,1,0,0:0:0:80:kick.wav
109,192,219596,1,0,0:0:0:100:cymbal.wav
256,192,219596,1,0,0:0:0:0:
402,192,219596,1,0,0:0:0:0:
475,192,219596,1,0,0:0:0:0:
182,192,219773,1,0,0:0:0:0:
329,192,219773,1,0,0:0:0:0:
109,192,219861,1,0,0:0:0:0:
256,192,219861,1,0,0:0:0:0:
36,192,219949,128,0,220037:0:0:0:0:
402,192,219949,1,0,0:0:0:0:
475,192,219949,1,0,0:0:0:0:
256,192,220126,1,0,0:0:0:0:
329,192,220126,128,0,220302:0:0:0:0:
36,192,220302,1,0,0:0:0:80:kick.wav
109,192,220302,1,0,0:0:0:100:cymbal.wav
182,192,220302,1,0,0:0:0:0:
402,192,220302,1,0,0:0:0:0:
475,192,220302,1,0,0:0:0:0:
256,192,220361,1,0,0:0:0:0:
329,192,220420,1,0,0:0:0:0:
402,192,220478,1,0,0:0:0:0:
475,192,220478,1,0,0:0:0:0:
182,192,220567,1,0,0:0:0:0:
36,192,220655,1,0,0:0:0:80:kick.wav
109,192,220655,1,0,0:0:0:100:cymbal.wav
329,192,220655,1,0,0:0:0:0:
402,192,220655,1,0,0:0:0:0:
475,192,220655,1,0,0:0:0:0:
256,192,220714,1,0,0:0:0:0:
182,192,220773,1,0,0:0:0:0:
36,192,220831,1,0,0:0:0:0:
109,192,220831,1,0,0:0:0:0:
475,192,220831,1,0,0:0:0:0:
329,192,220920,1,0,0:0:0:0:
36,192,221008,1,0,0:0:0:80:kick.wav
109,192,221008,1,0,0:0:0:100:cymbal.wav
182,192,221008,1,0,0:0:0:0:
402,192,221008,1,0,0:0:0:0:
475,192,221008,1,0,0:0:0:0:
256,192,221067,1,0,0:0:0:0:
329,192,221126,1,0,0:0:0:0:
36,192,221184,1,0,0:0:0:0:
402,192,221184,1,0,0:0:0:0:
475,192,221184,1,0,0:0:0:0:
182,192,221273,1,0,0:0:0:0:
36,192,221361,128,0,221626:0:0:0:40:clap.wav
256,192,221361,128,0,221626:0:0:0:0:
475,192,221361,128,0,221626:0:0:0:0:
36,192,221714,128,0,222067:0:0:0:80:kick.wav
182,192,221714,128,0,222067:0:0:0:70:windchime.wav
329,192,221714,1,0,0:0:0:0:
402,192,221714,1,0,0:0:0:0:
475,192,221714,128,0,222067:0:0:0:0:
36,192,222243,128,0,222596:0:0:0:80:kick.wav
182,192,222243,1,0,0:0:0:0:
256,192,222243,128,0,223655:0:0:0:0:
329,192,222243,1,0,0:0:0:0:
475,192,222243,128,0,222596:0:0:0:0:
36,192,222773,128,0,224361:0:0:0:80:kick.wav
109,192,222773,1,0,0:0:0:0:
182,192,222773,1,0,0:0:0:0:
329,192,222773,1,0,0:0:0:0:
475,192,222773,128,0,224361:0:0:0:0:
182,192,223126,1,0,0:0:0:0:
402,192,223126,1,0,0:0:0:0:
329,192,223390,1,0,0:0:0:0:
182,192,223655,1,0,0:0:0:0:
109,192,223831,1,0,0:0:0:40:clap.wav
329,192,223831,128,0,224184:0:0:0:0:
402,192,223831,1,0,0:0:0:0:
256,192,224184,128,0,224537:0:0:0:0:
36,192,224537,1,0,0:0:0:80:kick.wav
109,192,224537,128,0,224890:0:0:0:100:cymbal.wav
182,192,224537,128,0,224890:0:0:0:0:
402,192,224537,128,0,224890:0:0:0:0:
475,192,224537,1,0,0:0:0:0:
36,192,225067,1,0,0:0:0:80:kick.wav
109,192,225067,128,0,225420:0:0:0:100:cymbal.wav
256,192,225067,128,0,226831:0:0:0:0:
402,192,225067,128,0,225420:0:0:0:0:
475,192,225067,1,0,0:0:0:0:
36,192,225596,1,0,0:0:0:80:kick.wav
109,192,225596,128,0,227184:0:0:0:100:cymbal.wav
182,192,225596,1,0,0:0:0:0:
402,192,225596,128,0,226478:0:0:0:0:
475,192,225596,1,0,0:0:0:0:
329,192,225949,1,0,0:0:0:0:
475,192,225949,1,0,0:0:0:0:
36,192,226126,1,0,0:0:0:0:
182,192,226126,1,0,0:0:0:0:
329,192,226214,1,0,0:0:0:0:
475,192,226214,1,0,0:0:0:0:
36,192,226390,1,0,0:0:0:0:
182,192,226390,1,0,0:0:0:0:
329,192,226478,1,0,0:0:0:0:
475,192,226478,1,0,0:0:0:0:
36,192,226567,1,0,0:0:0:0:
182,192,226567,1,0,0:0:0:0:
329,192,226655,1,0,0:0:0:40:clap.wav
402,192,226655,1,0,0:0:0:0:
475,192,226655,1,0,0:0:0:0:
36,192,227008,1,0,0:0:0:80:kick.wav
182,192,227008,1,0,0:0:0:100:cymbal.wav
256,192,227008,128,0,227361:0:0:0:0:
402,192,227008,1,0,0:0:0:0:
475,192,227008,1,0,0:0:0:0:
36,192,227361,128,0,227714:0:0:0:80:kick.wav
109,192,227361,1,0,0:0:0:100:cymbal.wav
182,192,227361,128,0,227714:0:0:0:0:
329,192,227361,1,0,0:0:0:0:
475,192,227361,128,0,227890:0:0:0:0:
36,192,227890,128,0,228243:0:0:0:80:kick.wav
109,192,227890,1,0,0:0:0:100:cymbal.wav
182,192,227890,128,0,228243:0:0:0:0:
329,192,227890,1,0,0:0:0:0:
402,192,227890,128,0,228420:0:0:0:0:
36,192,228420,128,0,229655:0:0:0:80:kick.wav
182,192,228420,128,0,230008:0:0:0:100:cymbal.wav
256,192,228420,128,0,229655:0:0:0:0:
329,192,228420,1,0,0:0:0:0:
475,192,228420,1,0,0:0:0:0:
402,192,228773,1,0,0:0:0:0:
475,192,228773,1,0,0:0:0:0:
402,192,229037,1,0,0:0:0:0:
475,192,229037,1,0,0:0:0:0:
109,192,229126,1,0,0:0:0:0:
329,192,229126,1,0,0:0:0:0:
402,192,229302,1,0,0:0:0:0:
475,192,229302,1,0,0:0:0:0:
329,192,229478,1,0,0:0:0:40:clap.wav
402,192,229478,1,0,0:0:0:0:
475,192,229478,1,0,0:0:0:0:
36,192,229831,1,0,0:0:0:80:kick.wav
109,192,229831,1,0,0:0:0:100:cymbal.wav
256,192,229831,128,0,230184:0:0:0:0:
402,192,229831,1,0,0:0:0:0:
475,192,229831,1,0,0:0:0:0:
36,192,230184,128,0,230537:0:0:0:80:kick.wav
109,192,230184,128,0,230537:0:0:0:100:cymbal.wav
182,192,230184,1,0,0:0:0:0:
402,192,230184,1,0,0:0:0:0:
475,192,230184,128,0,230714:0:0:0:0:
36,192,230714,128,0,231067:0:0:0:80:kick.wav
109,192,230714,128,0,231067:0:0:0:100:cymbal.wav
182,192,230714,1,0,0:0:0:0:
329,192,230714,1,0,0:0:0:0:
402,192,230714,128,0,231243:0:0:0:0:
36,192,231243,128,0,232478:0:0:0:80:kick.wav
109,192,231243,128,0,232126:0:0:0:100:cymbal.wav
256,192,231243,128,0,232478:0:0:0:0:
329,192,231243,1,0,0:0:0:0:
475,192,231243,1,0,0:0:0:0:
402,192,231596,128,0,232478:0:0:0:0:
475,192,231596,1,0,0:0:0:0:
182,192,231773,128,0,232126:0:0:0:0:
109,192,232302,1,0,0:0:0:40:clap.wav
329,192,232302,1,0,0:0:0:0:
475,192,232302,1,0,0:0:0:0:
36,192,232655,1,0,0:0:0:80:kick.wav
109,192,232655,1,0,0:0:0:100:cymbal.wav
256,192,232655,1,0,0:0:0:0:
329,192,232655,128,0,232831:0:0:0:0:
475,192,232655,1,0,0:0:0:0:
36,192,233008,1,0,0:0:0:80:kick.wav
109,192,233008,1,0,0:0:0:0:
182,192,233008,128,0,233361:0:0:0:0:
475,192,233008,1,0,0:0:0:0:
36,192,233361,1,0,0:0:0:80:kick.wav
109,192,233361,1,0,0:0:0:0:
256,192,233537,128,0,235126:0:0:0:0:
36,192,233714,1,0,0:0:0:80:kick.wav
109,192,233714,1,0,0:0:0:0:
36,192,234067,1,0,0:0:0:80:kick.wav
109,192,234067,1,0,0:0:0:0:
36,192,234420,1,0,0:0:0:80:kick.wav
109,192,234420,1,0,0:0:0:0:
36,192,234773,1,0,0:0:0:80:kick.wav
109,192,234773,1,0,0:0:0:0:
36,192,235126,1,0,0:0:0:80:kick.wav
109,192,235126,1,0,0:0:0:0:
329,192,235126,128,0,235478:0:0:0:0:
36,192,235478,1,0,0:0:0:80:kick.wav
109,192,235478,1,0,0:0:0:0:
256,192,235478,128,0,235831:0:0:0:0:
182,192,235831,128,0,236184:0:0:0:80:kick.wav
402,192,235831,1,0,0:0:0:0:
475,192,235831,1,0,0:0:0:0:
402,192,236184,1,0,0:0:0:80:kick.wav
475,192,236184,1,0,0:0:0:0:
256,192,236361,128,0,238126:0:0:0:0:
402,192,236537,1,0,0:0:0:80:kick.wav
475,192,236537,1,0,0:0:0:0:
402,192,236890,1,0,0:0:0:80:kick.wav
475,192,236890,1,0,0:0:0:0:
329,192,237243,1,0,0:0:0:80:kick.wav
402,192,237243,1,0,0:0:0:0:
475,192,237243,1,0,0:0:0:0:
329,192,237596,1,0,0:0:0:80:kick.wav
402,192,237596,1,0,0:0:0:0:
475,192,237596,1,0,0:0:0:0:
329,192,237949,1,0,0:0:0:80:kick.wav
402,192,237949,1,0,0:0:0:0:
475,192,237949,1,0,0:0:0:0:
256,192,238302,128,0,238655:0:0:0:80:kick.wav
329,192,238302,1,0,0:0:0:0:
402,192,238302,1,0,0:0:0:0:
475,192,238302,1,0,0:0:0:0:
329,192,238478,1,0,0:0:0:80:kick.wav
402,192,238478,1,0,0:0:0:0:
475,192,238478,1,0,0:0:0:0:
36,192,238655,1,0,0:0:0:80:kick.wav
109,192,238655,1,0,0:0:0:100:cymbal.wav
182,192,238655,1,0,0:0:0:0:
329,192,238655,1,0,0:0:0:0:
402,192,238655,1,0,0:0:0:0:
475,192,238655,128,0,239184:0:0:0:0:
36,192,239008,1,0,0:0:0:80:kick.wav
109,192,239008,1,0,0:0:0:0:
182,192,239008,1,0,0:0:0:0:
402,192,239184,128,0,239714:0:0:0:0:
36,192,239361,1,0,0:0:0:80:kick.wav
109,192,239361,1,0,0:0:0:0:
182,192,239361,1,0,0:0:0:0:
36,192,239714,1,0,0:0:0:80:kick.wav
109,192,239714,1,0,0:0:0:100:cymbal.wav
182,192,239714,1,0,0:0:0:0:
256,192,239714,128,0,241478:0:0:0:0:
329,192,239714,1,0,0:0:0:0:
475,192,239714,1,0,0:0:0:0:
36,192,240067,1,0,0:0:0:80:kick.wav
109,192,240067,1,0,0:0:0:100:cymbal.wav
182,192,240067,1,0,0:0:0:0:
329,192,240067,1,0,0:0:0:0:
402,192,240067,1,0,0:0:0:0:
475,192,240067,1,0,0:0:0:0:
36,192,240420,1,0,0:0:0:80:kick.wav
109,192,240420,1,0,0:0:0:0:
182,192,240420,1,0,0:0:0:0:
36,192,240773,1,0,0:0:0:80:kick.wav
109,192,240773,1,0,0:0:0:0:
182,192,240773,1,0,0:0:0:0:
36,192,241126,1,0,0:0:0:80:kick.wav
109,192,241126,1,0,0:0:0:100:cymbal.wav
182,192,241126,1,0,0:0:0:0:
402,192,241126,1,0,0:0:0:0:
475,192,241126,1,0,0:0:0:0:
36,192,241478,1,0,0:0:0:80:kick.wav
109,192,241478,1,0,0:0:0:100:cymbal.wav
182,192,241478,1,0,0:0:0:0:
329,192,241478,1,0,0:0:0:0:
402,192,241478,1,0,0:0:0:0:
475,192,241478,1,0,0:0:0:0:
36,192,241655,1,0,0:0:0:80:kick.wav
109,192,241655,1,0,0:0:0:0:
402,192,241655,1,0,0:0:0:0:
36,192,241831,1,0,0:0:0:80:kick.wav
109,192,241831,1,0,0:0:0:0:
329,192,241831,1,0,0:0:0:0:
36,192,242008,1,0,0:0:0:80:kick.wav
109,192,242008,1,0,0:0:0:0:
256,192,242008,1,0,0:0:0:0:
36,192,242184,1,0,0:0:0:80:kick.wav
109,192,242184,1,0,0:0:0:100:cymbal.wav
182,192,242184,1,0,0:0:0:0:
329,192,242184,1,0,0:0:0:0:
402,192,242184,1,0,0:0:0:0:
475,192,242184,1,0,0:0:0:0:
109,192,242361,1,0,0:0:0:80:kick.wav
402,192,242361,1,0,0:0:0:0:
475,192,242361,1,0,0:0:0:0:
182,192,242537,1,0,0:0:0:80:kick.wav
402,192,242537,1,0,0:0:0:0:
475,192,242537,1,0,0:0:0:0:
256,192,242714,1,0,0:0:0:80:kick.wav
402,192,242714,1,0,0:0:0:0:
475,192,242714,1,0,0:0:0:0:
36,192,242890,1,0,0:0:0:80:kick.wav
109,192,242890,1,0,0:0:0:100:cymbal.wav
182,192,242890,1,0,0:0:0:0:
256,192,242890,1,0,0:0:0:0:
329,192,242890,1,0,0:0:0:0:
475,192,242890,1,0,0:0:0:0:
402,192,242978,1,0,0:0:0:0:
36,192,243067,1,0,0:0:0:80:kick.wav
182,192,243067,1,0,0:0:0:0:
329,192,243067,1,0,0:0:0:0:
256,192,243155,1,0,0:0:0:0:
36,192,243243,1,0,0:0:0:80:kick.wav
182,192,243243,1,0,0:0:0:0:
475,192,243243,1,0,0:0:0:0:
402,192,243331,1,0,0:0:0:0:
36,192,243420,1,0,0:0:0:80:kick.wav
182,192,243420,1,0,0:0:0:0:
329,192,243420,1,0,0:0:0:0:
256,192,243508,1,0,0:0:0:0:
36,192,243596,1,0,0:0:0:80:kick.wav
329,192,243596,1,0,0:0:0:0:
475,192,243596,1,0,0:0:0:0:
109,192,243684,1,0,0:0:0:0:
182,192,243773,1,0,0:0:0:80:kick.wav
329,192,243773,1,0,0:0:0:0:
475,192,243773,1,0,0:0:0:0:
256,192,243861,1,0,0:0:0:0:
36,192,243949,1,0,0:0:0:80:kick.wav
329,192,243949,1,0,0:0:0:0:
475,192,243949,1,0,0:0:0:0:
109,192,244037,1,0,0:0:0:0:
182,192,244126,1,0,0:0:0:80:kick.wav
329,192,244126,1,0,0:0:0:0:
475,192,244126,1,0,0:0:0:0:
256,192,244214,1,0,0:0:0:0:
182,192,244302,1,0,0:0:0:80:kick.wav
402,192,244302,1,0,0:0:0:100:cymbal.wav
475,192,244302,1,0,0:0:0:0:
36,192,244390,1,0,0:0:0:80:kick.wav
109,192,244390,1,0,0:0:0:0:
329,192,244390,1,0,0:0:0:0:
182,192,244478,1,0,0:0:0:80:kick.wav
402,192,244478,1,0,0:0:0:0:
475,192,244478,1,0,0:0:0:0:
36,192,244567,1,0,0:0:0:80:kick.wav
109,192,244567,1,0,0:0:0:0:
256,192,244567,1,0,0:0:0:0:
329,192,244655,1,0,0:0:0:80:kick.wav
402,192,244655,1,0,0:0:0:0:
475,192,244655,1,0,0:0:0:0:
36,192,244743,1,0,0:0:0:80:kick.wav
109,192,244743,1,0,0:0:0:0:
182,192,244743,1,0,0:0:0:0:
329,192,244831,1,0,0:0:0:80:kick.wav
402,192,244831,1,0,0:0:0:0:
475,192,244831,1,0,0:0:0:0:
36,192,244920,1,0,0:0:0:80:kick.wav
109,192,244920,1,0,0:0:0:0:
256,192,244920,1,0,0:0:0:0:
182,192,245008,1,0,0:0:0:80:kick.wav
402,192,245008,1,0,0:0:0:0:
475,192,245008,1,0,0:0:0:0:
36,192,245096,1,0,0:0:0:80:kick.wav
109,192,245096,1,0,0:0:0:0:
329,192,245096,1,0,0:0:0:0:
256,192,245184,1,0,0:0:0:80:kick.wav
402,192,245184,1,0,0:0:0:0:
475,192,245184,1,0,0:0:0:0:
36,192,245273,1,0,0:0:0:80:kick.wav
109,192,245273,1,0,0:0:0:0:
182,192,245273,1,0,0:0:0:0:
329,192,245361,1,0,0:0:0:80:kick.wav
402,192,245361,1,0,0:0:0:0:
475,192,245361,1,0,0:0:0:0:
36,192,245449,1,0,0:0:0:80:kick.wav
109,192,245449,1,0,0:0:0:0:
182,192,245449,1,0,0:0:0:0:
256,192,245537,1,0,0:0:0:80:kick.wav
402,192,245537,1,0,0:0:0:0:
475,192,245537,1,0,0:0:0:0:
36,192,245626,1,0,0:0:0:80:kick.wav
109,192,245626,1,0,0:0:0:0:
329,192,245626,1,0,0:0:0:0:
182,192,245714,1,0,0:0:0:80:kick.wav
256,192,245714,128,0,245802:0:0:0:100:cymbal.wav
402,192,245714,1,0,0:0:0:0:
475,192,245714,1,0,0:0:0:0:
36,192,245802,128,0,245890:0:0:0:0:
329,192,245890,128,0,245978:0:0:0:0:
109,192,245978,128,0,246067:0:0:0:0:
402,192,246067,128,0,246155:0:0:0:0:
182,192,246155,128,0,246243:0:0:0:0:
36,192,246243,128,0,246420:0:0:0:80:kick.wav
109,192,246243,128,0,246420:0:0:0:100:cymbal.wav
256,192,246243,128,0,246420:0:0:0:0:
402,192,246243,128,0,246420:0:0:0:0:
475,192,246243,128,0,246420:0:0:0:0:
329,192,246420,128,0,246596:0:0:0:0:
182,192,246508,128,0,246596:0:0:0:0:
36,192,246596,128,0,246773:0:0:0:80:kick.wav
109,192,246596,128,0,246773:0:0:0:100:cymbal.wav
256,192,246596,128,0,246773:0:0:0:0:
402,192,246596,128,0,246773:0:0:0:0:
475,192,246596,128,0,246773:0:0:0:0:
329,192,246773,128,0,246861:0:0:0:0:
36,192,246861,128,0,246949:0:0:0:80:kick.wav
109,192,246861,128,0,246949:0:0:0:100:cymbal.wav
256,192,246861,128,0,246949:0:0:0:0:
402,192,246861,128,0,246949:0:0:0:0:
475,192,246861,128,0,246949:0:0:0:0:
36,192,247037,128,0,248008:0:0:0:80:kick.wav
109,192,247037,128,0,247214:0:0:0:100:cymbal.wav
256,192,247037,128,0,247302:0:0:0:0:
402,192,247037,128,0,247390:0:0:0:0:
475,192,247037,128,0,247478:0:0:0:0:
109,192,247302,128,0,247743:0:0:0:0:
256,192,247390,128,0,248537:0:0:0:0:
402,192,247478,128,0,247655:0:0:0:0:
475,192,247567,128,0,248626:0:0:0:0:
182,192,247655,128,0,247920:0:0:0:0:
402,192,247743,128,0,248361:0:0:0:0:
109,192,247831,128,0,248273:0:0:0:0:
329,192,247920,128,0,248184:0:0:0:0:
182,192,248008,128,0,248096:0:0:0:0:
36,192,248096,128,0,249067:0:0:0:0:
182,192,248184,128,0,248714:0:0:0:0:
329,192,248273,128,0,248978:0:0:0:0:
109,192,248361,128,0,248449:0:0:0:0:
402,192,248449,128,0,248802:0:0:0:0:
109,192,248537,128,0,248890:0:0:0:0:
256,192,248626,128,0,249155:0:0:0:0:
475,192,248714,128,0,248978:0:0:0:0:
182,192,248802,128,0,249596:0:0:0:0:
402,192,248890,128,0,249508:0:0:0:0:
109,192,248978,128,0,249420:0:0:0:0:
329,192,249067,128,0,249331:0:0:0:0:
475,192,249067,128,0,249773:0:0:0:0:
36,192,249155,128,0,249243:0:0:0:0:
256,192,249243,128,0,250126:0:0:0:0:
36,192,249331,128,0,250302:0:0:0:0:
329,192,249420,128,0,249684:0:0:0:0:
109,192,249508,128,0,250390:0:0:0:0:
402,192,249596,128,0,249861:0:0:0:0:
182,192,249684,128,0,250037:0:0:0:0:
329,192,249773,128,0,250567:0:0:0:0:
475,192,249861,128,0,251802:0:0:0:0:
402,192,249949,128,0,250920:0:0:0:0:
182,192,250126,128,0,251008:0:0:0:0:
256,192,250214,128,0,250743:0:0:0:0:
36,192,250390,128,0,250831:0:0:0:0:
109,192,250478,128,0,250655:0:0:0:0:
329,192,250655,128,0,251361:0:0:0:0:
109,192,250743,128,0,251184:0:0:0:0:
256,192,250831,128,0,251096:0:0:0:0:
36,192,250920,128,0,251449:0:0:0:0:
402,192,251008,128,0,252155:0:0:0:0:
182,192,251096,128,0,251537:0:0:0:0:
256,192,251184,128,0,251626:0:0:0:0:
109,192,251273,128,0,252773:0:0:0:0:
329,192,251449,128,0,251714:0:0:0:0:
36,192,251537,128,0,251802:0:0:0:0:
182,192,251626,128,0,252067:0:0:0:0:
256,192,251714,128,0,252773:0:0:0:0:
329,192,251802,128,0,252155:0:0:0:0:
36,192,251890,128,0,252243:0:0:0:0:
475,192,251890,128,0,252684:0:0:0:0:
182,192,252155,128,0,252331:0:0:0:0:
329,192,252243,128,0,252508:0:0:0:0:
402,192,252243,128,0,252684:0:0:0:0:
36,192,252331,128,0,252773:0:0:0:0:
182,192,252420,128,0,252596:0:0:0:0:
329,192,252596,128,0,252773:0:0:0:0:
182,192,252684,128,0,252773:0:0:0:0:
402,192,252773,1,0,0:0:0:80:kick.wav
475,192,252773,1,0,0:0:0:0:
109,192,252861,1,0,0:0:0:0:
329,192,252949,128,0,253037:0:0:0:0:
36,192,253037,1,0,0:0:0:0:
256,192,253126,1,0,0:0:0:80:kick.wav
329,192,253126,128,0,253302:0:0:0:0:
475,192,253126,1,0,0:0:0:0:
109,192,253214,128,0,253302:0:0:0:0:
182,192,253302,1,0,0:0:0:0:
329,192,253390,128,0,253655:0:0:0:0:
402,192,253478,1,0,0:0:0:80:kick.wav
475,192,253478,1,0,0:0:0:0:
36,192,253567,128,0,253655:0:0:0:0:
182,192,253655,1,0,0:0:0:0:
475,192,253655,128,0,253831:0:0:0:0:
256,192,253743,128,0,253831:0:0:0:0:
36,192,253831,128,0,254008:0:0:0:80:kick.wav
109,192,253831,1,0,0:0:0:0:
402,192,253831,1,0,0:0:0:0:
256,192,253920,128,0,254008:0:0:0:0:
329,192,254008,1,0,0:0:0:0:
109,192,254096,128,0,254449:0:0:0:0:
402,192,254184,1,0,0:0:0:80:kick.wav
475,192,254184,1,0,0:0:0:0:
256,192,254273,128,0,254449:0:0:0:0:
475,192,254361,128,0,254449:0:0:0:0:
36,192,254537,128,0,254714:0:0:0:80:kick.wav
109,192,254537,1,0,0:0:0:0:
329,192,254537,1,0,0:0:0:0:
256,192,254714,128,0,254890:0:0:0:80:kick.wav
402,192,254714,1,0,0:0:0:0:
109,192,254802,1,0,0:0:0:80:kick.wav
475,192,254802,128,0,254978:0:0:0:0:
36,192,254890,1,0,0:0:0:80:kick.wav
182,192,254890,128,0,255067:0:0:0:0:
329,192,254890,1,0,0:0:0:0:
402,192,254978,128,0,255155:0:0:0:0:
109,192,255067,128,0,255243:0:0:0:80:kick.wav
256,192,255067,1,0,0:0:0:0:
329,192,255155,128,0,255331:0:0:0:0:
36,192,255243,128,0,255420:0:0:0:80:kick.wav
182,192,255243,1,0,0:0:0:0:
475,192,255243,1,0,0:0:0:0:
256,192,255331,128,0,255420:0:0:0:0:
402,192,255420,1,0,0:0:0:80:kick.wav
475,192,255420,128,0,255508:0:0:0:0:
36,192,255508,1,0,0:0:0:80:kick.wav
182,192,255508,128,0,255596:0:0:0:0:
402,192,255596,128,0,255773:0:0:0:80:kick.wav
475,192,255596,1,0,0:0:0:0:
36,192,255684,1,0,0:0:0:80:kick.wav
109,192,255684,128,0,255773:0:0:0:0:
182,192,255773,1,0,0:0:0:80:kick.wav
329,192,255773,1,0,0:0:0:0:
402,192,255861,128,0,256037:0:0:0:80:kick.wav
475,192,255861,1,0,0:0:0:0:
256,192,255949,1,0,0:0:0:0:
36,192,256037,1,0,0:0:0:80:kick.wav
109,192,256037,1,0,0:0:0:0:
182,192,256126,1,0,0:0:0:80:kick.wav
329,192,256126,1,0,0:0:0:0:
475,192,256126,128,0,256302:0:0:0:0:
36,192,256302,1,0,0:0:0:80:kick.wav
109,192,256302,1,0,0:0:0:100:cymbal.wav
182,192,256302,1,0,0:0:0:0:
256,192,256302,128,0,256478:0:0:0:0:
402,192,256302,128,0,256478:0:0:0:0:
36,192,256478,1,0,0:0:0:80:kick.wav
109,192,256478,1,0,0:0:0:100:cymbal.wav
182,192,256478,128,0,256655:0:0:0:0:
329,192,256478,128,0,256655:0:0:0:0:
475,192,256478,1,0,0:0:0:0:
36,192,256655,1,0,0:0:0:80:kick.wav
109,192,256655,128,0,256831:0:0:0:100:cymbal.wav
256,192,256655,128,0,256831:0:0:0:0:
402,192,256655,1,0,0:0:0:0:
475,192,256655,1,0,0:0:0:0:
36,192,256831,128,0,257008:0:0:0:80:kick.wav
182,192,256831,128,0,257008:0:0:0:100:cymbal.wav
329,192,256831,1,0,0:0:0:0:
402,192,256831,1,0,0:0:0:0:
475,192,256831,1,0,0:0:0:0:
36,192,257537,128,0,257714:0:0:0:80:kick.wav
182,192,257537,128,0,257714:0:0:0:100:cymbal.wav
329,192,257537,128,0,257714:0:0:0:0:
402,192,257537,128,0,257714:0:0:0:0:
475,192,257537,128,0,257714:0:0:0:0:
109,192,257714,128,0,257802:0:0:0:0:
256,192,257714,128,0,257890:0:0:0:0:
402,192,257802,128,0,257890:0:0:0:0:
36,192,257890,128,0,258067:0:0:0:80:kick.wav
109,192,257890,128,0,258067:0:0:0:100:cymbal.wav
182,192,257890,128,0,258067:0:0:0:0:
329,192,257890,128,0,258067:0:0:0:0:
475,192,257890,128,0,258067:0:0:0:0:
256,192,258067,128,0,258155:0:0:0:0:
402,192,258067,128,0,258155:0:0:0:0:
36,192,258155,128,0,258243:0:0:0:80:kick.wav
109,192,258155,128,0,258243:0:0:0:100:cymbal.wav
182,192,258155,128,0,258243:0:0:0:0:
329,192,258155,128,0,258243:0:0:0:0:
475,192,258155,128,0,258243:0:0:0:0:
36,192,258331,128,0,258508:0:0:0:80:kick.wav
109,192,258331,128,0,258508:0:0:0:100:cymbal.wav
256,192,258331,128,0,258508:0:0:0:70:windchime.wav
329,192,258331,128,0,258508:0:0:0:0:
475,192,258331,128,0,258508:0:0:0:0:
109,192,258596,128,0,258684:0:0:0:80:kick.wav
256,192,258596,128,0,258684:0:0:0:0:
402,192,258596,1,0,0:0:0:0:
182,192,258684,128,0,258773:0:0:0:80:kick.wav
329,192,258684,128,0,258773:0:0:0:0:
475,192,258684,1,0,0:0:0:0:
36,192,258773,1,0,0:0:0:80:kick.wav
109,192,258773,1,0,0:0:0:100:cymbal.wav
256,192,258773,128,0,258861:0:0:0:0:
402,192,258773,128,0,258861:0:0:0:0:
329,192,258861,128,0,258949:0:0:0:0:
475,192,258861,128,0,258949:0:0:0:0:
36,192,258949,1,0,0:0:0:0:
182,192,258949,1,0,0:0:0:0:
109,192,259037,128,0,259126:0:0:0:0:
402,192,259037,128,0,259126:0:0:0:0:
182,192,259126,128,0,259214:0:0:0:80:kick.wav
256,192,259126,1,0,0:0:0:0:
329,192,259126,128,0,259214:0:0:0:0:
36,192,259214,128,0,259478:0:0:0:0:
475,192,259214,128,0,259478:0:0:0:0:
109,192,259302,128,0,259390:0:0:0:0:
402,192,259302,128,0,259390:0:0:0:0:
182,192,259390,128,0,259567:0:0:0:0:
329,192,259390,128,0,259567:0:0:0:0:
109,192,259478,128,0,259655:0:0:0:80:kick.wav
256,192,259478,1,0,0:0:0:70:snare.wav
402,192,259478,128,0,259655:0:0:0:0:
36,192,259567,128,0,259655:0:0:0:0:
475,192,259567,128,0,259655:0:0:0:0:
182,192,259655,1,0,0:0:0:0:
329,192,259655,1,0,0:0:0:0:
36,192,259743,1,0,0:0:0:0:
109,192,259743,128,0,259831:0:0:0:0:
256,192,259743,128,0,259831:0:0:0:0:
329,192,259831,128,0,260096:0:0:0:80:kick.wav
402,192,259831,1,0,0:0:0:0:
475,192,259831,128,0,260008:0:0:0:0:
36,192,259920,128,0,260184:0:0:0:0:
182,192,259920,128,0,260096:0:0:0:0:
256,192,260008,128,0,260273:0:0:0:0:
402,192,260008,128,0,260184:0:0:0:0:
109,192,260096,128,0,260273:0:0:0:0:
475,192,260096,128,0,260361:0:0:0:0:
182,192,260184,128,0,260449:0:0:0:80:kick.wav
329,192,260184,128,0,260361:0:0:0:70:snare.wav
36,192,260273,128,0,260361:0:0:0:0:
402,192,260273,128,0,260537:0:0:0:0:
109,192,260361,128,0,260626:0:0:0:0:
256,192,260361,128,0,260537:0:0:0:0:
36,192,260449,128,0,260802:0:0:0:0:
329,192,260449,128,0,260714:0:0:0:0:
475,192,260449,128,0,260802:0:0:0:0:
182,192,260537,128,0,260714:0:0:0:80:kick.wav
256,192,260626,128,0,260890:0:0:0:0:
402,192,260626,128,0,260802:0:0:0:0:
109,192,260714,128,0,260890:0:0:0:0:
182,192,260802,128,0,260890:0:0:0:0:
329,192,260802,128,0,260890:0:0:0:0:
36,192,260890,128,0,260978:0:0:0:80:kick.wav
402,192,260890,128,0,261067:0:0:0:70:snare.wav
475,192,260890,128,0,261155:0:0:0:0:
109,192,260978,128,0,261067:0:0:0:0:
256,192,260978,128,0,261067:0:0:0:0:
182,192,261067,128,0,261155:0:0:0:0:
329,192,261067,128,0,261155:0:0:0:0:
256,192,261155,128,0,261243:0:0:0:0:
402,192,261155,128,0,261243:0:0:0:0:
36,192,261243,128,0,261420:0:0:0:80:kick.wav
109,192,261243,128,0,261420:0:0:0:100:cymbal.wav
182,192,261243,128,0,261331:0:0:0:0:
329,192,261243,128,0,261420:0:0:0:0:
475,192,261243,128,0,261420:0:0:0:0:
256,192,261420,128,0,261508:0:0:0:0:
402,192,261420,128,0,261508:0:0:0:0:
36,192,261508,128,0,261684:0:0:0:80:kick.wav
109,192,261508,128,0,261596:0:0:0:100:cymbal.wav
182,192,261508,128,0,261684:0:0:0:0:
329,192,261508,128,0,261684:0:0:0:0:
475,192,261508,128,0,261684:0:0:0:0:
109,192,261684,128,0,261773:0:0:0:0:
256,192,261684,128,0,261773:0:0:0:0:
36,192,261773,128,0,261949:0:0:0:80:kick.wav
182,192,261773,128,0,261949:0:0:0:100:cymbal.wav
329,192,261773,128,0,261949:0:0:0:0:
402,192,261773,128,0,261949:0:0:0:0:
475,192,261773,128,0,261949:0:0:0:0:
36,192,262037,1,0,0:0:0:80:kick.wav
109,192,262037,1,0,0:0:0:100:cymbal.wav
256,192,262037,1,0,0:0:0:0:
329,192,262037,1,0,0:0:0:0:
402,192,262037,1,0,0:0:0:0:
109,192,262126,128,0,262214:0:0:0:80:kick.wav
182,192,262126,128,0,262214:0:0:0:100:cymbal.wav
329,192,262126,128,0,262214:0:0:0:0:
402,192,262126,128,0,262214:0:0:0:0:
475,192,262126,128,0,262214:0:0:0:0:
182,192,262302,128,0,262390:0:0:0:80:kick.wav
256,192,262302,128,0,262390:0:0:0:100:cymbal.wav
329,192,262302,128,0,262390:0:0:0:0:
402,192,262302,128,0,262390:0:0:0:0:
475,192,262302,128,0,262390:0:0:0:0:
109,192,262478,1,0,0:0:0:80:kick.wav
182,192,262478,1,0,0:0:0:100:cymbal.wav
256,192,262478,1,0,0:0:0:0:
402,192,262478,1,0,0:0:0:0:
475,192,262478,1,0,0:0:0:0:
36,192,262567,128,0,262743:0:0:0:80:kick.wav
182,192,262567,128,0,262743:0:0:0:100:cymbal.wav
256,192,262567,128,0,262743:0:0:0:0:
402,192,262567,128,0,262743:0:0:0:0:
475,192,262567,128,0,262743:0:0:0:0:
109,192,262743,128,0,262831:0:0:0:0:
329,192,262743,128,0,262920:0:0:0:0:
36,192,262831,1,0,0:0:0:80:kick.wav
182,192,262831,128,0,262920:0:0:0:0:
402,192,262831,128,0,263008:0:0:0:0:
256,192,262920,128,0,263008:0:0:0:0:
475,192,262920,128,0,263096:0:0:0:0:
36,192,263008,1,0,0:0:0:80:kick.wav
109,192,263008,128,0,263096:0:0:0:0:
329,192,263008,128,0,263096:0:0:0:0:
182,192,263096,128,0,263184:0:0:0:80:kick.wav
256,192,263096,1,0,0:0:0:0:
402,192,263096,128,0,263184:0:0:0:0:
36,192,263184,128,0,263449:0:0:0:80:kick.wav
109,192,263184,128,0,263449:0:0:0:100:cymbal.wav
329,192,263184,128,0,263449:0:0:0:0:
475,192,263184,128,0,263449:0:0:0:0:
256,192,263449,128,0,263537:0:0:0:0:
109,192,263537,128,0,263626:0:0:0:80:kick.wav
329,192,263537,128,0,263626:0:0:0:0:
402,192,263537,128,0,263626:0:0:0:0:
475,192,263537,128,0,263626:0:0:0:0:
182,192,263626,128,0,263714:0:0:0:0:
36,192,263714,128,0,263802:0:0:0:80:kick.wav
256,192,263714,128,0,263802:0:0:0:0:
402,192,263714,128,0,263802:0:0:0:0:
475,192,263714,128,0,263802:0:0:0:0:
36,192,263890,1,0,0:0:0:80:kick.wav
109,192,263890,1,0,0:0:0:0:
182,192,263890,1,0,0:0:0:0:
329,192,263890,128,0,263978:0:0:0:0:
475,192,263890,128,0,263978:0:0:0:0:
36,192,263978,128,0,264155:0:0:0:80:kick.wav
109,192,263978,128,0,264155:0:0:0:100:cymbal.wav
182,192,263978,1,0,0:0:0:0:
256,192,263978,128,0,264155:0:0:0:0:
402,192,263978,128,0,264155:0:0:0:0:
36,192,264243,128,0,264331:0:0:0:80:kick.wav
182,192,264243,128,0,264331:0:0:0:0:
329,192,264243,1,0,0:0:0:0:
475,192,264243,1,0,0:0:0:0:
256,192,264331,1,0,0:0:0:80:kick.wav
402,192,264331,1,0,0:0:0:0:
36,192,264420,128,0,264596:0:0:0:80:kick.wav
109,192,264420,1,0,0:0:0:70:snare.wav
182,192,264420,128,0,264596:0:0:0:0:
329,192,264420,1,0,0:0:0:0:
402,192,264508,128,0,264596:0:0:0:0:
475,192,264508,128,0,264596:0:0:0:0:
109,192,264596,1,0,0:0:0:0:
256,192,264596,1,0,0:0:0:0:
329,192,264684,128,0,264861:0:0:0:0:
475,192,264684,128,0,264949:0:0:0:0:
36,192,264773,1,0,0:0:0:80:kick.wav
109,192,264773,1,0,0:0:0:0:
182,192,264773,1,0,0:0:0:0:
256,192,264861,128,0,264949:0:0:0:0:
402,192,264861,128,0,264949:0:0:0:0:
36,192,264949,1,0,0:0:0:0:
109,192,265008,1,0,0:0:0:0:
402,192,265037,128,0,265126:0:0:0:0:
475,192,265037,128,0,265126:0:0:0:0:
182,192,265067,1,0,0:0:0:0:
36,192,265126,128,0,265302:0:0:0:80:kick.wav
109,192,265126,128,0,265302:0:0:0:70:snare.wav
256,192,265126,1,0,0:0:0:0:
329,192,265126,1,0,0:0:0:0:
402,192,265214,128,0,265302:0:0:0:0:
475,192,265214,128,0,265302:0:0:0:0:
182,192,265302,1,0,0:0:0:0:
329,192,265302,1,0,0:0:0:0:
36,192,265390,128,0,265655:0:0:0:0:
256,192,265390,128,0,265655:0:0:0:0:
109,192,265478,1,0,0:0:0:80:kick.wav
402,192,265478,1,0,0:0:0:0:
475,192,265478,1,0,0:0:0:0:
182,192,265567,128,0,265655:0:0:0:0:
329,192,265567,128,0,265655:0:0:0:0:
402,192,265655,128,0,265831:0:0:0:0:
475,192,265655,128,0,265831:0:0:0:0:
36,192,265831,128,0,266008:0:0:0:80:kick.wav
109,192,265831,128,0,266008:0:0:0:70:snare.wav
182,192,265831,1,0,0:0:0:0:
329,192,265831,1,0,0:0:0:0:
182,192,266008,128,0,266184:0:0:0:0:
402,192,266008,128,0,266184:0:0:0:0:
109,192,266096,128,0,266273:0:0:0:0:
329,192,266096,128,0,266273:0:0:0:0:
36,192,266184,128,0,266361:0:0:0:80:kick.wav
256,192,266184,128,0,266361:0:0:0:0:
475,192,266184,128,0,266361:0:0:0:0:
182,192,266273,128,0,266449:0:0:0:0:
402,192,266273,128,0,266449:0:0:0:0:
109,192,266361,128,0,266537:0:0:0:0:
329,192,266361,128,0,266537:0:0:0:0:
36,192,266449,128,0,266626:0:0:0:0:
256,192,266449,128,0,266626:0:0:0:0:
182,192,266537,128,0,266714:0:0:0:80:kick.wav
402,192,266537,128,0,266714:0:0:0:70:snare.wav
475,192,266537,128,0,266626:0:0:0:0:
109,192,266626,128,0,266802:0:0:0:0:
329,192,266626,128,0,266802:0:0:0:0:
36,192,266714,128,0,266802:0:0:0:0:
256,192,266714,128,0,266890:0:0:0:0:
182,192,266802,128,0,266890:0:0:0:0:
36,192,266890,128,0,267155:0:0:0:80:kick.wav
109,192,266890,128,0,266978:0:0:0:100:cymbal.wav
329,192,266890,128,0,267067:0:0:0:0:
402,192,266890,128,0,266978:0:0:0:0:
475,192,266890,128,0,267155:0:0:0:0:
182,192,266978,128,0,267155:0:0:0:0:
256,192,266978,128,0,267067:0:0:0:0:
109,192,267067,128,0,267155:0:0:0:0:
402,192,267067,128,0,267155:0:0:0:0:
256,192,267155,128,0,267331:0:0:0:0:
329,192,267155,128,0,267331:0:0:0:0:
36,192,267243,128,0,267331:0:0:0:80:kick.wav
109,192,267243,128,0,267331:0:0:0:0:
182,192,267243,128,0,267331:0:0:0:0:
402,192,267243,128,0,267331:0:0:0:0:
475,192,267243,128,0,267331:0:0:0:0:
475,192,267420,128,0,267596:0:0:0:80:kick.wav
329,192,267420,128,0,267596:0:0:0:100:cymbal.wav
256,192,267420,1,0,0:0:0:0:
182,192,267420,128,0,267596:0:0:0:0:
36,192,267420,128,0,267596:0:0:0:0:
402,192,267596,128,0,267773:0:0:0:0:
109,192,267596,128,0,267773:0:0:0:0:
475,192,267773,128,0,267949:0:0:0:80:kick.wav
329,192,267773,128,0,267949:0:0:0:100:cymbal.wav
256,192,267773,128,0,267949:0:0:0:0:
182,192,267773,128,0,267949:0:0:0:0:
36,192,267773,128,0,267949:0:0:0:0:
402,192,267949,128,0,268126:0:0:0:0:
109,192,267949,128,0,268126:0:0:0:0:
475,192,268126,128,0,268302:0:0:0:80:kick.wav
329,192,268126,128,0,268302:0:0:0:100:cymbal.wav
256,192,268126,1,0,0:0:0:0:
182,192,268126,128,0,268302:0:0:0:0:
36,192,268126,128,0,268214:0:0:0:0:
256,192,268302,128,0,268478:0:0:0:0:
36,192,268302,128,0,268478:0:0:0:0:
329,192,268390,128,0,268567:0:0:0:0:
109,192,268390,128,0,268567:0:0:0:0:
402,192,268478,128,0,268655:0:0:0:0:
182,192,268478,128,0,268655:0:0:0:0:
475,192,268567,128,0,268743:0:0:0:0:
256,192,268567,128,0,268743:0:0:0:0:
36,192,268567,128,0,268655:0:0:0:0:
329,192,268655,128,0,268743:0:0:0:0:
109,192,268655,128,0,268743:0:0:0:0:
402,192,268743,128,0,268831:0:0:0:0:
182,192,268743,128,0,268831:0:0:0:0:
475,192,268831,128,0,269096:0:0:0:80:kick.wav
329,192,268831,128,0,269096:0:0:0:100:cymbal.wav
256,192,268831,128,0,269096:0:0:0:0:
109,192,268831,128,0,269096:0:0:0:0:
36,192,268831,128,0,269096:0:0:0:0:
36,192,269184,128,0,269273:0:0:0:80:kick.wav
182,192,269184,128,0,269273:0:0:0:100:cymbal.wav
329,192,269184,128,0,269273:0:0:0:0:
402,192,269184,128,0,269273:0:0:0:0:
475,192,269184,128,0,269273:0:0:0:0:
36,192,269361,1,0,0:0:0:80:kick.wav
109,192,269361,1,0,0:0:0:100:cymbal.wav
182,192,269361,1,0,0:0:0:0:
329,192,269361,1,0,0:0:0:0:
402,192,269361,1,0,0:0:0:0:
109,192,269449,128,0,269537:0:0:0:80:kick.wav
182,192,269449,128,0,269537:0:0:0:100:cymbal.wav
329,192,269449,128,0,269537:0:0:0:0:
402,192,269449,128,0,269537:0:0:0:0:
475,192,269449,128,0,269537:0:0:0:0:
36,192,269626,128,0,269802:0:0:0:80:kick.wav
109,192,269626,128,0,269802:0:0:0:100:cymbal.wav
256,192,269626,128,0,269890:0:0:0:70:windchime.wav
329,192,269626,128,0,269890:0:0:0:0:
475,192,269626,128,0,269890:0:0:0:0:
36,192,269890,128,0,269978:0:0:0:80:kick.wav
182,192,269890,128,0,269978:0:0:0:0:
402,192,269890,128,0,269978:0:0:0:0:
109,192,269978,128,0,270067:0:0:0:80:kick.wav
329,192,269978,128,0,270067:0:0:0:0:
475,192,269978,128,0,270067:0:0:0:0:
182,192,270067,128,0,270155:0:0:0:80:kick.wav
256,192,270067,128,0,270331:0:0:0:70:snare.wav
402,192,270067,128,0,270155:0:0:0:0:
36,192,270155,128,0,270243:0:0:0:0:
475,192,270155,128,0,270243:0:0:0:0:
109,192,270243,128,0,270331:0:0:0:0:
329,192,270243,128,0,270331:0:0:0:0:
182,192,270331,128,0,270420:0:0:0:0:
402,192,270331,128,0,270508:0:0:0:0:
475,192,270331,128,0,270773:0:0:0:0:
36,192,270420,128,0,270684:0:0:0:80:kick.wav
109,192,270420,128,0,270508:0:0:0:0:
256,192,270420,128,0,270596:0:0:0:0:
182,192,270596,128,0,270684:0:0:0:0:
402,192,270596,128,0,270773:0:0:0:0:
109,192,270684,128,0,270773:0:0:0:0:
329,192,270684,128,0,270773:0:0:0:0:
36,192,270773,128,0,270861:0:0:0:80:kick.wav
182,192,270773,128,0,270861:0:0:0:70:snare.wav
256,192,270773,128,0,271037:0:0:0:0:
329,192,270861,128,0,270949:0:0:0:0:
402,192,270861,128,0,270949:0:0:0:0:
475,192,270861,128,0,270949:0:0:0:0:
36,192,270949,128,0,271037:0:0:0:0:
109,192,270949,128,0,271037:0:0:0:0:
182,192,271037,128,0,271126:0:0:0:0:
329,192,271037,128,0,271126:0:0:0:0:
475,192,271037,128,0,271478:0:0:0:0:
36,192,271126,128,0,271390:0:0:0:80:kick.wav
256,192,271126,128,0,271302:0:0:0:0:
402,192,271126,128,0,271214:0:0:0:0:
109,192,271302,128,0,271390:0:0:0:0:
182,192,271302,128,0,271390:0:0:0:0:
329,192,271302,128,0,271478:0:0:0:0:
36,192,271478,128,0,271567:0:0:0:80:kick.wav
256,192,271478,128,0,271743:0:0:0:70:snare.wav
402,192,271478,128,0,271567:0:0:0:0:
182,192,271567,128,0,271655:0:0:0:0:
329,192,271567,128,0,271655:0:0:0:0:
475,192,271567,128,0,271655:0:0:0:0:
36,192,271655,128,0,271743:0:0:0:0:
109,192,271655,128,0,271743:0:0:0:0:
329,192,271743,128,0,271831:0:0:0:0:
402,192,271743,128,0,271831:0:0:0:0:
475,192,271743,128,0,271831:0:0:0:0:
36,192,271831,128,0,272096:0:0:0:80:kick.wav
109,192,271831,128,0,271920:0:0:0:0:
182,192,271831,128,0,271920:0:0:0:0:
256,192,271920,128,0,272008:0:0:0:0:
402,192,271920,128,0,272184:0:0:0:0:
475,192,271920,128,0,272184:0:0:0:0:
109,192,272008,128,0,272096:0:0:0:0:
182,192,272008,128,0,272096:0:0:0:0:
329,192,272008,128,0,272184:0:0:0:0:
36,192,272184,128,0,272273:0:0:0:80:kick.wav
109,192,272184,128,0,272273:0:0:0:70:snare.wav
256,192,272184,128,0,272449:0:0:0:0:
182,192,272273,128,0,272361:0:0:0:0:
402,192,272273,128,0,272361:0:0:0:0:
475,192,272273,128,0,272361:0:0:0:0:
36,192,272361,128,0,272449:0:0:0:0:
329,192,272361,128,0,272449:0:0:0:0:
109,192,272449,128,0,272537:0:0:0:0:
402,192,272449,128,0,272626:0:0:0:0:
475,192,272449,128,0,272890:0:0:0:0:
36,192,272537,128,0,272802:0:0:0:80:kick.wav
182,192,272537,128,0,272626:0:0:0:0:
256,192,272537,128,0,272714:0:0:0:0:
109,192,272714,128,0,272802:0:0:0:0:
402,192,272714,128,0,272890:0:0:0:0:
182,192,272802,128,0,272890:0:0:0:0:
329,192,272802,128,0,272890:0:0:0:0:
36,192,272890,128,0,272978:0:0:0:80:kick.wav
109,192,272890,128,0,272978:0:0:0:70:snare.wav
256,192,272890,128,0,273155:0:0:0:0:
182,192,272978,128,0,273067:0:0:0:0:
402,192,272978,128,0,273067:0:0:0:0:
475,192,272978,128,0,273067:0:0:0:0:
36,192,273067,128,0,273155:0:0:0:0:
329,192,273067,128,0,273155:0:0:0:0:
109,192,273155,128,0,273243:0:0:0:0:
402,192,273155,128,0,273331:0:0:0:0:
475,192,273155,128,0,273596:0:0:0:0:
36,192,273243,128,0,273508:0:0:0:80:kick.wav
182,192,273243,128,0,273331:0:0:0:0:
256,192,273243,128,0,273420:0:0:0:0:
182,192,273420,128,0,273596:0:0:0:0:
329,192,273420,128,0,273596:0:0:0:0:
402,192,273420,128,0,273596:0:0:0:0:
36,192,273596,128,0,273684:0:0:0:80:kick.wav
109,192,273596,128,0,273684:0:0:0:70:snare.wav
256,192,273596,128,0,273861:0:0:0:0:
329,192,273684,128,0,273773:0:0:0:0:
402,192,273684,128,0,273773:0:0:0:0:
475,192,273684,128,0,273773:0:0:0:0:
36,192,273773,128,0,273861:0:0:0:0:
182,192,273773,128,0,273861:0:0:0:0:
109,192,273861,128,0,273949:0:0:0:0:
402,192,273861,128,0,274126:0:0:0:0:
475,192,273861,128,0,274126:0:0:0:0:
36,192,273949,128,0,274214:0:0:0:80:kick.wav
182,192,273949,128,0,274037:0:0:0:0:
329,192,273949,128,0,274126:0:0:0:0:
109,192,274126,128,0,274214:0:0:0:0:
256,192,274126,128,0,274214:0:0:0:0:
329,192,274214,128,0,274302:0:0:0:0:
475,192,274214,128,0,274302:0:0:0:0:
36,192,274302,128,0,274390:0:0:0:80:kick.wav
109,192,274302,128,0,274567:0:0:0:70:snare.wav
182,192,274302,128,0,274390:0:0:0:0:
256,192,274302,128,0,274567:0:0:0:0:
402,192,274302,128,0,274567:0:0:0:0:
329,192,274390,128,0,274478:0:0:0:0:
475,192,274390,128,0,274478:0:0:0:0:
36,192,274478,128,0,274567:0:0:0:0:
182,192,274478,128,0,274567:0:0:0:0:
329,192,274567,128,0,274655:0:0:0:0:
475,192,274567,128,0,274655:0:0:0:0:
36,192,274655,128,0,274743:0:0:0:80:kick.wav
182,192,274655,128,0,274831:0:0:0:100:cymbal.wav
256,192,274655,128,0,274743:0:0:0:0:
402,192,274655,128,0,274831:0:0:0:0:
109,192,274743,128,0,274831:0:0:0:0:
329,192,274743,128,0,274831:0:0:0:0:
475,192,274743,128,0,274831:0:0:0:0:
36,192,274920,128,0,275008:0:0:0:80:kick.wav
182,192,274920,128,0,275008:0:0:0:100:cymbal.wav
256,192,274920,128,0,275008:0:0:0:0:
329,192,274920,128,0,275008:0:0:0:0:
402,192,274920,128,0,275008:0:0:0:0:
475,192,274920,128,0,275008:0:0:0:0:
36,192,275096,128,0,275184:0:0:0:80:kick.wav
109,192,275096,128,0,275184:0:0:0:100:cymbal.wav
256,192,275096,128,0,275184:0:0:0:0:
329,192,275096,128,0,275184:0:0:0:0:
402,192,275096,128,0,275184:0:0:0:0:
475,192,275096,128,0,275184:0:0:0:0:
36,192,275273,128,0,275449:0:0:0:80:kick.wav
109,192,275273,128,0,275449:0:0:0:100:cymbal.wav
182,192,275273,128,0,275449:0:0:0:0:
329,192,275273,128,0,275361:0:0:0:0:
402,192,275273,128,0,275449:0:0:0:0:
475,192,275273,128,0,275449:0:0:0:0:
36,192,275537,128,0,275626:0:0:0:80:kick.wav
109,192,275537,128,0,275626:0:0:0:0:
329,192,275537,128,0,275626:0:0:0:0:
475,192,275537,128,0,275626:0:0:0:0:
256,192,275626,128,0,275714:0:0:0:80:kick.wav
402,192,275626,128,0,275714:0:0:0:0:
36,192,275714,128,0,275802:0:0:0:80:kick.wav
109,192,275714,128,0,275802:0:0:0:100:cymbal.wav
182,192,275714,128,0,275802:0:0:0:0:
329,192,275714,128,0,275802:0:0:0:0:
475,192,275714,128,0,275802:0:0:0:0:
109,192,275890,128,0,275978:0:0:0:0:
36,192,275890,128,0,276067:0:0:0:0:
475,192,275890,128,0,276067:0:0:0:0:
182,192,275978,128,0,276067:0:0:0:0:
329,192,275978,128,0,276067:0:0:0:0:
402,192,275978,128,0,276067:0:0:0:0:
36,192,276155,128,0,276331:0:0:0:0:
475,192,276155,128,0,276331:0:0:0:0:
402,192,276155,128,0,276243:0:0:0:0:
109,192,276243,128,0,276331:0:0:0:0:
182,192,276243,128,0,276331:0:0:0:0:
329,192,276243,128,0,276331:0:0:0:0:
109,192,276420,128,0,276508:0:0:0:80:kick.wav
36,192,276420,128,0,276596:0:0:0:70:snare.wav
475,192,276420,128,0,276596:0:0:0:0:
182,192,276508,128,0,276596:0:0:0:0:
329,192,276508,128,0,276596:0:0:0:0:
402,192,276508,128,0,276596:0:0:0:0:
109,192,276596,128,0,276684:0:0:0:80:kick.wav
256,192,276596,128,0,276684:0:0:0:0:
182,192,276684,128,0,276773:0:0:0:80:kick.wav
329,192,276684,128,0,276773:0:0:0:0:
475,192,276684,128,0,276773:0:0:0:0:
36,192,276773,128,0,276861:0:0:0:80:kick.wav
109,192,276773,128,0,276861:0:0:0:100:cymbal.wav
256,192,276773,128,0,276861:0:0:0:0:
402,192,276773,128,0,276861:0:0:0:0:
329,192,276861,128,0,277037:0:0:0:0:
475,192,276861,128,0,277037:0:0:0:0:
36,192,276949,128,0,277126:0:0:0:0:
182,192,276949,128,0,277126:0:0:0:0:
109,192,277126,128,0,277214:0:0:0:80:kick.wav
329,192,277126,128,0,277214:0:0:0:70:snare.wav
402,192,277126,128,0,277302:0:0:0:0:
475,192,277126,128,0,277302:0:0:0:0:
36,192,277214,128,0,277302:0:0:0:0:
182,192,277214,128,0,277302:0:0:0:0:
36,192,277390,128,0,277478:0:0:0:80:kick.wav
109,192,277390,128,0,277478:0:0:0:100:cymbal.wav
256,192,277390,128,0,277478:0:0:0:0:
402,192,277390,128,0,277478:0:0:0:0:
475,192,277390,128,0,277478:0:0:0:0:
36,192,277567,128,0,277655:0:0:0:80:kick.wav
109,192,277567,128,0,277655:0:0:0:100:cymbal.wav
256,192,277567,128,0,277743:0:0:0:0:
402,192,277567,128,0,277743:0:0:0:0:
475,192,277567,128,0,277743:0:0:0:0:
182,192,277655,128,0,277743:0:0:0:0:
329,192,277655,128,0,277743:0:0:0:0:
36,192,277831,128,0,278008:0:0:0:80:kick.wav
109,192,277831,128,0,278008:0:0:0:100:cymbal.wav
256,192,277831,128,0,278008:0:0:0:0:
402,192,277831,1,0,0:0:0:0:
475,192,277831,1,0,0:0:0:0:
182,192,277920,128,0,278008:0:0:0:80:kick.wav
329,192,277920,128,0,278008:0:0:0:100:cymbal.wav
402,192,277920,1,0,0:0:0:0:
475,192,277920,1,0,0:0:0:0:
36,192,278096,128,0,278361:0:0:0:80:kick.wav
182,192,278096,128,0,278184:0:0:0:100:cymbal.wav
256,192,278096,128,0,278273:0:0:0:0:
402,192,278096,128,0,278184:0:0:0:0:
475,192,278096,128,0,278273:0:0:0:0:
109,192,278273,128,0,278449:0:0:0:0:
329,192,278273,128,0,278361:0:0:0:0:
182,192,278361,128,0,278537:0:0:0:80:kick.wav
256,192,278361,128,0,278449:0:0:0:0:
402,192,278361,128,0,278449:0:0:0:0:
329,192,278449,128,0,278626:0:0:0:0:
475,192,278449,128,0,278537:0:0:0:0:
36,192,278537,128,0,278626:0:0:0:80:kick.wav
109,192,278537,128,0,278626:0:0:0:70:snare.wav
256,192,278537,128,0,278714:0:0:0:0:
182,192,278626,128,0,278802:0:0:0:0:
475,192,278626,128,0,278714:0:0:0:0:
36,192,278714,128,0,278802:0:0:0:0:
329,192,278714,128,0,278890:0:0:0:0:
402,192,278802,128,0,278890:0:0:0:0:
475,192,278802,128,0,278890:0:0:0:0:
36,192,278890,1,0,0:0:0:80:kick.wav
109,192,278890,1,0,0:0:0:0:
182,192,278890,1,0,0:0:0:0:
36,192,278978,128,0,279155:0:0:0:80:kick.wav
256,192,278978,128,0,279155:0:0:0:100:cymbal.wav
329,192,278978,128,0,279067:0:0:0:0:
402,192,278978,128,0,279067:0:0:0:0:
475,192,278978,128,0,279155:0:0:0:0:
329,192,279155,128,0,279420:0:0:0:0:
402,192,279155,128,0,279420:0:0:0:0:
36,192,279243,128,0,279420:0:0:0:80:kick.wav
109,192,279243,128,0,279331:0:0:0:100:cymbal.wav
182,192,279243,128,0,279331:0:0:0:0:
256,192,279243,128,0,279420:0:0:0:0:
475,192,279243,128,0,279420:0:0:0:0:
109,192,279420,128,0,279684:0:0:0:0:
182,192,279420,128,0,279684:0:0:0:0:
36,192,279508,128,0,279684:0:0:0:80:kick.wav
256,192,279508,128,0,279684:0:0:0:100:cymbal.wav
329,192,279508,128,0,279684:0:0:0:0:
402,192,279508,128,0,279684:0:0:0:0:
475,192,279508,128,0,279684:0:0:0:0:
36,192,279773,128,0,279861:0:0:0:80:kick.wav
109,192,279773,128,0,279861:0:0:0:100:cymbal.wav
182,192,279773,128,0,279861:0:0:0:0:
402,192,279773,128,0,279861:0:0:0:0:
475,192,279773,128,0,279861:0:0:0:0:
256,192,279861,128,0,279949:0:0:0:0:
36,192,279949,128,0,280037:0:0:0:80:kick.wav
109,192,279949,128,0,280037:0:0:0:100:cymbal.wav
329,192,279949,128,0,280037:0:0:0:0:
402,192,279949,128,0,280037:0:0:0:0:
475,192,279949,128,0,280037:0:0:0:0:
182,192,280037,128,0,280126:0:0:0:0:
36,192,280126,128,0,280302:0:0:0:80:kick.wav
109,192,280126,128,0,280302:0:0:0:100:cymbal.wav
256,192,280126,128,0,280302:0:0:0:0:
329,192,280126,128,0,280302:0:0:0:0:
402,192,280126,128,0,280302:0:0:0:0:
475,192,280126,128,0,280302:0:0:0:0:
36,192,280390,128,0,280567:0:0:0:80:kick.wav
182,192,280390,128,0,280478:0:0:0:100:cymbal.wav
329,192,280390,128,0,280567:0:0:0:0:
402,192,280390,128,0,280478:0:0:0:0:
475,192,280390,128,0,280567:0:0:0:0:
109,192,280478,128,0,280567:0:0:0:0:
256,192,280478,128,0,280567:0:0:0:0:
36,192,280655,1,0,0:0:0:80:kick.wav
109,192,280655,1,0,0:0:0:100:cymbal.wav
182,192,280655,1,0,0:0:0:0:
329,192,280655,1,0,0:0:0:0:
402,192,280655,1,0,0:0:0:0:
109,192,280743,128,0,280831:0:0:0:80:kick.wav
182,192,280743,128,0,280831:0:0:0:100:cymbal.wav
329,192,280743,128,0,280831:0:0:0:0:
402,192,280743,128,0,280831:0:0:0:0:
475,192,280743,128,0,280831:0:0:0:0:
36,192,280920,128,0,281096:0:0:0:80:kick.wav
109,192,280920,128,0,281096:0:0:0:100:cymbal.wav
256,192,280920,128,0,281096:0:0:0:70:windchime.wav
402,192,280920,128,0,281273:0:0:0:0:
475,192,280920,128,0,281273:0:0:0:0:
36,192,281184,128,0,281273:0:0:0:80:kick.wav
109,192,281184,128,0,281273:0:0:0:0:
182,192,281184,128,0,281273:0:0:0:0:
329,192,281184,128,0,281273:0:0:0:0:
36,192,281361,128,0,281449:0:0:0:80:kick.wav
109,192,281361,128,0,281537:0:0:0:70:snare.wav
256,192,281361,128,0,281626:0:0:0:0:
329,192,281361,128,0,281449:0:0:0:0:
182,192,281449,128,0,281626:0:0:0:0:
402,192,281449,128,0,281537:0:0:0:0:
475,192,281449,128,0,281537:0:0:0:0:
36,192,281537,128,0,281626:0:0:0:0:
329,192,281537,128,0,281626:0:0:0:0:
109,192,281626,128,0,281714:0:0:0:0:
402,192,281626,128,0,281802:0:0:0:0:
475,192,281626,128,0,282067:0:0:0:0:
36,192,281714,128,0,281978:0:0:0:80:kick.wav
182,192,281714,128,0,281802:0:0:0:0:
256,192,281714,128,0,281890:0:0:0:0:
182,192,281890,128,0,281978:0:0:0:0:
402,192,281890,128,0,282067:0:0:0:0:
109,192,281978,128,0,282067:0:0:0:0:
329,192,281978,128,0,282067:0:0:0:0:
36,192,282067,128,0,282155:0:0:0:80:kick.wav
182,192,282067,128,0,282243:0:0:0:70:snare.wav
256,192,282067,128,0,282331:0:0:0:0:
329,192,282155,128,0,282331:0:0:0:0:
402,192,282155,128,0,282243:0:0:0:0:
475,192,282155,128,0,282243:0:0:0:0:
36,192,282243,128,0,282331:0:0:0:0:
109,192,282243,128,0,282331:0:0:0:0:
182,192,282331,128,0,282508:0:0:0:0:
402,192,282331,128,0,282420:0:0:0:0:
475,192,282331,128,0,282773:0:0:0:0:
36,192,282420,128,0,282684:0:0:0:80:kick.wav
109,192,282420,128,0,282596:0:0:0:0:
329,192,282420,128,0,282508:0:0:0:0:
182,192,282596,128,0,282684:0:0:0:0:
329,192,282596,128,0,282773:0:0:0:0:
402,192,282596,128,0,282773:0:0:0:0:
36,192,282773,128,0,282949:0:0:0:80:kick.wav
109,192,282773,128,0,282861:0:0:0:70:snare.wav
256,192,282773,128,0,283037:0:0:0:0:
329,192,282861,128,0,282949:0:0:0:0:
402,192,282861,128,0,282949:0:0:0:0:
475,192,282861,128,0,282949:0:0:0:0:
109,192,282949,128,0,283037:0:0:0:0:
182,192,282949,128,0,283037:0:0:0:0:
329,192,283037,128,0,283126:0:0:0:0:
402,192,283037,128,0,283126:0:0:0:0:
475,192,283037,128,0,283126:0:0:0:0:
36,192,283126,128,0,283390:0:0:0:80:kick.wav
109,192,283126,128,0,283214:0:0:0:0:
182,192,283126,128,0,283214:0:0:0:0:
256,192,283214,128,0,283302:0:0:0:0:
329,192,283214,128,0,283302:0:0:0:0:
475,192,283214,128,0,283302:0:0:0:0:
109,192,283302,128,0,283390:0:0:0:0:
182,192,283302,128,0,283390:0:0:0:0:
402,192,283302,128,0,283390:0:0:0:0:
329,192,283390,128,0,283478:0:0:0:0:
475,192,283390,128,0,283478:0:0:0:0:
36,192,283478,128,0,283567:0:0:0:80:kick.wav
109,192,283478,128,0,283655:0:0:0:70:snare.wav
256,192,283478,128,0,283743:0:0:0:0:
182,192,283567,128,0,283743:0:0:0:0:
402,192,283567,128,0,283655:0:0:0:0:
475,192,283567,128,0,283655:0:0:0:0:
36,192,283655,128,0,283743:0:0:0:0:
329,192,283655,128,0,283743:0:0:0:0:
109,192,283743,128,0,283831:0:0:0:0:
402,192,283743,128,0,283920:0:0:0:0:
475,192,283743,128,0,284184:0:0:0:0:
36,192,283831,128,0,284096:0:0:0:80:kick.wav
182,192,283831,128,0,283920:0:0:0:0:
256,192,283831,128,0,284008:0:0:0:0:
109,192,284008,128,0,284096:0:0:0:0:
402,192,284008,128,0,284184:0:0:0:0:
182,192,284096,128,0,284184:0:0:0:0:
329,192,284096,128,0,284184:0:0:0:0:
36,192,284184,128,0,284273:0:0:0:80:kick.wav
109,192,284184,128,0,284361:0:0:0:70:snare.wav
256,192,284184,128,0,284449:0:0:0:0:
182,192,284273,128,0,284449:0:0:0:0:
402,192,284273,128,0,284361:0:0:0:0:
475,192,284273,128,0,284361:0:0:0:0:
36,192,284361,128,0,284449:0:0:0:0:
329,192,284361,128,0,284449:0:0:0:0:
109,192,284449,128,0,284537:0:0:0:0:
402,192,284449,128,0,284626:0:0:0:0:
475,192,284449,128,0,284890:0:0:0:0:
36,192,284537,128,0,284802:0:0:0:80:kick.wav
256,192,284537,128,0,284714:0:0:0:0:
182,192,284537,128,0,284626:0:0:0:0:
109,192,284714,128,0,284802:0:0:0:0:
329,192,284714,128,0,284890:0:0:0:0:
402,192,284714,128,0,284890:0:0:0:0:
36,192,284890,128,0,284978:0:0:0:80:kick.wav
182,192,284890,128,0,284978:0:0:0:70:snare.wav
256,192,284890,128,0,285155:0:0:0:0:
329,192,284978,128,0,285067:0:0:0:0:
402,192,284978,128,0,285067:0:0:0:0:
475,192,284978,128,0,285067:0:0:0:0:
36,192,285067,128,0,285155:0:0:0:0:
109,192,285067,128,0,285155:0:0:0:0:
182,192,285155,128,0,285243:0:0:0:0:
329,192,285155,128,0,285508:0:0:0:0:
475,192,285155,128,0,285243:0:0:0:0:
36,192,285243,128,0,285508:0:0:0:80:kick.wav
109,192,285243,128,0,285420:0:0:0:0:
256,192,285243,128,0,285331:0:0:0:0:
256,192,285420,128,0,285508:0:0:0:0:
402,192,285420,128,0,285508:0:0:0:0:
475,192,285420,128,0,285508:0:0:0:0:
182,192,285508,128,0,285596:0:0:0:0:
36,192,285596,128,0,285684:0:0:0:80:kick.wav
109,192,285596,128,0,285684:0:0:0:70:snare.wav
329,192,285596,128,0,285684:0:0:0:0:
475,192,285596,128,0,285684:0:0:0:0:
182,192,285684,128,0,285773:0:0:0:0:
256,192,285773,128,0,285861:0:0:0:0:
402,192,285773,128,0,285861:0:0:0:0:
475,192,285773,128,0,285861:0:0:0:0:
36,192,285949,128,0,286126:0:0:0:80:kick.wav
109,192,285949,128,0,286037:0:0:0:100:cymbal.wav
256,192,285949,128,0,286037:0:0:0:0:
329,192,285949,128,0,286037:0:0:0:0:
475,192,285949,128,0,286126:0:0:0:0:
182,192,286037,128,0,286126:0:0:0:80:kick.wav
402,192,286037,128,0,286126:0:0:0:100:cymbal.wav
36,192,286214,128,0,286302:0:0:0:80:kick.wav
109,192,286214,128,0,286302:0:0:0:100:cymbal.wav
182,192,286214,128,0,286302:0:0:0:0:
256,192,286214,128,0,286302:0:0:0:0:
475,192,286214,128,0,286302:0:0:0:0:
329,192,286302,128,0,286390:0:0:0:0:
36,192,286390,128,0,286478:0:0:0:80:kick.wav
109,192,286390,128,0,286478:0:0:0:100:cymbal.wav
182,192,286390,128,0,286478:0:0:0:0:
402,192,286390,128,0,286478:0:0:0:0:
475,192,286390,128,0,286478:0:0:0:0:
256,192,286478,128,0,286567:0:0:0:0:
36,192,286567,128,0,286743:0:0:0:80:kick.wav
109,192,286567,128,0,286743:0:0:0:100:cymbal.wav
182,192,286567,128,0,286655:0:0:0:0:
329,192,286567,128,0,286743:0:0:0:0:
402,192,286567,128,0,286743:0:0:0:0:
475,192,286567,128,0,286743:0:0:0:0:
36,192,286831,128,0,286920:0:0:0:80:kick.wav
256,192,286831,128,0,286920:0:0:0:0:
402,192,286831,128,0,286920:0:0:0:0:
475,192,286831,128,0,286920:0:0:0:0:
109,192,286920,128,0,287008:0:0:0:80:kick.wav
182,192,286920,128,0,287008:0:0:0:0:
36,192,287008,128,0,287184:0:0:0:80:kick.wav
256,192,287008,128,0,287096:0:0:0:100:cymbal.wav
329,192,287008,128,0,287096:0:0:0:0:
402,192,287008,128,0,287184:0:0:0:0:
475,192,287008,128,0,287184:0:0:0:0:
109,192,287096,128,0,287184:0:0:0:0:
182,192,287096,128,0,287184:0:0:0:0:
402,192,287273,128,0,287361:0:0:0:0:
475,192,287273,128,0,287361:0:0:0:0:
36,192,287361,1,0,0:0:0:80:kick.wav
109,192,287361,1,0,0:0:0:0:
329,192,287361,1,0,0:0:0:0:
182,192,287449,128,0,287626:0:0:0:0:
256,192,287449,128,0,287537:0:0:0:0:
402,192,287449,128,0,287714:0:0:0:0:
475,192,287449,128,0,287890:0:0:0:0:
36,192,287537,128,0,287626:0:0:0:0:
109,192,287537,128,0,287626:0:0:0:0:
256,192,287626,128,0,287802:0:0:0:0:
329,192,287626,128,0,287714:0:0:0:0:
36,192,287714,128,0,287978:0:0:0:80:kick.wav
109,192,287714,128,0,287802:0:0:0:70:snare.wav
182,192,287714,128,0,287802:0:0:0:0:
329,192,287802,128,0,287978:0:0:0:0:
402,192,287802,128,0,287890:0:0:0:0:
109,192,287890,128,0,287978:0:0:0:80:kick.wav
182,192,287890,128,0,288067:0:0:0:0:
256,192,287890,128,0,287978:0:0:0:0:
402,192,287978,128,0,288067:0:0:0:0:
475,192,287978,128,0,288067:0:0:0:0:
36,192,288067,128,0,288243:0:0:0:80:kick.wav
109,192,288067,128,0,288243:0:0:0:100:cymbal.wav
256,192,288067,128,0,288243:0:0:0:0:
329,192,288067,128,0,288243:0:0:0:0:
475,192,288243,1,0,0:0:0:0:
182,192,288331,128,0,288420:0:0:0:0:
402,192,288331,128,0,288420:0:0:0:0:
109,192,288420,1,0,0:0:0:80:kick.wav
329,192,288420,1,0,0:0:0:70:snare.wav
475,192,288420,1,0,0:0:0:0:
36,192,288508,128,0,288890:0:0:0:0:
256,192,288508,128,0,288949:0:0:0:0:
109,192,288684,128,0,288949:0:0:0:0:
329,192,288684,128,0,288890:0:0:0:0:
182,192,288773,1,0,0:0:0:80:kick.wav
402,192,288773,1,0,0:0:0:0:
475,192,288773,1,0,0:0:0:0:
182,192,288949,128,0,289008:0:0:0:0:
402,192,288949,128,0,289008:0:0:0:0:
36,192,289008,128,0,289067:0:0:0:0:
329,192,289008,128,0,289067:0:0:0:0:
109,192,289067,128,0,289126:0:0:0:0:
256,192,289067,128,0,289126:0:0:0:0:
182,192,289126,128,0,289184:0:0:0:80:kick.wav
402,192,289126,1,0,0:0:0:70:snare.wav
475,192,289126,1,0,0:0:0:0:
36,192,289302,1,0,0:0:0:80:kick.wav
109,192,289302,128,0,289390:0:0:0:0:
329,192,289302,128,0,289390:0:0:0:0:
475,192,289302,1,0,0:0:0:0:
182,192,289390,128,0,289478:0:0:0:0:
402,192,289390,128,0,289478:0:0:0:0:
36,192,289478,128,0,289655:0:0:0:80:kick.wav
109,192,289478,128,0,289655:0:0:0:100:cymbal.wav
256,192,289478,128,0,289655:0:0:0:0:
329,192,289478,1,0,0:0:0:0:
475,192,289478,128,0,289655:0:0:0:0:
329,192,289655,1,0,0:0:0:0:
182,192,289743,128,0,289831:0:0:0:0:
402,192,289743,128,0,289831:0:0:0:0:
109,192,289831,1,0,0:0:0:80:kick.wav
329,192,289831,1,0,0:0:0:70:snare.wav
475,192,289831,1,0,0:0:0:0:
36,192,289920,128,0,290302:0:0:0:0:
256,192,289920,128,0,290096:0:0:0:0:
109,192,290096,128,0,290361:0:0:0:0:
329,192,290096,128,0,290302:0:0:0:0:
182,192,290184,1,0,0:0:0:80:kick.wav
402,192,290184,1,0,0:0:0:100:cymbal.wav
475,192,290184,1,0,0:0:0:0:
256,192,290184,128,0,290361:0:0:0:0:
182,192,290361,128,0,290420:0:0:0:0:
402,192,290361,128,0,290420:0:0:0:0:
36,192,290420,128,0,290478:0:0:0:0:
329,192,290420,128,0,290478:0:0:0:0:
109,192,290478,128,0,290537:0:0:0:0:
256,192,290478,128,0,290537:0:0:0:0:
182,192,290537,128,0,290596:0:0:0:80:kick.wav
402,192,290537,1,0,0:0:0:70:snare.wav
475,192,290537,1,0,0:0:0:0:
36,192,290626,1,0,0:0:0:80:kick.wav
109,192,290626,1,0,0:0:0:0:
329,192,290626,1,0,0:0:0:0:
182,192,290714,1,0,0:0:0:80:kick.wav
402,192,290714,1,0,0:0:0:0:
475,192,290714,1,0,0:0:0:0:
36,192,290802,1,0,0:0:0:80:kick.wav
109,192,290802,1,0,0:0:0:0:
256,192,290802,1,0,0:0:0:0:
36,192,290890,1,0,0:0:0:80:kick.wav
182,192,290890,1,0,0:0:0:0:
329,192,290890,1,0,0:0:0:0:
402,192,290890,1,0,0:0:0:0:
475,192,290890,1,0,0:0:0:0:
329,192,290978,1,0,0:0:0:80:kick.wav
402,192,290978,1,0,0:0:0:0:
475,192,290978,1,0,0:0:0:0:
36,192,291155,1,0,0:0:0:80:kick.wav
182,192,291155,1,0,0:0:0:0:
329,192,291155,1,0,0:0:0:0:
402,192,291155,1,0,0:0:0:0:
475,192,291155,1,0,0:0:0:0:
36,192,291331,1,0,0:0:0:80:kick.wav
182,192,291331,1,0,0:0:0:0:
329,192,291331,1,0,0:0:0:0:
402,192,291331,1,0,0:0:0:0:
475,192,291331,1,0,0:0:0:0:
36,192,291508,1,0,0:0:0:80:kick.wav
182,192,291508,1,0,0:0:0:0:
329,192,291508,1,0,0:0:0:0:
402,192,291508,1,0,0:0:0:0:
475,192,291508,1,0,0:0:0:0:
475,192,291640,128,0,291728:0:0:0:0:
402,192,291684,128,0,291773:0:0:0:0:
329,192,291728,128,0,291817:0:0:0:0:
256,192,291773,128,0,291861:0:0:0:0:
182,192,291817,128,0,291905:0:0:0:0:
109,192,291861,128,0,291949:0:0:0:0:
36,192,291905,128,0,291993:0:0:0:0:
475,192,291949,128,0,292037:0:0:0:0:
402,192,291993,128,0,292081:0:0:0:0:
329,192,292037,128,0,292126:0:0:0:0:
256,192,292081,128,0,292324:0:0:0:0:
36,192,292126,128,0,292390:0:0:0:80:kick.wav
109,192,292126,128,0,292368:0:0:0:100:cymbal.wav
182,192,292126,128,0,292346:0:0:0:70:windchime.wav
402,192,292126,128,0,292390:0:0:0:0:
475,192,292126,128,0,292390:0:0:0:0:
36,192,292478,128,0,292567:0:0:0:80:kick.wav
109,192,292478,128,0,292655:0:0:0:0:
329,192,292478,128,0,292567:0:0:0:0:
402,192,292478,128,0,292567:0:0:0:0:
475,192,292478,128,0,292567:0:0:0:0:
182,192,292567,128,0,292655:0:0:0:0:
256,192,292567,128,0,292743:0:0:0:0:
36,192,292655,128,0,292831:0:0:0:80:kick.wav
329,192,292655,128,0,292743:0:0:0:0:
402,192,292655,128,0,292920:0:0:0:0:
475,192,292655,128,0,292920:0:0:0:0:
109,192,292743,128,0,292831:0:0:0:0:
182,192,292743,128,0,292920:0:0:0:0:
256,192,292831,128,0,292920:0:0:0:0:
329,192,292831,128,0,293008:0:0:0:0:
36,192,292920,128,0,293008:0:0:0:0:
109,192,292920,128,0,293096:0:0:0:0:
182,192,293008,128,0,293096:0:0:0:80:kick.wav
256,192,293008,128,0,293184:0:0:0:100:cymbal.wav
402,192,293008,128,0,293184:0:0:0:0:
475,192,293008,128,0,293184:0:0:0:0:
36,192,293096,128,0,293273:0:0:0:0:
329,192,293096,128,0,293184:0:0:0:0:
109,192,293184,128,0,293273:0:0:0:0:
182,192,293184,128,0,293361:0:0:0:0:
256,192,293273,128,0,293361:0:0:0:80:kick.wav
329,192,293273,128,0,293361:0:0:0:100:cymbal.wav
402,192,293273,128,0,293449:0:0:0:0:
475,192,293273,128,0,293449:0:0:0:0:
182,192,293449,128,0,293537:0:0:0:0:
329,192,293449,128,0,293537:0:0:0:0:
36,192,293537,128,0,293824:0:0:0:80:kick.wav
109,192,293537,128,0,293824:0:0:0:100:cymbal.wav
256,192,293537,128,0,293780:0:0:0:0:
402,192,293537,128,0,293802:0:0:0:0:
475,192,293537,128,0,293824:0:0:0:0:
36,192,293890,128,0,293978:0:0:0:80:kick.wav
109,192,293890,128,0,293978:0:0:0:0:
256,192,293890,128,0,294067:0:0:0:0:
402,192,293890,128,0,293978:0:0:0:0:
475,192,293890,128,0,293978:0:0:0:0:
182,192,293978,128,0,294067:0:0:0:0:
329,192,293978,128,0,294155:0:0:0:0:
36,192,294067,128,0,294243:0:0:0:80:kick.wav
109,192,294067,128,0,294155:0:0:0:0:
402,192,294067,128,0,294331:0:0:0:0:
475,192,294067,128,0,294331:0:0:0:0:
182,192,294155,128,0,294331:0:0:0:0:
256,192,294155,128,0,294243:0:0:0:0:
109,192,294243,128,0,294331:0:0:0:0:
329,192,294243,128,0,294420:0:0:0:0:
36,192,294331,128,0,294420:0:0:0:0:
256,192,294331,128,0,294508:0:0:0:0:
109,192,294420,128,0,294596:0:0:0:80:kick.wav
182,192,294420,128,0,294508:0:0:0:100:cymbal.wav
402,192,294420,128,0,294596:0:0:0:0:
475,192,294420,128,0,294596:0:0:0:0:
36,192,294508,128,0,294596:0:0:0:0:
329,192,294508,128,0,294684:0:0:0:0:
182,192,294596,128,0,294773:0:0:0:0:
256,192,294596,128,0,294773:0:0:0:0:
36,192,294684,128,0,294861:0:0:0:80:kick.wav
109,192,294684,128,0,294861:0:0:0:100:cymbal.wav
402,192,294684,128,0,294773:0:0:0:0:
475,192,294684,128,0,294773:0:0:0:0:
256,192,294861,128,0,294949:0:0:0:0:
329,192,294861,128,0,294949:0:0:0:0:
36,192,294949,128,0,295214:0:0:0:80:kick.wav
109,192,294949,128,0,295192:0:0:0:100:cymbal.wav
182,192,294949,128,0,295170:0:0:0:0:
402,192,294949,128,0,295214:0:0:0:0:
475,192,294949,128,0,295214:0:0:0:0:
36,192,295302,128,0,295390:0:0:0:80:kick.wav
109,192,295302,128,0,295390:0:0:0:0:
329,192,295302,128,0,295478:0:0:0:0:
402,192,295302,128,0,295390:0:0:0:0:
475,192,295302,128,0,295390:0:0:0:0:
182,192,295390,128,0,295567:0:0:0:0:
256,192,295390,128,0,295478:0:0:0:0:
36,192,295478,128,0,295655:0:0:0:80:kick.wav
109,192,295478,128,0,295567:0:0:0:0:
402,192,295478,128,0,295743:0:0:0:0:
475,192,295478,128,0,295743:0:0:0:0:
256,192,295567,128,0,295743:0:0:0:0:
329,192,295567,128,0,295655:0:0:0:0:
109,192,295655,128,0,295920:0:0:0:0:
182,192,295655,128,0,295743:0:0:0:0:
36,192,295743,128,0,295831:0:0:0:0:
329,192,295743,128,0,295831:0:0:0:0:
182,192,295831,128,0,295920:0:0:0:80:kick.wav
256,192,295831,128,0,296008:0:0:0:100:cymbal.wav
402,192,295831,128,0,296008:0:0:0:0:
475,192,295831,128,0,296008:0:0:0:0:
36,192,295920,128,0,296096:0:0:0:0:
329,192,295920,128,0,296008:0:0:0:0:
109,192,296008,128,0,296184:0:0:0:0:
182,192,296008,128,0,296273:0:0:0:0:
256,192,296096,128,0,296273:0:0:0:80:kick.wav
329,192,296096,128,0,296273:0:0:0:100:cymbal.wav
402,192,296096,128,0,296273:0:0:0:0:
475,192,296096,128,0,296273:0:0:0:0:
36,192,296273,128,0,296361:0:0:0:0:
109,192,296273,128,0,296361:0:0:0:0:
182,192,296361,1,0,0:0:0:80:kick.wav
256,192,296361,1,0,0:0:0:100:cymbal.wav
329,192,296361,1,0,0:0:0:0:
402,192,296361,1,0,0:0:0:0:
475,192,296361,1,0,0:0:0:0:
109,192,296714,1,0,0:0:0:80:kick.wav
182,192,296714,1,0,0:0:0:100:cymbal.wav
256,192,296714,1,0,0:0:0:0:
329,192,296714,1,0,0:0:0:0:
402,192,296714,1,0,0:0:0:0:
36,192,297067,1,0,0:0:0:80:kick.wav
109,192,297067,1,0,0:0:0:100:cymbal.wav
182,192,297067,1,0,0:0:0:0:
256,192,297067,1,0,0:0:0:0:
329,192,297067,1,0,0:0:0:0:
109,192,297420,1,0,0:0:0:80:kick.wav
182,192,297420,1,0,0:0:0:100:cymbal.wav
256,192,297420,1,0,0:0:0:0:
329,192,297420,1,0,0:0:0:0:
402,192,297420,1,0,0:0:0:0:
36,192,297773,128,0,298037:0:0:0:80:kick.wav
109,192,297773,128,0,298015:0:0:0:100:cymbal.wav
256,192,297773,128,0,297993:0:0:0:0:
402,192,297773,128,0,298037:0:0:0:0:
475,192,297773,128,0,298037:0:0:0:0:
36,192,298126,128,0,298214:0:0:0:80:kick.wav
109,192,298126,128,0,298214:0:0:0:0:
182,192,298126,128,0,298214:0:0:0:0:
402,192,298126,128,0,298302:0:0:0:0:
475,192,298126,128,0,298214:0:0:0:0:
256,192,298214,128,0,298390:0:0:0:0:
329,192,298214,128,0,298302:0:0:0:0:
36,192,298302,128,0,298567:0:0:0:80:kick.wav
109,192,298302,128,0,298567:0:0:0:0:
182,192,298302,128,0,298390:0:0:0:0:
475,192,298302,128,0,298478:0:0:0:0:
329,192,298390,128,0,298567:0:0:0:0:
402,192,298390,128,0,298478:0:0:0:0:
182,192,298478,128,0,298655:0:0:0:0:
256,192,298478,128,0,298567:0:0:0:0:
402,192,298567,128,0,298743:0:0:0:0:
475,192,298567,128,0,298655:0:0:0:0:
36,192,298655,128,0,298831:0:0:0:80:kick.wav
109,192,298655,128,0,298831:0:0:0:100:cymbal.wav
256,192,298655,128,0,298831:0:0:0:0:
329,192,298655,128,0,298743:0:0:0:0:
182,192,298743,128,0,298831:0:0:0:0:
475,192,298743,128,0,298920:0:0:0:0:
329,192,298831,128,0,299008:0:0:0:0:
402,192,298831,128,0,298920:0:0:0:0:
36,192,298920,128,0,299096:0:0:0:80:kick.wav
109,192,298920,128,0,299096:0:0:0:100:cymbal.wav
182,192,298920,128,0,299008:0:0:0:0:
256,192,298920,128,0,299008:0:0:0:0:
182,192,299096,128,0,299184:0:0:0:0:
329,192,299096,128,0,299184:0:0:0:0:
36,192,299184,128,0,299449:0:0:0:80:kick.wav
109,192,299184,128,0,299449:0:0:0:100:cymbal.wav
256,192,299184,128,0,299405:0:0:0:0:
402,192,299184,128,0,299427:0:0:0:0:
475,192,299184,128,0,299449:0:0:0:0:
36,192,299537,128,0,299626:0:0:0:80:kick.wav
109,192,299537,128,0,299626:0:0:0:0:
256,192,299537,128,0,299714:0:0:0:0:
402,192,299537,128,0,299626:0:0:0:0:
475,192,299537,128,0,299626:0:0:0:0:
182,192,299626,128,0,299802:0:0:0:0:
329,192,299626,128,0,299714:0:0:0:0:
36,192,299714,128,0,299978:0:0:0:80:kick.wav
109,192,299714,128,0,299978:0:0:0:0:
402,192,299714,128,0,299802:0:0:0:0:
475,192,299714,128,0,299890:0:0:0:0:
256,192,299802,128,0,299890:0:0:0:0:
329,192,299802,128,0,299978:0:0:0:0:
182,192,299890,128,0,300067:0:0:0:0:
402,192,299890,128,0,299978:0:0:0:0:
256,192,299978,128,0,300155:0:0:0:0:
475,192,299978,128,0,300067:0:0:0:0:
36,192,300067,128,0,300243:0:0:0:80:kick.wav
109,192,300067,128,0,300243:0:0:0:100:cymbal.wav
329,192,300067,128,0,300155:0:0:0:0:
402,192,300067,128,0,300243:0:0:0:0:
182,192,300155,128,0,300331:0:0:0:0:
475,192,300155,128,0,300243:0:0:0:0:
256,192,300243,128,0,300420:0:0:0:0:
329,192,300243,128,0,300420:0:0:0:0:
36,192,300331,128,0,300420:0:0:0:80:kick.wav
109,192,300331,128,0,300420:0:0:0:100:cymbal.wav
402,192,300331,128,0,300508:0:0:0:0:
475,192,300331,128,0,300508:0:0:0:0:
182,192,300508,128,0,300596:0:0:0:0:
256,192,300508,128,0,300596:0:0:0:0:
36,192,300596,128,0,300861:0:0:0:80:kick.wav
109,192,300596,128,0,300861:0:0:0:100:cymbal.wav
329,192,300596,128,0,300839:0:0:0:0:
402,192,300596,128,0,300817:0:0:0:0:
475,192,300596,128,0,300795:0:0:0:0:
36,192,300949,128,0,301037:0:0:0:80:kick.wav
109,192,300949,128,0,301037:0:0:0:0:
182,192,300949,128,0,301126:0:0:0:0:
402,192,300949,128,0,301037:0:0:0:0:
475,192,300949,128,0,301037:0:0:0:0:
256,192,301037,128,0,301126:0:0:0:0:
329,192,301037,128,0,301214:0:0:0:0:
36,192,301126,128,0,301390:0:0:0:80:kick.wav
109,192,301126,128,0,301390:0:0:0:0:
402,192,301126,128,0,301214:0:0:0:0:
475,192,301126,128,0,301302:0:0:0:0:
182,192,301214,128,0,301302:0:0:0:0:
256,192,301214,128,0,301390:0:0:0:0:
329,192,301302,128,0,301390:0:0:0:0:
402,192,301302,128,0,301567:0:0:0:0:
182,192,301390,128,0,301478:0:0:0:0:
475,192,301390,128,0,301478:0:0:0:0:
36,192,301478,128,0,301655:0:0:0:80:kick.wav
109,192,301478,128,0,301655:0:0:0:100:cymbal.wav
256,192,301478,128,0,301655:0:0:0:0:
329,192,301478,128,0,301567:0:0:0:0:
182,192,301567,128,0,301655:0:0:0:0:
475,192,301567,128,0,301743:0:0:0:0:
329,192,301655,128,0,301920:0:0:0:0:
402,192,301655,128,0,301831:0:0:0:0:
36,192,301743,128,0,301920:0:0:0:80:kick.wav
109,192,301743,128,0,301920:0:0:0:100:cymbal.wav
182,192,301743,128,0,301920:0:0:0:0:
256,192,301743,128,0,301920:0:0:0:0:
402,192,301920,128,0,302008:0:0:0:0:
475,192,301920,128,0,302008:0:0:0:0:
36,192,302008,1,0,0:0:0:80:kick.wav
109,192,302008,1,0,0:0:0:100:cymbal.wav
182,192,302008,1,0,0:0:0:0:
256,192,302008,1,0,0:0:0:0:
329,192,302008,1,0,0:0:0:0:
109,192,302361,1,0,0:0:0:80:kick.wav
182,192,302361,1,0,0:0:0:100:cymbal.wav
256,192,302361,1,0,0:0:0:0:
329,192,302361,1,0,0:0:0:0:
402,192,302361,1,0,0:0:0:0:
182,192,302714,1,0,0:0:0:80:kick.wav
256,192,302714,1,0,0:0:0:100:cymbal.wav
329,192,302714,1,0,0:0:0:0:
402,192,302714,1,0,0:0:0:0:
475,192,302714,1,0,0:0:0:0:
109,192,303067,1,0,0:0:0:80:kick.wav
182,192,303067,1,0,0:0:0:100:cymbal.wav
256,192,303067,1,0,0:0:0:0:
329,192,303067,1,0,0:0:0:0:
402,192,303067,1,0,0:0:0:0:
36,192,303420,128,0,306420:0:0:0:80:kick.wav
109,192,303420,128,0,305008:0:0:0:100:cymbal.wav
182,192,303420,128,0,304302:0:0:0:70:windchime.wav
329,192,303420,128,0,304302:0:0:0:0:
402,192,303420,128,0,304831:0:0:0:0:
475,192,303420,128,0,306420:0:0:0:0:
256,192,304302,128,0,304831:0:0:0:0:
329,192,304831,128,0,305714:0:0:0:0:
109,192,305184,128,0,305361:0:0:0:0:
109,192,305537,128,0,305890:0:0:0:0:
256,192,305537,128,0,305714:0:0:0:0:
182,192,305890,128,0,306420:0:0:0:0:
402,192,305890,128,0,306420:0:0:0:0:
109,192,306420,128,0,307126:0:0:0:0:
256,192,306420,128,0,306773:0:0:0:0:
402,192,306773,128,0,307126:0:0:0:0:
256,192,306949,128,0,307126:0:0:0:0:
182,192,307302,128,0,307478:0:0:0:0:
36,192,307655,128,0,309243:0:0:0:0:
109,192,308361,128,0,308449:0:0:0:0:
182,192,308714,128,0,308802:0:0:0:0:
256,192,308890,128,0,308978:0:0:0:0:
329,192,309067,128,0,309155:0:0:0:0:
256,192,309243,128,0,310545:0:0:0:0:
402,192,309243,128,0,309331:0:0:0:0:
475,192,309243,128,0,309993:0:0:0:0:
36,192,310184,128,0,310273:0:0:0:0:
402,192,310361,128,0,310453:0:0:0:0:
109,192,310545,128,0,312045:0:0:0:0:
182,192,310545,128,0,310638:0:0:0:0:
329,192,310545,128,0,311420:0:0:0:0:
36,192,311670,128,0,311763:0:0:0:0:
475,192,311857,128,0,311951:0:0:0:0:
36,192,312045,128,0,313833:0:0:0:0:
182,192,312045,128,0,312144:0:0:0:0:
256,192,312045,128,0,312972:0:0:0:0:
402,192,313038,128,0,313137:0:0:0:0:
109,192,313435,128,0,313535:0:0:0:0:
182,192,313833,128,0,314632:0:0:0:0:
402,192,313833,128,0,313932:0:0:0:0:
109,192,314230,128,0,314330:0:0:0:0:
36,192,314632,128,0,314732:0:0:0:0:
329,192,314632,128,0,315451:0:0:0:0:
109,192,315034,128,0,315139:0:0:0:0:
402,192,315451,128,0,315555:0:0:0:0:
475,192,315451,128,0,317162:0:0:0:0:
256,192,316076,128,0,316184:0:0:0:0:
182,192,316728,128,0,316836:0:0:0:0:
182,192,317162,128,0,317270:0:0:0:0:
329,192,317162,128,0,318882:0:0:0:0:
109,192,317596,128,0,317704:0:0:0:0:
36,192,318025,128,0,318132:0:0:0:0:
109,192,318454,128,0,318561:0:0:0:0:
182,192,318882,128,0,320710:0:0:0:0:
256,192,318882,128,0,318994:0:0:0:0:
402,192,319558,128,0,319672:0:0:0:0:
475,192,320245,128,0,320361:0:0:0:0:
36,192,320710,128,0,321640:0:0:0:0:
402,192,320710,128,0,320826:0:0:0:0:
182,192,321640,128,0,322570:0:0:0:0:
329,192,321640,128,0,321756:0:0:0:0:
256,192,322570,128,0,327570:0:0:0:0:
402,192,322570,128,0,322686:0:0:0:0:
36,192,323500,1,0,0:0:0:0:
109,192,323529,1,0,0:0:0:0:
182,192,323558,1,0,0:0:0:0:
329,192,324750,1,0,0:0:0:0:
402,192,324779,1,0,0:0:0:0:
475,192,324808,1,0,0:0:0:0:
