osu file format v14

[General]
AudioFilename: Gaspard de la nuit.ogg
AudioLeadIn: 0
PreviewTime: -1
Countdown: 1
SampleSet: Normal
StackLeniency: 0.7
Mode: 3
LetterboxInBreaks: 0
SpecialStyle: 0
WidescreenStoryboard: 0

[Editor]
DistanceSpacing: 0.8
BeatDivisor: 16
GridSize: 4
TimelineZoom: 1

[Metadata]
Title:Gaspard de la Nuit: Ondine
TitleUnicode:Gaspard de la Nuit: Ondine
Artist:Maurice Ravel
ArtistUnicode:Maurice Ravel
Creator:Xay
Version:Solo
Source:
Tags:xayy lmao mixtape feat chill pill xlm stepmania etterna xayphon piano classic solo
BeatmapID:1625864
BeatmapSetID:773451

[Difficulty]
HPDrainRate:8
CircleSize:4
OverallDifficulty:8
ApproachRate:5
SliderMultiplier:1.4
SliderTickRate:1

[Events]
//Background and Video events
0,0,"Gaspard de la nuit - l. Ondine.jpg",0,0
//Break Periods
//Storyboard Layer 0 (Background)
//Storyboard Layer 1 (Fail)
//Storyboard Layer 2 (Pass)
//Storyboard Layer 3 (Foreground)
//Storyboard Sound Samples

[TimingPoints]
64,613.303,4,1,0,15,1,0

[HitObjects]
64,192,1291,5,0,0:0:0:0:
320,192,1432,1,0,0:0:0:0:
64,192,1559,1,0,0:0:0:0:
64,192,1700,1,0,0:0:0:0:
320,192,1841,1,0,0:0:0:0:
64,192,1956,1,0,0:0:0:0:
64,192,2096,1,0,0:0:0:0:
320,192,2237,1,0,0:0:0:0:
64,192,2377,1,0,0:0:0:0:
320,192,2492,1,0,0:0:0:0:
64,192,2620,1,0,0:0:0:0:
64,192,2748,1,0,0:0:0:0:
320,192,2863,1,0,0:0:0:0:
64,192,3003,1,0,0:0:0:0:
64,192,3131,1,0,0:0:0:0:
320,192,3259,1,0,0:0:0:0:
64,192,3387,1,0,0:0:0:0:
320,192,3514,1,0,0:0:0:0:
64,192,3642,1,0,0:0:0:0:
64,192,3770,1,0,0:0:0:0:
320,192,3898,1,0,0:0:0:0:
64,192,4025,1,0,0:0:0:0:
64,192,4153,1,0,0:0:0:0:
320,192,4281,1,0,0:0:0:0:
64,192,4409,1,0,0:0:0:0:
320,192,4549,1,0,0:0:0:0:
64,192,4664,1,0,0:0:0:0:
64,192,4792,1,0,0:0:0:0:
320,192,4920,1,0,0:0:0:0:
64,192,5048,1,0,0:0:0:0:
64,192,5175,1,0,0:0:0:0:
320,192,5303,1,0,0:0:0:0:
64,192,5431,1,0,0:0:0:0:
320,192,5571,1,0,0:0:0:0:
64,192,5686,1,0,0:0:0:0:
64,192,5814,1,0,0:0:0:0:
320,192,5955,1,0,0:0:0:0:
64,192,6083,1,0,0:0:0:0:
64,192,6198,1,0,0:0:0:0:
320,192,6338,1,0,0:0:0:0:
64,192,6453,1,0,0:0:0:0:
320,192,6581,1,0,0:0:0:0:
64,192,6709,1,0,0:0:0:0:
64,192,6836,1,0,0:0:0:0:
320,192,6964,1,0,0:0:0:0:
64,192,7092,1,0,0:0:0:0:
64,192,7220,1,0,0:0:0:0:
320,192,7347,1,0,0:0:0:0:
192,192,7475,1,0,0:0:0:0:
448,192,7475,1,0,0:0:0:0:
320,192,7616,1,0,0:0:0:0:
64,192,7756,1,0,0:0:0:0:
64,192,7884,1,0,0:0:0:0:
320,192,7999,1,0,0:0:0:0:
64,192,8140,1,0,0:0:0:0:
64,192,8267,1,0,0:0:0:0:
320,192,8395,1,0,0:0:0:0:
64,192,8536,1,0,0:0:0:0:
192,192,8536,1,0,0:0:0:0:
320,192,8651,1,0,0:0:0:0:
64,192,8804,1,0,0:0:0:0:
64,192,8919,1,0,0:0:0:0:
320,192,9060,1,0,0:0:0:0:
64,192,9175,1,0,0:0:0:0:
64,192,9315,1,0,0:0:0:0:
320,192,9443,1,0,0:0:0:0:
64,192,9571,1,0,0:0:0:0:
320,192,9711,1,0,0:0:0:0:
64,192,9839,1,0,0:0:0:0:
64,192,9967,1,0,0:0:0:0:
192,192,10107,1,0,0:0:0:0:
320,192,10107,1,0,0:0:0:0:
64,192,10235,1,0,0:0:0:0:
64,192,10376,1,0,0:0:0:0:
320,192,10465,1,0,0:0:0:0:
64,192,10606,1,0,0:0:0:0:
320,192,10606,1,0,0:0:0:0:
320,192,10733,1,0,0:0:0:0:
64,192,10848,1,0,0:0:0:0:
64,192,10976,1,0,0:0:0:0:
192,192,11104,1,0,0:0:0:0:
320,192,11104,1,0,0:0:0:0:
64,192,11257,1,0,0:0:0:0:
64,192,11385,1,0,0:0:0:0:
320,192,11513,1,0,0:0:0:0:
192,192,11641,1,0,0:0:0:0:
448,192,11641,1,0,0:0:0:0:
320,192,11794,1,0,0:0:0:0:
64,192,11922,1,0,0:0:0:0:
64,192,12062,1,0,0:0:0:0:
320,192,12177,1,0,0:0:0:0:
64,192,12305,1,0,0:0:0:0:
64,192,12433,1,0,0:0:0:0:
320,192,12561,1,0,0:0:0:0:
64,192,12701,1,0,0:0:0:0:
192,192,12701,1,0,0:0:0:0:
320,192,12829,1,0,0:0:0:0:
64,192,12957,1,0,0:0:0:0:
64,192,13084,1,0,0:0:0:0:
320,192,13212,1,0,0:0:0:0:
64,192,13353,1,0,0:0:0:0:
64,192,13480,1,0,0:0:0:0:
320,192,13608,1,0,0:0:0:0:
64,192,13736,1,0,0:0:0:0:
320,192,13864,1,0,0:0:0:0:
64,192,14017,1,0,0:0:0:0:
64,192,14145,1,0,0:0:0:0:
192,192,14260,1,0,0:0:0:0:
448,192,14260,1,0,0:0:0:0:
64,192,14375,1,0,0:0:0:0:
64,192,14490,1,0,0:0:0:0:
192,192,14630,1,0,0:0:0:0:
64,192,14758,1,0,0:0:0:0:
320,192,14758,1,0,0:0:0:0:
192,192,14886,1,0,0:0:0:0:
64,192,15014,1,0,0:0:0:0:
64,192,15142,1,0,0:0:0:0:
192,192,15244,1,0,0:0:0:0:
320,192,15244,1,0,0:0:0:0:
64,192,15359,1,0,0:0:0:0:
64,192,15499,1,0,0:0:0:0:
320,192,15627,1,0,0:0:0:0:
192,192,15768,1,0,0:0:0:0:
448,192,15768,1,0,0:0:0:0:
320,192,15895,1,0,0:0:0:0:
64,192,16010,1,0,0:0:0:0:
64,192,16138,1,0,0:0:0:0:
192,192,16266,1,0,0:0:0:0:
320,192,16266,1,0,0:0:0:0:
64,192,16394,1,0,0:0:0:0:
64,192,16509,1,0,0:0:0:0:
192,192,16624,1,0,0:0:0:0:
320,192,16764,1,0,0:0:0:0:
448,192,16764,1,0,0:0:0:0:
64,192,16892,1,0,0:0:0:0:
64,192,17007,1,0,0:0:0:0:
320,192,17122,1,0,0:0:0:0:
192,192,17237,1,0,0:0:0:0:
448,192,17237,1,0,0:0:0:0:
64,192,17365,1,0,0:0:0:0:
64,192,17493,1,0,0:0:0:0:
192,192,17646,1,0,0:0:0:0:
64,192,17774,1,0,0:0:0:0:
320,192,17774,1,0,0:0:0:0:
320,192,17927,1,0,0:0:0:0:
320,192,18042,1,0,0:0:0:0:
64,192,18182,1,0,0:0:0:0:
320,192,18310,1,0,0:0:0:0:
64,192,18438,1,0,0:0:0:0:
64,192,18579,1,0,0:0:0:0:
192,192,18719,1,0,0:0:0:0:
64,192,18847,1,0,0:0:0:0:
320,192,18847,1,0,0:0:0:0:
448,192,18975,1,0,0:0:0:0:
448,192,19115,1,0,0:0:0:0:
192,192,19230,1,0,0:0:0:0:
64,192,19345,1,0,0:0:0:0:
448,192,19345,1,0,0:0:0:0:
192,192,19473,1,0,0:0:0:0:
192,192,19614,1,0,0:0:0:0:
448,192,19767,1,0,0:0:0:0:
192,192,19895,1,0,0:0:0:0:
320,192,19895,1,0,0:0:0:0:
320,192,20048,1,0,0:0:0:0:
320,192,20188,1,0,0:0:0:0:
192,192,20303,1,0,0:0:0:0:
320,192,20431,1,0,0:0:0:0:
192,192,20559,1,0,0:0:0:0:
192,192,20687,1,0,0:0:0:0:
320,192,20815,1,0,0:0:0:0:
192,192,20942,1,0,0:0:0:0:
320,192,21070,1,0,0:0:0:0:
320,192,21198,1,0,0:0:0:0:
192,192,21326,1,0,0:0:0:0:
320,192,21453,1,0,0:0:0:0:
192,192,21581,1,0,0:0:0:0:
192,192,21722,1,0,0:0:0:0:
320,192,21862,1,0,0:0:0:0:
192,192,21990,1,0,0:0:0:0:
320,192,22105,1,0,0:0:0:0:
320,192,22220,1,0,0:0:0:0:
192,192,22348,1,0,0:0:0:0:
64,192,22488,1,0,0:0:0:0:
448,192,22488,1,0,0:0:0:0:
320,192,22616,1,0,0:0:0:0:
320,192,22744,1,0,0:0:0:0:
192,192,22872,1,0,0:0:0:0:
64,192,22999,1,0,0:0:0:0:
448,192,22999,1,0,0:0:0:0:
192,192,23140,1,0,0:0:0:0:
192,192,23281,1,0,0:0:0:0:
448,192,23383,1,0,0:0:0:0:
64,192,23511,1,0,0:0:0:0:
320,192,23511,1,0,0:0:0:0:
192,192,23638,1,0,0:0:0:0:
192,192,23766,1,0,0:0:0:0:
64,192,23907,1,0,0:0:0:0:
192,192,24034,1,0,0:0:0:0:
320,192,24034,1,0,0:0:0:0:
320,192,24175,1,0,0:0:0:0:
320,192,24316,1,0,0:0:0:0:
192,192,24418,1,0,0:0:0:0:
320,192,24571,1,0,0:0:0:0:
192,192,24686,1,0,0:0:0:0:
192,192,24814,1,0,0:0:0:0:
320,192,24954,1,0,0:0:0:0:
64,192,25069,1,0,0:0:0:0:
192,192,25069,1,0,0:0:0:0:
320,192,25210,1,0,0:0:0:0:
320,192,25338,1,0,0:0:0:0:
192,192,25465,1,0,0:0:0:0:
320,192,25593,1,0,0:0:0:0:
192,192,25708,1,0,0:0:0:0:
192,192,25836,1,0,0:0:0:0:
448,192,25977,1,0,0:0:0:0:
64,192,26104,1,0,0:0:0:0:
320,192,26104,1,0,0:0:0:0:
192,192,26232,1,0,0:0:0:0:
192,192,26360,1,0,0:0:0:0:
448,192,26475,1,0,0:0:0:0:
192,192,26603,1,0,0:0:0:0:
320,192,26603,1,0,0:0:0:0:
448,192,26718,1,0,0:0:0:0:
192,192,26871,1,0,0:0:0:0:
192,192,26999,1,0,0:0:0:0:
320,192,27139,1,0,0:0:0:0:
448,192,27139,1,0,0:0:0:0:
448,192,27280,1,0,0:0:0:0:
448,192,27408,1,0,0:0:0:0:
192,192,27561,1,0,0:0:0:0:
448,192,27689,1,0,0:0:0:0:
192,192,27816,1,0,0:0:0:0:
192,192,27944,1,0,0:0:0:0:
448,192,28072,1,0,0:0:0:0:
192,192,28200,1,0,0:0:0:0:
448,192,28328,1,0,0:0:0:0:
448,192,28455,1,0,0:0:0:0:
192,192,28583,1,0,0:0:0:0:
448,192,28724,1,0,0:0:0:0:
192,192,28839,1,0,0:0:0:0:
192,192,28966,1,0,0:0:0:0:
448,192,29094,1,0,0:0:0:0:
192,192,29222,1,0,0:0:0:0:
448,192,29362,1,0,0:0:0:0:
448,192,29503,1,0,0:0:0:0:
192,192,29631,1,0,0:0:0:0:
320,192,29759,1,0,0:0:0:0:
448,192,29759,1,0,0:0:0:0:
192,192,29912,1,0,0:0:0:0:
192,192,30065,1,0,0:0:0:0:
320,192,30193,1,0,0:0:0:0:
320,192,30334,1,0,0:0:0:0:
448,192,30334,1,0,0:0:0:0:
448,192,30500,1,0,0:0:0:0:
320,192,30627,1,0,0:0:0:0:
320,192,30781,1,0,0:0:0:0:
448,192,30909,1,0,0:0:0:0:
320,192,31036,1,0,0:0:0:0:
320,192,31164,1,0,0:0:0:0:
448,192,31292,1,0,0:0:0:0:
64,192,31420,1,0,0:0:0:0:
320,192,31420,1,0,0:0:0:0:
448,192,31535,1,0,0:0:0:0:
320,192,31675,1,0,0:0:0:0:
320,192,31803,1,0,0:0:0:0:
448,192,31931,1,0,0:0:0:0:
320,192,32033,1,0,0:0:0:0:
320,192,32161,1,0,0:0:0:0:
448,192,32276,1,0,0:0:0:0:
320,192,32391,1,0,0:0:0:0:
448,192,32518,1,0,0:0:0:0:
320,192,32633,1,0,0:0:0:0:
320,192,32761,1,0,0:0:0:0:
64,192,32876,1,0,0:0:0:0:
192,192,32876,1,0,0:0:0:0:
320,192,33004,1,0,0:0:0:0:
320,192,33132,1,0,0:0:0:0:
448,192,33234,1,0,0:0:0:0:
64,192,33349,1,0,0:0:0:0:
320,192,33349,1,0,0:0:0:0:
448,192,33477,1,0,0:0:0:0:
192,192,33592,1,0,0:0:0:0:
192,192,33719,1,0,0:0:0:0:
64,192,33822,1,0,0:0:0:0:
448,192,33822,1,0,0:0:0:0:
192,192,33949,1,0,0:0:0:0:
192,192,34103,1,0,0:0:0:0:
448,192,34205,1,0,0:0:0:0:
192,192,34333,1,0,0:0:0:0:
320,192,34333,1,0,0:0:0:0:
448,192,34461,1,0,0:0:0:0:
320,192,34576,1,0,0:0:0:0:
320,192,34703,1,0,0:0:0:0:
448,192,34831,1,0,0:0:0:0:
320,192,34946,1,0,0:0:0:0:
320,192,35074,1,0,0:0:0:0:
448,192,35202,1,0,0:0:0:0:
64,192,35329,1,0,0:0:0:0:
192,192,35329,1,0,0:0:0:0:
448,192,35457,1,0,0:0:0:0:
320,192,35572,1,0,0:0:0:0:
320,192,35687,1,0,0:0:0:0:
448,192,35802,1,0,0:0:0:0:
320,192,35930,1,0,0:0:0:0:
320,192,36058,1,0,0:0:0:0:
448,192,36173,1,0,0:0:0:0:
320,192,36288,1,0,0:0:0:0:
448,192,36415,1,0,0:0:0:0:
320,192,36530,1,0,0:0:0:0:
320,192,36645,1,0,0:0:0:0:
64,192,36773,1,0,0:0:0:0:
192,192,36773,1,0,0:0:0:0:
320,192,36901,1,0,0:0:0:0:
320,192,37016,1,0,0:0:0:0:
448,192,37131,1,0,0:0:0:0:
64,192,37246,1,0,0:0:0:0:
320,192,37246,1,0,0:0:0:0:
448,192,37387,1,0,0:0:0:0:
192,192,37502,1,0,0:0:0:0:
192,192,37629,1,0,0:0:0:0:
64,192,37757,1,0,0:0:0:0:
448,192,37757,1,0,0:0:0:0:
192,192,37885,1,0,0:0:0:0:
192,192,38025,1,0,0:0:0:0:
448,192,38166,1,0,0:0:0:0:
320,192,38319,1,0,0:0:0:0:
448,192,38319,1,0,0:0:0:0:
448,192,38473,1,0,0:0:0:0:
192,192,38613,1,0,0:0:0:0:
192,192,38754,1,0,0:0:0:0:
448,192,38881,1,0,0:0:0:0:
192,192,39009,1,0,0:0:0:0:
192,192,39137,1,0,0:0:0:0:
448,192,39265,1,0,0:0:0:0:
64,192,39405,1,0,0:0:0:0:
320,192,39405,1,0,0:0:0:0:
448,192,39546,1,0,0:0:0:0:
192,192,39674,1,0,0:0:0:0:
192,192,39801,1,0,0:0:0:0:
448,192,39929,1,0,0:0:0:0:
192,192,40070,1,0,0:0:0:0:
192,192,40198,1,0,0:0:0:0:
448,192,40338,1,0,0:0:0:0:
192,192,40466,1,0,0:0:0:0:
320,192,40466,1,0,0:0:0:0:
448,192,40606,1,0,0:0:0:0:
192,192,40721,1,0,0:0:0:0:
192,192,40849,1,0,0:0:0:0:
64,192,40990,1,0,0:0:0:0:
448,192,40990,1,0,0:0:0:0:
192,192,41130,1,0,0:0:0:0:
192,192,41271,1,0,0:0:0:0:
448,192,41399,1,0,0:0:0:0:
320,192,41539,1,0,0:0:0:0:
448,192,41539,1,0,0:0:0:0:
448,192,41667,1,0,0:0:0:0:
192,192,41795,1,0,0:0:0:0:
192,192,41922,1,0,0:0:0:0:
448,192,42063,1,0,0:0:0:0:
192,192,42178,1,0,0:0:0:0:
192,192,42306,1,0,0:0:0:0:
448,192,42459,1,0,0:0:0:0:
192,192,42587,1,0,0:0:0:0:
448,192,42727,1,0,0:0:0:0:
192,192,42842,1,0,0:0:0:0:
192,192,42983,1,0,0:0:0:0:
192,192,43111,1,0,0:0:0:0:
320,192,43111,1,0,0:0:0:0:
64,192,43238,1,0,0:0:0:0:
64,192,43379,1,0,0:0:0:0:
192,192,43507,1,0,0:0:0:0:
320,192,43647,1,0,0:0:0:0:
448,192,43647,1,0,0:0:0:0:
192,192,43775,1,0,0:0:0:0:
320,192,43903,1,0,0:0:0:0:
320,192,44018,1,0,0:0:0:0:
192,192,44146,1,0,0:0:0:0:
448,192,44146,1,0,0:0:0:0:
320,192,44286,1,0,0:0:0:0:
64,192,44440,1,0,0:0:0:0:
64,192,44580,1,0,0:0:0:0:
192,192,44695,1,0,0:0:0:0:
320,192,44695,1,0,0:0:0:0:
448,192,44861,1,0,0:0:0:0:
192,192,44976,1,0,0:0:0:0:
192,192,45104,1,0,0:0:0:0:
448,192,45244,1,0,0:0:0:0:
192,192,45359,1,0,0:0:0:0:
192,192,45500,1,0,0:0:0:0:
448,192,45628,1,0,0:0:0:0:
64,192,45768,1,0,0:0:0:0:
320,192,45768,1,0,0:0:0:0:
448,192,45909,1,0,0:0:0:0:
192,192,46037,1,0,0:0:0:0:
192,192,46164,1,0,0:0:0:0:
192,192,46305,1,0,0:0:0:0:
320,192,46305,1,0,0:0:0:0:
64,192,46433,1,0,0:0:0:0:
64,192,46561,1,0,0:0:0:0:
192,192,46701,1,0,0:0:0:0:
320,192,46816,1,0,0:0:0:0:
448,192,46816,1,0,0:0:0:0:
192,192,46957,1,0,0:0:0:0:
320,192,47084,1,0,0:0:0:0:
320,192,47212,1,0,0:0:0:0:
192,192,47327,1,0,0:0:0:0:
448,192,47327,1,0,0:0:0:0:
320,192,47468,1,0,0:0:0:0:
192,192,47621,1,0,0:0:0:0:
192,192,47762,1,0,0:0:0:0:
64,192,47877,1,0,0:0:0:0:
320,192,47877,1,0,0:0:0:0:
448,192,48030,1,0,0:0:0:0:
192,192,48158,1,0,0:0:0:0:
192,192,48311,1,0,0:0:0:0:
448,192,48464,1,0,0:0:0:0:
192,192,48592,1,0,0:0:0:0:
192,192,48745,1,0,0:0:0:0:
448,192,48886,1,0,0:0:0:0:
64,192,49027,1,0,0:0:0:0:
192,192,49027,1,0,0:0:0:0:
320,192,49193,1,0,0:0:0:0:
64,192,49320,1,0,0:0:0:0:
64,192,49474,1,0,0:0:0:0:
64,192,49614,1,0,0:0:0:0:
320,192,49614,1,0,0:0:0:0:
448,192,49768,1,0,0:0:0:0:
320,192,49921,1,0,0:0:0:0:
64,192,50087,1,0,0:0:0:0:
192,192,50087,1,0,0:0:0:0:
192,192,50253,1,0,0:0:0:0:
448,192,50253,1,0,0:0:0:0:
320,192,50394,1,0,0:0:0:0:
64,192,50509,1,0,0:0:0:0:
64,192,50636,1,0,0:0:0:0:
320,192,50764,1,0,0:0:0:0:
448,192,50764,1,0,0:0:0:0:
192,192,50905,1,0,0:0:0:0:
448,192,50905,1,0,0:0:0:0:
320,192,51020,1,0,0:0:0:0:
64,192,51160,1,0,0:0:0:0:
192,192,51160,1,0,0:0:0:0:
64,192,51301,1,0,0:0:0:0:
448,192,51301,1,0,0:0:0:0:
320,192,51429,1,0,0:0:0:0:
64,192,51544,1,0,0:0:0:0:
64,192,51684,1,0,0:0:0:0:
192,192,51684,1,0,0:0:0:0:
192,192,51825,1,0,0:0:0:0:
320,192,51825,1,0,0:0:0:0:
64,192,51952,1,0,0:0:0:0:
192,192,51952,1,0,0:0:0:0:
320,192,52195,1,0,0:0:0:0:
64,192,52323,1,0,0:0:0:0:
320,192,52451,1,0,0:0:0:0:
64,192,52579,1,0,0:0:0:0:
64,192,52732,1,0,0:0:0:0:
192,192,52732,1,0,0:0:0:0:
320,192,52860,1,0,0:0:0:0:
448,192,52860,1,0,0:0:0:0:
192,192,52987,1,0,0:0:0:0:
448,192,52987,1,0,0:0:0:0:
320,192,53115,1,0,0:0:0:0:
64,192,53230,1,0,0:0:0:0:
192,192,53230,1,0,0:0:0:0:
64,192,53358,1,0,0:0:0:0:
448,192,53358,1,0,0:0:0:0:
320,192,53499,1,0,0:0:0:0:
192,192,53614,1,0,0:0:0:0:
64,192,53729,1,0,0:0:0:0:
320,192,53729,1,0,0:0:0:0:
192,192,53856,1,0,0:0:0:0:
448,192,53856,1,0,0:0:0:0:
64,192,53997,1,0,0:0:0:0:
320,192,53997,1,0,0:0:0:0:
448,192,54163,1,0,0:0:0:0:
64,192,54291,1,0,0:0:0:0:
192,192,54291,1,0,0:0:0:0:
320,192,54406,1,0,0:0:0:0:
448,192,54406,1,0,0:0:0:0:
192,192,54533,1,0,0:0:0:0:
64,192,54661,1,0,0:0:0:0:
64,192,54802,1,0,0:0:0:0:
320,192,54930,1,0,0:0:0:0:
448,192,54930,1,0,0:0:0:0:
192,192,55057,1,0,0:0:0:0:
448,192,55057,1,0,0:0:0:0:
320,192,55198,1,0,0:0:0:0:
64,192,55326,1,0,0:0:0:0:
192,192,55326,1,0,0:0:0:0:
64,192,55466,1,0,0:0:0:0:
448,192,55466,1,0,0:0:0:0:
320,192,55607,1,0,0:0:0:0:
64,192,55709,1,0,0:0:0:0:
64,192,55837,1,0,0:0:0:0:
192,192,55837,1,0,0:0:0:0:
192,192,55977,1,0,0:0:0:0:
320,192,55977,1,0,0:0:0:0:
64,192,56105,1,0,0:0:0:0:
192,192,56105,1,0,0:0:0:0:
320,192,56373,1,0,0:0:0:0:
64,192,56501,1,0,0:0:0:0:
320,192,56629,1,0,0:0:0:0:
64,192,56757,1,0,0:0:0:0:
64,192,56884,1,0,0:0:0:0:
192,192,56884,1,0,0:0:0:0:
320,192,57025,1,0,0:0:0:0:
448,192,57025,1,0,0:0:0:0:
192,192,57140,1,0,0:0:0:0:
448,192,57140,1,0,0:0:0:0:
320,192,57268,1,0,0:0:0:0:
64,192,57396,1,0,0:0:0:0:
192,192,57396,1,0,0:0:0:0:
64,192,57523,1,0,0:0:0:0:
448,192,57523,1,0,0:0:0:0:
320,192,57651,1,0,0:0:0:0:
192,192,57779,1,0,0:0:0:0:
64,192,57907,1,0,0:0:0:0:
320,192,57907,1,0,0:0:0:0:
192,192,58034,1,0,0:0:0:0:
448,192,58034,1,0,0:0:0:0:
64,192,58162,1,0,0:0:0:0:
320,192,58162,1,0,0:0:0:0:
448,192,58303,1,0,0:0:0:0:
320,192,58431,1,0,0:0:0:0:
64,192,58494,1,0,0:0:0:0:
192,192,58546,1,0,0:0:0:0:
320,192,58584,1,0,0:0:0:0:
448,192,58584,1,0,0:0:0:0:
64,192,58712,1,0,0:0:0:0:
192,192,58839,1,0,0:0:0:0:
320,192,58967,1,0,0:0:0:0:
192,192,59095,1,0,0:0:0:0:
448,192,59095,1,0,0:0:0:0:
64,192,59223,1,0,0:0:0:0:
192,192,59363,1,0,0:0:0:0:
320,192,59491,1,0,0:0:0:0:
64,192,59619,1,0,0:0:0:0:
448,192,59619,1,0,0:0:0:0:
320,192,59747,1,0,0:0:0:0:
192,192,59887,1,0,0:0:0:0:
64,192,60015,1,0,0:0:0:0:
448,192,60143,1,0,0:0:0:0:
320,192,60270,1,0,0:0:0:0:
192,192,60398,1,0,0:0:0:0:
64,192,60539,1,0,0:0:0:0:
192,192,60641,1,0,0:0:0:0:
320,192,60641,1,0,0:0:0:0:
64,192,60769,1,0,0:0:0:0:
192,192,60896,1,0,0:0:0:0:
320,192,61024,1,0,0:0:0:0:
192,192,61165,1,0,0:0:0:0:
448,192,61165,1,0,0:0:0:0:
320,192,61305,1,0,0:0:0:0:
192,192,61433,1,0,0:0:0:0:
64,192,61574,1,0,0:0:0:0:
320,192,61727,1,0,0:0:0:0:
448,192,61727,1,0,0:0:0:0:
192,192,61804,1,0,0:0:0:0:
64,192,61880,1,0,0:0:0:0:
192,192,61957,1,0,0:0:0:0:
448,192,62034,1,0,0:0:0:0:
320,192,62110,1,0,0:0:0:0:
192,192,62187,1,0,0:0:0:0:
64,192,62264,1,0,0:0:0:0:
448,192,62264,1,0,0:0:0:0:
320,192,62340,1,0,0:0:0:0:
192,192,62417,1,0,0:0:0:0:
64,192,62519,1,0,0:0:0:0:
192,192,62596,1,0,0:0:0:0:
320,192,62698,1,0,0:0:0:0:
448,192,62800,1,0,0:0:0:0:
320,192,62890,1,0,0:0:0:0:
192,192,62979,1,0,0:0:0:0:
64,192,63056,1,0,0:0:0:0:
320,192,63145,1,0,0:0:0:0:
192,192,63235,1,0,0:0:0:0:
64,192,63324,1,0,0:0:0:0:
192,192,63426,1,0,0:0:0:0:
320,192,63516,1,0,0:0:0:0:
448,192,63605,1,0,0:0:0:0:
320,192,63695,1,0,0:0:0:0:
192,192,63797,1,0,0:0:0:0:
320,192,63899,1,0,0:0:0:0:
448,192,63899,1,0,0:0:0:0:
64,192,64052,1,0,0:0:0:0:
192,192,64180,1,0,0:0:0:0:
320,192,64295,1,0,0:0:0:0:
192,192,64423,1,0,0:0:0:0:
448,192,64423,1,0,0:0:0:0:
64,192,64564,1,0,0:0:0:0:
192,192,64691,1,0,0:0:0:0:
320,192,64819,1,0,0:0:0:0:
64,192,64947,1,0,0:0:0:0:
448,192,64947,1,0,0:0:0:0:
320,192,65075,1,0,0:0:0:0:
192,192,65202,1,0,0:0:0:0:
64,192,65330,1,0,0:0:0:0:
448,192,65458,1,0,0:0:0:0:
320,192,65586,1,0,0:0:0:0:
192,192,65713,1,0,0:0:0:0:
64,192,65841,1,0,0:0:0:0:
192,192,65969,1,0,0:0:0:0:
320,192,65969,1,0,0:0:0:0:
64,192,66110,1,0,0:0:0:0:
192,192,66225,1,0,0:0:0:0:
320,192,66352,1,0,0:0:0:0:
64,192,66480,1,0,0:0:0:0:
448,192,66480,1,0,0:0:0:0:
320,192,66621,1,0,0:0:0:0:
192,192,66761,1,0,0:0:0:0:
64,192,66902,1,0,0:0:0:0:
320,192,67042,1,0,0:0:0:0:
448,192,67042,1,0,0:0:0:0:
192,192,67119,1,0,0:0:0:0:
64,192,67196,1,0,0:0:0:0:
192,192,67272,1,0,0:0:0:0:
320,192,67349,1,0,0:0:0:0:
192,192,67426,1,0,0:0:0:0:
320,192,67502,1,0,0:0:0:0:
64,192,67579,1,0,0:0:0:0:
448,192,67579,1,0,0:0:0:0:
320,192,67656,1,0,0:0:0:0:
192,192,67758,1,0,0:0:0:0:
64,192,67847,1,0,0:0:0:0:
192,192,67937,1,0,0:0:0:0:
320,192,68026,1,0,0:0:0:0:
448,192,68116,1,0,0:0:0:0:
320,192,68192,1,0,0:0:0:0:
192,192,68282,1,0,0:0:0:0:
64,192,68371,1,0,0:0:0:0:
320,192,68461,1,0,0:0:0:0:
192,192,68563,1,0,0:0:0:0:
64,192,68665,1,0,0:0:0:0:
192,192,68742,1,0,0:0:0:0:
320,192,68831,1,0,0:0:0:0:
448,192,68908,1,0,0:0:0:0:
320,192,69010,1,0,0:0:0:0:
64,192,69112,1,0,0:0:0:0:
192,192,69163,1,0,0:0:0:0:
320,192,69202,1,0,0:0:0:0:
448,192,69202,1,0,0:0:0:0:
64,192,69342,1,0,0:0:0:0:
192,192,69457,1,0,0:0:0:0:
320,192,69585,1,0,0:0:0:0:
192,192,69713,1,0,0:0:0:0:
448,192,69713,1,0,0:0:0:0:
64,192,69853,1,0,0:0:0:0:
192,192,69981,1,0,0:0:0:0:
320,192,70109,1,0,0:0:0:0:
64,192,70237,1,0,0:0:0:0:
448,192,70237,1,0,0:0:0:0:
448,192,70352,1,0,0:0:0:0:
320,192,70441,1,0,0:0:0:0:
192,192,70543,1,0,0:0:0:0:
64,192,70633,1,0,0:0:0:0:
448,192,70748,1,0,0:0:0:0:
320,192,70863,1,0,0:0:0:0:
192,192,70978,1,0,0:0:0:0:
64,192,71105,1,0,0:0:0:0:
192,192,71233,1,0,0:0:0:0:
320,192,71233,1,0,0:0:0:0:
64,192,71361,1,0,0:0:0:0:
192,192,71463,1,0,0:0:0:0:
320,192,71565,1,0,0:0:0:0:
448,192,71642,1,0,0:0:0:0:
64,192,71744,1,0,0:0:0:0:
320,192,71744,1,0,0:0:0:0:
448,192,71834,1,0,0:0:0:0:
320,192,71923,1,0,0:0:0:0:
192,192,72025,1,0,0:0:0:0:
64,192,72153,1,0,0:0:0:0:
192,192,72281,1,0,0:0:0:0:
320,192,72281,1,0,0:0:0:0:
448,192,72281,1,0,0:0:0:0:
64,192,72434,1,0,0:0:0:0:
192,192,72562,1,0,0:0:0:0:
320,192,72690,1,0,0:0:0:0:
64,192,72830,1,0,0:0:0:0:
448,192,72830,1,0,0:0:0:0:
192,192,72971,1,0,0:0:0:0:
320,192,73099,1,0,0:0:0:0:
448,192,73239,1,0,0:0:0:0:
64,192,73380,1,0,0:0:0:0:
192,192,73380,1,0,0:0:0:0:
448,192,73508,1,0,0:0:0:0:
192,192,73635,1,0,0:0:0:0:
320,192,73776,1,0,0:0:0:0:
64,192,73891,1,0,0:0:0:0:
448,192,74019,1,0,0:0:0:0:
320,192,74159,1,0,0:0:0:0:
192,192,74287,1,0,0:0:0:0:
64,192,74415,1,0,0:0:0:0:
448,192,74415,1,0,0:0:0:0:
320,192,74504,1,0,0:0:0:0:
192,192,74606,1,0,0:0:0:0:
64,192,74709,1,0,0:0:0:0:
192,192,74785,1,0,0:0:0:0:
320,192,74785,1,0,0:0:0:0:
448,192,74887,1,0,0:0:0:0:
320,192,74977,1,0,0:0:0:0:
192,192,75079,1,0,0:0:0:0:
64,192,75156,1,0,0:0:0:0:
448,192,75156,1,0,0:0:0:0:
320,192,75271,1,0,0:0:0:0:
192,192,75373,1,0,0:0:0:0:
64,192,75462,1,0,0:0:0:0:
320,192,75565,1,0,0:0:0:0:
448,192,75565,1,0,0:0:0:0:
64,192,75654,1,0,0:0:0:0:
192,192,75705,1,0,0:0:0:0:
320,192,75756,1,0,0:0:0:0:
64,192,75807,1,0,0:0:0:0:
192,192,75859,1,0,0:0:0:0:
320,192,75910,1,0,0:0:0:0:
64,192,75961,1,0,0:0:0:0:
192,192,76012,1,0,0:0:0:0:
448,192,76063,1,0,0:0:0:0:
64,192,76114,1,0,0:0:0:0:
192,192,76165,1,0,0:0:0:0:
320,192,76216,1,0,0:0:0:0:
64,192,76267,1,0,0:0:0:0:
448,192,76267,1,0,0:0:0:0:
192,192,76319,1,0,0:0:0:0:
320,192,76370,1,0,0:0:0:0:
448,192,76421,1,0,0:0:0:0:
192,192,76472,1,0,0:0:0:0:
320,192,76523,1,0,0:0:0:0:
448,192,76574,1,0,0:0:0:0:
64,192,76625,1,0,0:0:0:0:
192,192,76676,1,0,0:0:0:0:
320,192,76727,1,0,0:0:0:0:
64,192,76778,1,0,0:0:0:0:
192,192,76830,1,0,0:0:0:0:
320,192,76881,1,0,0:0:0:0:
448,192,76932,1,0,0:0:0:0:
64,192,76983,1,0,0:0:0:0:
192,192,76983,1,0,0:0:0:0:
320,192,77034,1,0,0:0:0:0:
448,192,77085,1,0,0:0:0:0:
192,192,77136,1,0,0:0:0:0:
320,192,77187,1,0,0:0:0:0:
64,192,77238,1,0,0:0:0:0:
192,192,77290,1,0,0:0:0:0:
320,192,77341,1,0,0:0:0:0:
448,192,77392,1,0,0:0:0:0:
192,192,77443,1,0,0:0:0:0:
64,192,77494,1,0,0:0:0:0:
448,192,77545,1,0,0:0:0:0:
320,192,77596,1,0,0:0:0:0:
192,192,77647,1,0,0:0:0:0:
64,192,77698,1,0,0:0:0:0:
320,192,77750,1,0,0:0:0:0:
192,192,77801,1,0,0:0:0:0:
448,192,77801,1,0,0:0:0:0:
320,192,77954,1,0,0:0:0:0:
320,192,78107,1,0,0:0:0:0:
192,192,78248,1,0,0:0:0:0:
320,192,78388,1,0,0:0:0:0:
192,192,78516,1,0,0:0:0:0:
192,192,78644,1,0,0:0:0:0:
320,192,78772,1,0,0:0:0:0:
192,192,78925,1,0,0:0:0:0:
320,192,79040,1,0,0:0:0:0:
320,192,79181,1,0,0:0:0:0:
192,192,79283,1,0,0:0:0:0:
320,192,79411,1,0,0:0:0:0:
192,192,79538,1,0,0:0:0:0:
192,192,79666,1,0,0:0:0:0:
320,192,79794,1,0,0:0:0:0:
192,192,79896,1,0,0:0:0:0:
448,192,79896,1,0,0:0:0:0:
64,192,80062,1,0,0:0:0:0:
64,192,80203,1,0,0:0:0:0:
320,192,80331,1,0,0:0:0:0:
64,192,80471,1,0,0:0:0:0:
192,192,80471,1,0,0:0:0:0:
448,192,80650,1,0,0:0:0:0:
320,192,80765,1,0,0:0:0:0:
320,192,80918,1,0,0:0:0:0:
64,192,81008,1,0,0:0:0:0:
192,192,81072,1,0,0:0:0:0:
448,192,81072,1,0,0:0:0:0:
320,192,81212,1,0,0:0:0:0:
320,192,81353,1,0,0:0:0:0:
192,192,81480,1,0,0:0:0:0:
320,192,81608,1,0,0:0:0:0:
192,192,81736,1,0,0:0:0:0:
192,192,81864,1,0,0:0:0:0:
320,192,81979,1,0,0:0:0:0:
192,192,82107,1,0,0:0:0:0:
320,192,82222,1,0,0:0:0:0:
320,192,82349,1,0,0:0:0:0:
192,192,82464,1,0,0:0:0:0:
320,192,82618,1,0,0:0:0:0:
448,192,82618,1,0,0:0:0:0:
192,192,82758,1,0,0:0:0:0:
192,192,82912,1,0,0:0:0:0:
320,192,83027,1,0,0:0:0:0:
192,192,83180,1,0,0:0:0:0:
448,192,83180,1,0,0:0:0:0:
64,192,83320,1,0,0:0:0:0:
64,192,83448,1,0,0:0:0:0:
320,192,83563,1,0,0:0:0:0:
320,192,83704,1,0,0:0:0:0:
448,192,83704,1,0,0:0:0:0:
192,192,83831,1,0,0:0:0:0:
192,192,83959,1,0,0:0:0:0:
320,192,84113,1,0,0:0:0:0:
64,192,84202,1,0,0:0:0:0:
192,192,84266,1,0,0:0:0:0:
448,192,84266,1,0,0:0:0:0:
320,192,84406,1,0,0:0:0:0:
320,192,84547,1,0,0:0:0:0:
192,192,84662,1,0,0:0:0:0:
320,192,84803,1,0,0:0:0:0:
192,192,84930,1,0,0:0:0:0:
192,192,85058,1,0,0:0:0:0:
320,192,85186,1,0,0:0:0:0:
192,192,85314,1,0,0:0:0:0:
320,192,85441,1,0,0:0:0:0:
320,192,85569,1,0,0:0:0:0:
192,192,85697,1,0,0:0:0:0:
64,192,85825,1,0,0:0:0:0:
320,192,85825,1,0,0:0:0:0:
448,192,85825,1,0,0:0:0:0:
320,192,85965,1,0,0:0:0:0:
192,192,86080,1,0,0:0:0:0:
320,192,86208,1,0,0:0:0:0:
192,192,86336,1,0,0:0:0:0:
320,192,86464,1,0,0:0:0:0:
320,192,86579,1,0,0:0:0:0:
192,192,86694,1,0,0:0:0:0:
192,192,86821,1,0,0:0:0:0:
320,192,86821,1,0,0:0:0:0:
448,192,86821,1,0,0:0:0:0:
192,192,86975,1,0,0:0:0:0:
320,192,87102,1,0,0:0:0:0:
64,192,87269,1,0,0:0:0:0:
192,192,87460,1,0,0:0:0:0:
320,192,87460,1,0,0:0:0:0:
448,192,87460,1,0,0:0:0:0:
64,192,87562,1,0,0:0:0:0:
192,192,87665,1,0,0:0:0:0:
320,192,87754,1,0,0:0:0:0:
448,192,87844,1,0,0:0:0:0:
64,192,87920,1,0,0:0:0:0:
192,192,88022,1,0,0:0:0:0:
320,192,88112,1,0,0:0:0:0:
64,192,88201,1,0,0:0:0:0:
448,192,88201,1,0,0:0:0:0:
320,192,88303,1,0,0:0:0:0:
192,192,88406,1,0,0:0:0:0:
64,192,88495,1,0,0:0:0:0:
448,192,88585,1,0,0:0:0:0:
320,192,88687,1,0,0:0:0:0:
192,192,88802,1,0,0:0:0:0:
320,192,88904,1,0,0:0:0:0:
448,192,88904,1,0,0:0:0:0:
192,192,89032,1,0,0:0:0:0:
64,192,89147,1,0,0:0:0:0:
192,192,89275,1,0,0:0:0:0:
320,192,89402,1,0,0:0:0:0:
448,192,89517,1,0,0:0:0:0:
64,192,89645,1,0,0:0:0:0:
192,192,89683,1,0,0:0:0:0:
320,192,89722,1,0,0:0:0:0:
448,192,89722,1,0,0:0:0:0:
192,192,89862,1,0,0:0:0:0:
192,192,89990,1,0,0:0:0:0:
64,192,90131,1,0,0:0:0:0:
192,192,90271,1,0,0:0:0:0:
64,192,90399,1,0,0:0:0:0:
64,192,90527,1,0,0:0:0:0:
192,192,90654,1,0,0:0:0:0:
64,192,90782,1,0,0:0:0:0:
192,192,90910,1,0,0:0:0:0:
192,192,91051,1,0,0:0:0:0:
64,192,91166,1,0,0:0:0:0:
192,192,91293,1,0,0:0:0:0:
64,192,91421,1,0,0:0:0:0:
64,192,91549,1,0,0:0:0:0:
192,192,91677,1,0,0:0:0:0:
64,192,91804,1,0,0:0:0:0:
192,192,91907,1,0,0:0:0:0:
192,192,92047,1,0,0:0:0:0:
64,192,92162,1,0,0:0:0:0:
192,192,92316,1,0,0:0:0:0:
320,192,92316,1,0,0:0:0:0:
64,192,92431,1,0,0:0:0:0:
64,192,92558,1,0,0:0:0:0:
192,192,92673,1,0,0:0:0:0:
192,192,92801,1,0,0:0:0:0:
64,192,92916,1,0,0:0:0:0:
64,192,93057,1,0,0:0:0:0:
64,192,93172,1,0,0:0:0:0:
320,192,93287,1,0,0:0:0:0:
448,192,93287,1,0,0:0:0:0:
192,192,93427,1,0,0:0:0:0:
192,192,93580,1,0,0:0:0:0:
64,192,93721,1,0,0:0:0:0:
192,192,93900,1,0,0:0:0:0:
320,192,93900,1,0,0:0:0:0:
448,192,93900,1,0,0:0:0:0:
64,192,93977,1,0,0:0:0:0:
192,192,94053,1,0,0:0:0:0:
320,192,94130,1,0,0:0:0:0:
64,192,94207,1,0,0:0:0:0:
192,192,94283,1,0,0:0:0:0:
320,192,94360,1,0,0:0:0:0:
64,192,94437,1,0,0:0:0:0:
448,192,94437,1,0,0:0:0:0:
320,192,94513,1,0,0:0:0:0:
448,192,94590,1,0,0:0:0:0:
320,192,94667,1,0,0:0:0:0:
192,192,94743,1,0,0:0:0:0:
64,192,94833,1,0,0:0:0:0:
320,192,94935,1,0,0:0:0:0:
192,192,95037,1,0,0:0:0:0:
64,192,95126,1,0,0:0:0:0:
192,192,95203,1,0,0:0:0:0:
320,192,95305,1,0,0:0:0:0:
448,192,95408,1,0,0:0:0:0:
64,192,95484,1,0,0:0:0:0:
192,192,95484,1,0,0:0:0:0:
448,192,95586,1,0,0:0:0:0:
320,192,95663,1,0,0:0:0:0:
192,192,95765,1,0,0:0:0:0:
64,192,95868,1,0,0:0:0:0:
192,192,95970,1,0,0:0:0:0:
64,192,96059,1,0,0:0:0:0:
448,192,96059,1,0,0:0:0:0:
192,192,96174,1,0,0:0:0:0:
320,192,96315,1,0,0:0:0:0:
448,192,96468,1,0,0:0:0:0:
64,192,96583,1,0,0:0:0:0:
320,192,96583,1,0,0:0:0:0:
448,192,96698,1,0,0:0:0:0:
320,192,96826,1,0,0:0:0:0:
192,192,96966,1,0,0:0:0:0:
64,192,97081,1,0,0:0:0:0:
448,192,97196,1,0,0:0:0:0:
320,192,97311,1,0,0:0:0:0:
192,192,97452,1,0,0:0:0:0:
64,192,97580,1,0,0:0:0:0:
192,192,97707,1,0,0:0:0:0:
320,192,97848,1,0,0:0:0:0:
448,192,97976,1,0,0:0:0:0:
192,192,98104,1,0,0:0:0:0:
320,192,98104,1,0,0:0:0:0:
448,192,98244,1,0,0:0:0:0:
320,192,98359,1,0,0:0:0:0:
192,192,98500,1,0,0:0:0:0:
64,192,98640,1,0,0:0:0:0:
448,192,98781,1,0,0:0:0:0:
320,192,98909,1,0,0:0:0:0:
192,192,99036,1,0,0:0:0:0:
64,192,99164,1,0,0:0:0:0:
320,192,99164,1,0,0:0:0:0:
320,192,99317,1,0,0:0:0:0:
64,192,99458,1,0,0:0:0:0:
64,192,99586,1,0,0:0:0:0:
448,192,99739,1,0,0:0:0:0:
192,192,99880,1,0,0:0:0:0:
192,192,100007,1,0,0:0:0:0:
448,192,100135,1,0,0:0:0:0:
192,192,100263,1,0,0:0:0:0:
448,192,100403,1,0,0:0:0:0:
192,192,100518,1,0,0:0:0:0:
192,192,100646,1,0,0:0:0:0:
448,192,100774,1,0,0:0:0:0:
192,192,100902,1,0,0:0:0:0:
192,192,101030,1,0,0:0:0:0:
448,192,101157,1,0,0:0:0:0:
192,192,101285,1,0,0:0:0:0:
448,192,101413,1,0,0:0:0:0:
192,192,101528,1,0,0:0:0:0:
192,192,101668,1,0,0:0:0:0:
448,192,101783,1,0,0:0:0:0:
192,192,101911,1,0,0:0:0:0:
192,192,102039,1,0,0:0:0:0:
448,192,102167,1,0,0:0:0:0:
192,192,102294,1,0,0:0:0:0:
448,192,102435,1,0,0:0:0:0:
192,192,102550,1,0,0:0:0:0:
192,192,102691,1,0,0:0:0:0:
448,192,102831,1,0,0:0:0:0:
192,192,102946,1,0,0:0:0:0:
192,192,103061,1,0,0:0:0:0:
448,192,103202,1,0,0:0:0:0:
192,192,103329,1,0,0:0:0:0:
448,192,103444,1,0,0:0:0:0:
192,192,103585,1,0,0:0:0:0:
192,192,103713,1,0,0:0:0:0:
448,192,103828,1,0,0:0:0:0:
192,192,103968,1,0,0:0:0:0:
192,192,104096,1,0,0:0:0:0:
448,192,104224,1,0,0:0:0:0:
192,192,104352,1,0,0:0:0:0:
448,192,104479,1,0,0:0:0:0:
192,192,104607,1,0,0:0:0:0:
192,192,104735,1,0,0:0:0:0:
448,192,104863,1,0,0:0:0:0:
192,192,104990,1,0,0:0:0:0:
192,192,105118,1,0,0:0:0:0:
448,192,105246,1,0,0:0:0:0:
192,192,105387,1,0,0:0:0:0:
320,192,105387,1,0,0:0:0:0:
448,192,105514,1,0,0:0:0:0:
192,192,105655,1,0,0:0:0:0:
192,192,105783,1,0,0:0:0:0:
64,192,105910,1,0,0:0:0:0:
448,192,105910,1,0,0:0:0:0:
192,192,106051,1,0,0:0:0:0:
192,192,106179,1,0,0:0:0:0:
448,192,106306,1,0,0:0:0:0:
64,192,106421,1,0,0:0:0:0:
192,192,106421,1,0,0:0:0:0:
448,192,106549,1,0,0:0:0:0:
192,192,106677,1,0,0:0:0:0:
192,192,106805,1,0,0:0:0:0:
320,192,106945,1,0,0:0:0:0:
448,192,106945,1,0,0:0:0:0:
192,192,107086,1,0,0:0:0:0:
192,192,107226,1,0,0:0:0:0:
448,192,107367,1,0,0:0:0:0:
64,192,107495,1,0,0:0:0:0:
320,192,107495,1,0,0:0:0:0:
448,192,107623,1,0,0:0:0:0:
192,192,107750,1,0,0:0:0:0:
192,192,107878,1,0,0:0:0:0:
448,192,108006,1,0,0:0:0:0:
192,192,108134,1,0,0:0:0:0:
192,192,108261,1,0,0:0:0:0:
448,192,108389,1,0,0:0:0:0:
192,192,108491,1,0,0:0:0:0:
320,192,108491,1,0,0:0:0:0:
448,192,108619,1,0,0:0:0:0:
320,192,108760,1,0,0:0:0:0:
320,192,108887,1,0,0:0:0:0:
64,192,109002,1,0,0:0:0:0:
192,192,109002,1,0,0:0:0:0:
448,192,109143,1,0,0:0:0:0:
448,192,109284,1,0,0:0:0:0:
320,192,109411,1,0,0:0:0:0:
64,192,109552,1,0,0:0:0:0:
192,192,109552,1,0,0:0:0:0:
448,192,109552,1,0,0:0:0:0:
320,192,109654,1,0,0:0:0:0:
64,192,109795,1,0,0:0:0:0:
64,192,109922,1,0,0:0:0:0:
320,192,110050,1,0,0:0:0:0:
64,192,110178,1,0,0:0:0:0:
64,192,110306,1,0,0:0:0:0:
320,192,110421,1,0,0:0:0:0:
64,192,110561,1,0,0:0:0:0:
320,192,110676,1,0,0:0:0:0:
64,192,110817,1,0,0:0:0:0:
64,192,110945,1,0,0:0:0:0:
192,192,111072,1,0,0:0:0:0:
320,192,111072,1,0,0:0:0:0:
64,192,111200,1,0,0:0:0:0:
64,192,111328,1,0,0:0:0:0:
320,192,111456,1,0,0:0:0:0:
320,192,111596,1,0,0:0:0:0:
448,192,111596,1,0,0:0:0:0:
320,192,111750,1,0,0:0:0:0:
64,192,111865,1,0,0:0:0:0:
64,192,112005,1,0,0:0:0:0:
192,192,112146,1,0,0:0:0:0:
448,192,112146,1,0,0:0:0:0:
64,192,112273,1,0,0:0:0:0:
64,192,112427,1,0,0:0:0:0:
320,192,112567,1,0,0:0:0:0:
192,192,112721,1,0,0:0:0:0:
320,192,112721,1,0,0:0:0:0:
320,192,112874,1,0,0:0:0:0:
64,192,112989,1,0,0:0:0:0:
64,192,113117,1,0,0:0:0:0:
320,192,113257,1,0,0:0:0:0:
64,192,113398,1,0,0:0:0:0:
64,192,113538,1,0,0:0:0:0:
320,192,113653,1,0,0:0:0:0:
192,192,113794,1,0,0:0:0:0:
320,192,113794,1,0,0:0:0:0:
320,192,113922,1,0,0:0:0:0:
64,192,114049,1,0,0:0:0:0:
64,192,114177,1,0,0:0:0:0:
192,192,114292,1,0,0:0:0:0:
448,192,114292,1,0,0:0:0:0:
64,192,114420,1,0,0:0:0:0:
64,192,114561,1,0,0:0:0:0:
320,192,114701,1,0,0:0:0:0:
320,192,114829,1,0,0:0:0:0:
448,192,114829,1,0,0:0:0:0:
320,192,114969,1,0,0:0:0:0:
64,192,115084,1,0,0:0:0:0:
64,192,115225,1,0,0:0:0:0:
192,192,115365,1,0,0:0:0:0:
448,192,115365,1,0,0:0:0:0:
64,192,115519,1,0,0:0:0:0:
64,192,115659,1,0,0:0:0:0:
320,192,115813,1,0,0:0:0:0:
64,192,115940,1,0,0:0:0:0:
320,192,115940,1,0,0:0:0:0:
320,192,116081,1,0,0:0:0:0:
64,192,116209,1,0,0:0:0:0:
64,192,116362,1,0,0:0:0:0:
320,192,116490,1,0,0:0:0:0:
64,192,116630,1,0,0:0:0:0:
64,192,116784,1,0,0:0:0:0:
320,192,116886,1,0,0:0:0:0:
64,192,117014,1,0,0:0:0:0:
320,192,117154,1,0,0:0:0:0:
64,192,117269,1,0,0:0:0:0:
64,192,117397,1,0,0:0:0:0:
192,192,117538,1,0,0:0:0:0:
320,192,117538,1,0,0:0:0:0:
64,192,117678,1,0,0:0:0:0:
64,192,117844,1,0,0:0:0:0:
320,192,117985,1,0,0:0:0:0:
192,192,118138,1,0,0:0:0:0:
448,192,118138,1,0,0:0:0:0:
320,192,118266,1,0,0:0:0:0:
192,192,118406,1,0,0:0:0:0:
192,192,118547,1,0,0:0:0:0:
320,192,118649,1,0,0:0:0:0:
448,192,118649,1,0,0:0:0:0:
192,192,118790,1,0,0:0:0:0:
448,192,118790,1,0,0:0:0:0:
320,192,118918,1,0,0:0:0:0:
192,192,119045,1,0,0:0:0:0:
64,192,119186,1,0,0:0:0:0:
448,192,119186,1,0,0:0:0:0:
448,192,119314,1,0,0:0:0:0:
192,192,119441,1,0,0:0:0:0:
64,192,119582,1,0,0:0:0:0:
320,192,119582,1,0,0:0:0:0:
192,192,119710,1,0,0:0:0:0:
448,192,119710,1,0,0:0:0:0:
64,192,119837,1,0,0:0:0:0:
320,192,119837,1,0,0:0:0:0:
320,192,119978,1,0,0:0:0:0:
448,192,120093,1,0,0:0:0:0:
192,192,120221,1,0,0:0:0:0:
320,192,120221,1,0,0:0:0:0:
448,192,120374,1,0,0:0:0:0:
320,192,120489,1,0,0:0:0:0:
320,192,120630,1,0,0:0:0:0:
320,192,120770,1,0,0:0:0:0:
448,192,120770,1,0,0:0:0:0:
64,192,120898,1,0,0:0:0:0:
320,192,120898,1,0,0:0:0:0:
192,192,121026,1,0,0:0:0:0:
64,192,121154,1,0,0:0:0:0:
192,192,121281,1,0,0:0:0:0:
320,192,121281,1,0,0:0:0:0:
320,192,121447,1,0,0:0:0:0:
192,192,121562,1,0,0:0:0:0:
320,192,121677,1,0,0:0:0:0:
64,192,121792,1,0,0:0:0:0:
320,192,121792,1,0,0:0:0:0:
192,192,121920,1,0,0:0:0:0:
320,192,122048,1,0,0:0:0:0:
448,192,122176,1,0,0:0:0:0:
64,192,122278,1,0,0:0:0:0:
192,192,122316,1,0,0:0:0:0:
320,192,122355,1,0,0:0:0:0:
448,192,122355,1,0,0:0:0:0:
320,192,122495,1,0,0:0:0:0:
64,192,122623,1,0,0:0:0:0:
192,192,122751,1,0,0:0:0:0:
64,192,122866,1,0,0:0:0:0:
320,192,122866,1,0,0:0:0:0:
320,192,122993,1,0,0:0:0:0:
448,192,122993,1,0,0:0:0:0:
64,192,123121,1,0,0:0:0:0:
192,192,123249,1,0,0:0:0:0:
320,192,123377,1,0,0:0:0:0:
448,192,123377,1,0,0:0:0:0:
448,192,123517,1,0,0:0:0:0:
320,192,123632,1,0,0:0:0:0:
192,192,123760,1,0,0:0:0:0:
64,192,123888,1,0,0:0:0:0:
320,192,123888,1,0,0:0:0:0:
192,192,124003,1,0,0:0:0:0:
320,192,124131,1,0,0:0:0:0:
192,192,124271,1,0,0:0:0:0:
64,192,124424,1,0,0:0:0:0:
320,192,124424,1,0,0:0:0:0:
448,192,124424,1,0,0:0:0:0:
192,192,124565,1,0,0:0:0:0:
448,192,124565,1,0,0:0:0:0:
64,192,124680,1,0,0:0:0:0:
320,192,124680,1,0,0:0:0:0:
64,192,124795,1,0,0:0:0:0:
320,192,124795,1,0,0:0:0:0:
192,192,124923,1,0,0:0:0:0:
448,192,124923,1,0,0:0:0:0:
64,192,125051,1,0,0:0:0:0:
320,192,125051,1,0,0:0:0:0:
64,192,125178,1,0,0:0:0:0:
320,192,125178,1,0,0:0:0:0:
192,192,125293,1,0,0:0:0:0:
448,192,125293,1,0,0:0:0:0:
320,192,125434,1,0,0:0:0:0:
448,192,125434,1,0,0:0:0:0:
192,192,125562,1,0,0:0:0:0:
320,192,125562,1,0,0:0:0:0:
64,192,125689,1,0,0:0:0:0:
192,192,125689,1,0,0:0:0:0:
320,192,125817,1,0,0:0:0:0:
448,192,125817,1,0,0:0:0:0:
64,192,125945,1,0,0:0:0:0:
192,192,125945,1,0,0:0:0:0:
448,192,125945,1,0,0:0:0:0:
64,192,126073,1,0,0:0:0:0:
320,192,126073,1,0,0:0:0:0:
64,192,126201,1,0,0:0:0:0:
320,192,126201,1,0,0:0:0:0:
192,192,126328,1,0,0:0:0:0:
448,192,126328,1,0,0:0:0:0:
64,192,126469,1,0,0:0:0:0:
320,192,126469,1,0,0:0:0:0:
448,192,126469,1,0,0:0:0:0:
192,192,126609,1,0,0:0:0:0:
448,192,126609,1,0,0:0:0:0:
192,192,126737,1,0,0:0:0:0:
448,192,126737,1,0,0:0:0:0:
64,192,126865,1,0,0:0:0:0:
320,192,126865,1,0,0:0:0:0:
64,192,127005,1,0,0:0:0:0:
192,192,127005,1,0,0:0:0:0:
448,192,127005,1,0,0:0:0:0:
64,192,127146,1,0,0:0:0:0:
320,192,127146,1,0,0:0:0:0:
64,192,127299,1,0,0:0:0:0:
320,192,127299,1,0,0:0:0:0:
192,192,127453,1,0,0:0:0:0:
448,192,127453,1,0,0:0:0:0:
64,192,127580,1,0,0:0:0:0:
320,192,127580,1,0,0:0:0:0:
448,192,127580,1,0,0:0:0:0:
192,192,127657,1,0,0:0:0:0:
320,192,127747,1,0,0:0:0:0:
448,192,127836,1,0,0:0:0:0:
64,192,127925,1,0,0:0:0:0:
192,192,128015,1,0,0:0:0:0:
320,192,128104,1,0,0:0:0:0:
448,192,128194,1,0,0:0:0:0:
64,192,128283,1,0,0:0:0:0:
192,192,128373,1,0,0:0:0:0:
320,192,128462,1,0,0:0:0:0:
448,192,128539,1,0,0:0:0:0:
64,192,128628,1,0,0:0:0:0:
320,192,128628,1,0,0:0:0:0:
448,192,128705,1,0,0:0:0:0:
320,192,128781,1,0,0:0:0:0:
192,192,128858,1,0,0:0:0:0:
64,192,128935,1,0,0:0:0:0:
448,192,129011,1,0,0:0:0:0:
320,192,129063,1,0,0:0:0:0:
64,192,129114,1,0,0:0:0:0:
192,192,129114,1,0,0:0:0:0:
448,192,129178,1,0,0:0:0:0:
320,192,129229,1,0,0:0:0:0:
192,192,129280,1,0,0:0:0:0:
64,192,129344,1,0,0:0:0:0:
192,192,129420,1,0,0:0:0:0:
320,192,129510,1,0,0:0:0:0:
448,192,129586,1,0,0:0:0:0:
64,192,129638,1,0,0:0:0:0:
192,192,129638,1,0,0:0:0:0:
320,192,129638,1,0,0:0:0:0:
192,192,129778,1,0,0:0:0:0:
448,192,129778,1,0,0:0:0:0:
192,192,129893,1,0,0:0:0:0:
448,192,129893,1,0,0:0:0:0:
64,192,130021,1,0,0:0:0:0:
320,192,130021,1,0,0:0:0:0:
192,192,130161,1,0,0:0:0:0:
320,192,130161,1,0,0:0:0:0:
448,192,130161,1,0,0:0:0:0:
64,192,130289,1,0,0:0:0:0:
320,192,130289,1,0,0:0:0:0:
64,192,130417,1,0,0:0:0:0:
320,192,130417,1,0,0:0:0:0:
192,192,130532,1,0,0:0:0:0:
448,192,130532,1,0,0:0:0:0:
64,192,130647,1,0,0:0:0:0:
320,192,130647,1,0,0:0:0:0:
448,192,130647,1,0,0:0:0:0:
192,192,130788,1,0,0:0:0:0:
448,192,130788,1,0,0:0:0:0:
192,192,130915,1,0,0:0:0:0:
448,192,130915,1,0,0:0:0:0:
64,192,131056,1,0,0:0:0:0:
320,192,131056,1,0,0:0:0:0:
192,192,131184,1,0,0:0:0:0:
320,192,131184,1,0,0:0:0:0:
448,192,131184,1,0,0:0:0:0:
64,192,131311,1,0,0:0:0:0:
320,192,131311,1,0,0:0:0:0:
64,192,131439,1,0,0:0:0:0:
320,192,131439,1,0,0:0:0:0:
192,192,131567,1,0,0:0:0:0:
448,192,131567,1,0,0:0:0:0:
64,192,131695,1,0,0:0:0:0:
320,192,131695,1,0,0:0:0:0:
448,192,131695,1,0,0:0:0:0:
192,192,131771,1,0,0:0:0:0:
320,192,131861,1,0,0:0:0:0:
448,192,131937,1,0,0:0:0:0:
64,192,132014,1,0,0:0:0:0:
192,192,132104,1,0,0:0:0:0:
320,192,132193,1,0,0:0:0:0:
448,192,132282,1,0,0:0:0:0:
64,192,132359,1,0,0:0:0:0:
192,192,132449,1,0,0:0:0:0:
320,192,132525,1,0,0:0:0:0:
448,192,132615,1,0,0:0:0:0:
64,192,132704,1,0,0:0:0:0:
320,192,132704,1,0,0:0:0:0:
448,192,132781,1,0,0:0:0:0:
320,192,132857,1,0,0:0:0:0:
192,192,132934,1,0,0:0:0:0:
64,192,133011,1,0,0:0:0:0:
448,192,133075,1,0,0:0:0:0:
320,192,133151,1,0,0:0:0:0:
64,192,133215,1,0,0:0:0:0:
192,192,133215,1,0,0:0:0:0:
448,192,133279,1,0,0:0:0:0:
320,192,133343,1,0,0:0:0:0:
192,192,133407,1,0,0:0:0:0:
64,192,133471,1,0,0:0:0:0:
448,192,133522,1,0,0:0:0:0:
320,192,133598,1,0,0:0:0:0:
192,192,133688,1,0,0:0:0:0:
64,192,133765,1,0,0:0:0:0:
192,192,133880,1,0,0:0:0:0:
192,192,134033,1,0,0:0:0:0:
64,192,134186,1,0,0:0:0:0:
320,192,134276,1,0,0:0:0:0:
448,192,134276,1,0,0:0:0:0:
192,192,134416,1,0,0:0:0:0:
192,192,134531,1,0,0:0:0:0:
320,192,134633,1,0,0:0:0:0:
320,192,134787,1,0,0:0:0:0:
448,192,134787,1,0,0:0:0:0:
192,192,134915,1,0,0:0:0:0:
192,192,135042,1,0,0:0:0:0:
320,192,135042,1,0,0:0:0:0:
64,192,135183,1,0,0:0:0:0:
64,192,135323,1,0,0:0:0:0:
448,192,135323,1,0,0:0:0:0:
448,192,135451,1,0,0:0:0:0:
192,192,135566,1,0,0:0:0:0:
320,192,135566,1,0,0:0:0:0:
320,192,135707,1,0,0:0:0:0:
64,192,135809,1,0,0:0:0:0:
192,192,135809,1,0,0:0:0:0:
448,192,135962,1,0,0:0:0:0:
192,192,136103,1,0,0:0:0:0:
192,192,136231,1,0,0:0:0:0:
320,192,136346,1,0,0:0:0:0:
448,192,136346,1,0,0:0:0:0:
192,192,136486,1,0,0:0:0:0:
192,192,136601,1,0,0:0:0:0:
448,192,136729,1,0,0:0:0:0:
64,192,136857,1,0,0:0:0:0:
192,192,136857,1,0,0:0:0:0:
448,192,136984,1,0,0:0:0:0:
192,192,137112,1,0,0:0:0:0:
192,192,137240,1,0,0:0:0:0:
320,192,137368,1,0,0:0:0:0:
448,192,137368,1,0,0:0:0:0:
192,192,137496,1,0,0:0:0:0:
192,192,137623,1,0,0:0:0:0:
448,192,137751,1,0,0:0:0:0:
64,192,137866,1,0,0:0:0:0:
192,192,137866,1,0,0:0:0:0:
448,192,138007,1,0,0:0:0:0:
192,192,138134,1,0,0:0:0:0:
192,192,138262,1,0,0:0:0:0:
320,192,138377,1,0,0:0:0:0:
448,192,138377,1,0,0:0:0:0:
192,192,138518,1,0,0:0:0:0:
192,192,138633,1,0,0:0:0:0:
448,192,138760,1,0,0:0:0:0:
64,192,138888,1,0,0:0:0:0:
192,192,138888,1,0,0:0:0:0:
448,192,138888,1,0,0:0:0:0:
448,192,139016,1,0,0:0:0:0:
192,192,139144,1,0,0:0:0:0:
192,192,139284,1,0,0:0:0:0:
320,192,139412,1,0,0:0:0:0:
448,192,139412,1,0,0:0:0:0:
192,192,139553,1,0,0:0:0:0:
192,192,139668,1,0,0:0:0:0:
448,192,139795,1,0,0:0:0:0:
64,192,139936,1,0,0:0:0:0:
192,192,139936,1,0,0:0:0:0:
320,192,139936,1,0,0:0:0:0:
448,192,140064,1,0,0:0:0:0:
192,192,140204,1,0,0:0:0:0:
192,192,140332,1,0,0:0:0:0:
320,192,140460,1,0,0:0:0:0:
448,192,140460,1,0,0:0:0:0:
192,192,140588,1,0,0:0:0:0:
192,192,140715,1,0,0:0:0:0:
448,192,140856,1,0,0:0:0:0:
64,192,140984,1,0,0:0:0:0:
192,192,140984,1,0,0:0:0:0:
448,192,141111,1,0,0:0:0:0:
192,192,141252,1,0,0:0:0:0:
192,192,141380,1,0,0:0:0:0:
64,192,141508,1,0,0:0:0:0:
320,192,141508,1,0,0:0:0:0:
448,192,141508,1,0,0:0:0:0:
192,192,141648,1,0,0:0:0:0:
192,192,141763,1,0,0:0:0:0:
448,192,141878,1,0,0:0:0:0:
64,192,142006,1,0,0:0:0:0:
320,192,142006,1,0,0:0:0:0:
448,192,142006,1,0,0:0:0:0:
192,192,142083,1,0,0:0:0:0:
320,192,142172,1,0,0:0:0:0:
64,192,142261,1,0,0:0:0:0:
192,192,142351,1,0,0:0:0:0:
320,192,142427,1,0,0:0:0:0:
64,192,142517,1,0,0:0:0:0:
192,192,142517,1,0,0:0:0:0:
448,192,142517,1,0,0:0:0:0:
320,192,142606,1,0,0:0:0:0:
192,192,142696,1,0,0:0:0:0:
64,192,142785,1,0,0:0:0:0:
192,192,142862,1,0,0:0:0:0:
320,192,142964,1,0,0:0:0:0:
64,192,143066,1,0,0:0:0:0:
192,192,143066,1,0,0:0:0:0:
448,192,143066,1,0,0:0:0:0:
448,192,143207,1,0,0:0:0:0:
192,192,143335,1,0,0:0:0:0:
192,192,143462,1,0,0:0:0:0:
320,192,143590,1,0,0:0:0:0:
448,192,143590,1,0,0:0:0:0:
192,192,143731,1,0,0:0:0:0:
192,192,143859,1,0,0:0:0:0:
448,192,143999,1,0,0:0:0:0:
64,192,144127,1,0,0:0:0:0:
192,192,144127,1,0,0:0:0:0:
320,192,144127,1,0,0:0:0:0:
448,192,144255,1,0,0:0:0:0:
192,192,144382,1,0,0:0:0:0:
192,192,144523,1,0,0:0:0:0:
320,192,144638,1,0,0:0:0:0:
448,192,144638,1,0,0:0:0:0:
192,192,144778,1,0,0:0:0:0:
192,192,144906,1,0,0:0:0:0:
448,192,145034,1,0,0:0:0:0:
64,192,145162,1,0,0:0:0:0:
192,192,145162,1,0,0:0:0:0:
448,192,145290,1,0,0:0:0:0:
192,192,145417,1,0,0:0:0:0:
192,192,145545,1,0,0:0:0:0:
64,192,145673,1,0,0:0:0:0:
320,192,145673,1,0,0:0:0:0:
448,192,145673,1,0,0:0:0:0:
192,192,145813,1,0,0:0:0:0:
448,192,145928,1,0,0:0:0:0:
192,192,146056,1,0,0:0:0:0:
64,192,146184,1,0,0:0:0:0:
320,192,146184,1,0,0:0:0:0:
448,192,146184,1,0,0:0:0:0:
192,192,146261,1,0,0:0:0:0:
320,192,146350,1,0,0:0:0:0:
64,192,146440,1,0,0:0:0:0:
192,192,146516,1,0,0:0:0:0:
320,192,146593,1,0,0:0:0:0:
64,192,146670,1,0,0:0:0:0:
192,192,146670,1,0,0:0:0:0:
448,192,146670,1,0,0:0:0:0:
320,192,146759,1,0,0:0:0:0:
192,192,146848,1,0,0:0:0:0:
64,192,146938,1,0,0:0:0:0:
192,192,147014,1,0,0:0:0:0:
320,192,147104,1,0,0:0:0:0:
64,192,147181,1,0,0:0:0:0:
192,192,147181,1,0,0:0:0:0:
448,192,147181,1,0,0:0:0:0:
448,192,147308,1,0,0:0:0:0:
192,192,147436,1,0,0:0:0:0:
192,192,147564,1,0,0:0:0:0:
64,192,147679,1,0,0:0:0:0:
320,192,147679,1,0,0:0:0:0:
448,192,147679,1,0,0:0:0:0:
192,192,147807,1,0,0:0:0:0:
192,192,147934,1,0,0:0:0:0:
448,192,148062,1,0,0:0:0:0:
192,192,148190,1,0,0:0:0:0:
320,192,148190,1,0,0:0:0:0:
448,192,148190,1,0,0:0:0:0:
64,192,148292,1,0,0:0:0:0:
192,192,148382,1,0,0:0:0:0:
320,192,148471,1,0,0:0:0:0:
192,192,148561,1,0,0:0:0:0:
320,192,148637,1,0,0:0:0:0:
64,192,148739,1,0,0:0:0:0:
192,192,148739,1,0,0:0:0:0:
448,192,148739,1,0,0:0:0:0:
320,192,148842,1,0,0:0:0:0:
192,192,148944,1,0,0:0:0:0:
64,192,149059,1,0,0:0:0:0:
192,192,149174,1,0,0:0:0:0:
64,192,149276,1,0,0:0:0:0:
320,192,149276,1,0,0:0:0:0:
448,192,149276,1,0,0:0:0:0:
192,192,149353,1,0,0:0:0:0:
320,192,149429,1,0,0:0:0:0:
448,192,149506,1,0,0:0:0:0:
64,192,149583,1,0,0:0:0:0:
192,192,149647,1,0,0:0:0:0:
320,192,149723,1,0,0:0:0:0:
448,192,149800,1,0,0:0:0:0:
320,192,149902,1,0,0:0:0:0:
192,192,150017,1,0,0:0:0:0:
64,192,150132,1,0,0:0:0:0:
448,192,150222,1,0,0:0:0:0:
64,192,150324,1,0,0:0:0:0:
192,192,150324,1,0,0:0:0:0:
320,192,150324,1,0,0:0:0:0:
448,192,150439,1,0,0:0:0:0:
192,192,150554,1,0,0:0:0:0:
64,192,150656,1,0,0:0:0:0:
192,192,150771,1,0,0:0:0:0:
448,192,150873,1,0,0:0:0:0:
320,192,150963,1,0,0:0:0:0:
192,192,151065,1,0,0:0:0:0:
64,192,151167,1,0,0:0:0:0:
448,192,151269,1,0,0:0:0:0:
320,192,151384,1,0,0:0:0:0:
64,192,151499,1,0,0:0:0:0:
192,192,151499,1,0,0:0:0:0:
448,192,151499,1,0,0:0:0:0:
320,192,151627,1,0,0:0:0:0:
192,192,151755,1,0,0:0:0:0:
320,192,151908,1,0,0:0:0:0:
192,192,152010,1,0,0:0:0:0:
448,192,152010,1,0,0:0:0:0:
320,192,152138,1,0,0:0:0:0:
192,192,152291,1,0,0:0:0:0:
320,192,152445,1,0,0:0:0:0:
64,192,152585,1,0,0:0:0:0:
448,192,152585,1,0,0:0:0:0:
192,192,152751,1,0,0:0:0:0:
320,192,152879,1,0,0:0:0:0:
192,192,153007,1,0,0:0:0:0:
448,192,153135,1,0,0:0:0:0:
192,192,153263,1,0,0:0:0:0:
320,192,153390,1,0,0:0:0:0:
192,192,153518,1,0,0:0:0:0:
448,192,153646,1,0,0:0:0:0:
192,192,153774,1,0,0:0:0:0:
320,192,153901,1,0,0:0:0:0:
448,192,154029,1,0,0:0:0:0:
64,192,154157,1,0,0:0:0:0:
192,192,154157,1,0,0:0:0:0:
320,192,154285,1,0,0:0:0:0:
192,192,154412,1,0,0:0:0:0:
64,192,154540,1,0,0:0:0:0:
320,192,154668,1,0,0:0:0:0:
448,192,154668,1,0,0:0:0:0:
64,192,154719,1,0,0:0:0:0:
192,192,154821,1,0,0:0:0:0:
320,192,154924,1,0,0:0:0:0:
448,192,155026,1,0,0:0:0:0:
64,192,155128,1,0,0:0:0:0:
192,192,155230,1,0,0:0:0:0:
320,192,155230,1,0,0:0:0:0:
448,192,155332,1,0,0:0:0:0:
64,192,155435,1,0,0:0:0:0:
192,192,155537,1,0,0:0:0:0:
320,192,155639,1,0,0:0:0:0:
448,192,155741,1,0,0:0:0:0:
64,192,155843,1,0,0:0:0:0:
192,192,155843,1,0,0:0:0:0:
320,192,155958,1,0,0:0:0:0:
192,192,156086,1,0,0:0:0:0:
320,192,156214,1,0,0:0:0:0:
64,192,156355,1,0,0:0:0:0:
448,192,156355,1,0,0:0:0:0:
320,192,156457,1,0,0:0:0:0:
320,192,156751,1,0,0:0:0:0:
64,192,156866,1,0,0:0:0:0:
192,192,156866,1,0,0:0:0:0:
320,192,156981,1,0,0:0:0:0:
192,192,157121,1,0,0:0:0:0:
192,192,157249,1,0,0:0:0:0:
320,192,157377,1,0,0:0:0:0:
448,192,157377,1,0,0:0:0:0:
192,192,157517,1,0,0:0:0:0:
64,192,157645,1,0,0:0:0:0:
192,192,157645,1,0,0:0:0:0:
448,192,157760,1,0,0:0:0:0:
192,192,157913,1,0,0:0:0:0:
448,192,157913,1,0,0:0:0:0:
320,192,158054,1,0,0:0:0:0:
192,192,158182,1,0,0:0:0:0:
192,192,158322,1,0,0:0:0:0:
320,192,158450,1,0,0:0:0:0:
448,192,158450,1,0,0:0:0:0:
192,192,158591,1,0,0:0:0:0:
448,192,158591,1,0,0:0:0:0:
64,192,158706,1,0,0:0:0:0:
320,192,158846,1,0,0:0:0:0:
64,192,158974,1,0,0:0:0:0:
192,192,158974,1,0,0:0:0:0:
448,192,158974,1,0,0:0:0:0:
320,192,159102,1,0,0:0:0:0:
192,192,159229,1,0,0:0:0:0:
192,192,159357,1,0,0:0:0:0:
320,192,159498,1,0,0:0:0:0:
448,192,159498,1,0,0:0:0:0:
192,192,159638,1,0,0:0:0:0:
448,192,159638,1,0,0:0:0:0:
64,192,159766,1,0,0:0:0:0:
448,192,159907,1,0,0:0:0:0:
64,192,160022,1,0,0:0:0:0:
192,192,160022,1,0,0:0:0:0:
320,192,160022,1,0,0:0:0:0:
448,192,160149,1,0,0:0:0:0:
192,192,160277,1,0,0:0:0:0:
192,192,160418,1,0,0:0:0:0:
320,192,160545,1,0,0:0:0:0:
448,192,160545,1,0,0:0:0:0:
192,192,160673,1,0,0:0:0:0:
448,192,160673,1,0,0:0:0:0:
64,192,160801,1,0,0:0:0:0:
448,192,160942,1,0,0:0:0:0:
64,192,161082,1,0,0:0:0:0:
192,192,161082,1,0,0:0:0:0:
448,192,161197,1,0,0:0:0:0:
192,192,161338,1,0,0:0:0:0:
192,192,161465,1,0,0:0:0:0:
64,192,161593,1,0,0:0:0:0:
320,192,161593,1,0,0:0:0:0:
448,192,161593,1,0,0:0:0:0:
192,192,161721,1,0,0:0:0:0:
448,192,161721,1,0,0:0:0:0:
192,192,161836,1,0,0:0:0:0:
448,192,161964,1,0,0:0:0:0:
64,192,162092,1,0,0:0:0:0:
320,192,162092,1,0,0:0:0:0:
448,192,162092,1,0,0:0:0:0:
192,192,162155,1,0,0:0:0:0:
320,192,162219,1,0,0:0:0:0:
448,192,162283,1,0,0:0:0:0:
64,192,162347,1,0,0:0:0:0:
192,192,162411,1,0,0:0:0:0:
320,192,162475,1,0,0:0:0:0:
448,192,162526,1,0,0:0:0:0:
64,192,162590,1,0,0:0:0:0:
192,192,162590,1,0,0:0:0:0:
320,192,162590,1,0,0:0:0:0:
448,192,162654,1,0,0:0:0:0:
320,192,162718,1,0,0:0:0:0:
192,192,162781,1,0,0:0:0:0:
64,192,162858,1,0,0:0:0:0:
448,192,162922,1,0,0:0:0:0:
320,192,162973,1,0,0:0:0:0:
192,192,163063,1,0,0:0:0:0:
64,192,163139,1,0,0:0:0:0:
320,192,163139,1,0,0:0:0:0:
448,192,163139,1,0,0:0:0:0:
448,192,163267,1,0,0:0:0:0:
192,192,163395,1,0,0:0:0:0:
192,192,163510,1,0,0:0:0:0:
320,192,163663,1,0,0:0:0:0:
448,192,163663,1,0,0:0:0:0:
192,192,163791,1,0,0:0:0:0:
448,192,163791,1,0,0:0:0:0:
64,192,163919,1,0,0:0:0:0:
448,192,164046,1,0,0:0:0:0:
64,192,164187,1,0,0:0:0:0:
192,192,164187,1,0,0:0:0:0:
320,192,164187,1,0,0:0:0:0:
448,192,164315,1,0,0:0:0:0:
192,192,164455,1,0,0:0:0:0:
192,192,164583,1,0,0:0:0:0:
320,192,164698,1,0,0:0:0:0:
448,192,164698,1,0,0:0:0:0:
192,192,164839,1,0,0:0:0:0:
448,192,164839,1,0,0:0:0:0:
64,192,164966,1,0,0:0:0:0:
448,192,165094,1,0,0:0:0:0:
64,192,165235,1,0,0:0:0:0:
192,192,165235,1,0,0:0:0:0:
448,192,165362,1,0,0:0:0:0:
192,192,165490,1,0,0:0:0:0:
192,192,165618,1,0,0:0:0:0:
64,192,165746,1,0,0:0:0:0:
320,192,165746,1,0,0:0:0:0:
448,192,165746,1,0,0:0:0:0:
192,192,165874,1,0,0:0:0:0:
448,192,165874,1,0,0:0:0:0:
64,192,166014,1,0,0:0:0:0:
448,192,166129,1,0,0:0:0:0:
64,192,166270,1,0,0:0:0:0:
320,192,166270,1,0,0:0:0:0:
448,192,166270,1,0,0:0:0:0:
192,192,166334,1,0,0:0:0:0:
320,192,166397,1,0,0:0:0:0:
448,192,166461,1,0,0:0:0:0:
64,192,166525,1,0,0:0:0:0:
192,192,166589,1,0,0:0:0:0:
320,192,166653,1,0,0:0:0:0:
448,192,166717,1,0,0:0:0:0:
64,192,166781,1,0,0:0:0:0:
192,192,166781,1,0,0:0:0:0:
320,192,166781,1,0,0:0:0:0:
448,192,166845,1,0,0:0:0:0:
320,192,166909,1,0,0:0:0:0:
192,192,166972,1,0,0:0:0:0:
64,192,167036,1,0,0:0:0:0:
448,192,167100,1,0,0:0:0:0:
320,192,167164,1,0,0:0:0:0:
192,192,167228,1,0,0:0:0:0:
64,192,167292,1,0,0:0:0:0:
320,192,167292,1,0,0:0:0:0:
448,192,167292,1,0,0:0:0:0:
448,192,167420,1,0,0:0:0:0:
192,192,167547,1,0,0:0:0:0:
192,192,167675,1,0,0:0:0:0:
320,192,167790,1,0,0:0:0:0:
448,192,167790,1,0,0:0:0:0:
192,192,167931,1,0,0:0:0:0:
448,192,167931,1,0,0:0:0:0:
192,192,168058,1,0,0:0:0:0:
320,192,168212,1,0,0:0:0:0:
64,192,168352,1,0,0:0:0:0:
192,192,168352,1,0,0:0:0:0:
448,192,168352,1,0,0:0:0:0:
320,192,168429,1,0,0:0:0:0:
448,192,168518,1,0,0:0:0:0:
64,192,168608,1,0,0:0:0:0:
192,192,168697,1,0,0:0:0:0:
320,192,168787,1,0,0:0:0:0:
64,192,168876,1,0,0:0:0:0:
448,192,168876,1,0,0:0:0:0:
192,192,168966,1,0,0:0:0:0:
320,192,169055,1,0,0:0:0:0:
448,192,169132,1,0,0:0:0:0:
64,192,169221,1,0,0:0:0:0:
320,192,169311,1,0,0:0:0:0:
192,192,169413,1,0,0:0:0:0:
448,192,169413,1,0,0:0:0:0:
320,192,169489,1,0,0:0:0:0:
192,192,169566,1,0,0:0:0:0:
64,192,169643,1,0,0:0:0:0:
448,192,169719,1,0,0:0:0:0:
320,192,169796,1,0,0:0:0:0:
192,192,169886,1,0,0:0:0:0:
64,192,169962,1,0,0:0:0:0:
192,192,170039,1,0,0:0:0:0:
320,192,170116,1,0,0:0:0:0:
192,192,170205,1,0,0:0:0:0:
320,192,170282,1,0,0:0:0:0:
448,192,170346,1,0,0:0:0:0:
64,192,170435,1,0,0:0:0:0:
192,192,170435,1,0,0:0:0:0:
448,192,170524,1,0,0:0:0:0:
320,192,170614,1,0,0:0:0:0:
192,192,170691,1,0,0:0:0:0:
64,192,170780,1,0,0:0:0:0:
192,192,170869,1,0,0:0:0:0:
64,192,170959,1,0,0:0:0:0:
448,192,170959,1,0,0:0:0:0:
320,192,171023,1,0,0:0:0:0:
192,192,171112,1,0,0:0:0:0:
320,192,171214,1,0,0:0:0:0:
64,192,171304,1,0,0:0:0:0:
448,192,171406,1,0,0:0:0:0:
320,192,171457,1,0,0:0:0:0:
64,192,171508,1,0,0:0:0:0:
192,192,171508,1,0,0:0:0:0:
320,192,171636,1,0,0:0:0:0:
192,192,171777,1,0,0:0:0:0:
192,192,171917,1,0,0:0:0:0:
64,192,172045,1,0,0:0:0:0:
448,192,172045,1,0,0:0:0:0:
192,192,172173,1,0,0:0:0:0:
192,192,172300,1,0,0:0:0:0:
320,192,172454,1,0,0:0:0:0:
64,192,172607,1,0,0:0:0:0:
192,192,172607,1,0,0:0:0:0:
320,192,172748,1,0,0:0:0:0:
192,192,172863,1,0,0:0:0:0:
192,192,172978,1,0,0:0:0:0:
320,192,173118,1,0,0:0:0:0:
448,192,173118,1,0,0:0:0:0:
192,192,173220,1,0,0:0:0:0:
192,192,173374,1,0,0:0:0:0:
320,192,173527,1,0,0:0:0:0:
64,192,173680,1,0,0:0:0:0:
192,192,173680,1,0,0:0:0:0:
320,192,173808,1,0,0:0:0:0:
192,192,173936,1,0,0:0:0:0:
192,192,174064,1,0,0:0:0:0:
64,192,174191,1,0,0:0:0:0:
320,192,174191,1,0,0:0:0:0:
192,192,174319,1,0,0:0:0:0:
192,192,174447,1,0,0:0:0:0:
320,192,174575,1,0,0:0:0:0:
192,192,174703,1,0,0:0:0:0:
320,192,174703,1,0,0:0:0:0:
448,192,174703,1,0,0:0:0:0:
64,192,174779,1,0,0:0:0:0:
192,192,174856,1,0,0:0:0:0:
320,192,174933,1,0,0:0:0:0:
448,192,175009,1,0,0:0:0:0:
64,192,175086,1,0,0:0:0:0:
192,192,175163,1,0,0:0:0:0:
320,192,175239,1,0,0:0:0:0:
448,192,175239,1,0,0:0:0:0:
192,192,175316,1,0,0:0:0:0:
64,192,175418,1,0,0:0:0:0:
448,192,175520,1,0,0:0:0:0:
320,192,175623,1,0,0:0:0:0:
192,192,175725,1,0,0:0:0:0:
64,192,175827,1,0,0:0:0:0:
448,192,175827,1,0,0:0:0:0:
320,192,175980,1,0,0:0:0:0:
192,192,176108,1,0,0:0:0:0:
192,192,176249,1,0,0:0:0:0:
64,192,176389,1,0,0:0:0:0:
320,192,176389,1,0,0:0:0:0:
192,192,176504,1,0,0:0:0:0:
64,192,176618,1,0,0:0:0:0:
192,192,176619,1,0,0:0:0:0:
320,192,176734,1,0,0:0:0:0:
192,192,176887,1,0,0:0:0:0:
448,192,176887,1,0,0:0:0:0:
320,192,177041,1,0,0:0:0:0:
192,192,177156,1,0,0:0:0:0:
192,192,177271,1,0,0:0:0:0:
320,192,177424,1,0,0:0:0:0:
448,192,177424,1,0,0:0:0:0:
192,192,177552,1,0,0:0:0:0:
448,192,177552,1,0,0:0:0:0:
64,192,177692,1,0,0:0:0:0:
448,192,177807,1,0,0:0:0:0:
64,192,177948,1,0,0:0:0:0:
192,192,177948,1,0,0:0:0:0:
448,192,178089,1,0,0:0:0:0:
192,192,178229,1,0,0:0:0:0:
192,192,178344,1,0,0:0:0:0:
320,192,178485,1,0,0:0:0:0:
448,192,178485,1,0,0:0:0:0:
192,192,178625,1,0,0:0:0:0:
448,192,178625,1,0,0:0:0:0:
64,192,178766,1,0,0:0:0:0:
448,192,178893,1,0,0:0:0:0:
64,192,179021,1,0,0:0:0:0:
448,192,179021,1,0,0:0:0:0:
192,192,179149,1,0,0:0:0:0:
320,192,179200,1,0,0:0:0:0:
64,192,179315,1,0,0:0:0:0:
192,192,179405,1,0,0:0:0:0:
320,192,179456,1,0,0:0:0:0:
64,192,179596,1,0,0:0:0:0:
192,192,179596,1,0,0:0:0:0:
192,192,179724,1,0,0:0:0:0:
320,192,179801,1,0,0:0:0:0:
192,192,179865,1,0,0:0:0:0:
448,192,179992,1,0,0:0:0:0:
64,192,180120,1,0,0:0:0:0:
320,192,180120,1,0,0:0:0:0:
192,192,180273,1,0,0:0:0:0:
448,192,180325,1,0,0:0:0:0:
320,192,180414,1,0,0:0:0:0:
192,192,180491,1,0,0:0:0:0:
64,192,180529,1,0,0:0:0:0:
320,192,180657,1,0,0:0:0:0:
448,192,180657,1,0,0:0:0:0:
192,192,180797,1,0,0:0:0:0:
448,192,180887,1,0,0:0:0:0:
192,192,180925,1,0,0:0:0:0:
64,192,181066,1,0,0:0:0:0:
192,192,181206,1,0,0:0:0:0:
448,192,181206,1,0,0:0:0:0:
64,192,181347,1,0,0:0:0:0:
192,192,181411,1,0,0:0:0:0:
448,192,181487,1,0,0:0:0:0:
320,192,181564,1,0,0:0:0:0:
192,192,181615,1,0,0:0:0:0:
192,192,181743,1,0,0:0:0:0:
320,192,181871,1,0,0:0:0:0:
320,192,182011,1,0,0:0:0:0:
448,192,182139,1,0,0:0:0:0:
64,192,182292,1,0,0:0:0:0:
192,192,182292,1,0,0:0:0:0:
320,192,182433,1,0,0:0:0:0:
192,192,182484,1,0,0:0:0:0:
64,192,182573,1,0,0:0:0:0:
448,192,182637,1,0,0:0:0:0:
320,192,182676,1,0,0:0:0:0:
192,192,182791,1,0,0:0:0:0:
320,192,182944,1,0,0:0:0:0:
192,192,183046,1,0,0:0:0:0:
320,192,183084,1,0,0:0:0:0:
448,192,183238,1,0,0:0:0:0:
64,192,183365,1,0,0:0:0:0:
192,192,183365,1,0,0:0:0:0:
448,192,183493,1,0,0:0:0:0:
192,192,183557,1,0,0:0:0:0:
320,192,183621,1,0,0:0:0:0:
192,192,183723,1,0,0:0:0:0:
448,192,183774,1,0,0:0:0:0:
64,192,183928,1,0,0:0:0:0:
320,192,184043,1,0,0:0:0:0:
192,192,184132,1,0,0:0:0:0:
320,192,184183,1,0,0:0:0:0:
64,192,184311,1,0,0:0:0:0:
448,192,184439,1,0,0:0:0:0:
320,192,184567,1,0,0:0:0:0:
192,192,184630,1,0,0:0:0:0:
64,192,184694,1,0,0:0:0:0:
320,192,184797,1,0,0:0:0:0:
192,192,184848,1,0,0:0:0:0:
64,192,184963,1,0,0:0:0:0:
448,192,184963,1,0,0:0:0:0:
320,192,185090,1,0,0:0:0:0:
192,192,185180,1,0,0:0:0:0:
320,192,185231,1,0,0:0:0:0:
448,192,185371,1,0,0:0:0:0:
64,192,185499,1,0,0:0:0:0:
192,192,185499,1,0,0:0:0:0:
320,192,185640,1,0,0:0:0:0:
192,192,185704,1,0,0:0:0:0:
320,192,185768,1,0,0:0:0:0:
64,192,185857,1,0,0:0:0:0:
192,192,185895,1,0,0:0:0:0:
320,192,186010,1,0,0:0:0:0:
448,192,186010,1,0,0:0:0:0:
320,192,186164,1,0,0:0:0:0:
192,192,186253,1,0,0:0:0:0:
320,192,186304,1,0,0:0:0:0:
64,192,186458,1,0,0:0:0:0:
320,192,186598,1,0,0:0:0:0:
448,192,186598,1,0,0:0:0:0:
320,192,186739,1,0,0:0:0:0:
192,192,186790,1,0,0:0:0:0:
64,192,186866,1,0,0:0:0:0:
320,192,186969,1,0,0:0:0:0:
192,192,187020,1,0,0:0:0:0:
448,192,187148,1,0,0:0:0:0:
320,192,187275,1,0,0:0:0:0:
192,192,187378,1,0,0:0:0:0:
448,192,187429,1,0,0:0:0:0:
64,192,187544,1,0,0:0:0:0:
320,192,187684,1,0,0:0:0:0:
448,192,187684,1,0,0:0:0:0:
192,192,187837,1,0,0:0:0:0:
320,192,187901,1,0,0:0:0:0:
448,192,187965,1,0,0:0:0:0:
64,192,188080,1,0,0:0:0:0:
192,192,188144,1,0,0:0:0:0:
64,192,188272,1,0,0:0:0:0:
320,192,188272,1,0,0:0:0:0:
320,192,188425,1,0,0:0:0:0:
64,192,188540,1,0,0:0:0:0:
320,192,188591,1,0,0:0:0:0:
448,192,188757,1,0,0:0:0:0:
192,192,188911,1,0,0:0:0:0:
320,192,189013,1,0,0:0:0:0:
64,192,189115,1,0,0:0:0:0:
192,192,189217,1,0,0:0:0:0:
320,192,189320,1,0,0:0:0:0:
448,192,189422,1,0,0:0:0:0:
64,192,189524,1,0,0:0:0:0:
192,192,189626,1,0,0:0:0:0:
320,192,189728,1,0,0:0:0:0:
64,192,189831,1,0,0:0:0:0:
192,192,189831,1,0,0:0:0:0:
448,192,189831,1,0,0:0:0:0:
320,192,189933,1,0,0:0:0:0:
192,192,190035,1,0,0:0:0:0:
64,192,190137,1,0,0:0:0:0:
448,192,190240,1,0,0:0:0:0:
64,192,190303,1,0,0:0:0:0:
192,192,190303,1,0,0:0:0:0:
320,192,190393,1,0,0:0:0:0:
192,192,190495,1,0,0:0:0:0:
64,192,190597,1,0,0:0:0:0:
448,192,190700,1,0,0:0:0:0:
64,192,190789,1,0,0:0:0:0:
320,192,190789,1,0,0:0:0:0:
192,192,190853,1,0,0:0:0:0:
64,192,190955,1,0,0:0:0:0:
192,192,191057,1,0,0:0:0:0:
320,192,191160,1,0,0:0:0:0:
192,192,191249,1,0,0:0:0:0:
448,192,191249,1,0,0:0:0:0:
320,192,191364,1,0,0:0:0:0:
192,192,191466,1,0,0:0:0:0:
64,192,191568,1,0,0:0:0:0:
448,192,191671,1,0,0:0:0:0:
64,192,191760,1,0,0:0:0:0:
192,192,191760,1,0,0:0:0:0:
320,192,191760,1,0,0:0:0:0:
64,192,191875,1,0,0:0:0:0:
192,192,191977,1,0,0:0:0:0:
320,192,192079,1,0,0:0:0:0:
448,192,192182,1,0,0:0:0:0:
64,192,192297,1,0,0:0:0:0:
192,192,192412,1,0,0:0:0:0:
320,192,192527,1,0,0:0:0:0:
192,192,192642,1,0,0:0:0:0:
448,192,192642,1,0,0:0:0:0:
64,192,192757,1,0,0:0:0:0:
320,192,192757,1,0,0:0:0:0:
448,192,192757,1,0,0:0:0:0:
192,192,192872,1,0,0:0:0:0:
64,192,192987,1,0,0:0:0:0:
448,192,193089,1,0,0:0:0:0:
320,192,193191,1,0,0:0:0:0:
64,192,193255,1,0,0:0:0:0:
192,192,193255,1,0,0:0:0:0:
320,192,193408,1,0,0:0:0:0:
192,192,193523,1,0,0:0:0:0:
64,192,193651,1,0,0:0:0:0:
448,192,193766,1,0,0:0:0:0:
320,192,193817,1,0,0:0:0:0:
64,192,193868,1,0,0:0:0:0:
192,192,193919,1,0,0:0:0:0:
320,192,193971,1,0,0:0:0:0:
64,192,194022,1,0,0:0:0:0:
192,192,194073,1,0,0:0:0:0:
320,192,194124,1,0,0:0:0:0:
448,192,194175,1,0,0:0:0:0:
64,192,194252,1,0,0:0:0:0:
192,192,194328,1,0,0:0:0:0:
320,192,194328,1,0,0:0:0:0:
448,192,194328,1,0,0:0:0:0:
320,192,194456,1,0,0:0:0:0:
448,192,194456,1,0,0:0:0:0:
192,192,194584,1,0,0:0:0:0:
448,192,194584,1,0,0:0:0:0:
64,192,194712,1,0,0:0:0:0:
320,192,194712,1,0,0:0:0:0:
64,192,194827,1,0,0:0:0:0:
192,192,194827,1,0,0:0:0:0:
448,192,194827,1,0,0:0:0:0:
320,192,194967,1,0,0:0:0:0:
448,192,194967,1,0,0:0:0:0:
192,192,195082,1,0,0:0:0:0:
448,192,195082,1,0,0:0:0:0:
64,192,195210,1,0,0:0:0:0:
320,192,195210,1,0,0:0:0:0:
64,192,195350,1,0,0:0:0:0:
192,192,195350,1,0,0:0:0:0:
320,192,195350,1,0,0:0:0:0:
192,192,195465,1,0,0:0:0:0:
448,192,195465,1,0,0:0:0:0:
192,192,195593,1,0,0:0:0:0:
320,192,195593,1,0,0:0:0:0:
64,192,195708,1,0,0:0:0:0:
320,192,195708,1,0,0:0:0:0:
192,192,195849,1,0,0:0:0:0:
320,192,195849,1,0,0:0:0:0:
192,192,195951,1,0,0:0:0:0:
448,192,195951,1,0,0:0:0:0:
64,192,196079,1,0,0:0:0:0:
320,192,196079,1,0,0:0:0:0:
64,192,196207,1,0,0:0:0:0:
192,192,196207,1,0,0:0:0:0:
192,192,196322,1,0,0:0:0:0:
448,192,196322,1,0,0:0:0:0:
320,192,196449,1,0,0:0:0:0:
448,192,196449,1,0,0:0:0:0:
192,192,196564,1,0,0:0:0:0:
448,192,196564,1,0,0:0:0:0:
64,192,196679,1,0,0:0:0:0:
320,192,196679,1,0,0:0:0:0:
64,192,196807,1,0,0:0:0:0:
192,192,196807,1,0,0:0:0:0:
448,192,196807,1,0,0:0:0:0:
320,192,196935,1,0,0:0:0:0:
448,192,196935,1,0,0:0:0:0:
64,192,197063,1,0,0:0:0:0:
320,192,197063,1,0,0:0:0:0:
64,192,197190,1,0,0:0:0:0:
192,192,197190,1,0,0:0:0:0:
64,192,197318,1,0,0:0:0:0:
320,192,197318,1,0,0:0:0:0:
448,192,197318,1,0,0:0:0:0:
192,192,197369,1,0,0:0:0:0:
320,192,197433,1,0,0:0:0:0:
192,192,197497,1,0,0:0:0:0:
64,192,197561,1,0,0:0:0:0:
192,192,197625,1,0,0:0:0:0:
320,192,197689,1,0,0:0:0:0:
448,192,197753,1,0,0:0:0:0:
64,192,197816,1,0,0:0:0:0:
192,192,197816,1,0,0:0:0:0:
448,192,197880,1,0,0:0:0:0:
320,192,197944,1,0,0:0:0:0:
192,192,198008,1,0,0:0:0:0:
64,192,198072,1,0,0:0:0:0:
192,192,198136,1,0,0:0:0:0:
320,192,198200,1,0,0:0:0:0:
448,192,198200,1,0,0:0:0:0:
192,192,198264,1,0,0:0:0:0:
64,192,198328,1,0,0:0:0:0:
320,192,198328,1,0,0:0:0:0:
448,192,198328,1,0,0:0:0:0:
320,192,198468,1,0,0:0:0:0:
448,192,198468,1,0,0:0:0:0:
192,192,198596,1,0,0:0:0:0:
448,192,198596,1,0,0:0:0:0:
64,192,198724,1,0,0:0:0:0:
320,192,198724,1,0,0:0:0:0:
64,192,198851,1,0,0:0:0:0:
192,192,198851,1,0,0:0:0:0:
448,192,198851,1,0,0:0:0:0:
320,192,198979,1,0,0:0:0:0:
448,192,198979,1,0,0:0:0:0:
192,192,199107,1,0,0:0:0:0:
448,192,199107,1,0,0:0:0:0:
64,192,199235,1,0,0:0:0:0:
320,192,199235,1,0,0:0:0:0:
64,192,199362,1,0,0:0:0:0:
192,192,199362,1,0,0:0:0:0:
320,192,199362,1,0,0:0:0:0:
320,192,199490,1,0,0:0:0:0:
448,192,199490,1,0,0:0:0:0:
64,192,199618,1,0,0:0:0:0:
448,192,199618,1,0,0:0:0:0:
64,192,199746,1,0,0:0:0:0:
320,192,199746,1,0,0:0:0:0:
192,192,199861,1,0,0:0:0:0:
448,192,199861,1,0,0:0:0:0:
192,192,199976,1,0,0:0:0:0:
320,192,199976,1,0,0:0:0:0:
64,192,200104,1,0,0:0:0:0:
448,192,200104,1,0,0:0:0:0:
64,192,200231,1,0,0:0:0:0:
320,192,200231,1,0,0:0:0:0:
192,192,200346,1,0,0:0:0:0:
448,192,200346,1,0,0:0:0:0:
64,192,200461,1,0,0:0:0:0:
448,192,200461,1,0,0:0:0:0:
192,192,200589,1,0,0:0:0:0:
320,192,200589,1,0,0:0:0:0:
64,192,200704,1,0,0:0:0:0:
192,192,200704,1,0,0:0:0:0:
64,192,200819,1,0,0:0:0:0:
320,192,200819,1,0,0:0:0:0:
448,192,200819,1,0,0:0:0:0:
192,192,200947,1,0,0:0:0:0:
448,192,200947,1,0,0:0:0:0:
192,192,201075,1,0,0:0:0:0:
320,192,201075,1,0,0:0:0:0:
64,192,201202,1,0,0:0:0:0:
320,192,201202,1,0,0:0:0:0:
64,192,201343,1,0,0:0:0:0:
320,192,201343,1,0,0:0:0:0:
448,192,201343,1,0,0:0:0:0:
192,192,201407,1,0,0:0:0:0:
320,192,201471,1,0,0:0:0:0:
192,192,201535,1,0,0:0:0:0:
64,192,201598,1,0,0:0:0:0:
192,192,201662,1,0,0:0:0:0:
320,192,201726,1,0,0:0:0:0:
448,192,201790,1,0,0:0:0:0:
64,192,201854,1,0,0:0:0:0:
192,192,201854,1,0,0:0:0:0:
448,192,201918,1,0,0:0:0:0:
320,192,201982,1,0,0:0:0:0:
192,192,202046,1,0,0:0:0:0:
64,192,202110,1,0,0:0:0:0:
192,192,202173,1,0,0:0:0:0:
320,192,202237,1,0,0:0:0:0:
448,192,202237,1,0,0:0:0:0:
192,192,202301,1,0,0:0:0:0:
64,192,202365,1,0,0:0:0:0:
320,192,202365,1,0,0:0:0:0:
448,192,202365,1,0,0:0:0:0:
320,192,202480,1,0,0:0:0:0:
448,192,202480,1,0,0:0:0:0:
192,192,202595,1,0,0:0:0:0:
448,192,202595,1,0,0:0:0:0:
64,192,202723,1,0,0:0:0:0:
320,192,202723,1,0,0:0:0:0:
64,192,202851,1,0,0:0:0:0:
192,192,202851,1,0,0:0:0:0:
448,192,202851,1,0,0:0:0:0:
320,192,202978,1,0,0:0:0:0:
448,192,202978,1,0,0:0:0:0:
192,192,203093,1,0,0:0:0:0:
448,192,203093,1,0,0:0:0:0:
64,192,203221,1,0,0:0:0:0:
320,192,203221,1,0,0:0:0:0:
64,192,203349,1,0,0:0:0:0:
192,192,203349,1,0,0:0:0:0:
448,192,203349,1,0,0:0:0:0:
320,192,203477,1,0,0:0:0:0:
448,192,203477,1,0,0:0:0:0:
192,192,203592,1,0,0:0:0:0:
448,192,203592,1,0,0:0:0:0:
64,192,203719,1,0,0:0:0:0:
320,192,203719,1,0,0:0:0:0:
64,192,203847,1,0,0:0:0:0:
192,192,203847,1,0,0:0:0:0:
448,192,203847,1,0,0:0:0:0:
192,192,203962,1,0,0:0:0:0:
320,192,203962,1,0,0:0:0:0:
64,192,204090,1,0,0:0:0:0:
320,192,204090,1,0,0:0:0:0:
64,192,204218,1,0,0:0:0:0:
192,192,204218,1,0,0:0:0:0:
192,192,204333,1,0,0:0:0:0:
320,192,204333,1,0,0:0:0:0:
448,192,204333,1,0,0:0:0:0:
192,192,204461,1,0,0:0:0:0:
320,192,204461,1,0,0:0:0:0:
64,192,204576,1,0,0:0:0:0:
320,192,204576,1,0,0:0:0:0:
64,192,204691,1,0,0:0:0:0:
192,192,204691,1,0,0:0:0:0:
192,192,204806,1,0,0:0:0:0:
320,192,204806,1,0,0:0:0:0:
448,192,204806,1,0,0:0:0:0:
64,192,204921,1,0,0:0:0:0:
448,192,204921,1,0,0:0:0:0:
192,192,205023,1,0,0:0:0:0:
448,192,205023,1,0,0:0:0:0:
192,192,205138,1,0,0:0:0:0:
320,192,205138,1,0,0:0:0:0:
64,192,205227,1,0,0:0:0:0:
448,192,205227,1,0,0:0:0:0:
192,192,205278,1,0,0:0:0:0:
320,192,205329,1,0,0:0:0:0:
448,192,205381,1,0,0:0:0:0:
192,192,205432,1,0,0:0:0:0:
64,192,205483,1,0,0:0:0:0:
448,192,205534,1,0,0:0:0:0:
320,192,205585,1,0,0:0:0:0:
192,192,205636,1,0,0:0:0:0:
64,192,205674,1,0,0:0:0:0:
448,192,205674,1,0,0:0:0:0:
192,192,205789,1,0,0:0:0:0:
448,192,205789,1,0,0:0:0:0:
64,192,205904,1,0,0:0:0:0:
320,192,205904,1,0,0:0:0:0:
192,192,206032,1,0,0:0:0:0:
448,192,206032,1,0,0:0:0:0:
64,192,206160,1,0,0:0:0:0:
192,192,206160,1,0,0:0:0:0:
448,192,206160,1,0,0:0:0:0:
320,192,206288,1,0,0:0:0:0:
448,192,206288,1,0,0:0:0:0:
64,192,206403,1,0,0:0:0:0:
192,192,206403,1,0,0:0:0:0:
64,192,206530,1,0,0:0:0:0:
320,192,206530,1,0,0:0:0:0:
192,192,206658,1,0,0:0:0:0:
320,192,206658,1,0,0:0:0:0:
448,192,206658,1,0,0:0:0:0:
64,192,206786,1,0,0:0:0:0:
448,192,206786,1,0,0:0:0:0:
192,192,206901,1,0,0:0:0:0:
320,192,206901,1,0,0:0:0:0:
64,192,207029,1,0,0:0:0:0:
320,192,207029,1,0,0:0:0:0:
64,192,207157,1,0,0:0:0:0:
448,192,207157,1,0,0:0:0:0:
320,192,207284,1,0,0:0:0:0:
448,192,207284,1,0,0:0:0:0:
64,192,207399,1,0,0:0:0:0:
192,192,207399,1,0,0:0:0:0:
192,192,207514,1,0,0:0:0:0:
448,192,207514,1,0,0:0:0:0:
64,192,207629,1,0,0:0:0:0:
320,192,207629,1,0,0:0:0:0:
64,192,207744,1,0,0:0:0:0:
448,192,207744,1,0,0:0:0:0:
192,192,207859,1,0,0:0:0:0:
320,192,207859,1,0,0:0:0:0:
320,192,207974,1,0,0:0:0:0:
448,192,207974,1,0,0:0:0:0:
64,192,208102,1,0,0:0:0:0:
192,192,208102,1,0,0:0:0:0:
448,192,208102,1,0,0:0:0:0:
320,192,208243,1,0,0:0:0:0:
448,192,208243,1,0,0:0:0:0:
64,192,208358,1,0,0:0:0:0:
192,192,208358,1,0,0:0:0:0:
192,192,208498,1,0,0:0:0:0:
320,192,208498,1,0,0:0:0:0:
448,192,208498,1,0,0:0:0:0:
64,192,208626,1,0,0:0:0:0:
320,192,208626,1,0,0:0:0:0:
448,192,208626,1,0,0:0:0:0:
192,192,208690,1,0,0:0:0:0:
320,192,208754,1,0,0:0:0:0:
192,192,208818,1,0,0:0:0:0:
64,192,208881,1,0,0:0:0:0:
192,192,208945,1,0,0:0:0:0:
320,192,209009,1,0,0:0:0:0:
448,192,209073,1,0,0:0:0:0:
64,192,209137,1,0,0:0:0:0:
192,192,209137,1,0,0:0:0:0:
448,192,209201,1,0,0:0:0:0:
320,192,209265,1,0,0:0:0:0:
192,192,209341,1,0,0:0:0:0:
64,192,209405,1,0,0:0:0:0:
192,192,209469,1,0,0:0:0:0:
320,192,209559,1,0,0:0:0:0:
448,192,209559,1,0,0:0:0:0:
192,192,209635,1,0,0:0:0:0:
64,192,209712,1,0,0:0:0:0:
320,192,209712,1,0,0:0:0:0:
448,192,209712,1,0,0:0:0:0:
320,192,209840,1,0,0:0:0:0:
448,192,209840,1,0,0:0:0:0:
192,192,209968,1,0,0:0:0:0:
448,192,209968,1,0,0:0:0:0:
64,192,210082,1,0,0:0:0:0:
320,192,210082,1,0,0:0:0:0:
64,192,210210,1,0,0:0:0:0:
192,192,210210,1,0,0:0:0:0:
448,192,210210,1,0,0:0:0:0:
320,192,210338,1,0,0:0:0:0:
448,192,210338,1,0,0:0:0:0:
64,192,210466,1,0,0:0:0:0:
192,192,210466,1,0,0:0:0:0:
192,192,210581,1,0,0:0:0:0:
448,192,210581,1,0,0:0:0:0:
64,192,210709,1,0,0:0:0:0:
320,192,210709,1,0,0:0:0:0:
448,192,210709,1,0,0:0:0:0:
64,192,210836,1,0,0:0:0:0:
192,192,210836,1,0,0:0:0:0:
192,192,210964,1,0,0:0:0:0:
448,192,210964,1,0,0:0:0:0:
320,192,211079,1,0,0:0:0:0:
448,192,211079,1,0,0:0:0:0:
64,192,211194,1,0,0:0:0:0:
192,192,211194,1,0,0:0:0:0:
448,192,211194,1,0,0:0:0:0:
64,192,211322,1,0,0:0:0:0:
320,192,211322,1,0,0:0:0:0:
192,192,211450,1,0,0:0:0:0:
448,192,211450,1,0,0:0:0:0:
64,192,211565,1,0,0:0:0:0:
192,192,211565,1,0,0:0:0:0:
64,192,211692,1,0,0:0:0:0:
320,192,211692,1,0,0:0:0:0:
448,192,211692,1,0,0:0:0:0:
192,192,211820,1,0,0:0:0:0:
448,192,211820,1,0,0:0:0:0:
320,192,211948,1,0,0:0:0:0:
448,192,211948,1,0,0:0:0:0:
64,192,212063,1,0,0:0:0:0:
192,192,212063,1,0,0:0:0:0:
192,192,212191,1,0,0:0:0:0:
320,192,212191,1,0,0:0:0:0:
448,192,212191,1,0,0:0:0:0:
64,192,212344,1,0,0:0:0:0:
448,192,212344,1,0,0:0:0:0:
64,192,212497,1,0,0:0:0:0:
192,192,212497,1,0,0:0:0:0:
320,192,212638,1,0,0:0:0:0:
448,192,212638,1,0,0:0:0:0:
64,192,212766,1,0,0:0:0:0:
192,192,212766,1,0,0:0:0:0:
448,192,212766,1,0,0:0:0:0:
192,192,213034,1,0,0:0:0:0:
64,192,213341,1,0,0:0:0:0:
192,192,213545,1,0,0:0:0:0:
320,192,213750,1,0,0:0:0:0:
448,192,213954,1,0,0:0:0:0:
64,192,214158,1,0,0:0:0:0:
192,192,214158,1,0,0:0:0:0:
320,192,214363,1,0,0:0:0:0:
192,192,214567,1,0,0:0:0:0:
64,192,214721,1,0,0:0:0:0:
320,192,214721,1,0,0:0:0:0:
192,192,214899,1,0,0:0:0:0:
320,192,215078,1,0,0:0:0:0:
192,192,215232,1,0,0:0:0:0:
448,192,215232,1,0,0:0:0:0:
320,192,215411,1,0,0:0:0:0:
192,192,215589,1,0,0:0:0:0:
320,192,215743,1,0,0:0:0:0:
448,192,215743,1,0,0:0:0:0:
64,192,215922,1,0,0:0:0:0:
192,192,216101,1,0,0:0:0:0:
64,192,216254,1,0,0:0:0:0:
320,192,216254,1,0,0:0:0:0:
192,192,216433,1,0,0:0:0:0:
320,192,216612,1,0,0:0:0:0:
64,192,216765,1,0,0:0:0:0:
192,192,216765,1,0,0:0:0:0:
320,192,216944,1,0,0:0:0:0:
448,192,217123,1,0,0:0:0:0:
192,192,217276,1,0,0:0:0:0:
320,192,217276,1,0,0:0:0:0:
64,192,217455,1,0,0:0:0:0:
192,192,217634,1,0,0:0:0:0:
320,192,217787,1,0,0:0:0:0:
448,192,217787,1,0,0:0:0:0:
192,192,217940,1,0,0:0:0:0:
320,192,218119,1,0,0:0:0:0:
64,192,218285,1,0,0:0:0:0:
448,192,218285,1,0,0:0:0:0:
192,192,218452,1,0,0:0:0:0:
320,192,218630,1,0,0:0:0:0:
64,192,218784,1,0,0:0:0:0:
192,192,218784,1,0,0:0:0:0:
320,192,218937,1,0,0:0:0:0:
192,192,219090,1,0,0:0:0:0:
64,192,219244,1,0,0:0:0:0:
320,192,219244,1,0,0:0:0:0:
448,192,219244,1,0,0:0:0:0:
192,192,219423,1,0,0:0:0:0:
192,192,219589,1,0,0:0:0:0:
64,192,219742,1,0,0:0:0:0:
192,192,219742,1,0,0:0:0:0:
448,192,219742,1,0,0:0:0:0:
320,192,219895,1,0,0:0:0:0:
448,192,220049,1,0,0:0:0:0:
192,192,220202,1,0,0:0:0:0:
320,192,220202,1,0,0:0:0:0:
448,192,220202,1,0,0:0:0:0:
64,192,220368,1,0,0:0:0:0:
192,192,220509,1,0,0:0:0:0:
64,192,220700,1,0,0:0:0:0:
192,192,220700,1,0,0:0:0:0:
320,192,220700,1,0,0:0:0:0:
192,192,220854,1,0,0:0:0:0:
320,192,221007,1,0,0:0:0:0:
64,192,221160,1,0,0:0:0:0:
192,192,221160,1,0,0:0:0:0:
448,192,221160,1,0,0:0:0:0:
320,192,221352,1,0,0:0:0:0:
448,192,221492,1,0,0:0:0:0:
64,192,221659,1,0,0:0:0:0:
320,192,221659,1,0,0:0:0:0:
448,192,221659,1,0,0:0:0:0:
320,192,221825,1,0,0:0:0:0:
64,192,221978,1,0,0:0:0:0:
192,192,222119,1,0,0:0:0:0:
320,192,222119,1,0,0:0:0:0:
448,192,222119,1,0,0:0:0:0:
192,192,222285,1,0,0:0:0:0:
448,192,222464,1,0,0:0:0:0:
64,192,222617,1,0,0:0:0:0:
192,192,222617,1,0,0:0:0:0:
320,192,222617,1,0,0:0:0:0:
320,192,222770,1,0,0:0:0:0:
320,192,222949,1,0,0:0:0:0:
64,192,223115,1,0,0:0:0:0:
192,192,223115,1,0,0:0:0:0:
448,192,223115,1,0,0:0:0:0:
320,192,223281,1,0,0:0:0:0:
192,192,223473,1,0,0:0:0:0:
64,192,223652,1,0,0:0:0:0:
320,192,223652,1,0,0:0:0:0:
448,192,223652,1,0,0:0:0:0:
448,192,223805,1,0,0:0:0:0:
448,192,223971,1,0,0:0:0:0:
64,192,224150,1,0,0:0:0:0:
192,192,224150,1,0,0:0:0:0:
448,192,224150,1,0,0:0:0:0:
320,192,224342,1,0,0:0:0:0:
192,192,224533,1,0,0:0:0:0:
64,192,224687,1,0,0:0:0:0:
192,192,224687,1,0,0:0:0:0:
320,192,224687,1,0,0:0:0:0:
448,192,224687,1,0,0:0:0:0:
192,192,224917,1,0,0:0:0:0:
320,192,225108,1,0,0:0:0:0:
64,192,225300,1,0,0:0:0:0:
192,192,225300,1,0,0:0:0:0:
448,192,225300,1,0,0:0:0:0:
448,192,225415,1,0,0:0:0:0:
320,192,225517,1,0,0:0:0:0:
192,192,225607,1,0,0:0:0:0:
64,192,225709,1,0,0:0:0:0:
192,192,225798,1,0,0:0:0:0:
320,192,225849,1,0,0:0:0:0:
448,192,225888,1,0,0:0:0:0:
64,192,226003,1,0,0:0:0:0:
192,192,226003,1,0,0:0:0:0:
320,192,226067,1,0,0:0:0:0:
448,192,226118,1,0,0:0:0:0:
192,192,226169,1,0,0:0:0:0:
64,192,226220,1,0,0:0:0:0:
448,192,226424,1,0,0:0:0:0:
320,192,226527,1,0,0:0:0:0:
192,192,226629,1,0,0:0:0:0:
448,192,226629,1,0,0:0:0:0:
320,192,226718,1,0,0:0:0:0:
192,192,226808,1,0,0:0:0:0:
192,192,226910,1,0,0:0:0:0:
64,192,227025,1,0,0:0:0:0:
192,192,227102,1,0,0:0:0:0:
320,192,227153,1,0,0:0:0:0:
448,192,227217,1,0,0:0:0:0:
64,192,227281,1,0,0:0:0:0:
192,192,227281,1,0,0:0:0:0:
320,192,227344,1,0,0:0:0:0:
448,192,227408,1,0,0:0:0:0:
192,192,227459,1,0,0:0:0:0:
64,192,227549,1,0,0:0:0:0:
192,192,227638,1,0,0:0:0:0:
320,192,227728,1,0,0:0:0:0:
448,192,227804,1,0,0:0:0:0:
64,192,227907,1,0,0:0:0:0:
192,192,227907,1,0,0:0:0:0:
320,192,227907,1,0,0:0:0:0:
448,192,228009,1,0,0:0:0:0:
320,192,228111,1,0,0:0:0:0:
192,192,228213,1,0,0:0:0:0:
64,192,228315,1,0,0:0:0:0:
320,192,228418,1,0,0:0:0:0:
192,192,228520,1,0,0:0:0:0:
64,192,228622,1,0,0:0:0:0:
192,192,228724,1,0,0:0:0:0:
320,192,228827,1,0,0:0:0:0:
192,192,228929,1,0,0:0:0:0:
320,192,229031,1,0,0:0:0:0:
448,192,229133,1,0,0:0:0:0:
320,192,229235,1,0,0:0:0:0:
448,192,229235,1,0,0:0:0:0:
320,192,229338,1,0,0:0:0:0:
192,192,229440,1,0,0:0:0:0:
192,192,229542,1,0,0:0:0:0:
64,192,229644,1,0,0:0:0:0:
64,192,229747,1,0,0:0:0:0:
192,192,229849,1,0,0:0:0:0:
320,192,229938,1,0,0:0:0:0:
448,192,229938,1,0,0:0:0:0:
448,192,230053,1,0,0:0:0:0:
320,192,230155,1,0,0:0:0:0:
192,192,230245,1,0,0:0:0:0:
64,192,230334,1,0,0:0:0:0:
192,192,230436,1,0,0:0:0:0:
320,192,230539,1,0,0:0:0:0:
64,192,230615,1,0,0:0:0:0:
192,192,230615,1,0,0:0:0:0:
192,192,230743,1,0,0:0:0:0:
320,192,230845,1,0,0:0:0:0:
64,192,230973,1,0,0:0:0:0:
192,192,231075,1,0,0:0:0:0:
320,192,231165,1,0,0:0:0:0:
192,192,231280,1,0,0:0:0:0:
448,192,231280,1,0,0:0:0:0:
192,192,231395,1,0,0:0:0:0:
320,192,231497,1,0,0:0:0:0:
64,192,231599,1,0,0:0:0:0:
192,192,231689,1,0,0:0:0:0:
320,192,231816,1,0,0:0:0:0:
192,192,231919,1,0,0:0:0:0:
448,192,231919,1,0,0:0:0:0:
448,192,232021,1,0,0:0:0:0:
320,192,232123,1,0,0:0:0:0:
192,192,232238,1,0,0:0:0:0:
64,192,232353,1,0,0:0:0:0:
192,192,232468,1,0,0:0:0:0:
320,192,232583,1,0,0:0:0:0:
448,192,232583,1,0,0:0:0:0:
320,192,232685,1,0,0:0:0:0:
64,192,232787,1,0,0:0:0:0:
192,192,232890,1,0,0:0:0:0:
448,192,233005,1,0,0:0:0:0:
320,192,233107,1,0,0:0:0:0:
64,192,233222,1,0,0:0:0:0:
192,192,233222,1,0,0:0:0:0:
64,192,233324,1,0,0:0:0:0:
192,192,233426,1,0,0:0:0:0:
320,192,233529,1,0,0:0:0:0:
448,192,233631,1,0,0:0:0:0:
192,192,233733,1,0,0:0:0:0:
320,192,233835,1,0,0:0:0:0:
64,192,233937,1,0,0:0:0:0:
192,192,234040,1,0,0:0:0:0:
320,192,234142,1,0,0:0:0:0:
192,192,234244,1,0,0:0:0:0:
64,192,234346,1,0,0:0:0:0:
320,192,234449,1,0,0:0:0:0:
192,192,234551,1,0,0:0:0:0:
448,192,234551,1,0,0:0:0:0:
320,192,234691,1,0,0:0:0:0:
64,192,234806,1,0,0:0:0:0:
320,192,234908,1,0,0:0:0:0:
64,192,235036,1,0,0:0:0:0:
320,192,235151,1,0,0:0:0:0:
448,192,235292,1,0,0:0:0:0:
320,192,235420,1,0,0:0:0:0:
192,192,235547,1,0,0:0:0:0:
320,192,235675,1,0,0:0:0:0:
192,192,235828,1,0,0:0:0:0:
320,192,235982,1,0,0:0:0:0:
448,192,236110,1,0,0:0:0:0:
320,192,236237,1,0,0:0:0:0:
64,192,236365,1,0,0:0:0:0:
192,192,236493,1,0,0:0:0:0:
64,192,236621,1,0,0:0:0:0:
192,192,236748,1,0,0:0:0:0:
320,192,236863,1,0,0:0:0:0:
192,192,236978,1,0,0:0:0:0:
448,192,237106,1,0,0:0:0:0:
320,192,237221,1,0,0:0:0:0:
192,192,237336,1,0,0:0:0:0:
320,192,237464,1,0,0:0:0:0:
64,192,237553,1,0,0:0:0:0:
448,192,237553,1,0,0:0:0:0:
192,192,237668,1,0,0:0:0:0:
320,192,237771,1,0,0:0:0:0:
64,192,237873,1,0,0:0:0:0:
192,192,238001,1,0,0:0:0:0:
448,192,238001,1,0,0:0:0:0:
320,192,238128,1,0,0:0:0:0:
192,192,238231,1,0,0:0:0:0:
64,192,238358,1,0,0:0:0:0:
448,192,238486,1,0,0:0:0:0:
320,192,238601,1,0,0:0:0:0:
192,192,238716,1,0,0:0:0:0:
64,192,238818,1,0,0:0:0:0:
192,192,238921,1,0,0:0:0:0:
320,192,238921,1,0,0:0:0:0:
448,192,239048,1,0,0:0:0:0:
320,192,239176,1,0,0:0:0:0:
192,192,239304,1,0,0:0:0:0:
64,192,239432,1,0,0:0:0:0:
192,192,239547,1,0,0:0:0:0:
320,192,239662,1,0,0:0:0:0:
192,192,239789,1,0,0:0:0:0:
320,192,239904,1,0,0:0:0:0:
448,192,239904,1,0,0:0:0:0:
320,192,240045,1,0,0:0:0:0:
192,192,240173,1,0,0:0:0:0:
64,192,240300,1,0,0:0:0:0:
192,192,240415,1,0,0:0:0:0:
448,192,240415,1,0,0:0:0:0:
64,192,240543,1,0,0:0:0:0:
192,192,240658,1,0,0:0:0:0:
448,192,240760,1,0,0:0:0:0:
192,192,240888,1,0,0:0:0:0:
448,192,241003,1,0,0:0:0:0:
64,192,241118,1,0,0:0:0:0:
192,192,241246,1,0,0:0:0:0:
64,192,241348,1,0,0:0:0:0:
448,192,241348,1,0,0:0:0:0:
320,192,241476,1,0,0:0:0:0:
192,192,241604,1,0,0:0:0:0:
64,192,241731,1,0,0:0:0:0:
320,192,241834,1,0,0:0:0:0:
448,192,241834,1,0,0:0:0:0:
192,192,241961,1,0,0:0:0:0:
320,192,242076,1,0,0:0:0:0:
192,192,242191,1,0,0:0:0:0:
64,192,242319,1,0,0:0:0:0:
192,192,242421,1,0,0:0:0:0:
320,192,242549,1,0,0:0:0:0:
448,192,242651,1,0,0:0:0:0:
192,192,242754,1,0,0:0:0:0:
320,192,242754,1,0,0:0:0:0:
448,192,242856,1,0,0:0:0:0:
320,192,242933,1,0,0:0:0:0:
192,192,243022,1,0,0:0:0:0:
64,192,243099,1,0,0:0:0:0:
192,192,243214,1,0,0:0:0:0:
320,192,243316,1,0,0:0:0:0:
448,192,243405,1,0,0:0:0:0:
64,192,243495,1,0,0:0:0:0:
192,192,243495,1,0,0:0:0:0:
448,192,243648,1,0,0:0:0:0:
320,192,243686,1,0,0:0:0:0:
64,192,243750,1,0,0:0:0:0:
192,192,243750,1,0,0:0:0:0:
320,192,243878,1,0,0:0:0:0:
192,192,243929,1,0,0:0:0:0:
64,192,243967,1,0,0:0:0:0:
448,192,243967,1,0,0:0:0:0:
320,192,244082,1,0,0:0:0:0:
192,192,244210,1,0,0:0:0:0:
448,192,244338,1,0,0:0:0:0:
192,192,244466,1,0,0:0:0:0:
192,192,244581,1,0,0:0:0:0:
320,192,244709,1,0,0:0:0:0:
448,192,244709,1,0,0:0:0:0:
64,192,244836,1,0,0:0:0:0:
192,192,244836,1,0,0:0:0:0:
320,192,244964,1,0,0:0:0:0:
448,192,244964,1,0,0:0:0:0:
64,192,245092,1,0,0:0:0:0:
192,192,245092,1,0,0:0:0:0:
320,192,245232,1,0,0:0:0:0:
64,192,245347,1,0,0:0:0:0:
448,192,245347,1,0,0:0:0:0:
320,192,245462,1,0,0:0:0:0:
192,192,245577,1,0,0:0:0:0:
448,192,245577,1,0,0:0:0:0:
192,192,245692,1,0,0:0:0:0:
448,192,245692,1,0,0:0:0:0:
64,192,245833,1,0,0:0:0:0:
320,192,245833,1,0,0:0:0:0:
64,192,245961,1,0,0:0:0:0:
448,192,245961,1,0,0:0:0:0:
320,192,246076,1,0,0:0:0:0:
448,192,246076,1,0,0:0:0:0:
192,192,246229,1,0,0:0:0:0:
448,192,246357,1,0,0:0:0:0:
192,192,246485,1,0,0:0:0:0:
192,192,246612,1,0,0:0:0:0:
320,192,246715,1,0,0:0:0:0:
448,192,246715,1,0,0:0:0:0:
64,192,246855,1,0,0:0:0:0:
192,192,246855,1,0,0:0:0:0:
64,192,246983,1,0,0:0:0:0:
320,192,246983,1,0,0:0:0:0:
192,192,247123,1,0,0:0:0:0:
448,192,247123,1,0,0:0:0:0:
320,192,247264,1,0,0:0:0:0:
448,192,247392,1,0,0:0:0:0:
64,192,247520,1,0,0:0:0:0:
64,192,247660,1,0,0:0:0:0:
320,192,247788,1,0,0:0:0:0:
448,192,247788,1,0,0:0:0:0:
64,192,247928,1,0,0:0:0:0:
448,192,247928,1,0,0:0:0:0:
192,192,248056,1,0,0:0:0:0:
320,192,248056,1,0,0:0:0:0:
192,192,248184,1,0,0:0:0:0:
320,192,248184,1,0,0:0:0:0:
64,192,248312,1,0,0:0:0:0:
448,192,248439,1,0,0:0:0:0:
64,192,248554,1,0,0:0:0:0:
64,192,248708,1,0,0:0:0:0:
320,192,248810,1,0,0:0:0:0:
448,192,248810,1,0,0:0:0:0:
64,192,248951,1,0,0:0:0:0:
192,192,248951,1,0,0:0:0:0:
320,192,249078,1,0,0:0:0:0:
448,192,249078,1,0,0:0:0:0:
64,192,249206,1,0,0:0:0:0:
192,192,249206,1,0,0:0:0:0:
320,192,249334,1,0,0:0:0:0:
448,192,249474,1,0,0:0:0:0:
192,192,249589,1,0,0:0:0:0:
192,192,249730,1,0,0:0:0:0:
320,192,249845,1,0,0:0:0:0:
448,192,249845,1,0,0:0:0:0:
64,192,250024,1,0,0:0:0:0:
192,192,250024,1,0,0:0:0:0:
320,192,250152,1,0,0:0:0:0:
448,192,250152,1,0,0:0:0:0:
64,192,250318,1,0,0:0:0:0:
192,192,250318,1,0,0:0:0:0:
320,192,250446,1,0,0:0:0:0:
448,192,250586,1,0,0:0:0:0:
192,192,250727,1,0,0:0:0:0:
192,192,250867,1,0,0:0:0:0:
320,192,251008,1,0,0:0:0:0:
448,192,251008,1,0,0:0:0:0:
64,192,251161,1,0,0:0:0:0:
192,192,251161,1,0,0:0:0:0:
320,192,251302,1,0,0:0:0:0:
448,192,251302,1,0,0:0:0:0:
64,192,251455,1,0,0:0:0:0:
192,192,251455,1,0,0:0:0:0:
320,192,251621,1,0,0:0:0:0:
448,192,251787,1,0,0:0:0:0:
192,192,251953,1,0,0:0:0:0:
192,192,252145,1,0,0:0:0:0:
320,192,252337,1,0,0:0:0:0:
448,192,252337,1,0,0:0:0:0:
64,192,252693,1,0,0:0:0:0:
448,192,252821,1,0,0:0:0:0:
192,192,252950,1,0,0:0:0:0:
320,192,253089,1,0,0:0:0:0:
448,192,253167,1,0,0:0:0:0:
64,192,253269,1,0,0:0:0:0:
192,192,253371,1,0,0:0:0:0:
448,192,253473,1,0,0:0:0:0:
192,192,253588,1,0,0:0:0:0:
64,192,253589,1,0,0:0:0:0:
320,192,253703,1,0,0:0:0:0:
192,192,253818,1,0,0:0:0:0:
320,192,253933,1,0,0:0:0:0:
64,192,254023,1,0,0:0:0:0:
192,192,254125,1,0,0:0:0:0:
320,192,254228,1,0,0:0:0:0:
448,192,254330,1,0,0:0:0:0:
64,192,254432,1,0,0:0:0:0:
320,192,254432,1,0,0:0:0:0:
192,192,254534,1,0,0:0:0:0:
320,192,254624,1,0,0:0:0:0:
448,192,254713,1,0,0:0:0:0:
64,192,254828,1,0,0:0:0:0:
192,192,254930,1,0,0:0:0:0:
320,192,255020,1,0,0:0:0:0:
448,192,255122,1,0,0:0:0:0:
64,192,255237,1,0,0:0:0:0:
192,192,255237,1,0,0:0:0:0:
320,192,255365,1,0,0:0:0:0:
448,192,255480,1,0,0:0:0:0:
64,192,255595,1,0,0:0:0:0:
192,192,255710,1,0,0:0:0:0:
320,192,255812,1,0,0:0:0:0:
448,192,255914,1,0,0:0:0:0:
64,192,256016,1,0,0:0:0:0:
192,192,256119,1,0,0:0:0:0:
320,192,256119,1,0,0:0:0:0:
448,192,256208,1,0,0:0:0:0:
64,192,256297,1,0,0:0:0:0:
192,192,256387,1,0,0:0:0:0:
320,192,256489,1,0,0:0:0:0:
448,192,256591,1,0,0:0:0:0:
64,192,256668,1,0,0:0:0:0:
192,192,256770,1,0,0:0:0:0:
320,192,256860,1,0,0:0:0:0:
448,192,256949,1,0,0:0:0:0:
64,192,257051,1,0,0:0:0:0:
192,192,257051,1,0,0:0:0:0:
320,192,257141,1,0,0:0:0:0:
192,192,257243,1,0,0:0:0:0:
448,192,257320,1,0,0:0:0:0:
64,192,257422,1,0,0:0:0:0:
192,192,257511,1,0,0:0:0:0:
320,192,257613,1,0,0:0:0:0:
448,192,257703,1,0,0:0:0:0:
64,192,257805,1,0,0:0:0:0:
192,192,257907,1,0,0:0:0:0:
320,192,258010,1,0,0:0:0:0:
448,192,258112,1,0,0:0:0:0:
448,192,258214,1,0,0:0:0:0:
448,192,258329,1,0,0:0:0:0:
320,192,258431,1,0,0:0:0:0:
192,192,258533,1,0,0:0:0:0:
64,192,258636,1,0,0:0:0:0:
448,192,258725,1,0,0:0:0:0:
320,192,258827,1,0,0:0:0:0:
192,192,258930,1,0,0:0:0:0:
64,192,259032,1,0,0:0:0:0:
320,192,259108,1,0,0:0:0:0:
448,192,259198,1,0,0:0:0:0:
192,192,259300,1,0,0:0:0:0:
64,192,259390,1,0,0:0:0:0:
448,192,259492,1,0,0:0:0:0:
320,192,259568,1,0,0:0:0:0:
192,192,259671,1,0,0:0:0:0:
64,192,259747,1,0,0:0:0:0:
448,192,259849,1,0,0:0:0:0:
320,192,259926,1,0,0:0:0:0:
192,192,260003,1,0,0:0:0:0:
64,192,260067,1,0,0:0:0:0:
448,192,260067,1,0,0:0:0:0:
320,192,260131,1,0,0:0:0:0:
192,192,260194,1,0,0:0:0:0:
64,192,260258,1,0,0:0:0:0:
192,192,260322,1,0,0:0:0:0:
320,192,260386,1,0,0:0:0:0:
448,192,260450,1,0,0:0:0:0:
320,192,260514,1,0,0:0:0:0:
192,192,260578,1,0,0:0:0:0:
64,192,260642,1,0,0:0:0:0:
448,192,260693,1,0,0:0:0:0:
320,192,260757,1,0,0:0:0:0:
192,192,260821,1,0,0:0:0:0:
64,192,260884,1,0,0:0:0:0:
448,192,260923,1,0,0:0:0:0:
192,192,260974,1,0,0:0:0:0:
320,192,260974,1,0,0:0:0:0:
192,192,261204,1,0,0:0:0:0:
320,192,261383,1,0,0:0:0:0:
192,192,261536,1,0,0:0:0:0:
64,192,261689,1,0,0:0:0:0:
192,192,261843,1,0,0:0:0:0:
320,192,262022,1,0,0:0:0:0:
448,192,262022,1,0,0:0:0:0:
192,192,262188,1,0,0:0:0:0:
320,192,262354,1,0,0:0:0:0:
448,192,262494,1,0,0:0:0:0:
192,192,262622,1,0,0:0:0:0:
320,192,262763,1,0,0:0:0:0:
64,192,262916,1,0,0:0:0:0:
448,192,262916,1,0,0:0:0:0:
192,192,263018,1,0,0:0:0:0:
320,192,263120,1,0,0:0:0:0:
448,192,263248,1,0,0:0:0:0:
64,192,263350,1,0,0:0:0:0:
192,192,263478,1,0,0:0:0:0:
320,192,263606,1,0,0:0:0:0:
64,192,263708,1,0,0:0:0:0:
192,192,263708,1,0,0:0:0:0:
320,192,263862,1,0,0:0:0:0:
448,192,263989,1,0,0:0:0:0:
64,192,264117,1,0,0:0:0:0:
192,192,264245,1,0,0:0:0:0:
320,192,264398,1,0,0:0:0:0:
64,192,264551,1,0,0:0:0:0:
192,192,264641,1,0,0:0:0:0:
320,192,264730,1,0,0:0:0:0:
448,192,264807,1,0,0:0:0:0:
64,192,264909,1,0,0:0:0:0:
192,192,264999,1,0,0:0:0:0:
320,192,265088,1,0,0:0:0:0:
448,192,265165,1,0,0:0:0:0:
64,192,265241,1,0,0:0:0:0:
192,192,265318,1,0,0:0:0:0:
320,192,265395,1,0,0:0:0:0:
448,192,265471,1,0,0:0:0:0:
64,192,265586,1,0,0:0:0:0:
448,192,265689,1,0,0:0:0:0:
448,192,265804,1,0,0:0:0:0:
64,192,265931,1,0,0:0:0:0:
448,192,265931,1,0,0:0:0:0:
192,192,266200,1,0,0:0:0:0:
320,192,266443,1,0,0:0:0:0:
448,192,266698,1,0,0:0:0:0:
192,192,266800,1,0,0:0:0:0:
320,192,266851,1,0,0:0:0:0:
448,192,266902,1,0,0:0:0:0:
64,192,266954,1,0,0:0:0:0:
192,192,267005,1,0,0:0:0:0:
320,192,267056,1,0,0:0:0:0:
448,192,267056,1,0,0:0:0:0:
64,192,267158,1,0,0:0:0:0:
192,192,267209,1,0,0:0:0:0:
320,192,267260,1,0,0:0:0:0:
448,192,267311,1,0,0:0:0:0:
64,192,267362,1,0,0:0:0:0:
192,192,267362,1,0,0:0:0:0:
448,192,267465,1,0,0:0:0:0:
320,192,267516,1,0,0:0:0:0:
64,192,267567,1,0,0:0:0:0:
192,192,267618,1,0,0:0:0:0:
320,192,267695,1,0,0:0:0:0:
448,192,267695,1,0,0:0:0:0:
64,192,267797,1,0,0:0:0:0:
192,192,267848,1,0,0:0:0:0:
448,192,267899,1,0,0:0:0:0:
320,192,267950,1,0,0:0:0:0:
64,192,268001,1,0,0:0:0:0:
192,192,268001,1,0,0:0:0:0:
320,192,268129,1,0,0:0:0:0:
448,192,268180,1,0,0:0:0:0:
64,192,268231,1,0,0:0:0:0:
192,192,268282,1,0,0:0:0:0:
320,192,268334,1,0,0:0:0:0:
448,192,268334,1,0,0:0:0:0:
64,192,268436,1,0,0:0:0:0:
192,192,268487,1,0,0:0:0:0:
448,192,268538,1,0,0:0:0:0:
320,192,268589,1,0,0:0:0:0:
64,192,268640,1,0,0:0:0:0:
192,192,268640,1,0,0:0:0:0:
320,192,268742,1,0,0:0:0:0:
448,192,268793,1,0,0:0:0:0:
64,192,268845,1,0,0:0:0:0:
192,192,268896,1,0,0:0:0:0:
320,192,268947,1,0,0:0:0:0:
448,192,268947,1,0,0:0:0:0:
64,192,269049,1,0,0:0:0:0:
192,192,269100,1,0,0:0:0:0:
448,192,269151,1,0,0:0:0:0:
320,192,269202,1,0,0:0:0:0:
64,192,269253,1,0,0:0:0:0:
192,192,269253,1,0,0:0:0:0:
320,192,269305,1,0,0:0:0:0:
448,192,269356,1,0,0:0:0:0:
64,192,269407,1,0,0:0:0:0:
192,192,269458,1,0,0:0:0:0:
320,192,269509,1,0,0:0:0:0:
448,192,269509,1,0,0:0:0:0:
64,192,269611,1,0,0:0:0:0:
192,192,269662,1,0,0:0:0:0:
448,192,269713,1,0,0:0:0:0:
320,192,269765,1,0,0:0:0:0:
64,192,269816,1,0,0:0:0:0:
192,192,269816,1,0,0:0:0:0:
320,192,269905,1,0,0:0:0:0:
448,192,269956,1,0,0:0:0:0:
64,192,270007,1,0,0:0:0:0:
192,192,270058,1,0,0:0:0:0:
320,192,270110,1,0,0:0:0:0:
448,192,270110,1,0,0:0:0:0:
64,192,270199,1,0,0:0:0:0:
192,192,270250,1,0,0:0:0:0:
448,192,270301,1,0,0:0:0:0:
320,192,270352,1,0,0:0:0:0:
64,192,270403,1,0,0:0:0:0:
192,192,270403,1,0,0:0:0:0:
320,192,270467,1,0,0:0:0:0:
448,192,270518,1,0,0:0:0:0:
64,192,270570,1,0,0:0:0:0:
192,192,270621,1,0,0:0:0:0:
320,192,270672,1,0,0:0:0:0:
448,192,270672,1,0,0:0:0:0:
192,192,270748,1,0,0:0:0:0:
64,192,270800,1,0,0:0:0:0:
320,192,270851,1,0,0:0:0:0:
192,192,270902,1,0,0:0:0:0:
64,192,270953,1,0,0:0:0:0:
448,192,270953,1,0,0:0:0:0:
192,192,271017,1,0,0:0:0:0:
320,192,271068,1,0,0:0:0:0:
448,192,271119,1,0,0:0:0:0:
192,192,271170,1,0,0:0:0:0:
320,192,271221,1,0,0:0:0:0:
64,192,271272,1,0,0:0:0:0:
192,192,271272,1,0,0:0:0:0:
448,192,271374,1,0,0:0:0:0:
320,192,271426,1,0,0:0:0:0:
192,192,271477,1,0,0:0:0:0:
448,192,271528,1,0,0:0:0:0:
64,192,271579,1,0,0:0:0:0:
320,192,271579,1,0,0:0:0:0:
448,192,271707,1,0,0:0:0:0:
320,192,271758,1,0,0:0:0:0:
64,192,271809,1,0,0:0:0:0:
192,192,271860,1,0,0:0:0:0:
320,192,271911,1,0,0:0:0:0:
448,192,271911,1,0,0:0:0:0:
64,192,272039,1,0,0:0:0:0:
192,192,272090,1,0,0:0:0:0:
448,192,272141,1,0,0:0:0:0:
320,192,272192,1,0,0:0:0:0:
64,192,272243,1,0,0:0:0:0:
192,192,272243,1,0,0:0:0:0:
448,192,272320,1,0,0:0:0:0:
320,192,272371,1,0,0:0:0:0:
64,192,272422,1,0,0:0:0:0:
192,192,272473,1,0,0:0:0:0:
320,192,272524,1,0,0:0:0:0:
448,192,272524,1,0,0:0:0:0:
64,192,272627,1,0,0:0:0:0:
192,192,272678,1,0,0:0:0:0:
448,192,272729,1,0,0:0:0:0:
320,192,272780,1,0,0:0:0:0:
64,192,272831,1,0,0:0:0:0:
192,192,272882,1,0,0:0:0:0:
448,192,272984,1,0,0:0:0:0:
192,192,273036,1,0,0:0:0:0:
320,192,273087,1,0,0:0:0:0:
448,192,273151,1,0,0:0:0:0:
64,192,273214,1,0,0:0:0:0:
192,192,273266,1,0,0:0:0:0:
448,192,273317,1,0,0:0:0:0:
320,192,273368,1,0,0:0:0:0:
64,192,273419,1,0,0:0:0:0:
192,192,273419,1,0,0:0:0:0:
448,192,273483,1,0,0:0:0:0:
320,192,273547,1,0,0:0:0:0:
64,192,273598,1,0,0:0:0:0:
192,192,273649,1,0,0:0:0:0:
320,192,273700,1,0,0:0:0:0:
448,192,273700,1,0,0:0:0:0:
64,192,273802,1,0,0:0:0:0:
192,192,273853,1,0,0:0:0:0:
448,192,273904,1,0,0:0:0:0:
320,192,273955,1,0,0:0:0:0:
64,192,274007,1,0,0:0:0:0:
192,192,274007,1,0,0:0:0:0:
320,192,274070,1,0,0:0:0:0:
448,192,274122,1,0,0:0:0:0:
64,192,274173,1,0,0:0:0:0:
192,192,274224,1,0,0:0:0:0:
320,192,274275,1,0,0:0:0:0:
448,192,274275,1,0,0:0:0:0:
192,192,274352,1,0,0:0:0:0:
64,192,274415,1,0,0:0:0:0:
320,192,274467,1,0,0:0:0:0:
192,192,274518,1,0,0:0:0:0:
64,192,274569,1,0,0:0:0:0:
448,192,274569,1,0,0:0:0:0:
192,192,274684,1,0,0:0:0:0:
320,192,274748,1,0,0:0:0:0:
448,192,274799,1,0,0:0:0:0:
320,192,274850,1,0,0:0:0:0:
64,192,274901,1,0,0:0:0:0:
192,192,274901,1,0,0:0:0:0:
192,192,275003,1,0,0:0:0:0:
320,192,275067,1,0,0:0:0:0:
448,192,275118,1,0,0:0:0:0:
64,192,275169,1,0,0:0:0:0:
192,192,275220,1,0,0:0:0:0:
448,192,275284,1,0,0:0:0:0:
192,192,275348,1,0,0:0:0:0:
64,192,275412,1,0,0:0:0:0:
320,192,275489,1,0,0:0:0:0:
448,192,275489,1,0,0:0:0:0:
448,192,275591,1,0,0:0:0:0:
320,192,275680,1,0,0:0:0:0:
192,192,275757,1,0,0:0:0:0:
64,192,275821,1,0,0:0:0:0:
320,192,275821,1,0,0:0:0:0:
448,192,275898,1,0,0:0:0:0:
320,192,275949,1,0,0:0:0:0:
64,192,276000,1,0,0:0:0:0:
192,192,276051,1,0,0:0:0:0:
320,192,276102,1,0,0:0:0:0:
448,192,276102,1,0,0:0:0:0:
64,192,276204,1,0,0:0:0:0:
192,192,276255,1,0,0:0:0:0:
448,192,276306,1,0,0:0:0:0:
320,192,276358,1,0,0:0:0:0:
64,192,276409,1,0,0:0:0:0:
192,192,276409,1,0,0:0:0:0:
448,192,276485,1,0,0:0:0:0:
320,192,276536,1,0,0:0:0:0:
64,192,276588,1,0,0:0:0:0:
192,192,276639,1,0,0:0:0:0:
320,192,276690,1,0,0:0:0:0:
448,192,276690,1,0,0:0:0:0:
64,192,276792,1,0,0:0:0:0:
192,192,276843,1,0,0:0:0:0:
448,192,276894,1,0,0:0:0:0:
320,192,276945,1,0,0:0:0:0:
192,192,276996,1,0,0:0:0:0:
448,192,277099,1,0,0:0:0:0:
64,192,277150,1,0,0:0:0:0:
192,192,277201,1,0,0:0:0:0:
320,192,277252,1,0,0:0:0:0:
448,192,277252,1,0,0:0:0:0:
64,192,277354,1,0,0:0:0:0:
192,192,277405,1,0,0:0:0:0:
448,192,277456,1,0,0:0:0:0:
320,192,277508,1,0,0:0:0:0:
64,192,277559,1,0,0:0:0:0:
192,192,277559,1,0,0:0:0:0:
320,192,277661,1,0,0:0:0:0:
448,192,277725,1,0,0:0:0:0:
64,192,277789,1,0,0:0:0:0:
192,192,277840,1,0,0:0:0:0:
320,192,277891,1,0,0:0:0:0:
448,192,277891,1,0,0:0:0:0:
64,192,277993,1,0,0:0:0:0:
192,192,278044,1,0,0:0:0:0:
448,192,278095,1,0,0:0:0:0:
320,192,278146,1,0,0:0:0:0:
64,192,278197,1,0,0:0:0:0:
192,192,278197,1,0,0:0:0:0:
320,192,278300,1,0,0:0:0:0:
448,192,278351,1,0,0:0:0:0:
64,192,278402,1,0,0:0:0:0:
192,192,278453,1,0,0:0:0:0:
320,192,278504,1,0,0:0:0:0:
448,192,278504,1,0,0:0:0:0:
64,192,278606,1,0,0:0:0:0:
192,192,278670,1,0,0:0:0:0:
320,192,278734,1,0,0:0:0:0:
448,192,278785,1,0,0:0:0:0:
64,192,278836,1,0,0:0:0:0:
192,192,278836,1,0,0:0:0:0:
320,192,278913,1,0,0:0:0:0:
448,192,278990,1,0,0:0:0:0:
64,192,279054,1,0,0:0:0:0:
192,192,279105,1,0,0:0:0:0:
320,192,279156,1,0,0:0:0:0:
448,192,279156,1,0,0:0:0:0:
448,192,279258,1,0,0:0:0:0:
64,192,279462,1,0,0:0:0:0:
192,192,279462,1,0,0:0:0:0:
64,192,279577,1,0,0:0:0:0:
192,192,279731,1,0,0:0:0:0:
320,192,279859,1,0,0:0:0:0:
448,192,279986,1,0,0:0:0:0:
64,192,280114,1,0,0:0:0:0:
320,192,280280,1,0,0:0:0:0:
448,192,280280,1,0,0:0:0:0:
192,192,280408,1,0,0:0:0:0:
320,192,280548,1,0,0:0:0:0:
448,192,280676,1,0,0:0:0:0:
320,192,280817,1,0,0:0:0:0:
192,192,280945,1,0,0:0:0:0:
64,192,281072,1,0,0:0:0:0:
448,192,281226,1,0,0:0:0:0:
320,192,281353,1,0,0:0:0:0:
64,192,281494,1,0,0:0:0:0:
448,192,281494,1,0,0:0:0:0:
320,192,281622,1,0,0:0:0:0:
192,192,281737,1,0,0:0:0:0:
64,192,281852,1,0,0:0:0:0:
192,192,281980,1,0,0:0:0:0:
320,192,282120,1,0,0:0:0:0:
448,192,282261,1,0,0:0:0:0:
64,192,282363,1,0,0:0:0:0:
192,192,282478,1,0,0:0:0:0:
320,192,282606,1,0,0:0:0:0:
64,192,282746,1,0,0:0:0:0:
448,192,282746,1,0,0:0:0:0:
320,192,282887,1,0,0:0:0:0:
192,192,283053,1,0,0:0:0:0:
64,192,283206,1,0,0:0:0:0:
448,192,283359,1,0,0:0:0:0:
320,192,283526,1,0,0:0:0:0:
192,192,283692,1,0,0:0:0:0:
64,192,283832,1,0,0:0:0:0:
64,192,283986,1,0,0:0:0:0:
192,192,284113,1,0,0:0:0:0:
320,192,284228,1,0,0:0:0:0:
192,192,284368,1,0,0:0:0:0:
320,192,284484,1,0,0:0:0:0:
192,192,284650,1,0,0:0:0:0:
448,192,284650,1,0,0:0:0:0:
320,192,284789,1,0,0:0:0:0:
64,192,284931,1,0,0:0:0:0:
320,192,285225,1,0,0:0:0:0:
448,192,285225,1,0,0:0:0:0:
192,192,285365,1,0,0:0:0:0:
448,192,285365,1,0,0:0:0:0:
64,192,285519,1,0,0:0:0:0:
448,192,285672,1,0,0:0:0:0:
64,192,285813,1,0,0:0:0:0:
192,192,285813,1,0,0:0:0:0:
448,192,285953,1,0,0:0:0:0:
192,192,286094,1,0,0:0:0:0:
64,192,286247,1,0,0:0:0:0:
320,192,286247,1,0,0:0:0:0:
192,192,286388,1,0,0:0:0:0:
448,192,286388,1,0,0:0:0:0:
64,192,286541,1,0,0:0:0:0:
320,192,286541,1,0,0:0:0:0:
448,192,286809,1,0,0:0:0:0:
192,192,286950,1,0,0:0:0:0:
448,192,287103,1,0,0:0:0:0:
192,192,287256,1,0,0:0:0:0:
192,192,287397,1,0,0:0:0:0:
320,192,287538,1,0,0:0:0:0:
448,192,287538,1,0,0:0:0:0:
64,192,287678,1,0,0:0:0:0:
192,192,287678,1,0,0:0:0:0:
448,192,287819,1,0,0:0:0:0:
192,192,287959,1,0,0:0:0:0:
64,192,288113,1,0,0:0:0:0:
448,192,288113,1,0,0:0:0:0:
320,192,288253,1,0,0:0:0:0:
192,192,288406,1,0,0:0:0:0:
64,192,288547,1,0,0:0:0:0:
192,192,288662,1,0,0:0:0:0:
320,192,288662,1,0,0:0:0:0:
448,192,288790,1,0,0:0:0:0:
64,192,288930,1,0,0:0:0:0:
64,192,289122,1,0,0:0:0:0:
320,192,289122,1,0,0:0:0:0:
320,192,289275,1,0,0:0:0:0:
448,192,289275,1,0,0:0:0:0:
192,192,289403,1,0,0:0:0:0:
448,192,289556,1,0,0:0:0:0:
320,192,289850,1,0,0:0:0:0:
448,192,289850,1,0,0:0:0:0:
192,192,290004,1,0,0:0:0:0:
448,192,290004,1,0,0:0:0:0:
64,192,290157,1,0,0:0:0:0:
448,192,290310,1,0,0:0:0:0:
64,192,290451,1,0,0:0:0:0:
192,192,290451,1,0,0:0:0:0:
448,192,290591,1,0,0:0:0:0:
192,192,290745,1,0,0:0:0:0:
64,192,290898,1,0,0:0:0:0:
320,192,290898,1,0,0:0:0:0:
192,192,291039,1,0,0:0:0:0:
448,192,291039,1,0,0:0:0:0:
64,192,291166,1,0,0:0:0:0:
320,192,291166,1,0,0:0:0:0:
448,192,291447,1,0,0:0:0:0:
192,192,291601,1,0,0:0:0:0:
448,192,291728,1,0,0:0:0:0:
192,192,291869,1,0,0:0:0:0:
192,192,292035,1,0,0:0:0:0:
320,192,292176,1,0,0:0:0:0:
448,192,292176,1,0,0:0:0:0:
64,192,292316,1,0,0:0:0:0:
192,192,292316,1,0,0:0:0:0:
448,192,292444,1,0,0:0:0:0:
192,192,292585,1,0,0:0:0:0:
64,192,292725,1,0,0:0:0:0:
448,192,292725,1,0,0:0:0:0:
320,192,292866,1,0,0:0:0:0:
192,192,293019,1,0,0:0:0:0:
64,192,293160,1,0,0:0:0:0:
192,192,293300,1,0,0:0:0:0:
320,192,293300,1,0,0:0:0:0:
448,192,293441,1,0,0:0:0:0:
64,192,293581,1,0,0:0:0:0:
64,192,293760,1,0,0:0:0:0:
320,192,293760,1,0,0:0:0:0:
320,192,293913,1,0,0:0:0:0:
448,192,293913,1,0,0:0:0:0:
320,192,294054,1,0,0:0:0:0:
192,192,294207,1,0,0:0:0:0:
192,192,294335,1,0,0:0:0:0:
320,192,294501,1,0,0:0:0:0:
448,192,294501,1,0,0:0:0:0:
192,192,294654,1,0,0:0:0:0:
448,192,294654,1,0,0:0:0:0:
64,192,294808,1,0,0:0:0:0:
448,192,294974,1,0,0:0:0:0:
64,192,295153,1,0,0:0:0:0:
192,192,295153,1,0,0:0:0:0:
320,192,295153,1,0,0:0:0:0:
448,192,295319,1,0,0:0:0:0:
192,192,295472,1,0,0:0:0:0:
320,192,295613,1,0,0:0:0:0:
320,192,295741,1,0,0:0:0:0:
448,192,295741,1,0,0:0:0:0:
192,192,295894,1,0,0:0:0:0:
448,192,295894,1,0,0:0:0:0:
64,192,296034,1,0,0:0:0:0:
448,192,296175,1,0,0:0:0:0:
192,192,296341,1,0,0:0:0:0:
320,192,296482,1,0,0:0:0:0:
192,192,296622,1,0,0:0:0:0:
192,192,296775,1,0,0:0:0:0:
320,192,296929,1,0,0:0:0:0:
448,192,296929,1,0,0:0:0:0:
192,192,297069,1,0,0:0:0:0:
448,192,297069,1,0,0:0:0:0:
64,192,297210,1,0,0:0:0:0:
448,192,297363,1,0,0:0:0:0:
192,192,297517,1,0,0:0:0:0:
320,192,297517,1,0,0:0:0:0:
448,192,297670,1,0,0:0:0:0:
192,192,297823,1,0,0:0:0:0:
192,192,297951,1,0,0:0:0:0:
320,192,298092,1,0,0:0:0:0:
448,192,298092,1,0,0:0:0:0:
192,192,298245,1,0,0:0:0:0:
448,192,298245,1,0,0:0:0:0:
64,192,298398,1,0,0:0:0:0:
448,192,298539,1,0,0:0:0:0:
64,192,298692,1,0,0:0:0:0:
192,192,298692,1,0,0:0:0:0:
448,192,298845,1,0,0:0:0:0:
320,192,298999,1,0,0:0:0:0:
320,192,299152,1,0,0:0:0:0:
64,192,299318,1,0,0:0:0:0:
192,192,299318,1,0,0:0:0:0:
192,192,299471,1,0,0:0:0:0:
320,192,299650,1,0,0:0:0:0:
64,192,299842,1,0,0:0:0:0:
64,192,300059,1,0,0:0:0:0:
192,192,300110,1,0,0:0:0:0:
320,192,300161,1,0,0:0:0:0:
448,192,300289,1,0,0:0:0:0:
64,192,300442,1,0,0:0:0:0:
64,192,300609,1,0,0:0:0:0:
320,192,300787,1,0,0:0:0:0:
192,192,300941,1,0,0:0:0:0:
192,192,301094,1,0,0:0:0:0:
320,192,301247,1,0,0:0:0:0:
192,192,301401,1,0,0:0:0:0:
448,192,301401,1,0,0:0:0:0:
448,192,301592,1,0,0:0:0:0:
192,192,301746,1,0,0:0:0:0:
192,192,301912,1,0,0:0:0:0:
448,192,302078,1,0,0:0:0:0:
320,192,302270,1,0,0:0:0:0:
320,192,302461,1,0,0:0:0:0:
448,192,302653,1,0,0:0:0:0:
320,192,302883,1,0,0:0:0:0:
448,192,302883,1,0,0:0:0:0:
320,192,306627,1,0,0:0:0:0:
64,192,307892,1,0,0:0:0:0:
192,192,309131,1,0,0:0:0:0:
320,192,309744,1,0,0:0:0:0:
448,192,310345,1,0,0:0:0:0:
64,192,312249,1,0,0:0:0:0:
448,192,312862,1,0,0:0:0:0:
320,192,313462,1,0,0:0:0:0:
192,192,314050,1,0,0:0:0:0:
192,192,315264,1,0,0:0:0:0:
320,192,315865,1,0,0:0:0:0:
448,192,316452,1,0,0:0:0:0:
320,192,317040,1,0,0:0:0:0:
64,192,317641,1,0,0:0:0:0:
192,192,318867,1,0,0:0:0:0:
320,192,321448,1,0,0:0:0:0:
64,192,323505,1,0,0:0:0:0:
192,192,323505,1,0,0:0:0:0:
320,192,323505,1,0,0:0:0:0:
320,192,323850,1,0,0:0:0:0:
448,192,323850,1,0,0:0:0:0:
192,192,324106,1,0,0:0:0:0:
320,192,324106,1,0,0:0:0:0:
64,192,324272,1,0,0:0:0:0:
448,192,324272,1,0,0:0:0:0:
192,192,324387,1,0,0:0:0:0:
320,192,324502,1,0,0:0:0:0:
448,192,324591,1,0,0:0:0:0:
64,192,324668,1,0,0:0:0:0:
192,192,324745,1,0,0:0:0:0:
320,192,324821,1,0,0:0:0:0:
448,192,324898,1,0,0:0:0:0:
64,192,324975,1,0,0:0:0:0:
192,192,325051,1,0,0:0:0:0:
320,192,325128,1,0,0:0:0:0:
448,192,325205,1,0,0:0:0:0:
320,192,325281,1,0,0:0:0:0:
192,192,325371,1,0,0:0:0:0:
64,192,325447,1,0,0:0:0:0:
448,192,325550,1,0,0:0:0:0:
320,192,325626,1,0,0:0:0:0:
192,192,325716,1,0,0:0:0:0:
64,192,325805,1,0,0:0:0:0:
448,192,325920,1,0,0:0:0:0:
320,192,326022,1,0,0:0:0:0:
64,192,326137,1,0,0:0:0:0:
192,192,326214,1,0,0:0:0:0:
320,192,326291,1,0,0:0:0:0:
448,192,326380,1,0,0:0:0:0:
64,192,326457,1,0,0:0:0:0:
192,192,326533,1,0,0:0:0:0:
320,192,326610,1,0,0:0:0:0:
448,192,326700,1,0,0:0:0:0:
320,192,326789,1,0,0:0:0:0:
192,192,326878,1,0,0:0:0:0:
64,192,326968,1,0,0:0:0:0:
448,192,327057,1,0,0:0:0:0:
320,192,327147,1,0,0:0:0:0:
192,192,327236,1,0,0:0:0:0:
320,192,327326,1,0,0:0:0:0:
448,192,327415,1,0,0:0:0:0:
64,192,327505,1,0,0:0:0:0:
192,192,327594,1,0,0:0:0:0:
320,192,327683,1,0,0:0:0:0:
448,192,327773,1,0,0:0:0:0:
320,192,327862,1,0,0:0:0:0:
192,192,327952,1,0,0:0:0:0:
64,192,328041,1,0,0:0:0:0:
448,192,328131,1,0,0:0:0:0:
320,192,328220,1,0,0:0:0:0:
192,192,328297,1,0,0:0:0:0:
320,192,328386,1,0,0:0:0:0:
448,192,328476,1,0,0:0:0:0:
64,192,328565,1,0,0:0:0:0:
192,192,328654,1,0,0:0:0:0:
320,192,328744,1,0,0:0:0:0:
448,192,328821,1,0,0:0:0:0:
320,192,328910,1,0,0:0:0:0:
192,192,328974,1,0,0:0:0:0:
64,192,329038,1,0,0:0:0:0:
448,192,329114,1,0,0:0:0:0:
320,192,329191,1,0,0:0:0:0:
192,192,329268,1,0,0:0:0:0:
64,192,329344,1,0,0:0:0:0:
448,192,329408,1,0,0:0:0:0:
320,192,329485,1,0,0:0:0:0:
64,192,329562,1,0,0:0:0:0:
192,192,329626,1,0,0:0:0:0:
448,192,329702,1,0,0:0:0:0:
320,192,329766,1,0,0:0:0:0:
192,192,329843,1,0,0:0:0:0:
64,192,329919,1,0,0:0:0:0:
320,192,329983,1,0,0:0:0:0:
448,192,330060,1,0,0:0:0:0:
64,192,330137,1,0,0:0:0:0:
192,192,330213,1,0,0:0:0:0:
448,192,330277,1,0,0:0:0:0:
320,192,330341,1,0,0:0:0:0:
192,192,330430,1,0,0:0:0:0:
64,192,330507,1,0,0:0:0:0:
448,192,330558,1,0,0:0:0:0:
320,192,330635,1,0,0:0:0:0:
64,192,330699,1,0,0:0:0:0:
192,192,330775,1,0,0:0:0:0:
448,192,330852,1,0,0:0:0:0:
320,192,330942,1,0,0:0:0:0:
64,192,331018,1,0,0:0:0:0:
192,192,331082,1,0,0:0:0:0:
320,192,331159,1,0,0:0:0:0:
448,192,331235,1,0,0:0:0:0:
192,192,331325,1,0,0:0:0:0:
64,192,331402,1,0,0:0:0:0:
448,192,331478,1,0,0:0:0:0:
320,192,331555,1,0,0:0:0:0:
192,192,331644,1,0,0:0:0:0:
64,192,331721,1,0,0:0:0:0:
448,192,331785,1,0,0:0:0:0:
320,192,331849,1,0,0:0:0:0:
64,192,331938,1,0,0:0:0:0:
192,192,332015,1,0,0:0:0:0:
448,192,332091,1,0,0:0:0:0:
320,192,332181,1,0,0:0:0:0:
64,192,332258,1,0,0:0:0:0:
192,192,332334,1,0,0:0:0:0:
448,192,332411,1,0,0:0:0:0:
320,192,332488,1,0,0:0:0:0:
192,192,332564,1,0,0:0:0:0:
64,192,332641,1,0,0:0:0:0:
448,192,332730,1,0,0:0:0:0:
320,192,332820,1,0,0:0:0:0:
192,192,332896,1,0,0:0:0:0:
64,192,332986,1,0,0:0:0:0:
320,192,333088,1,0,0:0:0:0:
448,192,333088,1,0,0:0:0:0:
64,192,333446,1,0,0:0:0:0:
320,192,333446,1,0,0:0:0:0:
192,192,333689,1,0,0:0:0:0:
320,192,333753,1,0,0:0:0:0:
448,192,333816,1,0,0:0:0:0:
320,192,333880,1,0,0:0:0:0:
192,192,333957,1,0,0:0:0:0:
64,192,334021,1,0,0:0:0:0:
448,192,334085,1,0,0:0:0:0:
320,192,334136,1,0,0:0:0:0:
192,192,334200,1,0,0:0:0:0:
64,192,334264,1,0,0:0:0:0:
192,192,334532,1,0,0:0:0:0:
448,192,334532,1,0,0:0:0:0:
64,192,334839,1,0,0:0:0:0:
320,192,334839,1,0,0:0:0:0:
192,192,335017,1,0,0:0:0:0:
320,192,335081,1,0,0:0:0:0:
448,192,335145,1,0,0:0:0:0:
320,192,335209,1,0,0:0:0:0:
192,192,335286,1,0,0:0:0:0:
64,192,335350,1,0,0:0:0:0:
448,192,335414,1,0,0:0:0:0:
320,192,335465,1,0,0:0:0:0:
192,192,335529,1,0,0:0:0:0:
64,192,335592,1,0,0:0:0:0:
192,192,335810,1,0,0:0:0:0:
320,192,335899,1,0,0:0:0:0:
448,192,335899,1,0,0:0:0:0:
320,192,336155,1,0,0:0:0:0:
64,192,336244,1,0,0:0:0:0:
192,192,336244,1,0,0:0:0:0:
192,192,336423,1,0,0:0:0:0:
320,192,336487,1,0,0:0:0:0:
448,192,336551,1,0,0:0:0:0:
320,192,336615,1,0,0:0:0:0:
192,192,336691,1,0,0:0:0:0:
64,192,336755,1,0,0:0:0:0:
448,192,336819,1,0,0:0:0:0:
320,192,336870,1,0,0:0:0:0:
192,192,336934,1,0,0:0:0:0:
64,192,336998,1,0,0:0:0:0:
320,192,337164,1,0,0:0:0:0:
64,192,337330,1,0,0:0:0:0:
448,192,337330,1,0,0:0:0:0:
320,192,337752,1,0,0:0:0:0:
448,192,337828,1,0,0:0:0:0:
64,192,337905,1,0,0:0:0:0:
192,192,337982,1,0,0:0:0:0:
320,192,338071,1,0,0:0:0:0:
448,192,338071,1,0,0:0:0:0:
192,192,338161,1,0,0:0:0:0:
64,192,338263,1,0,0:0:0:0:
448,192,338352,1,0,0:0:0:0:
320,192,338416,1,0,0:0:0:0:
192,192,338506,1,0,0:0:0:0:
64,192,338608,1,0,0:0:0:0:
448,192,338697,1,0,0:0:0:0:
320,192,338787,1,0,0:0:0:0:
64,192,338876,1,0,0:0:0:0:
192,192,338876,1,0,0:0:0:0:
192,192,339259,1,0,0:0:0:0:
320,192,339400,1,0,0:0:0:0:
448,192,339528,1,0,0:0:0:0:
192,192,339643,1,0,0:0:0:0:
320,192,339758,1,0,0:0:0:0:
448,192,339758,1,0,0:0:0:0:
192,192,339873,1,0,0:0:0:0:
320,192,339975,1,0,0:0:0:0:
192,192,340077,1,0,0:0:0:0:
64,192,340192,1,0,0:0:0:0:
448,192,340294,1,0,0:0:0:0:
320,192,340409,1,0,0:0:0:0:
192,192,340524,1,0,0:0:0:0:
64,192,340639,1,0,0:0:0:0:
192,192,340703,1,0,0:0:0:0:
320,192,340754,1,0,0:0:0:0:
448,192,340754,1,0,0:0:0:0:
64,192,340908,1,0,0:0:0:0:
192,192,341036,1,0,0:0:0:0:
320,192,341176,1,0,0:0:0:0:
448,192,341304,1,0,0:0:0:0:
64,192,341419,1,0,0:0:0:0:
192,192,341534,1,0,0:0:0:0:
320,192,341649,1,0,0:0:0:0:
64,192,341777,1,0,0:0:0:0:
448,192,341777,1,0,0:0:0:0:
320,192,341892,1,0,0:0:0:0:
192,192,342019,1,0,0:0:0:0:
64,192,342147,1,0,0:0:0:0:
448,192,342275,1,0,0:0:0:0:
320,192,342390,1,0,0:0:0:0:
192,192,342518,1,0,0:0:0:0:
64,192,342658,1,0,0:0:0:0:
64,192,342786,1,0,0:0:0:0:
192,192,342901,1,0,0:0:0:0:
320,192,343016,1,0,0:0:0:0:
448,192,343144,1,0,0:0:0:0:
64,192,343272,1,0,0:0:0:0:
192,192,343399,1,0,0:0:0:0:
320,192,343527,1,0,0:0:0:0:
448,192,343642,1,0,0:0:0:0:
64,192,343770,1,0,0:0:0:0:
448,192,343770,1,0,0:0:0:0:
320,192,343898,1,0,0:0:0:0:
192,192,344025,1,0,0:0:0:0:
64,192,344140,1,0,0:0:0:0:
448,192,344268,1,0,0:0:0:0:
320,192,344396,1,0,0:0:0:0:
192,192,344511,1,0,0:0:0:0:
64,192,344639,1,0,0:0:0:0:
64,192,344754,1,0,0:0:0:0:
192,192,344894,1,0,0:0:0:0:
320,192,345022,1,0,0:0:0:0:
448,192,345150,1,0,0:0:0:0:
64,192,345265,1,0,0:0:0:0:
192,192,345393,1,0,0:0:0:0:
320,192,345508,1,0,0:0:0:0:
448,192,345635,1,0,0:0:0:0:
64,192,345763,1,0,0:0:0:0:
448,192,345763,1,0,0:0:0:0:
320,192,345891,1,0,0:0:0:0:
192,192,346006,1,0,0:0:0:0:
64,192,346134,1,0,0:0:0:0:
448,192,346261,1,0,0:0:0:0:
320,192,346376,1,0,0:0:0:0:
192,192,346504,1,0,0:0:0:0:
64,192,346645,1,0,0:0:0:0:
64,192,346772,1,0,0:0:0:0:
192,192,346887,1,0,0:0:0:0:
320,192,347015,1,0,0:0:0:0:
448,192,347130,1,0,0:0:0:0:
64,192,347258,1,0,0:0:0:0:
192,192,347386,1,0,0:0:0:0:
320,192,347501,1,0,0:0:0:0:
448,192,347629,1,0,0:0:0:0:
64,192,347744,1,0,0:0:0:0:
448,192,347744,1,0,0:0:0:0:
320,192,347884,1,0,0:0:0:0:
192,192,347999,1,0,0:0:0:0:
64,192,348127,1,0,0:0:0:0:
448,192,348255,1,0,0:0:0:0:
320,192,348382,1,0,0:0:0:0:
192,192,348523,1,0,0:0:0:0:
64,192,348651,1,0,0:0:0:0:
64,192,348766,1,0,0:0:0:0:
192,192,348893,1,0,0:0:0:0:
320,192,349021,1,0,0:0:0:0:
448,192,349149,1,0,0:0:0:0:
64,192,349277,1,0,0:0:0:0:
192,192,349392,1,0,0:0:0:0:
320,192,349520,1,0,0:0:0:0:
448,192,349647,1,0,0:0:0:0:
64,192,349801,1,0,0:0:0:0:
448,192,349801,1,0,0:0:0:0:
192,0,349801,128,0,352101:1:0:0:0:
