osu file format v14

[General]
AudioFilename: audio.mp3
AudioLeadIn: 0
PreviewTime: 53782
Countdown: 0
SampleSet: None
StackLeniency: 0.7
Mode: 1
LetterboxInBreaks: 0
WidescreenStoryboard: 1

[Editor]
Bookmarks: 44031,54698,76032,97365,118698,129365,150698
DistanceSpacing: 1.7
BeatDivisor: 8
GridSize: 32
TimelineZoom: 3.099999

[Metadata]
Title:777-666
TitleUnicode:777-666
Artist:Matue
ArtistUnicode:Matuê
Creator:vrnl
Version:Oni
Source:
Tags:trap portuguese português 777666 máquina maquina do tempo kqrth rap hip-hop
BeatmapID:2672219
BeatmapSetID:1287102

[Difficulty]
HPDrainRate:5
CircleSize:5
OverallDifficulty:5
ApproachRate:5
SliderMultiplier:2.8
SliderTickRate:1

[Events]
//Background and Video events
0,0,"bg.jpg",0,0
//Break Periods
2,97565,106366
//Storyboard Layer 0 (Background)
//Storyboard Layer 1 (Fail)
//Storyboard Layer 2 (Pass)
//Storyboard Layer 3 (Foreground)
//Storyboard Layer 4 (Overlay)
//Storyboard Sound Samples

[TimingPoints]
1366,666.666666666667,4,1,0,5,1,0
1366,-200,4,1,0,5,0,0
54616,-133.333333333333,4,1,0,90,0,0
75948,-105.263157894737,4,1,0,90,0,0
97448,-200,4,1,0,5,0,0
107948,-200,4,1,0,70,0,0
118615,-133.333333333333,4,1,0,90,0,0
129282,-105.263157894737,4,1,0,90,0,0

[HitObjects]
284,214,54699,5,0,0:0:0:0:
284,214,54866,1,0,0:0:0:0:
239,123,55366,5,2,0:0:0:0:
239,123,55866,1,2,0:0:0:0:
239,123,56199,1,0,0:0:0:0:
239,123,56366,1,0,0:0:0:0:
239,123,56699,1,2,0:0:0:0:
239,123,56866,1,0,0:0:0:0:
239,123,57199,1,0,0:0:0:0:
239,123,57366,1,0,0:0:0:0:
239,123,58032,1,2,0:0:0:0:
239,123,58532,1,2,0:0:0:0:
239,123,58866,1,0,0:0:0:0:
239,123,59032,1,0,0:0:0:0:
239,123,59366,1,2,0:0:0:0:
239,123,59532,1,0,0:0:0:0:
239,123,59699,1,2,0:0:0:0:
239,123,59866,1,0,0:0:0:0:
239,123,59949,1,2,0:0:0:0:
185,159,60032,1,0,0:0:0:0:
123,229,60199,1,0,0:0:0:0:
123,229,60282,1,0,0:0:0:0:
123,229,60366,1,2,0:0:0:0:
123,229,60699,1,2,0:0:0:0:
123,229,61199,1,2,0:0:0:0:
123,229,61532,1,0,0:0:0:0:
123,229,61699,1,0,0:0:0:0:
123,229,61866,1,0,0:0:0:0:
123,229,62032,1,2,0:0:0:0:
154,138,62199,1,0,0:0:0:0:
123,229,62532,1,0,0:0:0:0:
123,229,62699,1,2,0:0:0:0:
154,138,63032,1,2,0:0:0:0:
154,138,63199,1,0,0:0:0:0:
154,138,63366,1,2,0:0:0:0:
154,138,63699,1,2,0:0:0:0:
154,138,63866,1,2,0:0:0:0:
154,138,64032,1,0,0:0:0:0:
154,138,64366,1,0,0:0:0:0:
154,138,64699,1,2,0:0:0:0:
154,138,64866,1,0,0:0:0:0:
154,138,65032,1,2,0:0:0:0:
154,138,65199,1,0,0:0:0:0:
154,138,65282,1,0,0:0:0:0:
284,214,65366,1,0,0:0:0:0:
284,214,65533,1,0,0:0:0:0:
239,123,66033,5,2,0:0:0:0:
239,123,66533,1,2,0:0:0:0:
239,123,66866,1,0,0:0:0:0:
239,123,67033,1,0,0:0:0:0:
239,123,67366,1,2,0:0:0:0:
239,123,67533,1,0,0:0:0:0:
239,123,67866,1,0,0:0:0:0:
239,123,68033,1,0,0:0:0:0:
86,181,68199,1,2,0:0:0:0:
86,181,68366,1,2,0:0:0:0:
239,123,68699,1,2,0:0:0:0:
239,123,69199,1,2,0:0:0:0:
239,123,69533,1,0,0:0:0:0:
239,123,69699,1,0,0:0:0:0:
239,123,70033,1,2,0:0:0:0:
239,123,70199,1,0,0:0:0:0:
239,123,70366,1,2,0:0:0:0:
239,123,70533,1,0,0:0:0:0:
239,123,70616,1,2,0:0:0:0:
185,159,70699,1,0,0:0:0:0:
196,169,70866,1,2,0:0:0:0:
196,169,70949,1,2,0:0:0:0:
196,169,71032,1,0,0:0:0:0:
123,229,71366,1,2,0:0:0:0:
123,229,71866,1,2,0:0:0:0:
123,229,72032,1,0,0:0:0:0:
123,229,72366,1,0,0:0:0:0:
123,229,72533,1,0,0:0:0:0:
123,229,72699,1,2,0:0:0:0:
154,138,72866,1,0,0:0:0:0:
123,229,73199,1,0,0:0:0:0:
123,229,73366,1,2,0:0:0:0:
154,138,73866,1,0,0:0:0:0:
154,138,74033,1,2,0:0:0:0:
154,138,74366,1,2,0:0:0:0:
154,138,74533,1,2,0:0:0:0:
154,138,74699,1,0,0:0:0:0:
154,138,75033,1,0,0:0:0:0:
284,214,76033,1,0,0:0:0:0:
136,154,76199,1,2,0:0:0:0:
136,154,76366,1,2,0:0:0:0:
136,154,76699,1,2,0:0:0:0:
136,154,77032,1,0,0:0:0:0:
136,154,77199,1,2,0:0:0:0:
136,154,77366,1,0,0:0:0:0:
136,154,77449,1,2,0:0:0:0:
136,154,77532,1,0,0:0:0:0:
136,154,77699,1,0,0:0:0:0:
136,154,78032,1,2,0:0:0:0:
136,154,78199,1,0,0:0:0:0:
136,154,78532,1,0,0:0:0:0:
136,154,78699,1,0,0:0:0:0:
136,154,79199,1,0,0:0:0:0:
136,154,79366,1,2,0:0:0:0:
136,154,79532,1,2,0:0:0:0:
136,154,79866,1,2,0:0:0:0:
136,154,80199,1,2,0:0:0:0:
136,154,80366,1,0,0:0:0:0:
136,154,80532,1,0,0:0:0:0:
136,154,80699,1,2,0:0:0:0:
136,154,80866,1,0,0:0:0:0:
136,154,81032,1,2,0:0:0:0:
198,161,81199,1,0,0:0:0:0:
198,161,81282,1,0,0:0:0:0:
198,161,81366,1,0,0:0:0:0:
136,154,81532,1,2,0:0:0:0:
136,154,81616,1,0,0:0:0:0:
160,144,81699,1,2,0:0:0:0:
160,144,82032,1,2,0:0:0:0:
136,154,82366,1,2,0:0:0:0:
136,154,82532,1,2,0:0:0:0:
136,154,82699,1,0,0:0:0:0:
224,119,82782,1,0,0:0:0:0:
136,154,82866,1,2,0:0:0:0:
136,154,83032,1,0,0:0:0:0:
136,154,83199,1,0,0:0:0:0:
136,154,83366,1,2,0:0:0:0:
136,154,83532,1,0,0:0:0:0:
136,154,83866,1,0,0:0:0:0:
136,154,84032,1,2,0:0:0:0:
136,154,84532,1,2,0:0:0:0:
136,154,84699,1,0,0:0:0:0:
136,154,85032,1,0,0:0:0:0:
136,154,85199,1,0,0:0:0:0:
136,154,85366,1,2,0:0:0:0:
136,154,85699,1,0,0:0:0:0:
136,154,85866,1,0,0:0:0:0:
136,154,86032,1,2,0:0:0:0:
136,154,86116,1,2,0:0:0:0:
227,140,86199,1,0,0:0:0:0:
227,140,86366,1,0,0:0:0:0:
136,154,86532,1,0,0:0:0:0:
136,154,86616,1,0,0:0:0:0:
284,214,86699,1,0,0:0:0:0:
136,154,86865,1,2,0:0:0:0:
136,154,87032,1,2,0:0:0:0:
136,154,87365,1,2,0:0:0:0:
136,154,87698,1,0,0:0:0:0:
136,154,87865,1,2,0:0:0:0:
136,154,88032,1,0,0:0:0:0:
136,154,88115,1,2,0:0:0:0:
136,154,88198,1,0,0:0:0:0:
136,154,88365,1,0,0:0:0:0:
136,154,88698,1,2,0:0:0:0:
136,154,88865,1,0,0:0:0:0:
136,154,89198,1,0,0:0:0:0:
136,154,89365,1,0,0:0:0:0:
136,154,89865,1,0,0:0:0:0:
136,154,90032,1,2,0:0:0:0:
136,154,90198,1,2,0:0:0:0:
136,154,90532,1,2,0:0:0:0:
136,154,90865,1,2,0:0:0:0:
136,154,91032,1,0,0:0:0:0:
136,154,91198,1,0,0:0:0:0:
136,154,91365,1,2,0:0:0:0:
136,154,91532,1,0,0:0:0:0:
136,154,91698,1,2,0:0:0:0:
198,161,91865,1,0,0:0:0:0:
198,161,91948,1,0,0:0:0:0:
198,161,92032,1,0,0:0:0:0:
136,154,92198,1,2,0:0:0:0:
136,154,92282,1,0,0:0:0:0:
160,144,92365,1,2,0:0:0:0:
160,144,92698,1,2,0:0:0:0:
136,154,93032,1,2,0:0:0:0:
136,154,93198,1,2,0:0:0:0:
136,154,93365,1,0,0:0:0:0:
365,142,93449,1,0,0:0:0:0:
136,154,93532,1,2,0:0:0:0:
136,154,93698,1,0,0:0:0:0:
136,154,93865,1,0,0:0:0:0:
136,154,94032,1,2,0:0:0:0:
136,154,94198,1,0,0:0:0:0:
136,154,94532,1,0,0:0:0:0:
136,154,94698,1,2,0:0:0:0:
136,154,95198,1,0,0:0:0:0:
136,154,95365,1,2,0:0:0:0:
136,154,95698,1,0,0:0:0:0:
136,154,95865,1,2,0:0:0:0:
136,154,96032,1,0,0:0:0:0:
136,154,96365,1,0,0:0:0:0:
136,154,96532,1,0,0:0:0:0:
136,154,96698,1,2,0:0:0:0:
136,154,96782,1,2,0:0:0:0:
227,140,96865,1,0,0:0:0:0:
227,140,97032,1,0,0:0:0:0:
136,154,97198,1,0,0:0:0:0:
136,154,97282,1,0,0:0:0:0:
202,119,97365,1,0,0:0:0:0:
181,210,108032,5,0,0:0:0:0:
181,210,109699,1,0,0:0:0:0:
181,210,110199,1,2,0:0:0:0:
181,210,110699,1,0,0:0:0:0:
181,210,112366,1,0,0:0:0:0:
181,210,112866,1,0,0:0:0:0:
152,152,113032,1,2,0:0:0:0:
181,210,113366,1,0,0:0:0:0:
181,210,115032,1,0,0:0:0:0:
181,210,115866,1,2,0:0:0:0:
181,210,116032,1,0,0:0:0:0:
181,210,117699,1,0,0:0:0:0:
237,115,118032,1,2,0:0:0:0:
181,210,118699,1,0,0:0:0:0:
270,173,119032,1,0,0:0:0:0:
270,173,119199,1,0,0:0:0:0:
270,173,119366,1,2,0:0:0:0:
270,173,119532,1,2,0:0:0:0:
237,107,119699,1,0,0:0:0:0:
237,107,119866,1,0,0:0:0:0:
237,107,120199,1,2,0:0:0:0:
237,107,120366,1,0,0:0:0:0:
231,212,120699,1,2,0:0:0:0:
231,212,120866,1,2,0:0:0:0:
231,212,121032,1,0,0:0:0:0:
231,212,121199,1,0,0:0:0:0:
231,212,121366,1,2,0:0:0:0:
200,134,121866,1,0,0:0:0:0:
200,134,122032,1,2,0:0:0:0:
200,134,122199,1,0,0:0:0:0:
154,175,122366,1,0,0:0:0:0:
154,175,122532,1,0,0:0:0:0:
200,134,122699,1,2,0:0:0:0:
295,202,123032,1,0,0:0:0:0:
295,202,123199,1,2,0:0:0:0:
295,202,123366,1,2,0:0:0:0:
295,202,123532,1,0,0:0:0:0:
295,202,123699,1,2,0:0:0:0:
295,202,123866,1,0,0:0:0:0:
295,202,123949,1,0,0:0:0:0:
295,202,124032,1,0,0:0:0:0:
295,202,124199,1,2,0:0:0:0:
295,202,124282,1,0,0:0:0:0:
295,202,124366,1,2,0:0:0:0:
73,146,124532,1,0,0:0:0:0:
73,146,124699,1,2,0:0:0:0:
212,167,125032,1,0,0:0:0:0:
212,167,125199,1,2,0:0:0:0:
212,167,125366,1,0,0:0:0:0:
212,167,125532,1,0,0:0:0:0:
212,167,125699,1,2,0:0:0:0:
212,167,126032,1,2,0:0:0:0:
167,111,126199,1,0,0:0:0:0:
212,167,126532,1,0,0:0:0:0:
212,167,126699,1,2,0:0:0:0:
187,111,126866,1,2,0:0:0:0:
187,111,127032,1,0,0:0:0:0:
235,99,127366,1,2,0:0:0:0:
187,111,127699,1,2,0:0:0:0:
187,111,127866,1,2,0:0:0:0:
187,111,128032,1,0,0:0:0:0:
187,111,128366,1,0,0:0:0:0:
284,214,129366,1,0,0:0:0:0:
136,154,129532,1,2,0:0:0:0:
136,154,129699,1,2,0:0:0:0:
119,167,129866,1,0,0:0:0:0:
136,154,130032,1,2,0:0:0:0:
136,154,130365,1,0,0:0:0:0:
136,154,130532,1,2,0:0:0:0:
136,154,130699,1,0,0:0:0:0:
136,154,130782,1,2,0:0:0:0:
136,154,130865,1,0,0:0:0:0:
136,154,131032,1,0,0:0:0:0:
136,154,131365,1,2,0:0:0:0:
136,154,131532,1,0,0:0:0:0:
136,154,131865,1,0,0:0:0:0:
136,154,132032,1,0,0:0:0:0:
204,161,132366,1,0,0:0:0:0:
136,154,132532,1,0,0:0:0:0:
136,154,132699,1,2,0:0:0:0:
136,154,132865,1,2,0:0:0:0:
204,161,133032,1,0,0:0:0:0:
136,154,133199,1,2,0:0:0:0:
136,154,133532,1,2,0:0:0:0:
136,154,133699,1,0,0:0:0:0:
136,154,133865,1,0,0:0:0:0:
136,154,134032,1,2,0:0:0:0:
136,154,134199,1,0,0:0:0:0:
136,154,134365,1,2,0:0:0:0:
198,161,134532,1,0,0:0:0:0:
198,161,134615,1,0,0:0:0:0:
198,161,134699,1,0,0:0:0:0:
136,154,134865,1,2,0:0:0:0:
136,154,134949,1,0,0:0:0:0:
160,144,135032,1,2,0:0:0:0:
204,161,135199,1,0,0:0:0:0:
160,144,135365,1,2,0:0:0:0:
136,154,135699,1,2,0:0:0:0:
136,154,135865,1,2,0:0:0:0:
136,154,136032,1,0,0:0:0:0:
224,119,136115,1,0,0:0:0:0:
136,154,136199,1,2,0:0:0:0:
136,154,136365,1,0,0:0:0:0:
136,154,136532,1,0,0:0:0:0:
136,154,136699,1,2,0:0:0:0:
136,154,136865,1,0,0:0:0:0:
136,154,137199,1,0,0:0:0:0:
136,154,137365,1,2,0:0:0:0:
204,161,137532,1,0,0:0:0:0:
136,154,137865,1,0,0:0:0:0:
136,154,138032,1,2,0:0:0:0:
136,154,138365,1,0,0:0:0:0:
136,154,138532,1,0,0:0:0:0:
136,154,138699,1,2,0:0:0:0:
136,154,139032,1,0,0:0:0:0:
136,154,139199,1,0,0:0:0:0:
136,154,139365,1,2,0:0:0:0:
136,154,139449,1,2,0:0:0:0:
227,140,139532,1,0,0:0:0:0:
227,140,139699,1,0,0:0:0:0:
136,154,139865,1,0,0:0:0:0:
136,154,139949,1,0,0:0:0:0:
284,214,140032,1,0,0:0:0:0:
136,154,140198,1,2,0:0:0:0:
136,154,140365,1,2,0:0:0:0:
204,161,140532,1,0,0:0:0:0:
136,154,140698,1,2,0:0:0:0:
136,154,141031,1,0,0:0:0:0:
136,154,141198,1,2,0:0:0:0:
136,154,141365,1,0,0:0:0:0:
136,154,141448,1,2,0:0:0:0:
136,154,141531,1,0,0:0:0:0:
136,154,141698,1,0,0:0:0:0:
136,154,142031,1,2,0:0:0:0:
136,154,142198,1,0,0:0:0:0:
136,154,142531,1,0,0:0:0:0:
136,154,142698,1,0,0:0:0:0:
204,161,143032,1,0,0:0:0:0:
136,154,143198,1,0,0:0:0:0:
136,154,143365,1,2,0:0:0:0:
136,154,143531,1,2,0:0:0:0:
204,161,143699,1,0,0:0:0:0:
136,154,143865,1,2,0:0:0:0:
136,154,144198,1,2,0:0:0:0:
136,154,144365,1,0,0:0:0:0:
136,154,144531,1,0,0:0:0:0:
136,154,144698,1,2,0:0:0:0:
136,154,144865,1,0,0:0:0:0:
136,154,145031,1,2,0:0:0:0:
198,161,145198,1,0,0:0:0:0:
198,161,145281,1,0,0:0:0:0:
198,161,145365,1,0,0:0:0:0:
136,154,145531,1,2,0:0:0:0:
136,154,145615,1,0,0:0:0:0:
160,144,145698,1,2,0:0:0:0:
204,161,145866,1,0,0:0:0:0:
160,144,146031,1,2,0:0:0:0:
136,154,146365,1,2,0:0:0:0:
136,154,146531,1,2,0:0:0:0:
136,154,146698,1,0,0:0:0:0:
365,142,146782,1,0,0:0:0:0:
136,154,146865,1,2,0:0:0:0:
136,154,147031,1,0,0:0:0:0:
136,154,147198,1,0,0:0:0:0:
136,154,147365,1,2,0:0:0:0:
136,154,147531,1,0,0:0:0:0:
136,154,147865,1,0,0:0:0:0:
136,154,148031,1,2,0:0:0:0:
204,161,148366,1,0,0:0:0:0:
136,154,148531,1,0,0:0:0:0:
136,154,148698,1,2,0:0:0:0:
136,154,149031,1,0,0:0:0:0:
136,154,149198,1,2,0:0:0:0:
136,154,149365,1,0,0:0:0:0:
136,154,149698,1,0,0:0:0:0:
136,154,149865,1,0,0:0:0:0:
136,154,150031,1,2,0:0:0:0:
136,154,150115,1,2,0:0:0:0:
227,140,150198,1,0,0:0:0:0:
227,140,150365,1,0,0:0:0:0:
136,154,150531,1,0,0:0:0:0:
136,154,150615,1,0,0:0:0:0:
202,119,150698,1,0,0:0:0:0:
340,250,151199,1,0,0:0:0:0:
340,250,151366,1,2,0:0:0:0:
340,250,151699,1,0,0:0:0:0:
340,250,151866,1,0,0:0:0:0:
340,250,152199,1,2,0:0:0:0:
340,250,152366,1,0,0:0:0:0:
187,150,152532,1,0,0:0:0:0:
340,250,152699,1,2,0:0:0:0:
340,250,152866,1,0,0:0:0:0:
340,250,153199,1,2,0:0:0:0:
340,250,153366,1,0,0:0:0:0:
340,250,153865,1,0,0:0:0:0:
340,250,154032,1,2,0:0:0:0:
340,250,154366,1,0,0:0:0:0:
340,250,154532,1,0,0:0:0:0:
340,250,154699,1,2,0:0:0:0:
340,250,154866,1,2,0:0:0:0:
340,250,155032,1,0,0:0:0:0:
189,94,155366,1,2,0:0:0:0:
340,250,155532,1,0,0:0:0:0:
340,250,155699,1,2,0:0:0:0:
204,154,155866,1,0,0:0:0:0:
204,154,155949,1,0,0:0:0:0:
204,154,156032,1,0,0:0:0:0:
204,154,156199,1,2,0:0:0:0:
204,154,156282,1,0,0:0:0:0:
204,154,156366,1,2,0:0:0:0:
158,55,156532,1,0,0:0:0:0:
340,250,156699,1,2,0:0:0:0:
340,250,157032,1,2,0:0:0:0:
340,250,157199,1,0,0:0:0:0:
340,250,157699,1,0,0:0:0:0:
340,250,157866,1,0,0:0:0:0:
138,111,158032,1,2,0:0:0:0:
340,250,158199,1,2,0:0:0:0:
340,250,158532,1,2,0:0:0:0:
340,250,158699,1,0,0:0:0:0:
340,250,159199,1,0,0:0:0:0:
340,250,159366,1,2,0:0:0:0:
340,250,159699,1,0,0:0:0:0:
340,250,159866,1,0,0:0:0:0:
340,250,160199,1,2,0:0:0:0:
340,250,160366,1,0,0:0:0:0:
340,250,160700,1,2,0:0:0:0:
340,250,160866,1,2,0:0:0:0:
340,250,161033,1,0,0:0:0:0:
340,250,161200,1,0,0:0:0:0:
144,132,161282,1,0,0:0:0:0:
144,132,161366,1,0,0:0:0:0:
