osu file format v14

[General]
AudioFilename: audio.mp3
AudioLeadIn: 0
PreviewTime: 53782
Countdown: 0
SampleSet: None
StackLeniency: 0.7
Mode: 1
LetterboxInBreaks: 0
WidescreenStoryboard: 1

[Editor]
Bookmarks: 44031,54698,76032,97365,118698,129365,150698
DistanceSpacing: 1.7
BeatDivisor: 8
GridSize: 32
TimelineZoom: 3.099999

[Metadata]
Title:777-666
TitleUnicode:777-666
Artist:Matue
ArtistUnicode:Matuê
Creator:vrnl
Version:Kantan
Source:
Tags:trap portuguese português 777666 máquina maquina do tempo kqrth rap hip-hop
BeatmapID:2672216
BeatmapSetID:1287102

[Difficulty]
HPDrainRate:8
CircleSize:5
OverallDifficulty:2
ApproachRate:5
SliderMultiplier:2.8
SliderTickRate:1

[Events]
//Background and Video events
0,0,"bg.jpg",0,0
//Break Periods
2,97565,106832
//Storyboard Layer 0 (Background)
//Storyboard Layer 1 (Fail)
//Storyboard Layer 2 (Pass)
//Storyboard Layer 3 (Foreground)
//Storyboard Layer 4 (Overlay)
//Storyboard Sound Samples

[TimingPoints]
1366,666.666666666667,4,1,0,5,1,0
1366,-100,4,1,0,5,0,0
54616,-100,4,1,0,90,0,0
75948,-100,4,1,0,90,0,0
97448,-100,4,1,0,5,0,0
107948,-100,4,1,0,70,0,0
118615,-100,4,1,0,90,0,0
129282,-100,4,1,0,90,0,0

[HitObjects]
284,214,54699,5,0,0:0:0:0:
239,123,55366,5,2,0:0:0:0:
239,123,56366,1,0,0:0:0:0:
239,123,56866,1,0,0:0:0:0:
239,123,57366,1,0,0:0:0:0:
239,123,58032,1,2,0:0:0:0:
239,123,59032,1,0,0:0:0:0:
239,123,59532,1,2,0:0:0:0:
185,159,60032,1,0,0:0:0:0:
123,229,60699,1,2,0:0:0:0:
123,229,61699,1,0,0:0:0:0:
123,229,62032,1,2,0:0:0:0:
123,229,62699,1,2,0:0:0:0:
154,138,63032,1,0,0:0:0:0:
154,138,63366,1,2,0:0:0:0:
154,138,64032,1,0,0:0:0:0:
154,138,64699,1,2,0:0:0:0:
154,138,65032,1,2,0:0:0:0:
284,214,65366,1,0,0:0:0:0:
239,123,66033,5,2,0:0:0:0:
239,123,67033,1,0,0:0:0:0:
239,123,67533,1,0,0:0:0:0:
239,123,68033,1,0,0:0:0:0:
239,123,68699,1,2,0:0:0:0:
239,123,69699,1,0,0:0:0:0:
239,123,70033,1,2,0:0:0:0:
239,123,70366,1,2,0:0:0:0:
185,159,70699,1,0,0:0:0:0:
123,229,71366,1,2,0:0:0:0:
123,229,72366,1,0,0:0:0:0:
123,229,72699,1,2,0:0:0:0:
123,229,73366,1,0,0:0:0:0:
154,138,74033,1,2,0:0:0:0:
154,138,74699,1,0,0:0:0:0:
284,214,76033,1,0,0:0:0:0:
136,154,76699,1,2,0:0:0:0:
136,154,77032,1,0,0:0:0:0:
136,154,77699,1,0,0:0:0:0:
136,154,78032,1,2,0:0:0:0:
136,154,78699,1,0,0:0:0:0:
136,154,79366,1,2,0:0:0:0:
136,154,80032,1,2,0:0:0:0:
136,154,80366,1,0,0:0:0:0:
187,163,80699,1,2,0:0:0:0:
198,161,81366,1,0,0:0:0:0:
160,144,82032,1,2,0:0:0:0:
136,154,82699,1,0,0:0:0:0:
136,154,83032,1,0,0:0:0:0:
136,154,83366,1,2,0:0:0:0:
136,154,84032,1,0,0:0:0:0:
136,154,84699,1,0,0:0:0:0:
136,154,85699,1,0,0:0:0:0:
136,154,86032,1,2,0:0:0:0:
227,140,86366,1,0,0:0:0:0:
284,214,86699,1,0,0:0:0:0:
136,154,87365,1,2,0:0:0:0:
136,154,88365,1,0,0:0:0:0:
136,154,88698,1,2,0:0:0:0:
136,154,89365,1,0,0:0:0:0:
136,154,90032,1,2,0:0:0:0:
136,154,90698,1,2,0:0:0:0:
136,154,91032,1,0,0:0:0:0:
187,163,91365,1,2,0:0:0:0:
198,161,92032,1,0,0:0:0:0:
160,144,92698,1,2,0:0:0:0:
136,154,93365,1,0,0:0:0:0:
136,154,93698,1,0,0:0:0:0:
136,154,94032,1,2,0:0:0:0:
136,154,94698,1,0,0:0:0:0:
136,154,95365,1,2,0:0:0:0:
136,154,96365,1,0,0:0:0:0:
136,154,96698,1,2,0:0:0:0:
227,140,97032,1,0,0:0:0:0:
284,214,97365,1,0,0:0:0:0:
181,210,108032,5,0,0:0:0:0:
181,210,109699,1,0,0:0:0:0:
181,210,110199,1,0,0:0:0:0:
181,210,110699,1,0,0:0:0:0:
181,210,112366,1,0,0:0:0:0:
152,152,112866,1,2,0:0:0:0:
181,210,113366,1,0,0:0:0:0:
181,210,115032,1,0,0:0:0:0:
181,210,116032,1,0,0:0:0:0:
181,210,117699,1,0,0:0:0:0:
237,115,118032,1,2,0:0:0:0:
181,210,118699,1,0,0:0:0:0:
270,173,119366,1,2,0:0:0:0:
237,107,119699,1,0,0:0:0:0:
237,107,120366,1,0,0:0:0:0:
231,212,120699,1,2,0:0:0:0:
231,212,121032,1,0,0:0:0:0:
231,212,121366,1,2,0:0:0:0:
200,134,122032,1,2,0:0:0:0:
154,175,122366,1,0,0:0:0:0:
200,134,122699,1,2,0:0:0:0:
295,202,123699,1,2,0:0:0:0:
295,202,124032,1,0,0:0:0:0:
180,88,124699,1,2,0:0:0:0:
212,167,125032,1,0,0:0:0:0:
212,167,125699,1,0,0:0:0:0:
212,167,126032,1,2,0:0:0:0:
212,167,126699,1,0,0:0:0:0:
235,99,127366,1,2,0:0:0:0:
264,82,127699,1,0,0:0:0:0:
284,214,129366,1,0,0:0:0:0:
136,154,130032,1,2,0:0:0:0:
136,154,130365,1,0,0:0:0:0:
136,154,131032,1,0,0:0:0:0:
136,154,131365,1,2,0:0:0:0:
136,154,132032,1,0,0:0:0:0:
136,154,132699,1,2,0:0:0:0:
136,154,133365,1,2,0:0:0:0:
136,154,133699,1,0,0:0:0:0:
187,163,134032,1,2,0:0:0:0:
198,161,134699,1,0,0:0:0:0:
160,144,135365,1,2,0:0:0:0:
136,154,136032,1,0,0:0:0:0:
136,154,136365,1,0,0:0:0:0:
136,154,136699,1,2,0:0:0:0:
136,154,137365,1,0,0:0:0:0:
136,154,138032,1,2,0:0:0:0:
136,154,139032,1,0,0:0:0:0:
136,154,139365,1,2,0:0:0:0:
227,140,139699,1,0,0:0:0:0:
284,214,140032,1,0,0:0:0:0:
136,154,140698,1,2,0:0:0:0:
136,154,141698,1,0,0:0:0:0:
136,154,142031,1,2,0:0:0:0:
136,154,142698,1,0,0:0:0:0:
136,154,143365,1,2,0:0:0:0:
136,154,144031,1,2,0:0:0:0:
136,154,144365,1,0,0:0:0:0:
187,163,144698,1,2,0:0:0:0:
198,161,145365,1,0,0:0:0:0:
160,144,146031,1,2,0:0:0:0:
136,154,146698,1,0,0:0:0:0:
136,154,147031,1,0,0:0:0:0:
136,154,147365,1,2,0:0:0:0:
136,154,148031,1,0,0:0:0:0:
136,154,148698,1,2,0:0:0:0:
136,154,149698,1,0,0:0:0:0:
136,154,150031,1,2,0:0:0:0:
227,140,150365,1,0,0:0:0:0:
284,214,150698,1,0,0:0:0:0:
340,250,151366,5,2,0:0:0:0:
340,250,152366,1,0,0:0:0:0:
340,250,152866,1,0,0:0:0:0:
340,250,153366,1,0,0:0:0:0:
340,250,154032,1,2,0:0:0:0:
340,250,155032,1,2,0:0:0:0:
189,94,155366,1,2,0:0:0:0:
340,250,155699,1,0,0:0:0:0:
204,154,156032,1,0,0:0:0:0:
340,250,156699,1,2,0:0:0:0:
340,250,157699,1,0,0:0:0:0:
340,250,158199,1,0,0:0:0:0:
340,250,158699,1,0,0:0:0:0:
340,250,159366,1,2,0:0:0:0:
340,250,160366,1,0,0:0:0:0:
340,250,160700,1,2,0:0:0:0:
340,250,161033,1,0,0:0:0:0:
144,132,161366,1,0,0:0:0:0:
