osu file format v14

[General]
AudioFilename: audio.mp3
AudioLeadIn: 0
PreviewTime: 16326
Countdown: 0
SampleSet: None
StackLeniency: 0.7
Mode: 3
LetterboxInBreaks: 0
SpecialStyle: 0
WidescreenStoryboard: 0

[Editor]
DistanceSpacing: 1
BeatDivisor: 4
GridSize: 4
TimelineZoom: 1.4

[Metadata]
Title:Pomidorki
TitleUnicode:Pomidorki
Artist:Matt Kowalsky feat.Kasia Klich;
ArtistUnicode:Matt Kowalsky feat.Kasia Klich;
Creator:_underjoy
Version:Sauce
Source:
Tags:sitekx warmup cancer
BeatmapID:2121868
BeatmapSetID:1013792

[Difficulty]
HPDrainRate:8
CircleSize:4
OverallDifficulty:8
ApproachRate:5
SliderMultiplier:1.4
SliderTickRate:1

[Events]
//Background and Video events
0,0,"sitekbg.jpg",0,0
//Break Periods
//Storyboard Layer 0 (Background)
//Storyboard Layer 1 (Fail)
//Storyboard Layer 2 (Pass)
//Storyboard Layer 3 (Foreground)
//Storyboard Sound Samples

[TimingPoints]
1455,464.738003950273,4,1,0,50,1,0
70178,-83.3333333333333,4,1,0,50,0,0
70410,-71.4285714285714,4,1,0,50,0,0
70642,-62.5,4,1,0,50,0,0
70875,-55.5555555555556,4,1,0,50,0,0
71107,-100,4,1,0,50,0,0

[HitObjects]
64,192,1455,5,0,0:0:0:0:
192,192,1687,1,0,0:0:0:0:
320,192,1919,1,0,0:0:0:0:
448,192,2152,1,0,0:0:0:0:
192,192,2384,1,0,0:0:0:0:
64,192,2616,1,0,0:0:0:0:
320,192,2849,1,0,0:0:0:0:
448,192,3081,1,0,0:0:0:0:
192,192,3313,1,0,0:0:0:0:
64,192,3546,1,0,0:0:0:0:
320,192,3778,1,0,0:0:0:0:
448,192,3778,128,0,4708:0:0:0:0:
192,192,4011,1,0,0:0:0:0:
64,192,4243,1,0,0:0:0:0:
320,192,4475,1,0,0:0:0:0:
192,192,4708,1,0,0:0:0:0:
64,192,4940,1,0,0:0:0:0:
320,192,4940,1,0,0:0:0:0:
64,192,5172,128,0,6334:0:0:0:0:
448,192,5172,1,0,0:0:0:0:
320,192,5405,1,0,0:0:0:0:
192,192,5637,1,0,0:0:0:0:
320,192,5870,1,0,0:0:0:0:
448,192,6102,1,0,0:0:0:0:
192,192,6334,1,0,0:0:0:0:
64,192,6567,1,0,0:0:0:0:
320,192,6567,1,0,0:0:0:0:
64,192,6799,128,0,7496:0:0:0:0:
448,192,6799,1,0,0:0:0:0:
192,192,7031,1,0,0:0:0:0:
320,192,7264,1,0,0:0:0:0:
448,192,7496,128,0,8193:0:0:0:0:
192,192,7496,1,0,0:0:0:0:
64,192,7728,1,0,0:0:0:0:
320,192,7961,1,0,0:0:0:0:
192,192,8193,1,0,0:0:0:0:
64,192,8426,128,0,8890:0:0:0:0:
320,192,8426,1,0,0:0:0:0:
192,192,8658,1,0,0:0:0:0:
448,192,8890,1,0,0:0:0:0:
320,192,8929,1,0,0:0:0:0:
448,192,9355,1,0,0:0:0:0:
320,192,9394,1,0,0:0:0:0:
448,192,9820,1,0,0:0:0:0:
320,192,9859,1,0,0:0:0:0:
448,192,10285,1,0,0:0:0:0:
320,192,10323,1,0,0:0:0:0:
448,192,10749,1,0,0:0:0:0:
320,192,10788,1,0,0:0:0:0:
448,192,11214,1,0,0:0:0:0:
320,192,11253,1,0,0:0:0:0:
448,192,11679,1,0,0:0:0:0:
320,192,11717,1,0,0:0:0:0:
448,192,12143,1,0,0:0:0:0:
320,192,12182,1,0,0:0:0:0:
192,192,12608,1,0,0:0:0:0:
64,192,12647,1,0,0:0:0:0:
192,192,13073,1,0,0:0:0:0:
448,192,13073,1,0,0:0:0:0:
64,192,13112,1,0,0:0:0:0:
320,192,13228,1,0,0:0:0:0:
192,192,13383,1,0,0:0:0:0:
64,192,13538,1,0,0:0:0:0:
320,192,13693,1,0,0:0:0:0:
192,192,13848,1,0,0:0:0:0:
448,192,14002,1,0,0:0:0:0:
320,192,14119,1,0,0:0:0:0:
192,192,14235,1,0,0:0:0:0:
64,192,14351,1,0,0:0:0:0:
448,192,14467,1,0,0:0:0:0:
320,192,14622,1,0,0:0:0:0:
192,192,14777,1,0,0:0:0:0:
64,192,14932,1,0,0:0:0:0:
192,192,15087,1,0,0:0:0:0:
320,192,15242,1,0,0:0:0:0:
448,192,15397,1,0,0:0:0:0:
64,192,15397,128,0,16094:0:0:0:0:
192,192,15552,128,0,16094:0:0:0:0:
320,192,15706,128,0,16094:0:0:0:0:
64,192,16326,1,0,0:0:0:0:
192,192,16326,1,0,0:0:0:0:
448,192,16326,1,0,0:0:0:0:
320,192,16404,1,0,0:0:0:0:
448,192,16481,1,0,0:0:0:0:
192,192,16558,1,0,0:0:0:0:
320,192,16636,1,0,0:0:0:0:
192,192,16713,1,0,0:0:0:0:
448,192,16791,1,0,0:0:0:0:
320,192,16868,1,0,0:0:0:0:
448,192,16946,1,0,0:0:0:0:
320,192,17023,1,0,0:0:0:0:
448,192,17101,1,0,0:0:0:0:
320,192,17178,1,0,0:0:0:0:
192,192,17256,1,0,0:0:0:0:
64,192,17256,1,0,0:0:0:0:
320,192,17333,1,0,0:0:0:0:
192,192,17411,1,0,0:0:0:0:
320,192,17488,1,0,0:0:0:0:
192,192,17565,1,0,0:0:0:0:
320,192,17643,1,0,0:0:0:0:
64,192,17720,1,0,0:0:0:0:
192,192,17778,1,0,0:0:0:0:
320,192,17837,1,0,0:0:0:0:
64,192,17895,1,0,0:0:0:0:
192,192,17953,1,0,0:0:0:0:
448,192,18011,1,0,0:0:0:0:
320,192,18069,1,0,0:0:0:0:
192,192,18127,1,0,0:0:0:0:
448,192,18185,1,0,0:0:0:0:
320,192,18243,1,0,0:0:0:0:
64,192,18301,1,0,0:0:0:0:
192,192,18359,1,0,0:0:0:0:
320,192,18417,1,0,0:0:0:0:
448,192,18476,1,0,0:0:0:0:
64,192,18534,1,0,0:0:0:0:
192,192,18592,1,0,0:0:0:0:
448,192,18650,1,0,0:0:0:0:
320,192,18727,1,0,0:0:0:0:
448,192,18805,1,0,0:0:0:0:
192,192,18882,1,0,0:0:0:0:
320,192,18960,1,0,0:0:0:0:
192,192,19037,1,0,0:0:0:0:
448,192,19115,1,0,0:0:0:0:
64,192,19115,1,0,0:0:0:0:
192,192,19269,1,0,0:0:0:0:
448,192,19289,1,0,0:0:0:0:
320,192,19424,1,0,0:0:0:0:
448,192,19463,1,0,0:0:0:0:
64,192,19579,1,0,0:0:0:0:
320,192,19734,1,0,0:0:0:0:
64,192,19754,1,0,0:0:0:0:
192,192,19889,1,0,0:0:0:0:
64,192,19928,1,0,0:0:0:0:
64,192,20044,1,0,0:0:0:0:
448,192,20044,1,0,0:0:0:0:
448,192,20160,1,0,0:0:0:0:
448,192,20276,1,0,0:0:0:0:
64,192,20509,1,0,0:0:0:0:
192,192,20567,1,0,0:0:0:0:
320,192,20625,1,0,0:0:0:0:
448,192,20683,1,0,0:0:0:0:
64,192,20973,1,0,0:0:0:0:
192,192,20973,1,0,0:0:0:0:
320,192,21051,1,0,0:0:0:0:
192,192,21128,1,0,0:0:0:0:
320,192,21206,1,0,0:0:0:0:
192,192,21283,1,0,0:0:0:0:
320,192,21361,1,0,0:0:0:0:
64,192,21438,1,0,0:0:0:0:
448,192,21438,1,0,0:0:0:0:
192,192,21496,1,0,0:0:0:0:
320,192,21554,1,0,0:0:0:0:
64,192,21613,1,0,0:0:0:0:
192,192,21671,1,0,0:0:0:0:
448,192,21729,1,0,0:0:0:0:
320,192,21787,1,0,0:0:0:0:
192,192,21845,1,0,0:0:0:0:
448,192,21903,1,0,0:0:0:0:
448,192,22019,1,0,0:0:0:0:
192,192,22135,1,0,0:0:0:0:
64,192,22135,1,0,0:0:0:0:
192,192,22252,1,0,0:0:0:0:
448,192,22368,1,0,0:0:0:0:
320,192,22426,1,0,0:0:0:0:
192,192,22484,1,0,0:0:0:0:
64,192,22542,1,0,0:0:0:0:
320,192,22600,1,0,0:0:0:0:
448,192,22678,1,0,0:0:0:0:
192,192,22755,1,0,0:0:0:0:
320,192,22832,1,0,0:0:0:0:
448,192,22832,1,0,0:0:0:0:
192,192,22910,1,0,0:0:0:0:
320,192,22987,1,0,0:0:0:0:
192,192,23065,1,0,0:0:0:0:
320,192,23142,1,0,0:0:0:0:
192,192,23220,1,0,0:0:0:0:
64,192,23297,1,0,0:0:0:0:
192,192,23375,1,0,0:0:0:0:
64,192,23452,1,0,0:0:0:0:
192,192,23530,1,0,0:0:0:0:
64,192,23607,1,0,0:0:0:0:
320,192,23762,1,0,0:0:0:0:
448,192,23762,1,0,0:0:0:0:
192,192,23839,1,0,0:0:0:0:
448,192,23917,1,0,0:0:0:0:
64,192,23994,1,0,0:0:0:0:
320,192,24072,1,0,0:0:0:0:
64,192,24149,1,0,0:0:0:0:
448,192,24227,1,0,0:0:0:0:
192,192,24304,1,0,0:0:0:0:
448,192,24382,1,0,0:0:0:0:
64,192,24459,1,0,0:0:0:0:
320,192,24536,1,0,0:0:0:0:
64,192,24614,1,0,0:0:0:0:
192,192,24691,1,0,0:0:0:0:
448,192,24691,1,0,0:0:0:0:
320,192,24769,1,0,0:0:0:0:
448,192,24846,1,0,0:0:0:0:
64,192,24924,1,0,0:0:0:0:
192,192,25001,1,0,0:0:0:0:
64,192,25079,1,0,0:0:0:0:
448,192,25156,1,0,0:0:0:0:
320,192,25214,1,0,0:0:0:0:
192,192,25272,1,0,0:0:0:0:
448,192,25330,1,0,0:0:0:0:
320,192,25389,1,0,0:0:0:0:
64,192,25389,1,0,0:0:0:0:
192,192,25621,1,0,0:0:0:0:
64,192,25853,1,0,0:0:0:0:
320,192,25853,1,0,0:0:0:0:
192,192,26086,1,0,0:0:0:0:
320,192,26144,1,0,0:0:0:0:
448,192,26202,1,0,0:0:0:0:
64,192,26260,1,0,0:0:0:0:
192,192,26318,1,0,0:0:0:0:
64,192,26550,1,0,0:0:0:0:
448,192,26550,1,0,0:0:0:0:
192,192,26705,1,0,0:0:0:0:
448,192,26725,1,0,0:0:0:0:
320,192,26860,1,0,0:0:0:0:
448,192,26899,1,0,0:0:0:0:
64,192,27015,1,0,0:0:0:0:
320,192,27170,1,0,0:0:0:0:
64,192,27189,1,0,0:0:0:0:
192,192,27325,1,0,0:0:0:0:
64,192,27364,1,0,0:0:0:0:
448,192,27480,1,0,0:0:0:0:
320,192,27480,1,0,0:0:0:0:
448,192,27596,1,0,0:0:0:0:
192,192,27712,1,0,0:0:0:0:
64,192,27712,1,0,0:0:0:0:
64,192,27828,1,0,0:0:0:0:
320,192,27945,1,0,0:0:0:0:
448,192,27945,1,0,0:0:0:0:
320,192,28061,1,0,0:0:0:0:
192,192,28177,1,0,0:0:0:0:
64,192,28177,1,0,0:0:0:0:
192,192,28293,1,0,0:0:0:0:
448,192,28409,1,0,0:0:0:0:
320,192,28487,1,0,0:0:0:0:
448,192,28564,1,0,0:0:0:0:
320,192,28642,1,0,0:0:0:0:
192,192,28719,1,0,0:0:0:0:
320,192,28797,1,0,0:0:0:0:
192,192,28874,1,0,0:0:0:0:
64,192,28951,1,0,0:0:0:0:
192,192,29029,1,0,0:0:0:0:
320,192,29106,1,0,0:0:0:0:
64,192,29106,1,0,0:0:0:0:
192,192,29184,1,0,0:0:0:0:
320,192,29261,1,0,0:0:0:0:
448,192,29339,1,0,0:0:0:0:
448,192,29455,1,0,0:0:0:0:
320,192,29571,1,0,0:0:0:0:
320,192,29687,1,0,0:0:0:0:
64,192,29804,1,0,0:0:0:0:
192,192,29862,1,0,0:0:0:0:
320,192,29920,1,0,0:0:0:0:
448,192,29978,1,0,0:0:0:0:
64,192,30036,1,0,0:0:0:0:
192,192,30094,1,0,0:0:0:0:
320,192,30152,1,0,0:0:0:0:
448,192,30210,1,0,0:0:0:0:
64,192,30268,1,0,0:0:0:0:
192,192,30268,1,0,0:0:0:0:
192,192,30501,1,0,0:0:0:0:
320,192,30501,1,0,0:0:0:0:
320,192,30733,1,0,0:0:0:0:
448,192,30733,1,0,0:0:0:0:
192,192,30810,1,0,0:0:0:0:
448,192,30888,1,0,0:0:0:0:
320,192,30965,1,0,0:0:0:0:
64,192,31198,1,0,0:0:0:0:
192,192,31198,1,0,0:0:0:0:
320,192,31198,1,0,0:0:0:0:
448,192,31198,1,0,0:0:0:0:
192,192,31662,1,0,0:0:0:0:
192,192,31779,1,0,0:0:0:0:
192,192,31895,1,0,0:0:0:0:
448,192,32127,1,0,0:0:0:0:
64,192,32127,1,0,0:0:0:0:
320,192,32205,1,0,0:0:0:0:
192,192,32282,1,0,0:0:0:0:
448,192,32360,1,0,0:0:0:0:
320,192,32437,1,0,0:0:0:0:
64,192,32514,1,0,0:0:0:0:
192,192,32592,1,0,0:0:0:0:
320,192,32650,1,0,0:0:0:0:
64,192,32708,1,0,0:0:0:0:
192,192,32766,1,0,0:0:0:0:
320,192,32824,1,0,0:0:0:0:
64,192,32999,1,0,0:0:0:0:
192,192,33057,1,0,0:0:0:0:
320,192,33115,1,0,0:0:0:0:
448,192,33173,1,0,0:0:0:0:
320,192,33231,1,0,0:0:0:0:
192,192,33289,1,0,0:0:0:0:
64,192,33347,1,0,0:0:0:0:
192,192,33405,1,0,0:0:0:0:
320,192,33463,1,0,0:0:0:0:
448,192,33521,1,0,0:0:0:0:
320,192,33580,1,0,0:0:0:0:
192,192,33638,1,0,0:0:0:0:
64,192,33696,1,0,0:0:0:0:
64,192,33986,1,0,0:0:0:0:
448,192,33986,1,0,0:0:0:0:
192,192,34141,1,0,0:0:0:0:
448,192,34160,1,0,0:0:0:0:
320,192,34296,1,0,0:0:0:0:
448,192,34335,1,0,0:0:0:0:
64,192,34451,1,0,0:0:0:0:
320,192,34528,1,0,0:0:0:0:
64,192,34625,1,0,0:0:0:0:
192,192,34761,1,0,0:0:0:0:
64,192,34799,1,0,0:0:0:0:
320,192,34916,1,0,0:0:0:0:
448,192,34916,1,0,0:0:0:0:
320,192,35032,1,0,0:0:0:0:
320,192,35148,1,0,0:0:0:0:
448,192,35380,1,0,0:0:0:0:
320,192,35438,1,0,0:0:0:0:
192,192,35497,1,0,0:0:0:0:
64,192,35555,1,0,0:0:0:0:
192,192,35613,1,0,0:0:0:0:
320,192,35671,1,0,0:0:0:0:
448,192,35729,1,0,0:0:0:0:
320,192,35787,1,0,0:0:0:0:
192,192,35845,1,0,0:0:0:0:
64,192,35903,1,0,0:0:0:0:
192,192,35961,1,0,0:0:0:0:
320,192,36019,1,0,0:0:0:0:
448,192,36077,1,0,0:0:0:0:
64,192,36310,1,0,0:0:0:0:
192,192,36310,1,0,0:0:0:0:
320,192,36387,1,0,0:0:0:0:
64,192,36465,1,0,0:0:0:0:
192,192,36542,1,0,0:0:0:0:
448,192,36620,1,0,0:0:0:0:
192,192,36697,1,0,0:0:0:0:
320,192,36775,1,0,0:0:0:0:
448,192,36775,1,0,0:0:0:0:
320,192,36891,1,0,0:0:0:0:
192,192,37007,1,0,0:0:0:0:
64,192,37007,1,0,0:0:0:0:
192,192,37123,1,0,0:0:0:0:
448,192,37239,1,0,0:0:0:0:
320,192,37297,1,0,0:0:0:0:
192,192,37356,1,0,0:0:0:0:
64,192,37414,1,0,0:0:0:0:
448,192,37472,1,0,0:0:0:0:
64,192,37704,1,0,0:0:0:0:
320,192,37704,1,0,0:0:0:0:
192,192,37782,1,0,0:0:0:0:
64,192,37859,1,0,0:0:0:0:
448,192,37936,1,0,0:0:0:0:
320,192,38014,1,0,0:0:0:0:
448,192,38091,1,0,0:0:0:0:
192,192,38169,1,0,0:0:0:0:
320,192,38246,1,0,0:0:0:0:
192,192,38324,1,0,0:0:0:0:
448,192,38401,1,0,0:0:0:0:
320,192,38479,1,0,0:0:0:0:
448,192,38556,1,0,0:0:0:0:
192,192,38634,1,0,0:0:0:0:
320,192,38711,1,0,0:0:0:0:
192,192,38788,1,0,0:0:0:0:
448,192,38866,1,0,0:0:0:0:
320,192,38943,1,0,0:0:0:0:
448,192,39021,1,0,0:0:0:0:
64,192,39098,1,0,0:0:0:0:
192,192,39176,1,0,0:0:0:0:
64,192,39253,1,0,0:0:0:0:
320,192,39331,1,0,0:0:0:0:
192,192,39408,1,0,0:0:0:0:
320,192,39486,1,0,0:0:0:0:
64,192,39563,1,0,0:0:0:0:
448,192,39563,1,0,0:0:0:0:
192,192,39640,1,0,0:0:0:0:
64,192,39718,1,0,0:0:0:0:
320,192,39795,1,0,0:0:0:0:
192,192,39873,1,0,0:0:0:0:
320,192,39950,1,0,0:0:0:0:
64,192,40028,1,0,0:0:0:0:
192,192,40105,1,0,0:0:0:0:
64,192,40183,1,0,0:0:0:0:
448,192,40260,1,0,0:0:0:0:
192,192,40338,1,0,0:0:0:0:
448,192,40415,1,0,0:0:0:0:
320,192,40492,1,0,0:0:0:0:
64,192,40570,1,0,0:0:0:0:
320,192,40647,1,0,0:0:0:0:
448,192,40725,1,0,0:0:0:0:
192,192,40802,1,0,0:0:0:0:
448,192,40880,1,0,0:0:0:0:
64,192,40957,1,0,0:0:0:0:
192,192,41015,1,0,0:0:0:0:
320,192,41073,1,0,0:0:0:0:
448,192,41132,1,0,0:0:0:0:
64,192,41190,1,0,0:0:0:0:
320,192,41422,1,0,0:0:0:0:
448,192,41422,1,0,0:0:0:0:
192,192,41577,1,0,0:0:0:0:
448,192,41596,1,0,0:0:0:0:
320,192,41732,1,0,0:0:0:0:
448,192,41771,1,0,0:0:0:0:
64,192,41887,1,0,0:0:0:0:
320,192,42042,1,0,0:0:0:0:
64,192,42061,1,0,0:0:0:0:
192,192,42197,1,0,0:0:0:0:
64,192,42235,1,0,0:0:0:0:
320,192,42351,1,0,0:0:0:0:
448,192,42351,1,0,0:0:0:0:
320,192,42468,1,0,0:0:0:0:
192,192,42584,1,0,0:0:0:0:
448,192,42816,1,0,0:0:0:0:
320,192,42874,1,0,0:0:0:0:
192,192,42932,1,0,0:0:0:0:
64,192,42990,1,0,0:0:0:0:
64,192,43281,1,0,0:0:0:0:
192,192,43339,1,0,0:0:0:0:
320,192,43397,1,0,0:0:0:0:
448,192,43455,1,0,0:0:0:0:
320,192,43513,1,0,0:0:0:0:
192,192,43571,1,0,0:0:0:0:
64,192,43629,1,0,0:0:0:0:
192,192,43688,1,0,0:0:0:0:
320,192,43746,1,0,0:0:0:0:
448,192,43804,1,0,0:0:0:0:
320,192,43862,1,0,0:0:0:0:
192,192,43920,1,0,0:0:0:0:
64,192,43978,1,0,0:0:0:0:
448,192,44210,1,0,0:0:0:0:
320,192,44210,1,0,0:0:0:0:
320,192,44327,1,0,0:0:0:0:
192,192,44443,1,0,0:0:0:0:
64,192,44443,1,0,0:0:0:0:
192,192,44559,1,0,0:0:0:0:
448,192,44675,1,0,0:0:0:0:
64,192,44675,1,0,0:0:0:0:
320,192,44733,1,0,0:0:0:0:
192,192,44791,1,0,0:0:0:0:
320,192,44849,1,0,0:0:0:0:
448,192,44908,1,0,0:0:0:0:
64,192,44966,1,0,0:0:0:0:
192,192,45024,1,0,0:0:0:0:
320,192,45082,1,0,0:0:0:0:
192,192,45140,1,0,0:0:0:0:
64,192,45140,1,0,0:0:0:0:
192,192,45256,1,0,0:0:0:0:
320,192,45372,1,0,0:0:0:0:
448,192,45372,1,0,0:0:0:0:
320,192,45488,1,0,0:0:0:0:
64,192,45605,1,0,0:0:0:0:
448,192,45605,1,0,0:0:0:0:
192,192,45663,1,0,0:0:0:0:
320,192,45721,1,0,0:0:0:0:
192,192,45779,1,0,0:0:0:0:
64,192,45837,1,0,0:0:0:0:
320,192,46069,1,0,0:0:0:0:
448,192,46069,1,0,0:0:0:0:
192,192,46069,1,0,0:0:0:0:
64,192,46534,1,0,0:0:0:0:
192,192,46534,1,0,0:0:0:0:
192,192,46766,1,0,0:0:0:0:
320,192,46766,1,0,0:0:0:0:
320,192,46999,1,0,0:0:0:0:
448,192,46999,1,0,0:0:0:0:
448,192,47231,1,0,0:0:0:0:
192,192,47464,1,0,0:0:0:0:
64,192,47464,1,0,0:0:0:0:
192,192,47696,1,0,0:0:0:0:
64,192,47696,1,0,0:0:0:0:
320,192,47928,1,0,0:0:0:0:
448,192,47928,1,0,0:0:0:0:
448,192,48161,1,0,0:0:0:0:
320,192,48161,1,0,0:0:0:0:
192,192,48393,1,0,0:0:0:0:
448,192,48393,1,0,0:0:0:0:
192,192,48625,1,0,0:0:0:0:
448,192,48625,1,0,0:0:0:0:
320,192,48858,1,0,0:0:0:0:
64,192,48858,1,0,0:0:0:0:
64,192,49323,1,0,0:0:0:0:
320,192,49323,1,0,0:0:0:0:
64,192,49555,1,0,0:0:0:0:
192,192,49787,1,0,0:0:0:0:
448,192,49787,1,0,0:0:0:0:
448,192,49903,1,0,0:0:0:0:
448,192,50020,1,0,0:0:0:0:
320,192,50252,1,0,0:0:0:0:
192,192,50252,1,0,0:0:0:0:
192,192,50484,1,0,0:0:0:0:
320,192,50484,1,0,0:0:0:0:
64,192,50717,1,0,0:0:0:0:
320,192,50717,1,0,0:0:0:0:
192,192,50949,1,0,0:0:0:0:
448,192,50949,1,0,0:0:0:0:
192,192,51181,1,0,0:0:0:0:
448,192,51181,1,0,0:0:0:0:
320,192,51414,1,0,0:0:0:0:
64,192,51414,1,0,0:0:0:0:
64,192,52111,1,0,0:0:0:0:
192,192,52111,1,0,0:0:0:0:
448,192,52111,1,0,0:0:0:0:
192,192,52343,1,0,0:0:0:0:
64,192,52343,1,0,0:0:0:0:
448,192,52343,1,0,0:0:0:0:
448,192,52576,1,0,0:0:0:0:
320,192,52576,1,0,0:0:0:0:
64,192,52576,1,0,0:0:0:0:
64,192,52808,1,0,0:0:0:0:
320,192,52808,1,0,0:0:0:0:
448,192,52808,1,0,0:0:0:0:
192,192,53040,1,0,0:0:0:0:
64,192,53040,1,0,0:0:0:0:
448,192,53040,1,0,0:0:0:0:
448,192,53273,1,0,0:0:0:0:
192,192,53273,1,0,0:0:0:0:
64,192,53273,1,0,0:0:0:0:
448,192,53505,1,0,0:0:0:0:
320,192,53505,1,0,0:0:0:0:
192,192,53738,1,0,0:0:0:0:
320,192,53738,1,0,0:0:0:0:
192,192,53970,1,0,0:0:0:0:
64,192,53970,1,0,0:0:0:0:
192,192,54202,1,0,0:0:0:0:
320,192,54202,1,0,0:0:0:0:
320,192,54435,1,0,0:0:0:0:
448,192,54435,1,0,0:0:0:0:
320,192,54667,1,0,0:0:0:0:
448,192,54667,1,0,0:0:0:0:
64,192,54899,1,0,0:0:0:0:
192,192,54899,1,0,0:0:0:0:
192,192,55132,1,0,0:0:0:0:
320,192,55132,1,0,0:0:0:0:
320,192,55364,1,0,0:0:0:0:
448,192,55364,1,0,0:0:0:0:
192,192,55596,1,0,0:0:0:0:
320,192,55596,1,0,0:0:0:0:
192,192,55829,1,0,0:0:0:0:
64,192,55829,1,0,0:0:0:0:
64,192,56061,1,0,0:0:0:0:
192,192,56061,1,0,0:0:0:0:
64,192,56294,1,0,0:0:0:0:
448,192,56294,1,0,0:0:0:0:
192,192,56526,1,0,0:0:0:0:
320,192,56584,1,0,0:0:0:0:
192,192,56642,1,0,0:0:0:0:
320,192,56700,1,0,0:0:0:0:
64,192,56758,1,0,0:0:0:0:
448,192,56758,1,0,0:0:0:0:
64,192,56991,1,0,0:0:0:0:
448,192,56991,1,0,0:0:0:0:
320,192,57223,1,0,0:0:0:0:
448,192,57223,1,0,0:0:0:0:
320,192,57339,1,0,0:0:0:0:
448,192,57339,1,0,0:0:0:0:
320,192,57455,1,0,0:0:0:0:
448,192,57455,1,0,0:0:0:0:
192,192,57630,1,0,0:0:0:0:
64,192,57630,1,0,0:0:0:0:
64,192,57862,1,0,0:0:0:0:
192,192,57862,1,0,0:0:0:0:
64,192,58153,1,0,0:0:0:0:
448,192,58153,1,0,0:0:0:0:
192,192,58211,1,0,0:0:0:0:
320,192,58269,1,0,0:0:0:0:
64,192,58327,1,0,0:0:0:0:
192,192,58385,1,0,0:0:0:0:
448,192,58443,1,0,0:0:0:0:
64,192,58501,1,0,0:0:0:0:
320,192,58559,1,0,0:0:0:0:
448,192,58617,1,0,0:0:0:0:
64,192,59082,1,0,0:0:0:0:
320,192,59082,1,0,0:0:0:0:
448,192,59082,1,0,0:0:0:0:
192,192,59140,1,0,0:0:0:0:
64,192,59314,1,0,0:0:0:0:
192,192,59314,1,0,0:0:0:0:
448,192,59314,1,0,0:0:0:0:
320,192,59372,1,0,0:0:0:0:
64,192,59547,1,0,0:0:0:0:
320,192,59547,1,0,0:0:0:0:
448,192,59547,1,0,0:0:0:0:
192,192,59605,1,0,0:0:0:0:
64,192,59779,1,0,0:0:0:0:
448,192,59779,1,0,0:0:0:0:
192,192,59779,1,0,0:0:0:0:
320,192,59837,1,0,0:0:0:0:
64,192,60011,1,0,0:0:0:0:
320,192,60011,1,0,0:0:0:0:
448,192,60011,1,0,0:0:0:0:
192,192,60070,1,0,0:0:0:0:
64,192,60244,1,0,0:0:0:0:
192,192,60244,1,0,0:0:0:0:
448,192,60244,1,0,0:0:0:0:
320,192,60302,1,0,0:0:0:0:
64,192,60476,1,0,0:0:0:0:
320,192,60476,1,0,0:0:0:0:
192,192,60476,1,0,0:0:0:0:
448,192,60534,1,0,0:0:0:0:
192,192,60709,1,0,0:0:0:0:
64,192,60709,1,0,0:0:0:0:
320,192,60709,1,0,0:0:0:0:
448,192,60767,1,0,0:0:0:0:
64,192,60941,1,0,0:0:0:0:
192,192,60941,1,0,0:0:0:0:
320,192,60999,1,0,0:0:0:0:
64,192,61057,1,0,0:0:0:0:
448,192,61173,1,0,0:0:0:0:
320,192,61173,1,0,0:0:0:0:
192,192,61231,1,0,0:0:0:0:
448,192,61290,1,0,0:0:0:0:
64,192,61406,1,0,0:0:0:0:
192,192,61406,1,0,0:0:0:0:
320,192,61464,1,0,0:0:0:0:
64,192,61522,1,0,0:0:0:0:
448,192,61638,1,0,0:0:0:0:
320,192,61638,1,0,0:0:0:0:
192,192,61696,1,0,0:0:0:0:
448,192,61754,1,0,0:0:0:0:
64,192,61870,1,0,0:0:0:0:
192,192,61870,1,0,0:0:0:0:
320,192,61929,1,0,0:0:0:0:
64,192,61987,1,0,0:0:0:0:
448,192,62103,1,0,0:0:0:0:
320,192,62103,1,0,0:0:0:0:
192,192,62161,1,0,0:0:0:0:
448,192,62219,1,0,0:0:0:0:
64,192,62335,1,0,0:0:0:0:
320,192,62335,1,0,0:0:0:0:
192,192,62393,1,0,0:0:0:0:
320,192,62451,1,0,0:0:0:0:
448,192,62509,1,0,0:0:0:0:
192,192,62568,1,0,0:0:0:0:
64,192,62568,1,0,0:0:0:0:
192,192,62800,1,0,0:0:0:0:
320,192,62800,1,0,0:0:0:0:
320,192,63032,1,0,0:0:0:0:
448,192,63032,1,0,0:0:0:0:
448,192,63265,1,0,0:0:0:0:
320,192,63265,1,0,0:0:0:0:
192,192,63497,1,0,0:0:0:0:
320,192,63497,1,0,0:0:0:0:
64,192,63729,1,0,0:0:0:0:
192,192,63729,1,0,0:0:0:0:
64,192,63904,1,0,0:0:0:0:
192,192,63904,1,0,0:0:0:0:
64,192,64078,1,0,0:0:0:0:
192,192,64078,1,0,0:0:0:0:
320,192,64426,1,0,0:0:0:0:
320,192,64543,1,0,0:0:0:0:
192,192,64659,1,0,0:0:0:0:
64,192,64659,1,0,0:0:0:0:
64,192,64775,1,0,0:0:0:0:
192,192,64775,1,0,0:0:0:0:
64,192,64891,1,0,0:0:0:0:
192,192,64891,1,0,0:0:0:0:
448,192,65124,1,0,0:0:0:0:
320,192,65182,1,0,0:0:0:0:
192,192,65240,1,0,0:0:0:0:
64,192,65298,1,0,0:0:0:0:
448,192,65530,1,0,0:0:0:0:
320,192,65530,1,0,0:0:0:0:
320,192,65763,1,0,0:0:0:0:
192,192,65763,1,0,0:0:0:0:
192,192,65995,1,0,0:0:0:0:
64,192,65995,1,0,0:0:0:0:
320,192,66053,1,0,0:0:0:0:
64,192,66111,1,0,0:0:0:0:
192,192,66169,1,0,0:0:0:0:
320,192,66227,1,0,0:0:0:0:
448,192,66285,1,0,0:0:0:0:
448,192,66518,1,0,0:0:0:0:
192,192,66518,1,0,0:0:0:0:
320,192,66634,1,0,0:0:0:0:
192,192,66634,1,0,0:0:0:0:
64,192,66750,1,0,0:0:0:0:
320,192,66750,1,0,0:0:0:0:
192,192,66866,1,0,0:0:0:0:
320,192,66866,1,0,0:0:0:0:
64,192,66983,1,0,0:0:0:0:
192,192,66983,1,0,0:0:0:0:
448,192,67041,1,0,0:0:0:0:
320,192,67099,1,0,0:0:0:0:
192,192,67157,1,0,0:0:0:0:
64,192,67215,1,0,0:0:0:0:
192,192,67447,1,0,0:0:0:0:
448,192,67447,1,0,0:0:0:0:
320,192,67680,1,0,0:0:0:0:
64,192,67680,1,0,0:0:0:0:
64,192,67912,1,0,0:0:0:0:
448,192,67912,1,0,0:0:0:0:
192,192,67970,1,0,0:0:0:0:
320,192,68028,1,0,0:0:0:0:
448,192,68086,1,0,0:0:0:0:
192,192,68377,1,0,0:0:0:0:
320,192,68377,1,0,0:0:0:0:
192,192,68609,1,0,0:0:0:0:
320,192,68609,1,0,0:0:0:0:
64,192,68842,1,0,0:0:0:0:
448,192,68842,1,0,0:0:0:0:
448,192,69074,1,0,0:0:0:0:
64,192,69074,1,0,0:0:0:0:
192,192,69306,1,0,0:0:0:0:
64,192,69306,1,0,0:0:0:0:
320,192,69539,1,0,0:0:0:0:
448,192,69539,1,0,0:0:0:0:
64,192,69771,1,0,0:0:0:0:
448,192,69771,1,0,0:0:0:0:
320,192,69829,1,0,0:0:0:0:
192,192,69887,1,0,0:0:0:0:
64,192,69945,1,0,0:0:0:0:
320,192,70003,1,0,0:0:0:0:
448,192,70003,1,0,0:0:0:0:
64,192,70178,1,0,0:0:0:0:
192,192,70178,1,0,0:0:0:0:
320,192,70178,1,0,0:0:0:0:
448,192,70178,1,0,0:0:0:0:
448,192,70410,1,0,0:0:0:0:
320,192,70410,1,0,0:0:0:0:
64,192,70410,1,0,0:0:0:0:
192,192,70410,1,0,0:0:0:0:
192,192,70642,1,0,0:0:0:0:
64,192,70642,1,0,0:0:0:0:
320,192,70642,1,0,0:0:0:0:
448,192,70642,1,0,0:0:0:0:
448,192,70875,1,0,0:0:0:0:
320,192,70875,1,0,0:0:0:0:
192,192,70875,1,0,0:0:0:0:
64,192,70875,1,0,0:0:0:0:
64,192,71107,1,0,0:0:0:0:
192,192,71107,1,0,0:0:0:0:
320,192,71107,1,0,0:0:0:0:
448,192,71107,1,0,0:0:0:0:
64,192,71281,1,0,0:0:0:0:
64,192,71456,1,0,0:0:0:0:
448,192,71572,1,0,0:0:0:0:
320,192,71572,1,0,0:0:0:0:
320,192,71804,1,0,0:0:0:0:
192,192,71804,1,0,0:0:0:0:
64,192,72095,1,0,0:0:0:0:
192,192,72095,1,0,0:0:0:0:
64,192,72211,1,0,0:0:0:0:
64,192,72327,1,0,0:0:0:0:
320,192,72559,1,0,0:0:0:0:
448,192,72559,1,0,0:0:0:0:
448,192,72676,1,0,0:0:0:0:
448,192,72792,1,0,0:0:0:0:
320,192,73024,1,0,0:0:0:0:
448,192,73024,1,0,0:0:0:0:
448,192,73140,1,0,0:0:0:0:
448,192,73257,1,0,0:0:0:0:
192,192,73257,1,0,0:0:0:0:
320,192,73489,1,0,0:0:0:0:
64,192,73489,1,0,0:0:0:0:
192,192,73547,1,0,0:0:0:0:
320,192,73605,1,0,0:0:0:0:
192,192,73663,1,0,0:0:0:0:
448,192,73721,1,0,0:0:0:0:
320,192,73721,1,0,0:0:0:0:
64,192,73954,1,0,0:0:0:0:
192,192,73954,1,0,0:0:0:0:
64,192,74070,1,0,0:0:0:0:
448,192,74186,1,0,0:0:0:0:
320,192,74186,1,0,0:0:0:0:
448,192,74302,1,0,0:0:0:0:
192,192,74418,1,0,0:0:0:0:
320,192,74476,1,0,0:0:0:0:
192,192,74535,1,0,0:0:0:0:
320,192,74593,1,0,0:0:0:0:
192,192,74651,1,0,0:0:0:0:
64,192,74883,1,0,0:0:0:0:
448,192,74883,1,0,0:0:0:0:
320,192,75348,1,0,0:0:0:0:
192,192,75406,1,0,0:0:0:0:
320,192,75464,1,0,0:0:0:0:
192,192,75522,1,0,0:0:0:0:
320,192,75580,1,0,0:0:0:0:
64,192,75813,1,0,0:0:0:0:
448,192,75813,1,0,0:0:0:0:
192,192,76045,1,0,0:0:0:0:
320,192,76045,1,0,0:0:0:0:
64,192,76277,1,0,0:0:0:0:
192,192,76277,1,0,0:0:0:0:
320,192,76510,1,0,0:0:0:0:
448,192,76510,1,0,0:0:0:0:
192,192,76742,1,0,0:0:0:0:
320,192,76742,1,0,0:0:0:0:
192,192,76974,1,0,0:0:0:0:
64,192,76974,1,0,0:0:0:0:
320,192,77207,1,0,0:0:0:0:
448,192,77207,1,0,0:0:0:0:
192,192,77265,1,0,0:0:0:0:
448,192,77323,1,0,0:0:0:0:
192,192,77381,1,0,0:0:0:0:
448,192,77439,1,0,0:0:0:0:
64,192,77439,1,0,0:0:0:0:
320,192,77672,1,0,0:0:0:0:
64,192,77672,1,0,0:0:0:0:
192,192,77904,1,0,0:0:0:0:
64,192,77904,1,0,0:0:0:0:
192,192,78136,1,0,0:0:0:0:
448,192,78136,1,0,0:0:0:0:
64,192,78194,1,0,0:0:0:0:
320,192,78252,1,0,0:0:0:0:
64,192,78311,1,0,0:0:0:0:
448,192,78369,1,0,0:0:0:0:
192,192,78369,1,0,0:0:0:0:
320,192,78601,1,0,0:0:0:0:
448,192,78601,1,0,0:0:0:0:
320,192,78775,1,0,0:0:0:0:
64,192,78833,1,0,0:0:0:0:
448,192,78833,1,0,0:0:0:0:
320,192,78950,1,0,0:0:0:0:
192,192,79066,1,0,0:0:0:0:
64,192,79066,1,0,0:0:0:0:
192,192,79240,1,0,0:0:0:0:
64,192,79298,1,0,0:0:0:0:
448,192,79298,1,0,0:0:0:0:
192,192,79414,1,0,0:0:0:0:
320,192,79530,1,0,0:0:0:0:
448,192,79530,1,0,0:0:0:0:
320,192,79647,1,0,0:0:0:0:
448,192,79647,1,0,0:0:0:0:
320,192,79763,1,0,0:0:0:0:
448,192,79763,1,0,0:0:0:0:
64,192,79995,1,0,0:0:0:0:
320,192,80053,1,0,0:0:0:0:
64,192,80111,1,0,0:0:0:0:
320,192,80169,1,0,0:0:0:0:
64,192,80228,1,0,0:0:0:0:
64,192,80460,1,0,0:0:0:0:
448,192,80460,1,0,0:0:0:0:
192,192,80692,1,0,0:0:0:0:
448,192,80925,1,0,0:0:0:0:
320,192,80925,1,0,0:0:0:0:
192,192,80983,1,0,0:0:0:0:
448,192,81041,1,0,0:0:0:0:
192,192,81099,1,0,0:0:0:0:
448,192,81157,1,0,0:0:0:0:
64,192,81389,1,0,0:0:0:0:
320,192,81389,1,0,0:0:0:0:
448,192,81389,1,0,0:0:0:0:
192,192,81622,1,0,0:0:0:0:
448,192,81622,1,0,0:0:0:0:
64,192,81854,1,0,0:0:0:0:
320,192,81854,1,0,0:0:0:0:
448,192,81854,1,0,0:0:0:0:
192,192,82087,1,0,0:0:0:0:
448,192,82087,1,0,0:0:0:0:
64,192,82319,1,0,0:0:0:0:
192,192,82319,1,0,0:0:0:0:
448,192,82319,1,0,0:0:0:0:
320,192,82551,1,0,0:0:0:0:
64,192,82551,1,0,0:0:0:0:
64,192,82784,1,0,0:0:0:0:
192,192,82784,1,0,0:0:0:0:
448,192,82784,1,0,0:0:0:0:
320,192,83016,1,0,0:0:0:0:
64,192,83016,1,0,0:0:0:0:
64,192,83248,1,0,0:0:0:0:
448,192,83248,1,0,0:0:0:0:
192,192,83481,1,0,0:0:0:0:
320,192,83481,1,0,0:0:0:0:
64,192,83713,1,0,0:0:0:0:
448,192,83713,1,0,0:0:0:0:
192,192,83945,1,0,0:0:0:0:
320,192,83945,1,0,0:0:0:0:
320,192,84178,1,0,0:0:0:0:
448,192,84178,1,0,0:0:0:0:
192,192,84410,1,0,0:0:0:0:
64,192,84410,1,0,0:0:0:0:
320,192,84643,1,0,0:0:0:0:
448,192,84643,1,0,0:0:0:0:
192,192,84701,1,0,0:0:0:0:
320,192,84759,1,0,0:0:0:0:
192,192,84817,1,0,0:0:0:0:
64,192,84875,1,0,0:0:0:0:
448,192,84875,1,0,0:0:0:0:
448,192,85107,1,0,0:0:0:0:
320,192,85107,1,0,0:0:0:0:
192,192,85340,1,0,0:0:0:0:
64,192,85340,1,0,0:0:0:0:
192,192,85572,1,0,0:0:0:0:
320,192,85572,1,0,0:0:0:0:
448,192,85572,1,0,0:0:0:0:
320,192,85804,1,0,0:0:0:0:
192,192,85804,1,0,0:0:0:0:
64,192,85804,1,0,0:0:0:0:
64,192,86037,1,0,0:0:0:0:
192,192,86037,1,0,0:0:0:0:
64,192,86211,1,0,0:0:0:0:
64,192,86385,1,0,0:0:0:0:
192,192,86502,1,0,0:0:0:0:
192,192,86676,1,0,0:0:0:0:
192,192,86850,1,0,0:0:0:0:
320,192,86966,1,0,0:0:0:0:
448,192,86966,1,0,0:0:0:0:
320,192,87082,1,0,0:0:0:0:
448,192,87082,1,0,0:0:0:0:
320,192,87199,1,0,0:0:0:0:
448,192,87199,1,0,0:0:0:0:
64,192,87431,1,0,0:0:0:0:
192,192,87431,1,0,0:0:0:0:
320,192,87489,1,0,0:0:0:0:
64,192,87547,1,0,0:0:0:0:
320,192,87605,1,0,0:0:0:0:
64,192,87663,1,0,0:0:0:0:
448,192,87663,1,0,0:0:0:0:
192,192,87896,1,0,0:0:0:0:
448,192,87896,1,0,0:0:0:0:
320,192,88128,1,0,0:0:0:0:
448,192,88128,1,0,0:0:0:0:
64,192,88361,1,0,0:0:0:0:
320,192,88361,1,0,0:0:0:0:
192,192,88419,1,0,0:0:0:0:
448,192,88477,1,0,0:0:0:0:
192,192,88535,1,0,0:0:0:0:
320,192,88593,1,0,0:0:0:0:
64,192,88593,1,0,0:0:0:0:
192,192,88883,1,0,0:0:0:0:
64,192,88883,1,0,0:0:0:0:
192,192,89116,1,0,0:0:0:0:
448,192,89116,1,0,0:0:0:0:
64,192,89174,1,0,0:0:0:0:
320,192,89232,1,0,0:0:0:0:
192,192,89290,1,0,0:0:0:0:
448,192,89348,1,0,0:0:0:0:
64,192,89348,1,0,0:0:0:0:
320,192,89522,1,0,0:0:0:0:
192,192,89522,1,0,0:0:0:0:
320,192,89755,1,0,0:0:0:0:
448,192,89755,1,0,0:0:0:0:
64,192,89987,1,0,0:0:0:0:
448,192,89987,1,0,0:0:0:0:
64,192,90219,1,0,0:0:0:0:
192,192,90219,1,0,0:0:0:0:
320,192,90278,1,0,0:0:0:0:
192,192,90336,1,0,0:0:0:0:
320,192,90394,1,0,0:0:0:0:
64,192,90452,1,0,0:0:0:0:
448,192,90452,1,0,0:0:0:0:
64,192,90684,1,0,0:0:0:0:
192,192,90684,1,0,0:0:0:0:
192,192,90917,1,0,0:0:0:0:
320,192,91149,1,0,0:0:0:0:
448,192,91149,1,0,0:0:0:0:
320,192,91265,1,0,0:0:0:0:
320,192,91381,1,0,0:0:0:0:
192,192,91614,1,0,0:0:0:0:
448,192,91614,1,0,0:0:0:0:
64,192,91846,1,0,0:0:0:0:
448,192,91846,1,0,0:0:0:0:
192,192,92078,1,0,0:0:0:0:
64,192,92078,1,0,0:0:0:0:
320,192,92137,1,0,0:0:0:0:
192,192,92195,1,0,0:0:0:0:
320,192,92253,1,0,0:0:0:0:
448,192,92311,1,0,0:0:0:0:
64,192,92311,1,0,0:0:0:0:
192,192,92543,1,0,0:0:0:0:
320,192,92543,1,0,0:0:0:0:
320,192,92776,1,0,0:0:0:0:
64,192,92776,1,0,0:0:0:0:
320,192,93008,1,0,0:0:0:0:
192,192,93008,1,0,0:0:0:0:
320,192,93240,1,0,0:0:0:0:
64,192,93240,1,0,0:0:0:0:
192,192,93473,1,0,0:0:0:0:
448,192,93473,1,0,0:0:0:0:
192,192,93647,1,0,0:0:0:0:
192,192,93821,1,0,0:0:0:0:
320,192,93937,1,0,0:0:0:0:
320,192,94112,1,0,0:0:0:0:
320,192,94286,1,0,0:0:0:0:
64,192,94402,1,0,0:0:0:0:
192,192,94402,1,0,0:0:0:0:
64,192,94518,1,0,0:0:0:0:
192,192,94518,1,0,0:0:0:0:
64,192,94634,1,0,0:0:0:0:
192,192,94634,1,0,0:0:0:0:
448,192,94867,1,0,0:0:0:0:
320,192,94925,1,0,0:0:0:0:
192,192,94983,1,0,0:0:0:0:
64,192,95041,1,0,0:0:0:0:
448,192,95099,1,0,0:0:0:0:
320,192,95332,1,0,0:0:0:0:
64,192,95332,1,0,0:0:0:0:
192,192,95564,1,0,0:0:0:0:
320,192,95564,1,0,0:0:0:0:
192,192,95796,1,0,0:0:0:0:
448,192,95796,1,0,0:0:0:0:
64,192,95854,1,0,0:0:0:0:
320,192,95912,1,0,0:0:0:0:
64,192,95971,1,0,0:0:0:0:
192,192,96029,1,0,0:0:0:0:
448,192,96029,1,0,0:0:0:0:
64,192,96261,1,0,0:0:0:0:
320,192,96261,1,0,0:0:0:0:
320,192,96377,1,0,0:0:0:0:
192,192,96493,1,0,0:0:0:0:
448,192,96493,1,0,0:0:0:0:
192,192,96610,1,0,0:0:0:0:
448,192,96726,1,0,0:0:0:0:
64,192,96726,1,0,0:0:0:0:
320,192,96784,1,0,0:0:0:0:
192,192,96842,1,0,0:0:0:0:
320,192,96900,1,0,0:0:0:0:
448,192,96958,1,0,0:0:0:0:
64,192,97191,1,0,0:0:0:0:
192,192,97191,1,0,0:0:0:0:
320,192,97249,1,0,0:0:0:0:
192,192,97423,1,0,0:0:0:0:
320,192,97423,1,0,0:0:0:0:
448,192,97481,1,0,0:0:0:0:
320,192,97655,1,0,0:0:0:0:
448,192,97655,1,0,0:0:0:0:
192,192,97713,1,0,0:0:0:0:
320,192,97771,1,0,0:0:0:0:
192,192,97830,1,0,0:0:0:0:
64,192,97888,1,0,0:0:0:0:
448,192,97888,1,0,0:0:0:0:
320,192,98120,1,0,0:0:0:0:
192,192,98120,1,0,0:0:0:0:
192,192,98352,1,0,0:0:0:0:
320,192,98352,1,0,0:0:0:0:
448,192,98585,128,0,99049:0:0:0:0:
64,192,98585,128,0,99049:0:0:0:0:
192,192,98585,1,0,0:0:0:0:
320,192,98585,1,0,0:0:0:0:
192,192,98701,1,0,0:0:0:0:
192,192,98817,1,0,0:0:0:0:
192,192,99049,1,0,0:0:0:0:
320,192,99049,1,0,0:0:0:0:
192,192,99282,128,0,99514:0:0:0:0:
320,192,99282,128,0,99514:0:0:0:0:
64,192,99514,1,0,0:0:0:0:
448,192,99572,1,0,0:0:0:0:
64,192,99630,1,0,0:0:0:0:
448,192,99688,1,0,0:0:0:0:
320,192,99747,1,0,0:0:0:0:
192,192,99863,1,0,0:0:0:0:
64,192,99863,1,0,0:0:0:0:
192,192,100153,1,0,0:0:0:0:
320,192,100153,1,0,0:0:0:0:
320,192,100386,1,0,0:0:0:0:
448,192,100386,1,0,0:0:0:0:
64,192,100444,1,0,0:0:0:0:
192,192,100502,1,0,0:0:0:0:
320,192,100560,1,0,0:0:0:0:
448,192,100560,1,0,0:0:0:0:
64,192,100618,1,0,0:0:0:0:
192,192,100676,1,0,0:0:0:0:
192,192,100908,1,0,0:0:0:0:
64,192,100908,1,0,0:0:0:0:
192,192,101141,1,0,0:0:0:0:
320,192,101141,1,0,0:0:0:0:
320,192,101373,1,0,0:0:0:0:
448,192,101373,1,0,0:0:0:0:
448,192,101489,1,0,0:0:0:0:
192,192,101606,1,0,0:0:0:0:
320,192,101606,1,0,0:0:0:0:
320,192,101722,1,0,0:0:0:0:
64,192,101838,1,0,0:0:0:0:
192,192,101838,1,0,0:0:0:0:
192,192,101954,1,0,0:0:0:0:
64,192,101954,1,0,0:0:0:0:
64,192,102070,1,0,0:0:0:0:
192,192,102070,1,0,0:0:0:0:
320,192,102303,1,0,0:0:0:0:
64,192,102361,1,0,0:0:0:0:
320,192,102419,1,0,0:0:0:0:
64,192,102477,1,0,0:0:0:0:
320,192,102535,1,0,0:0:0:0:
192,192,102767,1,0,0:0:0:0:
448,192,102767,1,0,0:0:0:0:
320,192,103000,1,0,0:0:0:0:
64,192,103232,1,0,0:0:0:0:
448,192,103232,1,0,0:0:0:0:
192,192,103290,1,0,0:0:0:0:
320,192,103348,1,0,0:0:0:0:
192,192,103406,1,0,0:0:0:0:
320,192,103464,1,0,0:0:0:0:
64,192,103697,1,0,0:0:0:0:
192,192,103697,1,0,0:0:0:0:
64,192,103813,1,0,0:0:0:0:
320,192,103929,1,0,0:0:0:0:
448,192,103929,1,0,0:0:0:0:
448,192,104045,1,0,0:0:0:0:
192,192,104162,1,0,0:0:0:0:
64,192,104162,1,0,0:0:0:0:
320,192,104220,1,0,0:0:0:0:
192,192,104278,1,0,0:0:0:0:
320,192,104336,1,0,0:0:0:0:
64,192,104394,1,0,0:0:0:0:
192,192,104626,1,0,0:0:0:0:
448,192,104626,1,0,0:0:0:0:
320,192,104859,1,0,0:0:0:0:
64,192,105091,1,0,0:0:0:0:
448,192,105091,1,0,0:0:0:0:
320,192,105149,1,0,0:0:0:0:
192,192,105207,1,0,0:0:0:0:
448,192,105265,1,0,0:0:0:0:
320,192,105323,1,0,0:0:0:0:
448,192,105556,128,0,107066:0:0:0:0:
320,192,105788,128,0,106369:0:0:0:0:
192,192,106021,128,0,106601:0:0:0:0:
64,192,106253,128,0,107066:0:0:0:0:
320,192,106485,128,0,107299:0:0:0:0:
192,192,106718,128,0,107299:0:0:0:0:
448,192,107182,128,0,107415:0:0:0:0:
64,192,107182,128,0,107415:0:0:0:0:
192,192,107415,1,0,0:0:0:0:
320,192,107415,1,0,0:0:0:0:
64,192,108286,128,0,109564:0:0:0:0:
192,192,108519,128,0,109099:0:0:0:0:
320,192,108751,128,0,109332:0:0:0:0:
448,192,108983,128,0,110029:0:0:0:0:
192,192,109216,128,0,109797:0:0:0:0:
320,192,109448,128,0,110029:0:0:0:0:
64,192,109680,128,0,110494:0:0:0:0:
192,192,109913,128,0,110494:0:0:0:0:
320,192,110145,128,0,110261:0:0:0:0:
448,192,110145,128,0,111016:0:0:0:0:
320,192,110377,128,0,111016:0:0:0:0:
192,192,110610,128,0,110726:0:0:0:0:
64,192,110610,128,0,111481:0:0:0:0:
192,192,110842,128,0,111249:0:0:0:0:
320,192,111133,128,0,111249:0:0:0:0:
448,192,111133,128,0,111946:0:0:0:0:
320,192,111365,128,0,111946:0:0:0:0:
192,192,111365,128,0,111481:0:0:0:0:
192,192,111597,128,0,111714:0:0:0:0:
64,192,111597,128,0,111714:0:0:0:0:
192,192,111830,128,0,112178:0:0:0:0:
64,192,111830,128,0,112643:0:0:0:0:
320,192,112062,128,0,112411:0:0:0:0:
448,192,112062,128,0,113340:0:0:0:0:
192,192,112295,128,0,112875:0:0:0:0:
320,192,112527,128,0,113108:0:0:0:0:
64,192,112759,128,0,113573:0:0:0:0:
192,192,112992,128,0,114037:0:0:0:0:
320,192,113224,128,0,113805:0:0:0:0:
448,192,113456,128,0,114153:0:0:0:0:
64,192,113689,128,0,114153:0:0:0:0:
320,192,113921,128,0,114153:0:0:0:0:
192,192,114153,1,0,0:0:0:0:
448,192,114444,1,0,0:0:0:0:
64,192,114444,1,0,0:0:0:0:
448,192,114676,1,0,0:0:0:0:
64,192,114676,1,0,0:0:0:0:
64,192,115315,128,0,115780:0:0:0:0:
448,192,115780,128,0,117988:0:0:0:0:
320,192,116012,128,0,116593:0:0:0:0:
192,192,116245,128,0,117058:0:0:0:0:
64,192,116477,128,0,117290:0:0:0:0:
320,192,116710,128,0,116826:0:0:0:0:
320,192,116942,128,0,117523:0:0:0:0:
192,192,117174,128,0,117755:0:0:0:0:
64,192,117407,128,0,118452:0:0:0:0:
320,192,117639,128,0,119847:0:0:0:0:
192,192,117871,128,0,118917:0:0:0:0:
448,192,118104,128,0,118220:0:0:0:0:
448,192,118336,128,0,119382:0:0:0:0:
64,192,118568,128,0,118685:0:0:0:0:
64,192,118801,128,0,119382:0:0:0:0:
192,192,119033,128,0,119149:0:0:0:0:
192,192,119266,128,0,119847:0:0:0:0:
64,192,119498,128,0,120311:0:0:0:0:
448,192,119498,128,0,120311:0:0:0:0:
192,192,119963,128,0,120079:0:0:0:0:
320,192,119963,128,0,120079:0:0:0:0:
320,192,120195,128,0,120311:0:0:0:0:
192,192,120195,128,0,120311:0:0:0:0:
64,192,120427,1,0,0:0:0:0:
192,192,120427,1,0,0:0:0:0:
320,192,120427,1,0,0:0:0:0:
448,192,120427,1,0,0:0:0:0:
192,192,120660,1,0,0:0:0:0:
320,192,120660,1,0,0:0:0:0:
192,192,120892,1,0,0:0:0:0:
64,192,120892,1,0,0:0:0:0:
64,192,121008,1,0,0:0:0:0:
64,192,121125,1,0,0:0:0:0:
192,192,121357,1,0,0:0:0:0:
448,192,121357,1,0,0:0:0:0:
320,192,121589,1,0,0:0:0:0:
64,192,121589,1,0,0:0:0:0:
64,192,121822,1,0,0:0:0:0:
192,192,121822,1,0,0:0:0:0:
448,192,121880,1,0,0:0:0:0:
192,192,121938,1,0,0:0:0:0:
448,192,121996,1,0,0:0:0:0:
320,192,122054,1,0,0:0:0:0:
64,192,122054,1,0,0:0:0:0:
448,192,122286,1,0,0:0:0:0:
320,192,122286,1,0,0:0:0:0:
192,192,122519,1,0,0:0:0:0:
64,192,122519,1,0,0:0:0:0:
64,192,122751,1,0,0:0:0:0:
448,192,122751,1,0,0:0:0:0:
192,192,122983,1,0,0:0:0:0:
320,192,122983,1,0,0:0:0:0:
64,192,123216,1,0,0:0:0:0:
448,192,123216,1,0,0:0:0:0:
320,192,123216,1,0,0:0:0:0:
64,192,123448,1,0,0:0:0:0:
192,192,123448,1,0,0:0:0:0:
448,192,123448,1,0,0:0:0:0:
320,192,124145,1,0,0:0:0:0:
448,192,124145,1,0,0:0:0:0:
320,192,124262,1,0,0:0:0:0:
448,192,124262,1,0,0:0:0:0:
320,192,124378,1,0,0:0:0:0:
448,192,124378,1,0,0:0:0:0:
64,192,124552,1,0,0:0:0:0:
192,192,124552,1,0,0:0:0:0:
64,192,124784,1,0,0:0:0:0:
320,192,124784,1,0,0:0:0:0:
192,192,125017,1,0,0:0:0:0:
448,192,125017,1,0,0:0:0:0:
320,192,125249,1,0,0:0:0:0:
448,192,125249,1,0,0:0:0:0:
192,192,125481,1,0,0:0:0:0:
448,192,125481,1,0,0:0:0:0:
192,192,125714,1,0,0:0:0:0:
448,192,125714,1,0,0:0:0:0:
320,192,125946,1,0,0:0:0:0:
64,192,125946,1,0,0:0:0:0:
64,192,126179,1,0,0:0:0:0:
320,192,126179,1,0,0:0:0:0:
64,192,126469,1,0,0:0:0:0:
448,192,126469,1,0,0:0:0:0:
192,192,126527,1,0,0:0:0:0:
320,192,126585,1,0,0:0:0:0:
448,192,126643,1,0,0:0:0:0:
64,192,126701,1,0,0:0:0:0:
320,192,126934,1,0,0:0:0:0:
448,192,126934,1,0,0:0:0:0:
320,192,127166,1,0,0:0:0:0:
448,192,127166,1,0,0:0:0:0:
192,192,127398,1,0,0:0:0:0:
64,192,127398,1,0,0:0:0:0:
448,192,127457,1,0,0:0:0:0:
320,192,127515,1,0,0:0:0:0:
192,192,127573,1,0,0:0:0:0:
64,192,127631,1,0,0:0:0:0:
448,192,127631,1,0,0:0:0:0:
320,192,127863,1,0,0:0:0:0:
192,192,127863,1,0,0:0:0:0:
320,192,128096,1,0,0:0:0:0:
64,192,128328,1,0,0:0:0:0:
192,192,128328,1,0,0:0:0:0:
64,192,128444,1,0,0:0:0:0:
64,192,128560,1,0,0:0:0:0:
320,192,128560,1,0,0:0:0:0:
192,192,128793,1,0,0:0:0:0:
448,192,128793,1,0,0:0:0:0:
320,192,129025,1,0,0:0:0:0:
64,192,129025,1,0,0:0:0:0:
448,192,129257,1,0,0:0:0:0:
192,192,129257,1,0,0:0:0:0:
320,192,129316,1,0,0:0:0:0:
64,192,129374,1,0,0:0:0:0:
320,192,129432,1,0,0:0:0:0:
192,192,129490,1,0,0:0:0:0:
448,192,129490,1,0,0:0:0:0:
64,192,129722,1,0,0:0:0:0:
320,192,129722,1,0,0:0:0:0:
192,192,129955,1,0,0:0:0:0:
64,192,129955,1,0,0:0:0:0:
64,192,130187,1,0,0:0:0:0:
320,192,130187,1,0,0:0:0:0:
448,192,130245,1,0,0:0:0:0:
192,192,130303,1,0,0:0:0:0:
320,192,130361,1,0,0:0:0:0:
192,192,130419,1,0,0:0:0:0:
448,192,130419,1,0,0:0:0:0:
320,192,130652,1,0,0:0:0:0:
448,192,130652,1,0,0:0:0:0:
192,192,130884,1,0,0:0:0:0:
64,192,130884,1,0,0:0:0:0:
64,192,131116,1,0,0:0:0:0:
448,192,131116,1,0,0:0:0:0:
192,192,131349,1,0,0:0:0:0:
320,192,131349,1,0,0:0:0:0:
320,192,131465,1,0,0:0:0:0:
64,192,131581,1,0,0:0:0:0:
192,192,131581,1,0,0:0:0:0:
64,192,131697,1,0,0:0:0:0:
192,192,131697,1,0,0:0:0:0:
64,192,131814,1,0,0:0:0:0:
192,192,131814,1,0,0:0:0:0:
448,192,132046,1,0,0:0:0:0:
192,192,132104,1,0,0:0:0:0:
448,192,132162,1,0,0:0:0:0:
192,192,132220,1,0,0:0:0:0:
448,192,132278,1,0,0:0:0:0:
320,192,132511,1,0,0:0:0:0:
64,192,132511,1,0,0:0:0:0:
192,192,132743,1,0,0:0:0:0:
448,192,132743,1,0,0:0:0:0:
320,192,132975,1,0,0:0:0:0:
448,192,132975,1,0,0:0:0:0:
192,192,133033,1,0,0:0:0:0:
320,192,133092,1,0,0:0:0:0:
192,192,133150,1,0,0:0:0:0:
64,192,133208,1,0,0:0:0:0:
448,192,133208,1,0,0:0:0:0:
320,192,133440,1,0,0:0:0:0:
192,192,133440,1,0,0:0:0:0:
192,192,133672,1,0,0:0:0:0:
64,192,133905,1,0,0:0:0:0:
192,192,133905,1,0,0:0:0:0:
320,192,133963,1,0,0:0:0:0:
64,192,134021,1,0,0:0:0:0:
320,192,134079,1,0,0:0:0:0:
192,192,134137,1,0,0:0:0:0:
64,192,134370,1,0,0:0:0:0:
448,192,134370,1,0,0:0:0:0:
192,192,134602,1,0,0:0:0:0:
320,192,134602,1,0,0:0:0:0:
448,192,134834,1,0,0:0:0:0:
320,192,134834,1,0,0:0:0:0:
192,192,134892,1,0,0:0:0:0:
448,192,134950,1,0,0:0:0:0:
320,192,135009,1,0,0:0:0:0:
192,192,135067,1,0,0:0:0:0:
64,192,135299,1,0,0:0:0:0:
320,192,135299,1,0,0:0:0:0:
448,192,135299,1,0,0:0:0:0:
320,192,135764,1,0,0:0:0:0:
192,192,135764,1,0,0:0:0:0:
320,192,135996,1,0,0:0:0:0:
192,192,135996,1,0,0:0:0:0:
64,192,136229,1,0,0:0:0:0:
448,192,136229,1,0,0:0:0:0:
192,192,136229,1,0,0:0:0:0:
64,192,136461,1,0,0:0:0:0:
320,192,136461,1,0,0:0:0:0:
448,192,136461,1,0,0:0:0:0:
192,192,136693,1,0,0:0:0:0:
320,192,136693,1,0,0:0:0:0:
448,192,136693,1,0,0:0:0:0:
64,192,136926,1,0,0:0:0:0:
192,192,136926,1,0,0:0:0:0:
320,192,136926,1,0,0:0:0:0:
448,192,137158,1,0,0:0:0:0:
64,192,137158,1,0,0:0:0:0:
192,192,137158,1,0,0:0:0:0:
320,192,137623,1,0,0:0:0:0:
192,192,137623,1,0,0:0:0:0:
64,192,137623,1,0,0:0:0:0:
64,192,137855,1,0,0:0:0:0:
192,192,137855,1,0,0:0:0:0:
320,192,137855,1,0,0:0:0:0:
192,192,138087,1,0,0:0:0:0:
320,192,138087,1,0,0:0:0:0:
448,192,138087,1,0,0:0:0:0:
448,192,138320,1,0,0:0:0:0:
320,192,138320,1,0,0:0:0:0:
192,192,138320,1,0,0:0:0:0:
64,192,138552,1,0,0:0:0:0:
320,192,138552,1,0,0:0:0:0:
448,192,138552,1,0,0:0:0:0:
64,192,138785,1,0,0:0:0:0:
192,192,138785,1,0,0:0:0:0:
320,192,138785,1,0,0:0:0:0:
448,192,138785,1,0,0:0:0:0:
448,192,139017,1,0,0:0:0:0:
320,192,139017,1,0,0:0:0:0:
192,192,139017,1,0,0:0:0:0:
64,192,139017,1,0,0:0:0:0:
192,192,139249,1,0,0:0:0:0:
64,192,139249,1,0,0:0:0:0:
320,192,139249,1,0,0:0:0:0:
448,192,139249,1,0,0:0:0:0:
448,192,139482,1,0,0:0:0:0:
320,192,139482,1,0,0:0:0:0:
192,192,139482,1,0,0:0:0:0:
64,192,139482,1,0,0:0:0:0:
64,192,139714,1,0,0:0:0:0:
192,192,139714,1,0,0:0:0:0:
320,192,139714,1,0,0:0:0:0:
448,192,139714,1,0,0:0:0:0:
64,192,139946,1,0,0:0:0:0:
192,192,139946,1,0,0:0:0:0:
320,192,139946,1,0,0:0:0:0:
448,192,139946,1,0,0:0:0:0:
64,192,140179,1,0,0:0:0:0:
192,192,140179,1,0,0:0:0:0:
320,192,140179,1,0,0:0:0:0:
448,192,140179,1,0,0:0:0:0:
448,192,140411,1,0,0:0:0:0:
192,192,140469,1,0,0:0:0:0:
448,192,140527,1,0,0:0:0:0:
192,192,140585,1,0,0:0:0:0:
320,192,140644,1,0,0:0:0:0:
64,192,140702,1,0,0:0:0:0:
320,192,140760,1,0,0:0:0:0:
64,192,140818,1,0,0:0:0:0:
192,192,140876,1,0,0:0:0:0:
448,192,140876,1,0,0:0:0:0:
320,192,141108,1,0,0:0:0:0:
64,192,141108,1,0,0:0:0:0:
64,192,141341,1,0,0:0:0:0:
448,192,141341,1,0,0:0:0:0:
192,192,141399,1,0,0:0:0:0:
320,192,141457,1,0,0:0:0:0:
448,192,141515,1,0,0:0:0:0:
64,192,141573,1,0,0:0:0:0:
320,192,141805,1,0,0:0:0:0:
448,192,141805,1,0,0:0:0:0:
192,192,142038,1,0,0:0:0:0:
64,192,142038,1,0,0:0:0:0:
320,192,142270,1,0,0:0:0:0:
448,192,142270,1,0,0:0:0:0:
192,192,142328,1,0,0:0:0:0:
320,192,142386,1,0,0:0:0:0:
192,192,142444,1,0,0:0:0:0:
320,192,142502,1,0,0:0:0:0:
64,192,142502,1,0,0:0:0:0:
64,192,142735,1,0,0:0:0:0:
448,192,142735,1,0,0:0:0:0:
192,192,142967,1,0,0:0:0:0:
320,192,142967,1,0,0:0:0:0:
192,192,143200,1,0,0:0:0:0:
64,192,143200,1,0,0:0:0:0:
320,192,143432,1,0,0:0:0:0:
192,192,143432,1,0,0:0:0:0:
320,192,143664,1,0,0:0:0:0:
448,192,143664,1,0,0:0:0:0:
192,192,143897,1,0,0:0:0:0:
64,192,143897,1,0,0:0:0:0:
64,192,144129,1,0,0:0:0:0:
320,192,144129,1,0,0:0:0:0:
448,192,144129,1,0,0:0:0:0:
448,192,144361,1,0,0:0:0:0:
192,192,144361,1,0,0:0:0:0:
64,192,144361,1,0,0:0:0:0:
320,192,144594,1,0,0:0:0:0:
448,192,144594,1,0,0:0:0:0:
192,192,144826,1,0,0:0:0:0:
64,192,144826,1,0,0:0:0:0:
320,192,145059,1,0,0:0:0:0:
448,192,145059,1,0,0:0:0:0:
64,192,145117,1,0,0:0:0:0:
192,192,145175,1,0,0:0:0:0:
320,192,145233,1,0,0:0:0:0:
448,192,145291,1,0,0:0:0:0:
192,192,145523,1,0,0:0:0:0:
320,192,145523,1,0,0:0:0:0:
192,192,145698,1,0,0:0:0:0:
448,192,145756,1,0,0:0:0:0:
64,192,145756,1,0,0:0:0:0:
192,192,145872,1,0,0:0:0:0:
320,192,145988,1,0,0:0:0:0:
448,192,145988,1,0,0:0:0:0:
320,192,146162,1,0,0:0:0:0:
64,192,146220,1,0,0:0:0:0:
448,192,146220,1,0,0:0:0:0:
320,192,146337,1,0,0:0:0:0:
192,192,146453,1,0,0:0:0:0:
64,192,146453,1,0,0:0:0:0:
64,192,146569,1,0,0:0:0:0:
192,192,146569,1,0,0:0:0:0:
192,192,146685,1,0,0:0:0:0:
64,192,146685,1,0,0:0:0:0:
320,192,146917,1,0,0:0:0:0:
448,192,146917,1,0,0:0:0:0:
192,192,147150,1,0,0:0:0:0:
320,192,147150,1,0,0:0:0:0:
64,192,147382,1,0,0:0:0:0:
192,192,147382,1,0,0:0:0:0:
320,192,147382,1,0,0:0:0:0:
448,192,147382,1,0,0:0:0:0:
448,192,147615,1,0,0:0:0:0:
320,192,147615,1,0,0:0:0:0:
192,192,147615,1,0,0:0:0:0:
64,192,147615,1,0,0:0:0:0:
64,192,147847,1,0,0:0:0:0:
192,192,147847,1,0,0:0:0:0:
320,192,147847,1,0,0:0:0:0:
448,192,147847,1,0,0:0:0:0:
448,192,148079,1,0,0:0:0:0:
320,192,148079,1,0,0:0:0:0:
192,192,148079,1,0,0:0:0:0:
64,192,148079,1,0,0:0:0:0:
64,192,148312,1,0,0:0:0:0:
192,192,148312,1,0,0:0:0:0:
64,192,148428,1,0,0:0:0:0:
320,192,148544,1,0,0:0:0:0:
448,192,148544,1,0,0:0:0:0:
448,192,148660,1,0,0:0:0:0:
64,192,148776,1,0,0:0:0:0:
192,192,148776,1,0,0:0:0:0:
320,192,148835,1,0,0:0:0:0:
192,192,148893,1,0,0:0:0:0:
64,192,148951,1,0,0:0:0:0:
320,192,149009,1,0,0:0:0:0:
64,192,149241,1,0,0:0:0:0:
192,192,149241,1,0,0:0:0:0:
320,192,149241,1,0,0:0:0:0:
448,192,149241,1,0,0:0:0:0:
448,192,149474,1,0,0:0:0:0:
320,192,149474,1,0,0:0:0:0:
192,192,149474,1,0,0:0:0:0:
64,192,149474,1,0,0:0:0:0:
64,192,149706,1,0,0:0:0:0:
192,192,149706,1,0,0:0:0:0:
320,192,149706,1,0,0:0:0:0:
448,192,149706,1,0,0:0:0:0:
448,192,149938,1,0,0:0:0:0:
320,192,149938,1,0,0:0:0:0:
192,192,149938,1,0,0:0:0:0:
64,192,149938,1,0,0:0:0:0:
64,192,150171,1,0,0:0:0:0:
192,192,150171,1,0,0:0:0:0:
448,192,150171,1,0,0:0:0:0:
320,192,150248,1,0,0:0:0:0:
448,192,150326,1,0,0:0:0:0:
192,192,150403,1,0,0:0:0:0:
320,192,150480,1,0,0:0:0:0:
192,192,150558,1,0,0:0:0:0:
448,192,150635,1,0,0:0:0:0:
320,192,150713,1,0,0:0:0:0:
448,192,150790,1,0,0:0:0:0:
320,192,150868,1,0,0:0:0:0:
448,192,150945,1,0,0:0:0:0:
320,192,151023,1,0,0:0:0:0:
192,192,151100,1,0,0:0:0:0:
64,192,151100,1,0,0:0:0:0:
320,192,151178,1,0,0:0:0:0:
192,192,151255,1,0,0:0:0:0:
320,192,151333,1,0,0:0:0:0:
192,192,151410,1,0,0:0:0:0:
320,192,151487,1,0,0:0:0:0:
64,192,151565,1,0,0:0:0:0:
192,192,151623,1,0,0:0:0:0:
320,192,151681,1,0,0:0:0:0:
64,192,151739,1,0,0:0:0:0:
192,192,151797,1,0,0:0:0:0:
448,192,151855,1,0,0:0:0:0:
320,192,151913,1,0,0:0:0:0:
192,192,151972,1,0,0:0:0:0:
448,192,152030,1,0,0:0:0:0:
320,192,152088,1,0,0:0:0:0:
64,192,152146,1,0,0:0:0:0:
192,192,152204,1,0,0:0:0:0:
320,192,152262,1,0,0:0:0:0:
448,192,152320,1,0,0:0:0:0:
64,192,152378,1,0,0:0:0:0:
192,192,152436,1,0,0:0:0:0:
448,192,152494,1,0,0:0:0:0:
320,192,152572,1,0,0:0:0:0:
448,192,152649,1,0,0:0:0:0:
192,192,152727,1,0,0:0:0:0:
320,192,152804,1,0,0:0:0:0:
192,192,152882,1,0,0:0:0:0:
448,192,152959,1,0,0:0:0:0:
64,192,152959,1,0,0:0:0:0:
320,192,153037,1,0,0:0:0:0:
448,192,153114,1,0,0:0:0:0:
320,192,153191,1,0,0:0:0:0:
192,192,153269,1,0,0:0:0:0:
64,192,153346,1,0,0:0:0:0:
320,192,153424,1,0,0:0:0:0:
448,192,153424,1,0,0:0:0:0:
192,192,153501,1,0,0:0:0:0:
320,192,153579,1,0,0:0:0:0:
192,192,153656,1,0,0:0:0:0:
320,192,153734,1,0,0:0:0:0:
64,192,153889,1,0,0:0:0:0:
448,192,153889,1,0,0:0:0:0:
448,192,154005,1,0,0:0:0:0:
448,192,154121,1,0,0:0:0:0:
64,192,154353,1,0,0:0:0:0:
192,192,154411,1,0,0:0:0:0:
320,192,154469,1,0,0:0:0:0:
448,192,154528,1,0,0:0:0:0:
64,192,154818,1,0,0:0:0:0:
192,192,154818,1,0,0:0:0:0:
320,192,154895,1,0,0:0:0:0:
192,192,154973,1,0,0:0:0:0:
320,192,155050,1,0,0:0:0:0:
192,192,155128,1,0,0:0:0:0:
320,192,155205,1,0,0:0:0:0:
64,192,155283,1,0,0:0:0:0:
448,192,155283,1,0,0:0:0:0:
192,192,155341,1,0,0:0:0:0:
320,192,155399,1,0,0:0:0:0:
64,192,155457,1,0,0:0:0:0:
192,192,155515,1,0,0:0:0:0:
448,192,155573,1,0,0:0:0:0:
320,192,155631,1,0,0:0:0:0:
192,192,155689,1,0,0:0:0:0:
448,192,155748,1,0,0:0:0:0:
448,192,155864,1,0,0:0:0:0:
192,192,155980,1,0,0:0:0:0:
64,192,155980,1,0,0:0:0:0:
192,192,156096,1,0,0:0:0:0:
448,192,156212,1,0,0:0:0:0:
320,192,156270,1,0,0:0:0:0:
192,192,156328,1,0,0:0:0:0:
64,192,156387,1,0,0:0:0:0:
320,192,156445,1,0,0:0:0:0:
448,192,156522,1,0,0:0:0:0:
192,192,156600,1,0,0:0:0:0:
320,192,156677,1,0,0:0:0:0:
448,192,156677,1,0,0:0:0:0:
192,192,156754,1,0,0:0:0:0:
320,192,156832,1,0,0:0:0:0:
192,192,156909,1,0,0:0:0:0:
320,192,156987,1,0,0:0:0:0:
192,192,157064,1,0,0:0:0:0:
64,192,157142,1,0,0:0:0:0:
192,192,157219,1,0,0:0:0:0:
64,192,157297,1,0,0:0:0:0:
192,192,157374,1,0,0:0:0:0:
64,192,157452,1,0,0:0:0:0:
320,192,157606,1,0,0:0:0:0:
448,192,157606,1,0,0:0:0:0:
192,192,157684,1,0,0:0:0:0:
448,192,157761,1,0,0:0:0:0:
64,192,157839,1,0,0:0:0:0:
320,192,157916,1,0,0:0:0:0:
64,192,157994,1,0,0:0:0:0:
448,192,158071,1,0,0:0:0:0:
192,192,158149,1,0,0:0:0:0:
448,192,158226,1,0,0:0:0:0:
64,192,158304,1,0,0:0:0:0:
320,192,158381,1,0,0:0:0:0:
64,192,158458,1,0,0:0:0:0:
192,192,158536,1,0,0:0:0:0:
448,192,158536,1,0,0:0:0:0:
320,192,158613,1,0,0:0:0:0:
448,192,158691,1,0,0:0:0:0:
64,192,158768,1,0,0:0:0:0:
192,192,158846,1,0,0:0:0:0:
64,192,158923,1,0,0:0:0:0:
448,192,159001,1,0,0:0:0:0:
320,192,159059,1,0,0:0:0:0:
192,192,159117,1,0,0:0:0:0:
448,192,159175,1,0,0:0:0:0:
320,192,159233,1,0,0:0:0:0:
64,192,159233,1,0,0:0:0:0:
192,192,159465,1,0,0:0:0:0:
448,192,159543,1,0,0:0:0:0:
192,192,159620,1,0,0:0:0:0:
64,192,159698,1,0,0:0:0:0:
320,192,159698,1,0,0:0:0:0:
448,192,159775,1,0,0:0:0:0:
64,192,159853,1,0,0:0:0:0:
192,192,159930,1,0,0:0:0:0:
320,192,159988,1,0,0:0:0:0:
448,192,160046,1,0,0:0:0:0:
64,192,160104,1,0,0:0:0:0:
192,192,160163,1,0,0:0:0:0:
64,192,160395,1,0,0:0:0:0:
448,192,160395,1,0,0:0:0:0:
320,192,160472,1,0,0:0:0:0:
192,192,160550,1,0,0:0:0:0:
320,192,160627,1,0,0:0:0:0:
448,192,160705,1,0,0:0:0:0:
192,192,160782,1,0,0:0:0:0:
320,192,160860,1,0,0:0:0:0:
64,192,160937,1,0,0:0:0:0:
192,192,161015,1,0,0:0:0:0:
320,192,161092,1,0,0:0:0:0:
192,192,161169,1,0,0:0:0:0:
64,192,161247,1,0,0:0:0:0:
448,192,161324,1,0,0:0:0:0:
320,192,161324,1,0,0:0:0:0:
448,192,161441,1,0,0:0:0:0:
192,192,161557,1,0,0:0:0:0:
64,192,161557,1,0,0:0:0:0:
64,192,161673,1,0,0:0:0:0:
320,192,161789,1,0,0:0:0:0:
448,192,161789,1,0,0:0:0:0:
320,192,161905,1,0,0:0:0:0:
192,192,162021,1,0,0:0:0:0:
64,192,162021,1,0,0:0:0:0:
192,192,162138,1,0,0:0:0:0:
448,192,162254,1,0,0:0:0:0:
320,192,162331,1,0,0:0:0:0:
448,192,162409,1,0,0:0:0:0:
320,192,162486,1,0,0:0:0:0:
192,192,162564,1,0,0:0:0:0:
320,192,162641,1,0,0:0:0:0:
192,192,162719,1,0,0:0:0:0:
64,192,162796,1,0,0:0:0:0:
192,192,162874,1,0,0:0:0:0:
320,192,162951,1,0,0:0:0:0:
64,192,162951,1,0,0:0:0:0:
192,192,163028,1,0,0:0:0:0:
320,192,163106,1,0,0:0:0:0:
448,192,163183,1,0,0:0:0:0:
448,192,163300,1,0,0:0:0:0:
320,192,163416,1,0,0:0:0:0:
320,192,163532,1,0,0:0:0:0:
64,192,163648,1,0,0:0:0:0:
192,192,163706,1,0,0:0:0:0:
320,192,163764,1,0,0:0:0:0:
448,192,163822,1,0,0:0:0:0:
64,192,163880,1,0,0:0:0:0:
192,192,163939,1,0,0:0:0:0:
320,192,163997,1,0,0:0:0:0:
448,192,164055,1,0,0:0:0:0:
64,192,164113,1,0,0:0:0:0:
192,192,164113,1,0,0:0:0:0:
192,192,164345,1,0,0:0:0:0:
320,192,164345,1,0,0:0:0:0:
320,192,164578,1,0,0:0:0:0:
448,192,164578,1,0,0:0:0:0:
192,192,164655,1,0,0:0:0:0:
448,192,164732,1,0,0:0:0:0:
320,192,164810,1,0,0:0:0:0:
64,192,165042,1,0,0:0:0:0:
448,192,165042,1,0,0:0:0:0:
192,192,165507,1,0,0:0:0:0:
192,192,165623,1,0,0:0:0:0:
192,192,165739,1,0,0:0:0:0:
448,192,165972,1,0,0:0:0:0:
64,192,165972,1,0,0:0:0:0:
320,192,166049,1,0,0:0:0:0:
192,192,166127,1,0,0:0:0:0:
448,192,166204,1,0,0:0:0:0:
320,192,166282,1,0,0:0:0:0:
64,192,166359,1,0,0:0:0:0:
192,192,166436,1,0,0:0:0:0:
320,192,166495,1,0,0:0:0:0:
64,192,166553,1,0,0:0:0:0:
192,192,166611,1,0,0:0:0:0:
320,192,166669,1,0,0:0:0:0:
448,192,166727,1,0,0:0:0:0:
64,192,166785,1,0,0:0:0:0:
192,192,166843,1,0,0:0:0:0:
320,192,166901,1,0,0:0:0:0:
448,192,166979,1,0,0:0:0:0:
192,192,167056,1,0,0:0:0:0:
320,192,167134,1,0,0:0:0:0:
64,192,167211,1,0,0:0:0:0:
192,192,167289,1,0,0:0:0:0:
448,192,167366,1,0,0:0:0:0:
320,192,167443,1,0,0:0:0:0:
448,192,167521,1,0,0:0:0:0:
192,192,167598,1,0,0:0:0:0:
320,192,167676,1,0,0:0:0:0:
192,192,167753,1,0,0:0:0:0:
64,192,167831,1,0,0:0:0:0:
448,192,167831,1,0,0:0:0:0:
192,192,167986,1,0,0:0:0:0:
448,192,168005,1,0,0:0:0:0:
320,192,168141,1,0,0:0:0:0:
448,192,168179,1,0,0:0:0:0:
64,192,168295,1,0,0:0:0:0:
320,192,168373,1,0,0:0:0:0:
64,192,168470,1,0,0:0:0:0:
192,192,168605,1,0,0:0:0:0:
64,192,168644,1,0,0:0:0:0:
320,192,168760,1,0,0:0:0:0:
448,192,168760,1,0,0:0:0:0:
320,192,168876,1,0,0:0:0:0:
320,192,168993,1,0,0:0:0:0:
448,192,169225,1,0,0:0:0:0:
320,192,169283,1,0,0:0:0:0:
192,192,169341,1,0,0:0:0:0:
64,192,169399,1,0,0:0:0:0:
192,192,169690,1,0,0:0:0:0:
448,192,169690,1,0,0:0:0:0:
320,192,169767,1,0,0:0:0:0:
64,192,169845,1,0,0:0:0:0:
192,192,169922,1,0,0:0:0:0:
320,192,169999,1,0,0:0:0:0:
448,192,170077,1,0,0:0:0:0:
64,192,170154,1,0,0:0:0:0:
192,192,170154,1,0,0:0:0:0:
320,192,170232,1,0,0:0:0:0:
64,192,170309,1,0,0:0:0:0:
192,192,170387,1,0,0:0:0:0:
448,192,170464,1,0,0:0:0:0:
192,192,170542,1,0,0:0:0:0:
320,192,170619,1,0,0:0:0:0:
448,192,170619,1,0,0:0:0:0:
320,192,170735,1,0,0:0:0:0:
192,192,170852,1,0,0:0:0:0:
64,192,170852,1,0,0:0:0:0:
192,192,170968,1,0,0:0:0:0:
448,192,171084,1,0,0:0:0:0:
320,192,171142,1,0,0:0:0:0:
192,192,171200,1,0,0:0:0:0:
64,192,171258,1,0,0:0:0:0:
448,192,171316,1,0,0:0:0:0:
64,192,171549,1,0,0:0:0:0:
320,192,171549,1,0,0:0:0:0:
192,192,171626,1,0,0:0:0:0:
64,192,171704,1,0,0:0:0:0:
448,192,171781,1,0,0:0:0:0:
320,192,171858,1,0,0:0:0:0:
448,192,171936,1,0,0:0:0:0:
192,192,172013,1,0,0:0:0:0:
320,192,172091,1,0,0:0:0:0:
192,192,172168,1,0,0:0:0:0:
448,192,172246,1,0,0:0:0:0:
320,192,172323,1,0,0:0:0:0:
448,192,172401,1,0,0:0:0:0:
192,192,172478,128,0,172556:0:0:0:0:
320,192,172556,128,0,172633:0:0:0:0:
192,192,172633,128,0,172710:0:0:0:0:
448,192,172710,128,0,172788:0:0:0:0:
320,192,172788,128,0,172865:0:0:0:0:
448,192,172865,128,0,172943:0:0:0:0:
64,192,172943,128,0,173020:0:0:0:0:
192,192,173020,128,0,173098:0:0:0:0:
64,192,173098,128,0,173175:0:0:0:0:
320,192,173175,128,0,173253:0:0:0:0:
192,192,173253,128,0,173330:0:0:0:0:
320,192,173330,128,0,173408:0:0:0:0:
448,192,173408,1,0,0:0:0:0:
64,192,173408,128,0,173485:0:0:0:0:
192,192,173485,128,0,173562:0:0:0:0:
64,192,173562,128,0,173640:0:0:0:0:
320,192,173640,128,0,173717:0:0:0:0:
192,192,173717,128,0,173795:0:0:0:0:
320,192,173795,128,0,173872:0:0:0:0:
64,192,173872,128,0,173950:0:0:0:0:
192,192,173950,128,0,174027:0:0:0:0:
64,192,174027,128,0,174105:0:0:0:0:
448,192,174105,1,0,0:0:0:0:
192,192,174182,1,0,0:0:0:0:
448,192,174260,1,0,0:0:0:0:
320,192,174337,128,0,174414:0:0:0:0:
64,192,174414,128,0,174492:0:0:0:0:
320,192,174492,128,0,174569:0:0:0:0:
448,192,174569,128,0,174647:0:0:0:0:
192,192,174647,128,0,174724:0:0:0:0:
448,192,174724,128,0,174802:0:0:0:0:
64,192,174802,128,0,174860:0:0:0:0:
192,192,174860,128,0,174918:0:0:0:0:
320,192,174918,128,0,174976:0:0:0:0:
448,192,174976,128,0,175034:0:0:0:0:
64,192,175034,128,0,175499:0:0:0:0:
320,192,175267,1,0,0:0:0:0:
448,192,175267,1,0,0:0:0:0:
192,192,175421,1,0,0:0:0:0:
448,192,175441,1,0,0:0:0:0:
320,192,175576,1,0,0:0:0:0:
448,192,175615,1,0,0:0:0:0:
64,192,175731,1,0,0:0:0:0:
448,192,175731,128,0,176041:0:0:0:0:
320,192,175886,1,0,0:0:0:0:
64,192,175906,1,0,0:0:0:0:
192,192,176041,1,0,0:0:0:0:
64,192,176080,1,0,0:0:0:0:
320,192,176196,1,0,0:0:0:0:
448,192,176196,128,0,176428:0:0:0:0:
320,192,176312,1,0,0:0:0:0:
192,192,176428,1,0,0:0:0:0:
448,192,176661,128,0,176719:0:0:0:0:
320,192,176719,128,0,176777:0:0:0:0:
192,192,176777,128,0,176835:0:0:0:0:
64,192,176835,128,0,176893:0:0:0:0:
64,192,177125,128,0,177203:0:0:0:0:
192,192,177203,128,0,177280:0:0:0:0:
320,192,177280,128,0,177358:0:0:0:0:
64,192,177358,128,0,177435:0:0:0:0:
448,192,177435,128,0,177513:0:0:0:0:
320,192,177513,128,0,177590:0:0:0:0:
192,192,177590,128,0,177668:0:0:0:0:
448,192,177668,128,0,177745:0:0:0:0:
320,192,177745,128,0,177823:0:0:0:0:
192,192,177823,128,0,177900:0:0:0:0:
64,192,177900,128,0,177977:0:0:0:0:
192,192,177977,128,0,178055:0:0:0:0:
320,192,178055,1,0,0:0:0:0:
448,192,178055,128,0,178171:0:0:0:0:
320,192,178171,128,0,178287:0:0:0:0:
192,192,178287,1,0,0:0:0:0:
64,192,178287,128,0,178403:0:0:0:0:
192,192,178403,128,0,178520:0:0:0:0:
448,192,178520,1,0,0:0:0:0:
64,192,178520,1,0,0:0:0:0:
320,192,178578,1,0,0:0:0:0:
192,192,178636,1,0,0:0:0:0:
320,192,178694,1,0,0:0:0:0:
448,192,178752,1,0,0:0:0:0:
64,192,178810,1,0,0:0:0:0:
192,192,178868,1,0,0:0:0:0:
320,192,178926,1,0,0:0:0:0:
192,192,178984,1,0,0:0:0:0:
64,192,178984,1,0,0:0:0:0:
192,192,179101,1,0,0:0:0:0:
320,192,179217,1,0,0:0:0:0:
448,192,179217,1,0,0:0:0:0:
320,192,179333,1,0,0:0:0:0:
64,192,179449,1,0,0:0:0:0:
448,192,179449,1,0,0:0:0:0:
192,192,179507,1,0,0:0:0:0:
320,192,179565,1,0,0:0:0:0:
192,192,179623,1,0,0:0:0:0:
64,192,179682,1,0,0:0:0:0:
448,192,179914,1,0,0:0:0:0:
192,192,179914,1,0,0:0:0:0:
320,192,180146,1,0,0:0:0:0:
64,192,180146,1,0,0:0:0:0:
64,192,180379,1,0,0:0:0:0:
192,192,180379,1,0,0:0:0:0:
448,192,180379,1,0,0:0:0:0:
192,192,180495,1,0,0:0:0:0:
192,192,180611,1,0,0:0:0:0:
448,192,180843,128,0,181076:0:0:0:0:
64,192,180843,128,0,181076:0:0:0:0:
192,192,181308,1,0,0:0:0:0:
64,192,181308,1,0,0:0:0:0:
320,192,181308,1,0,0:0:0:0:
448,192,181308,1,0,0:0:0:0:
64,192,181424,1,0,0:0:0:0:
320,192,181540,1,0,0:0:0:0:
192,192,181657,1,0,0:0:0:0:
64,192,181773,1,0,0:0:0:0:
320,192,181773,1,0,0:0:0:0:
448,192,181773,1,0,0:0:0:0:
192,192,181773,1,0,0:0:0:0:
448,192,181889,1,0,0:0:0:0:
64,192,182005,1,0,0:0:0:0:
320,192,182121,1,0,0:0:0:0:
192,192,182238,1,0,0:0:0:0:
64,192,182238,1,0,0:0:0:0:
320,192,182238,1,0,0:0:0:0:
448,192,182238,1,0,0:0:0:0:
64,192,182354,1,0,0:0:0:0:
448,192,182470,1,0,0:0:0:0:
192,192,182586,1,0,0:0:0:0:
64,192,182702,1,0,0:0:0:0:
192,192,182702,1,0,0:0:0:0:
320,192,182702,1,0,0:0:0:0:
448,192,182702,1,0,0:0:0:0:
320,192,182819,1,0,0:0:0:0:
64,192,182935,1,0,0:0:0:0:
448,192,183051,1,0,0:0:0:0:
192,192,183167,1,0,0:0:0:0:
64,192,183167,1,0,0:0:0:0:
320,192,183167,1,0,0:0:0:0:
448,192,183167,1,0,0:0:0:0:
192,192,183283,1,0,0:0:0:0:
64,192,183399,1,0,0:0:0:0:
320,192,183516,1,0,0:0:0:0:
64,192,183632,1,0,0:0:0:0:
192,192,183632,1,0,0:0:0:0:
320,192,183632,1,0,0:0:0:0:
448,192,183632,1,0,0:0:0:0:
64,192,183748,1,0,0:0:0:0:
192,192,183748,1,0,0:0:0:0:
320,192,183748,1,0,0:0:0:0:
448,192,183748,1,0,0:0:0:0:
448,192,183864,1,0,0:0:0:0:
320,192,183864,1,0,0:0:0:0:
192,192,183864,1,0,0:0:0:0:
64,192,183864,1,0,0:0:0:0:
64,192,184097,1,0,0:0:0:0:
192,192,184097,1,0,0:0:0:0:
320,192,184155,1,0,0:0:0:0:
448,192,184155,1,0,0:0:0:0:
192,192,184213,1,0,0:0:0:0:
64,192,184213,1,0,0:0:0:0:
320,192,184271,1,0,0:0:0:0:
448,192,184271,1,0,0:0:0:0:
192,192,184329,1,0,0:0:0:0:
64,192,184329,1,0,0:0:0:0:
64,192,184561,1,0,0:0:0:0:
192,192,184561,1,0,0:0:0:0:
320,192,184561,1,0,0:0:0:0:
192,192,184794,1,0,0:0:0:0:
320,192,184794,1,0,0:0:0:0:
448,192,184794,1,0,0:0:0:0:
448,192,185026,1,0,0:0:0:0:
320,192,185026,1,0,0:0:0:0:
192,192,185026,1,0,0:0:0:0:
64,192,185026,1,0,0:0:0:0:
192,192,185142,1,0,0:0:0:0:
64,192,185258,1,0,0:0:0:0:
320,192,185258,1,0,0:0:0:0:
448,192,185258,1,0,0:0:0:0:
192,192,185258,1,0,0:0:0:0:
320,192,185375,1,0,0:0:0:0:
64,192,185491,1,0,0:0:0:0:
192,192,185491,1,0,0:0:0:0:
320,192,185491,1,0,0:0:0:0:
448,192,185491,1,0,0:0:0:0:
64,192,185607,1,0,0:0:0:0:
192,192,185723,1,0,0:0:0:0:
320,192,185839,1,0,0:0:0:0:
448,192,185955,1,0,0:0:0:0:
64,192,185955,1,0,0:0:0:0:
192,192,186014,1,0,0:0:0:0:
448,192,186072,1,0,0:0:0:0:
192,192,186130,1,0,0:0:0:0:
448,192,186188,1,0,0:0:0:0:
320,192,186188,1,0,0:0:0:0:
64,192,186420,1,0,0:0:0:0:
320,192,186420,1,0,0:0:0:0:
448,192,186420,1,0,0:0:0:0:
192,192,186420,1,0,0:0:0:0:
64,192,186653,1,0,0:0:0:0:
192,192,186653,1,0,0:0:0:0:
448,192,186653,1,0,0:0:0:0:
448,192,186885,1,0,0:0:0:0:
320,192,186885,1,0,0:0:0:0:
64,192,186885,1,0,0:0:0:0:
192,192,186943,1,0,0:0:0:0:
320,192,187001,1,0,0:0:0:0:
192,192,187059,1,0,0:0:0:0:
320,192,187117,1,0,0:0:0:0:
64,192,187350,1,0,0:0:0:0:
192,192,187350,1,0,0:0:0:0:
320,192,187350,1,0,0:0:0:0:
448,192,187350,1,0,0:0:0:0:
64,192,187814,1,0,0:0:0:0:
192,192,187814,1,0,0:0:0:0:
320,192,187814,1,0,0:0:0:0:
448,192,187814,1,0,0:0:0:0:
192,192,187931,1,0,0:0:0:0:
64,192,187931,1,0,0:0:0:0:
64,192,188047,1,0,0:0:0:0:
192,192,188047,1,0,0:0:0:0:
320,192,188047,1,0,0:0:0:0:
448,192,188047,1,0,0:0:0:0:
448,192,188163,1,0,0:0:0:0:
320,192,188163,1,0,0:0:0:0:
448,192,188279,1,0,0:0:0:0:
320,192,188279,1,0,0:0:0:0:
192,192,188279,1,0,0:0:0:0:
64,192,188279,1,0,0:0:0:0:
448,192,188744,1,0,0:0:0:0:
320,192,188744,1,0,0:0:0:0:
192,192,188802,1,0,0:0:0:0:
64,192,188802,1,0,0:0:0:0:
320,192,188860,1,0,0:0:0:0:
448,192,188860,1,0,0:0:0:0:
192,192,188918,1,0,0:0:0:0:
64,192,188918,1,0,0:0:0:0:
320,192,188976,1,0,0:0:0:0:
448,192,188976,1,0,0:0:0:0:
64,192,189209,1,0,0:0:0:0:
192,192,189209,1,0,0:0:0:0:
448,192,189209,1,0,0:0:0:0:
320,192,189441,1,0,0:0:0:0:
448,192,189441,1,0,0:0:0:0:
64,192,189441,1,0,0:0:0:0:
192,192,189673,1,0,0:0:0:0:
64,192,189673,1,0,0:0:0:0:
64,192,189790,1,0,0:0:0:0:
192,192,189790,1,0,0:0:0:0:
320,192,189906,1,0,0:0:0:0:
448,192,189906,1,0,0:0:0:0:
320,192,190022,1,0,0:0:0:0:
448,192,190022,1,0,0:0:0:0:
64,192,190138,1,0,0:0:0:0:
192,192,190196,1,0,0:0:0:0:
320,192,190254,1,0,0:0:0:0:
448,192,190312,1,0,0:0:0:0:
320,192,190370,1,0,0:0:0:0:
192,192,190429,1,0,0:0:0:0:
64,192,190487,1,0,0:0:0:0:
448,192,190545,1,0,0:0:0:0:
320,192,190603,1,0,0:0:0:0:
192,192,190661,1,0,0:0:0:0:
64,192,190719,1,0,0:0:0:0:
192,192,190777,1,0,0:0:0:0:
320,192,190835,1,0,0:0:0:0:
448,192,190893,1,0,0:0:0:0:
64,192,190951,1,0,0:0:0:0:
192,192,191010,1,0,0:0:0:0:
320,192,191068,1,0,0:0:0:0:
448,192,191068,1,0,0:0:0:0:
320,192,191184,1,0,0:0:0:0:
448,192,191184,1,0,0:0:0:0:
448,192,191300,1,0,0:0:0:0:
320,192,191300,1,0,0:0:0:0:
64,192,191532,1,0,0:0:0:0:
192,192,191590,1,0,0:0:0:0:
64,192,191649,1,0,0:0:0:0:
192,192,191707,1,0,0:0:0:0:
64,192,191765,1,0,0:0:0:0:
320,192,191997,1,0,0:0:0:0:
448,192,191997,1,0,0:0:0:0:
64,192,191997,1,0,0:0:0:0:
192,192,192229,1,0,0:0:0:0:
320,192,192229,1,0,0:0:0:0:
64,192,192462,1,0,0:0:0:0:
448,192,192462,1,0,0:0:0:0:
320,192,192520,1,0,0:0:0:0:
448,192,192578,1,0,0:0:0:0:
320,192,192636,1,0,0:0:0:0:
448,192,192694,1,0,0:0:0:0:
192,192,192694,1,0,0:0:0:0:
320,192,192927,1,0,0:0:0:0:
64,192,192927,1,0,0:0:0:0:
64,192,193391,1,0,0:0:0:0:
320,192,193391,1,0,0:0:0:0:
64,192,193856,1,0,0:0:0:0:
192,192,193856,1,0,0:0:0:0:
320,192,193914,1,0,0:0:0:0:
448,192,193914,1,0,0:0:0:0:
192,192,193972,1,0,0:0:0:0:
64,192,193972,1,0,0:0:0:0:
320,192,194030,1,0,0:0:0:0:
448,192,194030,1,0,0:0:0:0:
192,192,194088,1,0,0:0:0:0:
64,192,194088,1,0,0:0:0:0:
320,192,194146,1,0,0:0:0:0:
448,192,194146,1,0,0:0:0:0:
192,192,194205,1,0,0:0:0:0:
64,192,194205,1,0,0:0:0:0:
320,192,194263,1,0,0:0:0:0:
448,192,194263,1,0,0:0:0:0:
192,192,194321,1,0,0:0:0:0:
64,192,194321,1,0,0:0:0:0:
320,192,194379,1,0,0:0:0:0:
448,192,194379,1,0,0:0:0:0:
192,192,194437,1,0,0:0:0:0:
64,192,194437,1,0,0:0:0:0:
320,192,194495,1,0,0:0:0:0:
448,192,194495,1,0,0:0:0:0:
192,192,194553,1,0,0:0:0:0:
64,192,194553,1,0,0:0:0:0:
320,192,194611,1,0,0:0:0:0:
448,192,194611,1,0,0:0:0:0:
192,192,194669,1,0,0:0:0:0:
64,192,194669,1,0,0:0:0:0:
320,192,194727,1,0,0:0:0:0:
448,192,194727,1,0,0:0:0:0:
192,192,194786,1,0,0:0:0:0:
64,192,194786,1,0,0:0:0:0:
320,192,194844,1,0,0:0:0:0:
448,192,194844,1,0,0:0:0:0:
192,192,194902,1,0,0:0:0:0:
64,192,194902,1,0,0:0:0:0:
320,192,194960,1,0,0:0:0:0:
448,192,194960,1,0,0:0:0:0:
192,192,195018,1,0,0:0:0:0:
64,192,195018,1,0,0:0:0:0:
320,192,195076,1,0,0:0:0:0:
448,192,195076,1,0,0:0:0:0:
192,192,195134,1,0,0:0:0:0:
64,192,195134,1,0,0:0:0:0:
320,192,195192,1,0,0:0:0:0:
448,192,195192,1,0,0:0:0:0:
192,192,195250,1,0,0:0:0:0:
64,192,195250,1,0,0:0:0:0:
192,192,195366,1,0,0:0:0:0:
64,192,195366,1,0,0:0:0:0:
64,192,195483,1,0,0:0:0:0:
192,192,195483,1,0,0:0:0:0:
64,192,195715,1,0,0:0:0:0:
320,192,195715,1,0,0:0:0:0:
448,192,195715,1,0,0:0:0:0:
64,192,195947,1,0,0:0:0:0:
320,192,196180,1,0,0:0:0:0:
448,192,196180,1,0,0:0:0:0:
192,192,196238,1,0,0:0:0:0:
320,192,196296,1,0,0:0:0:0:
192,192,196354,1,0,0:0:0:0:
320,192,196412,1,0,0:0:0:0:
448,192,196644,1,0,0:0:0:0:
64,192,196644,1,0,0:0:0:0:
192,192,197109,1,0,0:0:0:0:
320,192,197109,1,0,0:0:0:0:
64,192,197574,1,0,0:0:0:0:
448,192,197574,1,0,0:0:0:0:
64,192,197748,1,0,0:0:0:0:
64,192,197922,1,0,0:0:0:0:
448,192,198039,1,0,0:0:0:0:
448,192,198213,1,0,0:0:0:0:
448,192,198387,1,0,0:0:0:0:
64,192,198503,1,0,0:0:0:0:
192,192,198542,1,0,0:0:0:0:
64,192,198968,1,0,0:0:0:0:
192,192,199007,1,0,0:0:0:0:
64,192,199433,1,0,0:0:0:0:
192,192,199472,1,0,0:0:0:0:
64,192,199898,1,0,0:0:0:0:
192,192,199936,1,0,0:0:0:0:
320,192,200362,1,0,0:0:0:0:
448,192,200401,1,0,0:0:0:0:
320,192,200827,1,0,0:0:0:0:
448,192,200866,1,0,0:0:0:0:
192,192,201292,1,0,0:0:0:0:
320,192,201331,1,0,0:0:0:0:
192,192,201757,1,0,0:0:0:0:
320,192,201795,1,0,0:0:0:0:
448,192,202221,1,0,0:0:0:0:
64,192,202260,1,0,0:0:0:0:
448,192,202686,1,0,0:0:0:0:
64,192,202725,1,0,0:0:0:0:
192,192,203151,1,0,0:0:0:0:
320,192,203190,1,0,0:0:0:0:
192,192,203616,1,0,0:0:0:0:
320,192,203654,1,0,0:0:0:0:
448,192,204080,1,0,0:0:0:0:
320,192,204119,1,0,0:0:0:0:
64,192,204545,1,0,0:0:0:0:
192,192,204584,1,0,0:0:0:0:
448,192,205010,1,0,0:0:0:0:
320,192,205048,1,0,0:0:0:0:
64,192,205474,1,0,0:0:0:0:
192,192,205513,1,0,0:0:0:0:
320,192,205939,1,0,0:0:0:0:
64,192,205978,1,0,0:0:0:0:
320,192,206404,1,0,0:0:0:0:
64,192,206443,1,0,0:0:0:0:
320,192,206869,1,0,0:0:0:0:
64,192,206907,1,0,0:0:0:0:
320,192,207333,1,0,0:0:0:0:
64,192,207372,1,0,0:0:0:0:
192,192,207798,1,0,0:0:0:0:
448,192,207837,1,0,0:0:0:0:
192,192,208263,1,0,0:0:0:0:
448,192,208302,1,0,0:0:0:0:
192,192,208728,1,0,0:0:0:0:
448,192,208766,1,0,0:0:0:0:
192,192,209192,1,0,0:0:0:0:
448,192,209231,1,0,0:0:0:0:
64,192,209657,1,0,0:0:0:0:
192,192,209889,1,0,0:0:0:0:
320,192,210122,1,0,0:0:0:0:
448,192,210354,1,0,0:0:0:0:
192,192,210587,1,0,0:0:0:0:
64,192,210819,1,0,0:0:0:0:
320,192,211051,1,0,0:0:0:0:
448,192,211284,1,0,0:0:0:0:
192,192,211516,1,0,0:0:0:0:
64,192,211748,1,0,0:0:0:0:
320,192,211981,1,0,0:0:0:0:
448,192,211981,128,0,212910:0:0:0:0:
192,192,212213,1,0,0:0:0:0:
64,192,212446,1,0,0:0:0:0:
320,192,212678,1,0,0:0:0:0:
192,192,212910,1,0,0:0:0:0:
64,192,213143,1,0,0:0:0:0:
320,192,213143,1,0,0:0:0:0:
64,192,213375,128,0,214537:0:0:0:0:
448,192,213375,1,0,0:0:0:0:
320,192,213607,1,0,0:0:0:0:
192,192,213840,1,0,0:0:0:0:
320,192,214072,1,0,0:0:0:0:
448,192,214305,1,0,0:0:0:0:
192,192,214537,1,0,0:0:0:0:
64,192,214769,1,0,0:0:0:0:
320,192,214769,1,0,0:0:0:0:
64,192,215002,128,0,215699:0:0:0:0:
448,192,215002,1,0,0:0:0:0:
192,192,215234,1,0,0:0:0:0:
320,192,215466,1,0,0:0:0:0:
448,192,215699,128,0,216396:0:0:0:0:
192,192,215699,1,0,0:0:0:0:
64,192,215931,1,0,0:0:0:0:
320,192,216163,1,0,0:0:0:0:
192,192,216396,1,0,0:0:0:0:
320,192,216628,1,0,0:0:0:0:
64,192,216628,128,0,217093:0:0:0:0:
192,192,216861,1,0,0:0:0:0:
448,192,217093,1,0,0:0:0:0:
192,192,217325,1,0,0:0:0:0:
320,192,217558,1,0,0:0:0:0:
448,192,217790,1,0,0:0:0:0:
192,192,218022,1,0,0:0:0:0:
64,192,218255,1,0,0:0:0:0:
320,192,218487,1,0,0:0:0:0:
448,192,218720,1,0,0:0:0:0:
192,192,218952,1,0,0:0:0:0:
64,192,219184,1,0,0:0:0:0:
448,192,219417,128,0,220346:0:0:0:0:
320,192,219417,1,0,0:0:0:0:
192,192,219649,1,0,0:0:0:0:
64,192,219881,1,0,0:0:0:0:
320,192,220114,1,0,0:0:0:0:
192,192,220346,1,0,0:0:0:0:
320,192,220578,1,0,0:0:0:0:
64,192,220578,1,0,0:0:0:0:
448,192,220811,1,0,0:0:0:0:
64,192,220811,128,0,221973:0:0:0:0:
320,192,221043,1,0,0:0:0:0:
192,192,221276,1,0,0:0:0:0:
320,192,221508,1,0,0:0:0:0:
448,192,221740,1,0,0:0:0:0:
192,192,221973,1,0,0:0:0:0:
320,192,222205,1,0,0:0:0:0:
64,192,222205,1,0,0:0:0:0:
448,192,222437,1,0,0:0:0:0:
64,192,222437,128,0,223135:0:0:0:0:
192,192,222670,1,0,0:0:0:0:
320,192,222902,1,0,0:0:0:0:
192,192,223135,1,0,0:0:0:0:
448,192,223135,128,0,223832:0:0:0:0:
64,192,223367,1,0,0:0:0:0:
320,192,223599,1,0,0:0:0:0:
192,192,223832,1,0,0:0:0:0:
320,192,224064,1,0,0:0:0:0:
64,192,224064,128,0,224529:0:0:0:0:
192,192,224296,1,0,0:0:0:0:
