osu file format v14

[General]
AudioFilename: audio.mp3
AudioLeadIn: 0
PreviewTime: 66209
Countdown: 0
SampleSet: Normal
StackLeniency: 0.7
Mode: 3
LetterboxInBreaks: 0
SpecialStyle: 0
WidescreenStoryboard: 1

[Editor]
Bookmarks: 13347,26588,39830,53071,66312,92795,106037,119278,132519,145761,172243,198726
DistanceSpacing: 1
BeatDivisor: 8
GridSize: 8
TimelineZoom: 1

[Metadata]
Title:Arcade
TitleUnicode:Arcade
Artist:Matt Harper
ArtistUnicode:Matt Harper
Creator:DarthSkrill
Version:>Insert Coin<
Source:
Tags:future bass
BeatmapID:1795735
BeatmapSetID:859132

[Difficulty]
HPDrainRate:8
CircleSize:4
OverallDifficulty:8
ApproachRate:5
SliderMultiplier:1.4
SliderTickRate:1

[Events]
//Background and Video events
0,0,"Konachan.com - 266741 sample.jpg",0,0
//Break Periods
//Storyboard Layer 0 (Background)
//Storyboard Layer 1 (Fail)
//Storyboard Layer 2 (Pass)
//Storyboard Layer 3 (Foreground)
//Storyboard Sound Samples

[TimingPoints]
106,413.793103448276,4,1,0,100,1,0

[HitObjects]
192,192,106,5,0,0:0:0:0:
320,192,106,1,0,0:0:0:0:
320,192,726,1,0,0:0:0:0:
192,192,726,1,0,0:0:0:0:
320,192,1347,1,0,0:0:0:0:
192,192,1347,1,0,0:0:0:0:
192,192,1761,1,0,0:0:0:0:
448,192,1761,1,0,0:0:0:0:
448,192,2381,1,0,0:0:0:0:
192,192,2381,1,0,0:0:0:0:
448,192,3002,1,0,0:0:0:0:
192,192,3002,128,0,3106:0:0:0:0:
448,192,3416,1,0,0:0:0:0:
64,192,3416,1,0,0:0:0:0:
64,192,4037,1,0,0:0:0:0:
448,192,4037,1,0,0:0:0:0:
448,192,4347,1,0,0:0:0:0:
64,192,4347,1,0,0:0:0:0:
448,192,4657,1,0,0:0:0:0:
64,192,4657,1,0,0:0:0:0:
448,192,5071,1,0,0:0:0:0:
64,192,5071,1,0,0:0:0:0:
448,192,5692,1,0,0:0:0:0:
64,192,5692,1,0,0:0:0:0:
448,192,6002,1,0,0:0:0:0:
64,192,6002,1,0,0:0:0:0:
320,192,6106,1,0,0:0:0:0:
320,192,6209,1,0,0:0:0:0:
448,192,6312,1,0,0:0:0:0:
64,192,6312,128,0,6416:0:0:0:0:
192,192,6519,1,0,0:0:0:0:
192,192,6623,1,0,0:0:0:0:
64,192,6726,1,0,0:0:0:0:
320,192,6726,1,0,0:0:0:0:
64,192,7347,1,0,0:0:0:0:
320,192,7347,1,0,0:0:0:0:
64,192,7968,1,0,0:0:0:0:
320,192,7968,1,0,0:0:0:0:
64,192,8381,1,0,0:0:0:0:
448,192,8381,1,0,0:0:0:0:
64,192,9002,1,0,0:0:0:0:
448,192,9002,1,0,0:0:0:0:
448,192,9623,1,0,0:0:0:0:
64,192,9623,128,0,9726:0:0:0:0:
448,192,10037,1,0,0:0:0:0:
192,192,10037,1,0,0:0:0:0:
192,192,10657,1,0,0:0:0:0:
448,192,10657,1,0,0:0:0:0:
192,192,10968,1,0,0:0:0:0:
448,192,10968,1,0,0:0:0:0:
448,192,11278,1,0,0:0:0:0:
192,192,11278,1,0,0:0:0:0:
192,192,11692,1,0,0:0:0:0:
448,192,11692,1,0,0:0:0:0:
192,192,12312,1,0,0:0:0:0:
448,192,12312,1,0,0:0:0:0:
192,192,12933,1,0,0:0:0:0:
448,192,12933,128,0,13037:0:0:0:0:
192,192,13347,1,0,0:0:0:0:
64,192,13347,1,0,0:0:0:0:
448,192,13347,1,0,0:0:0:0:
192,192,13554,1,0,0:0:0:0:
320,192,13761,128,0,13864:0:0:0:0:
192,192,13968,1,0,0:0:0:0:
64,192,13968,1,0,0:0:0:0:
448,192,13968,1,0,0:0:0:0:
320,192,14174,1,0,0:0:0:0:
448,192,14174,1,0,0:0:0:0:
320,192,14381,1,0,0:0:0:0:
192,192,14588,1,0,0:0:0:0:
64,192,14588,1,0,0:0:0:0:
448,192,14588,1,0,0:0:0:0:
192,192,14795,1,0,0:0:0:0:
320,192,15002,1,0,0:0:0:0:
448,192,15002,1,0,0:0:0:0:
64,192,15002,1,0,0:0:0:0:
320,192,15209,1,0,0:0:0:0:
192,192,15416,128,0,15519:0:0:0:0:
64,192,15623,1,0,0:0:0:0:
320,192,15623,1,0,0:0:0:0:
448,192,15623,1,0,0:0:0:0:
64,192,15830,1,0,0:0:0:0:
192,192,15830,1,0,0:0:0:0:
192,192,16037,1,0,0:0:0:0:
192,192,16140,1,0,0:0:0:0:
64,192,16243,1,0,0:0:0:0:
448,192,16243,1,0,0:0:0:0:
320,192,16243,128,0,16347:0:0:0:0:
448,192,16450,1,0,0:0:0:0:
192,192,16450,128,0,16554:0:0:0:0:
448,192,16554,1,0,0:0:0:0:
64,192,16657,1,0,0:0:0:0:
192,192,16657,1,0,0:0:0:0:
320,192,16657,1,0,0:0:0:0:
64,192,16864,1,0,0:0:0:0:
448,192,17071,128,0,17174:0:0:0:0:
64,192,17278,1,0,0:0:0:0:
192,192,17278,1,0,0:0:0:0:
320,192,17278,1,0,0:0:0:0:
320,192,17485,1,0,0:0:0:0:
448,192,17485,1,0,0:0:0:0:
64,192,17588,1,0,0:0:0:0:
192,192,17588,1,0,0:0:0:0:
320,192,17588,1,0,0:0:0:0:
448,192,17692,1,0,0:0:0:0:
64,192,17899,1,0,0:0:0:0:
192,192,17899,1,0,0:0:0:0:
320,192,17899,1,0,0:0:0:0:
448,192,18106,1,0,0:0:0:0:
64,192,18312,1,0,0:0:0:0:
192,192,18312,1,0,0:0:0:0:
320,192,18312,1,0,0:0:0:0:
64,192,18519,1,0,0:0:0:0:
448,192,18726,128,0,18830:0:0:0:0:
64,192,18933,1,0,0:0:0:0:
192,192,18933,1,0,0:0:0:0:
320,192,18933,1,0,0:0:0:0:
320,192,19140,1,0,0:0:0:0:
448,192,19140,1,0,0:0:0:0:
64,192,19243,1,0,0:0:0:0:
192,192,19243,1,0,0:0:0:0:
448,192,19347,1,0,0:0:0:0:
64,192,19554,1,0,0:0:0:0:
320,192,19554,1,0,0:0:0:0:
192,192,19554,128,0,19657:0:0:0:0:
320,192,19761,128,0,19864:0:0:0:0:
64,192,19968,1,0,0:0:0:0:
192,192,19968,1,0,0:0:0:0:
448,192,19968,1,0,0:0:0:0:
192,192,20174,1,0,0:0:0:0:
320,192,20381,128,0,20485:0:0:0:0:
448,192,20588,1,0,0:0:0:0:
192,192,20588,1,0,0:0:0:0:
64,192,20588,1,0,0:0:0:0:
320,192,20795,1,0,0:0:0:0:
448,192,20795,1,0,0:0:0:0:
320,192,21002,1,0,0:0:0:0:
64,192,21209,1,0,0:0:0:0:
192,192,21209,1,0,0:0:0:0:
448,192,21209,1,0,0:0:0:0:
192,192,21416,1,0,0:0:0:0:
320,192,21623,1,0,0:0:0:0:
448,192,21623,1,0,0:0:0:0:
64,192,21623,1,0,0:0:0:0:
320,192,21830,1,0,0:0:0:0:
192,192,22037,128,0,22140:0:0:0:0:
64,192,22243,1,0,0:0:0:0:
320,192,22243,1,0,0:0:0:0:
448,192,22243,1,0,0:0:0:0:
192,192,22450,1,0,0:0:0:0:
64,192,22450,1,0,0:0:0:0:
320,192,22657,1,0,0:0:0:0:
320,192,22761,1,0,0:0:0:0:
448,192,22864,1,0,0:0:0:0:
64,192,22864,1,0,0:0:0:0:
192,192,22864,128,0,22968:0:0:0:0:
64,192,23071,1,0,0:0:0:0:
320,192,23071,128,0,23174:0:0:0:0:
64,192,23174,1,0,0:0:0:0:
448,192,23278,1,0,0:0:0:0:
320,192,23278,1,0,0:0:0:0:
192,192,23278,1,0,0:0:0:0:
448,192,23485,1,0,0:0:0:0:
64,192,23692,128,0,23795:0:0:0:0:
448,192,23899,1,0,0:0:0:0:
320,192,23899,1,0,0:0:0:0:
192,192,23899,1,0,0:0:0:0:
192,192,24106,1,0,0:0:0:0:
64,192,24106,1,0,0:0:0:0:
448,192,24209,1,0,0:0:0:0:
320,192,24209,1,0,0:0:0:0:
64,192,24312,1,0,0:0:0:0:
448,192,24519,1,0,0:0:0:0:
320,192,24519,1,0,0:0:0:0:
192,192,24519,1,0,0:0:0:0:
64,192,24726,1,0,0:0:0:0:
448,192,24933,1,0,0:0:0:0:
320,192,24933,1,0,0:0:0:0:
192,192,24933,1,0,0:0:0:0:
448,192,25140,1,0,0:0:0:0:
64,192,25347,128,0,25450:0:0:0:0:
448,192,25554,1,0,0:0:0:0:
320,192,25554,1,0,0:0:0:0:
192,192,25554,1,0,0:0:0:0:
192,192,25761,1,0,0:0:0:0:
64,192,25761,1,0,0:0:0:0:
320,192,25968,1,0,0:0:0:0:
448,192,25968,1,0,0:0:0:0:
192,192,26174,1,0,0:0:0:0:
320,192,26174,1,0,0:0:0:0:
64,192,26174,128,0,26278:0:0:0:0:
192,192,26278,1,0,0:0:0:0:
448,192,26278,1,0,0:0:0:0:
448,192,26381,128,0,26485:0:0:0:0:
320,192,26381,1,0,0:0:0:0:
64,192,26485,1,0,0:0:0:0:
192,192,26485,1,0,0:0:0:0:
320,192,26588,1,0,0:0:0:0:
448,192,26588,1,0,0:0:0:0:
64,192,26588,1,0,0:0:0:0:
320,192,26692,1,0,0:0:0:0:
192,192,26795,1,0,0:0:0:0:
64,192,26899,1,0,0:0:0:0:
192,192,27002,128,0,27106:0:0:0:0:
448,192,27106,1,0,0:0:0:0:
64,192,27209,1,0,0:0:0:0:
320,192,27209,1,0,0:0:0:0:
448,192,27312,1,0,0:0:0:0:
64,192,27416,1,0,0:0:0:0:
192,192,27416,1,0,0:0:0:0:
320,192,27519,1,0,0:0:0:0:
192,192,27623,1,0,0:0:0:0:
320,192,27726,1,0,0:0:0:0:
64,192,27830,1,0,0:0:0:0:
448,192,27830,1,0,0:0:0:0:
192,192,27864,1,0,0:0:0:0:
320,192,27933,1,0,0:0:0:0:
192,192,28037,1,0,0:0:0:0:
64,192,28140,1,0,0:0:0:0:
192,192,28243,1,0,0:0:0:0:
320,192,28243,1,0,0:0:0:0:
448,192,28243,1,0,0:0:0:0:
320,192,28347,1,0,0:0:0:0:
64,192,28450,1,0,0:0:0:0:
192,192,28554,1,0,0:0:0:0:
448,192,28657,128,0,28761:0:0:0:0:
320,192,28726,1,0,0:0:0:0:
192,192,28795,1,0,0:0:0:0:
64,192,28864,1,0,0:0:0:0:
448,192,28864,1,0,0:0:0:0:
320,192,28933,1,0,0:0:0:0:
448,192,29002,1,0,0:0:0:0:
192,192,29071,1,0,0:0:0:0:
64,192,29071,1,0,0:0:0:0:
64,192,29278,1,0,0:0:0:0:
64,192,29381,1,0,0:0:0:0:
448,192,29485,1,0,0:0:0:0:
192,192,29519,1,0,0:0:0:0:
320,192,29554,1,0,0:0:0:0:
448,192,29692,1,0,0:0:0:0:
448,192,29795,1,0,0:0:0:0:
64,192,29899,1,0,0:0:0:0:
320,192,29899,1,0,0:0:0:0:
192,192,29899,1,0,0:0:0:0:
64,192,30002,1,0,0:0:0:0:
448,192,30106,1,0,0:0:0:0:
192,192,30209,1,0,0:0:0:0:
64,192,30312,128,0,30416:0:0:0:0:
320,192,30416,1,0,0:0:0:0:
192,192,30519,1,0,0:0:0:0:
448,192,30519,1,0,0:0:0:0:
64,192,30623,1,0,0:0:0:0:
320,192,30726,1,0,0:0:0:0:
448,192,30726,1,0,0:0:0:0:
64,192,30830,1,0,0:0:0:0:
320,192,30830,1,0,0:0:0:0:
192,192,30933,1,0,0:0:0:0:
448,192,31037,1,0,0:0:0:0:
64,192,31140,1,0,0:0:0:0:
320,192,31140,1,0,0:0:0:0:
192,192,31174,1,0,0:0:0:0:
448,192,31243,1,0,0:0:0:0:
64,192,31347,1,0,0:0:0:0:
448,192,31450,1,0,0:0:0:0:
64,192,31554,1,0,0:0:0:0:
192,192,31554,1,0,0:0:0:0:
320,192,31554,1,0,0:0:0:0:
192,192,31657,1,0,0:0:0:0:
448,192,31761,1,0,0:0:0:0:
64,192,31864,1,0,0:0:0:0:
320,192,31968,128,0,32071:0:0:0:0:
192,192,32037,1,0,0:0:0:0:
64,192,32106,1,0,0:0:0:0:
448,192,32174,1,0,0:0:0:0:
192,192,32174,1,0,0:0:0:0:
320,192,32243,1,0,0:0:0:0:
448,192,32312,1,0,0:0:0:0:
64,192,32381,1,0,0:0:0:0:
192,192,32381,1,0,0:0:0:0:
320,192,32485,1,0,0:0:0:0:
64,192,32485,1,0,0:0:0:0:
448,192,32588,1,0,0:0:0:0:
192,192,32692,1,0,0:0:0:0:
64,192,32795,1,0,0:0:0:0:
320,192,32795,128,0,32899:0:0:0:0:
448,192,32899,1,0,0:0:0:0:
64,192,33002,128,0,33106:0:0:0:0:
192,192,33106,1,0,0:0:0:0:
320,192,33209,1,0,0:0:0:0:
448,192,33209,1,0,0:0:0:0:
64,192,33209,1,0,0:0:0:0:
320,192,33312,1,0,0:0:0:0:
192,192,33416,1,0,0:0:0:0:
64,192,33519,1,0,0:0:0:0:
192,192,33623,128,0,33726:0:0:0:0:
448,192,33726,1,0,0:0:0:0:
64,192,33830,1,0,0:0:0:0:
320,192,33830,1,0,0:0:0:0:
192,192,33899,1,0,0:0:0:0:
448,192,33968,1,0,0:0:0:0:
64,192,34037,1,0,0:0:0:0:
192,192,34037,1,0,0:0:0:0:
320,192,34140,1,0,0:0:0:0:
192,192,34243,1,0,0:0:0:0:
320,192,34347,1,0,0:0:0:0:
64,192,34450,1,0,0:0:0:0:
448,192,34450,1,0,0:0:0:0:
192,192,34485,1,0,0:0:0:0:
320,192,34554,1,0,0:0:0:0:
192,192,34657,1,0,0:0:0:0:
64,192,34761,1,0,0:0:0:0:
192,192,34864,1,0,0:0:0:0:
320,192,34864,1,0,0:0:0:0:
448,192,34864,1,0,0:0:0:0:
320,192,34968,1,0,0:0:0:0:
64,192,35071,1,0,0:0:0:0:
192,192,35174,1,0,0:0:0:0:
448,192,35278,128,0,35381:0:0:0:0:
320,192,35347,1,0,0:0:0:0:
192,192,35416,1,0,0:0:0:0:
64,192,35485,1,0,0:0:0:0:
448,192,35485,1,0,0:0:0:0:
320,192,35554,1,0,0:0:0:0:
448,192,35623,1,0,0:0:0:0:
192,192,35692,1,0,0:0:0:0:
64,192,35692,1,0,0:0:0:0:
64,192,35899,1,0,0:0:0:0:
64,192,36002,1,0,0:0:0:0:
448,192,36106,1,0,0:0:0:0:
192,192,36140,1,0,0:0:0:0:
320,192,36174,1,0,0:0:0:0:
448,192,36312,1,0,0:0:0:0:
448,192,36416,1,0,0:0:0:0:
64,192,36519,1,0,0:0:0:0:
320,192,36519,1,0,0:0:0:0:
192,192,36519,1,0,0:0:0:0:
64,192,36623,1,0,0:0:0:0:
448,192,36726,1,0,0:0:0:0:
192,192,36830,1,0,0:0:0:0:
64,192,36933,128,0,37037:0:0:0:0:
320,192,37037,1,0,0:0:0:0:
192,192,37140,1,0,0:0:0:0:
448,192,37140,1,0,0:0:0:0:
64,192,37243,1,0,0:0:0:0:
320,192,37347,1,0,0:0:0:0:
448,192,37347,1,0,0:0:0:0:
64,192,37450,1,0,0:0:0:0:
320,192,37450,1,0,0:0:0:0:
192,192,37554,1,0,0:0:0:0:
64,192,37657,1,0,0:0:0:0:
192,192,37761,1,0,0:0:0:0:
448,192,37761,1,0,0:0:0:0:
320,192,37795,1,0,0:0:0:0:
64,192,37864,1,0,0:0:0:0:
448,192,37968,1,0,0:0:0:0:
448,192,38071,1,0,0:0:0:0:
64,192,38174,1,0,0:0:0:0:
192,192,38174,1,0,0:0:0:0:
320,192,38174,1,0,0:0:0:0:
192,192,38278,1,0,0:0:0:0:
448,192,38381,1,0,0:0:0:0:
64,192,38485,1,0,0:0:0:0:
320,192,38588,128,0,38692:0:0:0:0:
192,192,38657,5,0,0:0:0:0:
64,192,38726,1,0,0:0:0:0:
448,192,38795,1,0,0:0:0:0:
192,192,38795,1,0,0:0:0:0:
320,192,38864,1,0,0:0:0:0:
448,192,38933,1,0,0:0:0:0:
64,192,39002,1,0,0:0:0:0:
192,192,39002,1,0,0:0:0:0:
320,192,39106,1,0,0:0:0:0:
64,192,39106,1,0,0:0:0:0:
448,192,39209,1,0,0:0:0:0:
320,192,39209,1,0,0:0:0:0:
64,192,39416,128,0,39519:0:0:0:0:
320,192,39416,1,0,0:0:0:0:
448,192,39416,1,0,0:0:0:0:
320,192,39519,1,0,0:0:0:0:
448,192,39519,1,0,0:0:0:0:
64,192,39623,1,0,0:0:0:0:
192,192,39623,1,0,0:0:0:0:
448,192,39623,128,0,39726:0:0:0:0:
64,192,39726,1,0,0:0:0:0:
192,192,39726,1,0,0:0:0:0:
320,192,39830,128,0,41485:0:0:0:0:
448,192,39830,1,0,0:0:0:0:
192,192,40450,128,0,40519:0:0:0:0:
448,192,41485,128,0,43140:0:0:0:0:
192,192,43140,1,0,0:0:0:0:
64,192,43140,128,0,46450:0:0:0:0:
320,192,43140,128,0,43243:0:0:0:0:
320,192,43761,1,0,0:0:0:0:
448,192,43761,1,0,0:0:0:0:
320,192,44174,1,0,0:0:0:0:
448,192,44174,1,0,0:0:0:0:
448,192,44381,1,0,0:0:0:0:
320,192,44381,1,0,0:0:0:0:
448,192,44795,1,0,0:0:0:0:
320,192,44795,128,0,44899:0:0:0:0:
320,192,45416,1,0,0:0:0:0:
448,192,45416,1,0,0:0:0:0:
320,192,45830,1,0,0:0:0:0:
448,192,45830,1,0,0:0:0:0:
320,192,46037,1,0,0:0:0:0:
448,192,46037,1,0,0:0:0:0:
192,192,46450,128,0,48106:0:0:0:0:
448,192,46450,1,0,0:0:0:0:
320,192,46450,1,0,0:0:0:0:
320,192,47071,128,0,47140:0:0:0:0:
64,192,48106,128,0,49761:0:0:0:0:
448,192,49761,128,0,53071:0:0:0:0:
320,192,49761,1,0,0:0:0:0:
192,192,49761,128,0,49864:0:0:0:0:
192,192,50381,1,0,0:0:0:0:
64,192,50381,1,0,0:0:0:0:
192,192,50795,1,0,0:0:0:0:
64,192,50795,1,0,0:0:0:0:
64,192,51002,1,0,0:0:0:0:
192,192,51002,1,0,0:0:0:0:
64,192,51416,1,0,0:0:0:0:
192,192,51416,128,0,51519:0:0:0:0:
64,192,52037,1,0,0:0:0:0:
192,192,52037,1,0,0:0:0:0:
192,192,52450,1,0,0:0:0:0:
64,192,52450,1,0,0:0:0:0:
64,192,52657,1,0,0:0:0:0:
192,192,52657,1,0,0:0:0:0:
320,192,53071,128,0,53174:0:0:0:0:
64,192,53071,128,0,53174:0:0:0:0:
192,192,53485,1,0,0:0:0:0:
448,192,53692,128,0,53761:0:0:0:0:
448,192,54726,128,0,54830:0:0:0:0:
64,192,54726,128,0,54830:0:0:0:0:
192,192,55140,1,0,0:0:0:0:
64,192,55347,1,0,0:0:0:0:
448,192,55554,1,0,0:0:0:0:
320,192,55761,1,0,0:0:0:0:
192,192,55968,1,0,0:0:0:0:
64,192,56174,1,0,0:0:0:0:
448,192,56381,128,0,56485:0:0:0:0:
192,192,56381,128,0,56485:0:0:0:0:
320,192,56588,1,0,0:0:0:0:
192,192,56795,1,0,0:0:0:0:
64,192,57002,1,0,0:0:0:0:
448,192,57209,1,0,0:0:0:0:
320,192,57416,1,0,0:0:0:0:
192,192,57623,1,0,0:0:0:0:
64,192,57830,1,0,0:0:0:0:
448,192,58037,1,0,0:0:0:0:
320,192,58243,1,0,0:0:0:0:
192,192,58450,1,0,0:0:0:0:
64,192,58657,1,0,0:0:0:0:
448,192,58864,1,0,0:0:0:0:
320,192,59071,1,0,0:0:0:0:
192,192,59278,1,0,0:0:0:0:
64,192,59485,1,0,0:0:0:0:
448,192,59692,128,0,59795:0:0:0:0:
192,192,59692,128,0,59795:0:0:0:0:
320,192,59899,1,0,0:0:0:0:
192,192,60106,1,0,0:0:0:0:
320,192,60312,128,0,60381:0:0:0:0:
448,192,60519,1,0,0:0:0:0:
64,192,60726,1,0,0:0:0:0:
192,192,60933,1,0,0:0:0:0:
320,192,61140,1,0,0:0:0:0:
448,192,61347,128,0,61450:0:0:0:0:
64,192,61347,128,0,61450:0:0:0:0:
320,192,61554,1,0,0:0:0:0:
192,192,61761,1,0,0:0:0:0:
64,192,61968,1,0,0:0:0:0:
448,192,62174,1,0,0:0:0:0:
320,192,62381,1,0,0:0:0:0:
192,192,62588,1,0,0:0:0:0:
64,192,62795,1,0,0:0:0:0:
192,192,63002,128,0,63106:0:0:0:0:
320,192,63002,128,0,63106:0:0:0:0:
448,192,63209,1,0,0:0:0:0:
192,192,63416,1,0,0:0:0:0:
64,192,63623,1,0,0:0:0:0:
448,192,63830,1,0,0:0:0:0:
320,192,64037,1,0,0:0:0:0:
192,192,64243,1,0,0:0:0:0:
64,192,64450,1,0,0:0:0:0:
448,192,64657,1,0,0:0:0:0:
320,192,64864,1,0,0:0:0:0:
192,192,65071,1,0,0:0:0:0:
64,192,65278,1,0,0:0:0:0:
320,192,66312,1,0,0:0:0:0:
448,192,66312,1,0,0:0:0:0:
192,192,66364,1,0,0:0:0:0:
448,192,66416,1,0,0:0:0:0:
64,192,66416,1,0,0:0:0:0:
320,192,66468,1,0,0:0:0:0:
192,192,66519,1,0,0:0:0:0:
64,192,66571,1,0,0:0:0:0:
320,192,66623,1,0,0:0:0:0:
448,192,66674,1,0,0:0:0:0:
192,192,66726,1,0,0:0:0:0:
64,192,66778,1,0,0:0:0:0:
320,192,66830,1,0,0:0:0:0:
192,192,66881,1,0,0:0:0:0:
448,192,66933,1,0,0:0:0:0:
64,192,66985,1,0,0:0:0:0:
448,192,67037,1,0,0:0:0:0:
320,192,67088,1,0,0:0:0:0:
192,192,67140,1,0,0:0:0:0:
64,192,67140,1,0,0:0:0:0:
320,192,67347,1,0,0:0:0:0:
448,192,67554,1,0,0:0:0:0:
64,192,67761,1,0,0:0:0:0:
320,192,67968,1,0,0:0:0:0:
448,192,67968,1,0,0:0:0:0:
64,192,68019,1,0,0:0:0:0:
192,192,68071,1,0,0:0:0:0:
448,192,68123,1,0,0:0:0:0:
64,192,68174,1,0,0:0:0:0:
320,192,68226,1,0,0:0:0:0:
192,192,68278,1,0,0:0:0:0:
64,192,68330,1,0,0:0:0:0:
320,192,68381,1,0,0:0:0:0:
448,192,68433,1,0,0:0:0:0:
192,192,68485,1,0,0:0:0:0:
320,192,68537,1,0,0:0:0:0:
448,192,68588,1,0,0:0:0:0:
64,192,68640,1,0,0:0:0:0:
192,192,68692,1,0,0:0:0:0:
320,192,68743,1,0,0:0:0:0:
64,192,68795,1,0,0:0:0:0:
448,192,68795,1,0,0:0:0:0:
448,192,68899,1,0,0:0:0:0:
64,192,69002,1,0,0:0:0:0:
320,192,69002,1,0,0:0:0:0:
64,192,69106,1,0,0:0:0:0:
320,192,69209,128,0,69519:0:0:0:0:
448,192,69209,1,0,0:0:0:0:
192,192,69416,1,0,0:0:0:0:
64,192,69623,1,0,0:0:0:0:
192,192,69623,1,0,0:0:0:0:
448,192,69674,1,0,0:0:0:0:
320,192,69726,1,0,0:0:0:0:
64,192,69778,1,0,0:0:0:0:
192,192,69830,1,0,0:0:0:0:
320,192,69881,1,0,0:0:0:0:
192,192,69933,1,0,0:0:0:0:
448,192,69985,1,0,0:0:0:0:
320,192,70037,1,0,0:0:0:0:
64,192,70088,1,0,0:0:0:0:
448,192,70140,1,0,0:0:0:0:
192,192,70192,1,0,0:0:0:0:
320,192,70243,1,0,0:0:0:0:
64,192,70243,1,0,0:0:0:0:
448,192,70347,1,0,0:0:0:0:
192,192,70399,1,0,0:0:0:0:
320,192,70450,1,0,0:0:0:0:
448,192,70450,1,0,0:0:0:0:
64,192,70502,1,0,0:0:0:0:
192,192,70554,1,0,0:0:0:0:
448,192,70606,1,0,0:0:0:0:
192,192,70657,1,0,0:0:0:0:
64,192,70657,1,0,0:0:0:0:
320,192,70709,1,0,0:0:0:0:
448,192,70761,1,0,0:0:0:0:
64,192,70812,1,0,0:0:0:0:
320,192,70864,1,0,0:0:0:0:
192,192,70864,1,0,0:0:0:0:
64,192,70916,1,0,0:0:0:0:
448,192,70968,1,0,0:0:0:0:
192,192,71019,1,0,0:0:0:0:
448,192,71071,1,0,0:0:0:0:
64,192,71123,1,0,0:0:0:0:
320,192,71174,1,0,0:0:0:0:
448,192,71226,1,0,0:0:0:0:
64,192,71278,1,0,0:0:0:0:
192,192,71278,1,0,0:0:0:0:
320,192,71330,1,0,0:0:0:0:
64,192,71381,1,0,0:0:0:0:
448,192,71433,1,0,0:0:0:0:
320,192,71485,1,0,0:0:0:0:
192,192,71537,1,0,0:0:0:0:
448,192,71588,1,0,0:0:0:0:
64,192,71640,1,0,0:0:0:0:
192,192,71692,1,0,0:0:0:0:
320,192,71743,1,0,0:0:0:0:
448,192,71795,1,0,0:0:0:0:
192,192,71847,1,0,0:0:0:0:
64,192,71899,1,0,0:0:0:0:
320,192,71899,1,0,0:0:0:0:
448,192,71950,1,0,0:0:0:0:
192,192,72002,1,0,0:0:0:0:
64,192,72054,1,0,0:0:0:0:
320,192,72106,1,0,0:0:0:0:
448,192,72106,1,0,0:0:0:0:
192,192,72157,1,0,0:0:0:0:
320,192,72209,1,0,0:0:0:0:
448,192,72261,1,0,0:0:0:0:
192,192,72312,1,0,0:0:0:0:
64,192,72312,1,0,0:0:0:0:
320,192,72364,1,0,0:0:0:0:
64,192,72416,1,0,0:0:0:0:
448,192,72468,1,0,0:0:0:0:
192,192,72519,1,0,0:0:0:0:
320,192,72519,1,0,0:0:0:0:
64,192,72571,1,0,0:0:0:0:
192,192,72623,1,0,0:0:0:0:
448,192,72674,1,0,0:0:0:0:
64,192,72726,1,0,0:0:0:0:
320,192,72778,1,0,0:0:0:0:
192,192,72830,1,0,0:0:0:0:
448,192,72881,1,0,0:0:0:0:
64,192,72933,1,0,0:0:0:0:
192,192,72933,1,0,0:0:0:0:
320,192,72985,1,0,0:0:0:0:
448,192,73037,1,0,0:0:0:0:
192,192,73088,1,0,0:0:0:0:
320,192,73140,1,0,0:0:0:0:
64,192,73192,1,0,0:0:0:0:
192,192,73243,1,0,0:0:0:0:
448,192,73295,1,0,0:0:0:0:
320,192,73347,1,0,0:0:0:0:
64,192,73399,1,0,0:0:0:0:
448,192,73450,1,0,0:0:0:0:
192,192,73502,1,0,0:0:0:0:
64,192,73554,1,0,0:0:0:0:
320,192,73606,1,0,0:0:0:0:
448,192,73657,1,0,0:0:0:0:
64,192,73709,1,0,0:0:0:0:
192,192,73761,1,0,0:0:0:0:
320,192,73761,1,0,0:0:0:0:
448,192,73864,1,0,0:0:0:0:
64,192,73968,1,0,0:0:0:0:
192,192,73968,1,0,0:0:0:0:
320,192,74071,1,0,0:0:0:0:
192,192,74174,1,0,0:0:0:0:
448,192,74174,1,0,0:0:0:0:
64,192,74278,1,0,0:0:0:0:
320,192,74381,1,0,0:0:0:0:
448,192,74381,1,0,0:0:0:0:
192,192,74485,1,0,0:0:0:0:
64,192,74588,1,0,0:0:0:0:
448,192,74588,1,0,0:0:0:0:
320,192,74640,1,0,0:0:0:0:
192,192,74692,1,0,0:0:0:0:
448,192,74743,1,0,0:0:0:0:
64,192,74795,1,0,0:0:0:0:
320,192,74847,1,0,0:0:0:0:
192,192,74899,1,0,0:0:0:0:
448,192,74950,1,0,0:0:0:0:
192,192,75002,1,0,0:0:0:0:
320,192,75002,1,0,0:0:0:0:
64,192,75054,1,0,0:0:0:0:
448,192,75106,1,0,0:0:0:0:
192,192,75157,1,0,0:0:0:0:
320,192,75209,1,0,0:0:0:0:
64,192,75261,1,0,0:0:0:0:
448,192,75312,1,0,0:0:0:0:
192,192,75364,1,0,0:0:0:0:
320,192,75416,1,0,0:0:0:0:
448,192,75416,1,0,0:0:0:0:
64,192,75519,1,0,0:0:0:0:
448,192,75623,1,0,0:0:0:0:
192,192,75726,1,0,0:0:0:0:
64,192,75830,1,0,0:0:0:0:
320,192,75830,1,0,0:0:0:0:
448,192,75933,1,0,0:0:0:0:
320,192,76037,1,0,0:0:0:0:
192,192,76037,1,0,0:0:0:0:
64,192,76140,1,0,0:0:0:0:
320,192,76243,1,0,0:0:0:0:
448,192,76243,1,0,0:0:0:0:
192,192,76295,1,0,0:0:0:0:
64,192,76347,1,0,0:0:0:0:
320,192,76399,1,0,0:0:0:0:
192,192,76450,1,0,0:0:0:0:
448,192,76450,1,0,0:0:0:0:
64,192,76502,1,0,0:0:0:0:
320,192,76554,1,0,0:0:0:0:
192,192,76606,1,0,0:0:0:0:
448,192,76657,1,0,0:0:0:0:
64,192,76709,1,0,0:0:0:0:
192,192,76761,1,0,0:0:0:0:
64,192,76812,1,0,0:0:0:0:
320,192,76864,1,0,0:0:0:0:
448,192,76864,1,0,0:0:0:0:
192,192,76916,1,0,0:0:0:0:
448,192,76968,1,0,0:0:0:0:
320,192,77019,1,0,0:0:0:0:
64,192,77071,1,0,0:0:0:0:
192,192,77071,1,0,0:0:0:0:
448,192,77123,1,0,0:0:0:0:
64,192,77174,1,0,0:0:0:0:
320,192,77226,1,0,0:0:0:0:
192,192,77278,1,0,0:0:0:0:
448,192,77278,1,0,0:0:0:0:
64,192,77330,1,0,0:0:0:0:
320,192,77381,1,0,0:0:0:0:
192,192,77433,1,0,0:0:0:0:
320,192,77485,1,0,0:0:0:0:
448,192,77485,1,0,0:0:0:0:
64,192,77537,1,0,0:0:0:0:
192,192,77588,1,0,0:0:0:0:
448,192,77640,1,0,0:0:0:0:
64,192,77692,1,0,0:0:0:0:
320,192,77743,1,0,0:0:0:0:
192,192,77795,1,0,0:0:0:0:
64,192,77847,1,0,0:0:0:0:
320,192,77899,1,0,0:0:0:0:
448,192,77899,1,0,0:0:0:0:
192,192,77950,1,0,0:0:0:0:
320,192,78002,1,0,0:0:0:0:
64,192,78054,1,0,0:0:0:0:
448,192,78106,1,0,0:0:0:0:
192,192,78106,1,0,0:0:0:0:
320,192,78157,1,0,0:0:0:0:
448,192,78209,1,0,0:0:0:0:
192,192,78261,1,0,0:0:0:0:
64,192,78312,1,0,0:0:0:0:
320,192,78364,1,0,0:0:0:0:
192,192,78416,1,0,0:0:0:0:
64,192,78468,1,0,0:0:0:0:
320,192,78519,1,0,0:0:0:0:
448,192,78519,1,0,0:0:0:0:
192,192,78571,1,0,0:0:0:0:
320,192,78623,1,0,0:0:0:0:
448,192,78674,1,0,0:0:0:0:
64,192,78726,1,0,0:0:0:0:
192,192,78726,1,0,0:0:0:0:
320,192,78795,1,0,0:0:0:0:
64,192,78864,1,0,0:0:0:0:
192,192,78933,1,0,0:0:0:0:
448,192,78933,1,0,0:0:0:0:
320,192,79002,1,0,0:0:0:0:
64,192,79071,1,0,0:0:0:0:
448,192,79140,1,0,0:0:0:0:
320,192,79140,1,0,0:0:0:0:
192,192,79209,1,0,0:0:0:0:
448,192,79278,1,0,0:0:0:0:
320,192,79347,1,0,0:0:0:0:
64,192,79416,1,0,0:0:0:0:
448,192,79485,1,0,0:0:0:0:
192,192,79554,1,0,0:0:0:0:
320,192,79554,1,0,0:0:0:0:
64,192,79606,1,0,0:0:0:0:
448,192,79657,1,0,0:0:0:0:
192,192,79709,1,0,0:0:0:0:
320,192,79761,1,0,0:0:0:0:
64,192,79812,1,0,0:0:0:0:
192,192,79864,1,0,0:0:0:0:
448,192,79916,1,0,0:0:0:0:
64,192,79968,1,0,0:0:0:0:
320,192,80019,1,0,0:0:0:0:
192,192,80071,1,0,0:0:0:0:
448,192,80123,1,0,0:0:0:0:
320,192,80174,1,0,0:0:0:0:
64,192,80226,1,0,0:0:0:0:
192,192,80278,1,0,0:0:0:0:
320,192,80330,1,0,0:0:0:0:
64,192,80381,1,0,0:0:0:0:
192,192,80381,1,0,0:0:0:0:
320,192,80588,1,0,0:0:0:0:
448,192,80795,1,0,0:0:0:0:
64,192,81002,1,0,0:0:0:0:
448,192,81209,1,0,0:0:0:0:
320,192,81209,1,0,0:0:0:0:
192,192,81261,1,0,0:0:0:0:
64,192,81312,1,0,0:0:0:0:
448,192,81364,1,0,0:0:0:0:
192,192,81416,1,0,0:0:0:0:
320,192,81468,1,0,0:0:0:0:
64,192,81519,1,0,0:0:0:0:
192,192,81571,1,0,0:0:0:0:
320,192,81623,1,0,0:0:0:0:
64,192,81674,1,0,0:0:0:0:
448,192,81726,1,0,0:0:0:0:
320,192,81778,1,0,0:0:0:0:
192,192,81830,1,0,0:0:0:0:
448,192,81881,1,0,0:0:0:0:
64,192,81933,1,0,0:0:0:0:
320,192,81985,1,0,0:0:0:0:
192,192,82037,1,0,0:0:0:0:
448,192,82037,1,0,0:0:0:0:
320,192,82243,1,0,0:0:0:0:
192,192,82450,1,0,0:0:0:0:
320,192,82450,128,0,82761:0:0:0:0:
64,192,82657,1,0,0:0:0:0:
448,192,82657,1,0,0:0:0:0:
192,192,82726,1,0,0:0:0:0:
64,192,82795,1,0,0:0:0:0:
448,192,82864,1,0,0:0:0:0:
320,192,82864,1,0,0:0:0:0:
64,192,82916,1,0,0:0:0:0:
192,192,82968,1,0,0:0:0:0:
448,192,83019,1,0,0:0:0:0:
320,192,83071,1,0,0:0:0:0:
192,192,83123,1,0,0:0:0:0:
320,192,83174,1,0,0:0:0:0:
64,192,83226,1,0,0:0:0:0:
192,192,83278,1,0,0:0:0:0:
448,192,83330,1,0,0:0:0:0:
64,192,83381,1,0,0:0:0:0:
320,192,83433,1,0,0:0:0:0:
192,192,83485,1,0,0:0:0:0:
448,192,83485,1,0,0:0:0:0:
64,192,83588,1,0,0:0:0:0:
320,192,83640,1,0,0:0:0:0:
192,192,83692,1,0,0:0:0:0:
64,192,83692,1,0,0:0:0:0:
448,192,83743,1,0,0:0:0:0:
320,192,83795,1,0,0:0:0:0:
64,192,83847,1,0,0:0:0:0:
320,192,83899,1,0,0:0:0:0:
448,192,83899,1,0,0:0:0:0:
192,192,83950,1,0,0:0:0:0:
64,192,84002,1,0,0:0:0:0:
448,192,84054,1,0,0:0:0:0:
192,192,84106,1,0,0:0:0:0:
320,192,84106,1,0,0:0:0:0:
448,192,84157,1,0,0:0:0:0:
64,192,84209,1,0,0:0:0:0:
320,192,84261,1,0,0:0:0:0:
64,192,84312,1,0,0:0:0:0:
448,192,84364,1,0,0:0:0:0:
192,192,84416,1,0,0:0:0:0:
64,192,84468,1,0,0:0:0:0:
448,192,84519,1,0,0:0:0:0:
320,192,84519,1,0,0:0:0:0:
192,192,84571,1,0,0:0:0:0:
448,192,84623,1,0,0:0:0:0:
64,192,84674,1,0,0:0:0:0:
192,192,84726,1,0,0:0:0:0:
320,192,84778,1,0,0:0:0:0:
64,192,84830,1,0,0:0:0:0:
448,192,84881,1,0,0:0:0:0:
320,192,84933,1,0,0:0:0:0:
192,192,84985,1,0,0:0:0:0:
64,192,85037,1,0,0:0:0:0:
320,192,85088,1,0,0:0:0:0:
448,192,85140,1,0,0:0:0:0:
192,192,85140,1,0,0:0:0:0:
64,192,85192,1,0,0:0:0:0:
320,192,85243,1,0,0:0:0:0:
448,192,85295,1,0,0:0:0:0:
192,192,85347,1,0,0:0:0:0:
64,192,85347,1,0,0:0:0:0:
320,192,85399,1,0,0:0:0:0:
192,192,85450,1,0,0:0:0:0:
64,192,85502,1,0,0:0:0:0:
320,192,85554,1,0,0:0:0:0:
448,192,85554,1,0,0:0:0:0:
192,192,85606,1,0,0:0:0:0:
448,192,85657,1,0,0:0:0:0:
64,192,85709,1,0,0:0:0:0:
320,192,85761,1,0,0:0:0:0:
192,192,85761,1,0,0:0:0:0:
448,192,85812,1,0,0:0:0:0:
320,192,85864,1,0,0:0:0:0:
64,192,85916,1,0,0:0:0:0:
448,192,85968,1,0,0:0:0:0:
192,192,86019,1,0,0:0:0:0:
320,192,86071,1,0,0:0:0:0:
64,192,86123,1,0,0:0:0:0:
448,192,86174,1,0,0:0:0:0:
320,192,86174,1,0,0:0:0:0:
192,192,86226,1,0,0:0:0:0:
64,192,86278,1,0,0:0:0:0:
320,192,86330,1,0,0:0:0:0:
192,192,86381,1,0,0:0:0:0:
448,192,86433,1,0,0:0:0:0:
320,192,86485,1,0,0:0:0:0:
64,192,86537,1,0,0:0:0:0:
192,192,86588,1,0,0:0:0:0:
448,192,86640,1,0,0:0:0:0:
64,192,86692,1,0,0:0:0:0:
320,192,86743,1,0,0:0:0:0:
448,192,86795,1,0,0:0:0:0:
192,192,86847,1,0,0:0:0:0:
64,192,86899,1,0,0:0:0:0:
448,192,86950,1,0,0:0:0:0:
320,192,87002,1,0,0:0:0:0:
192,192,87002,1,0,0:0:0:0:
64,192,87106,1,0,0:0:0:0:
448,192,87209,1,0,0:0:0:0:
320,192,87209,1,0,0:0:0:0:
192,192,87312,1,0,0:0:0:0:
320,192,87416,1,0,0:0:0:0:
64,192,87416,1,0,0:0:0:0:
448,192,87519,1,0,0:0:0:0:
192,192,87623,1,0,0:0:0:0:
64,192,87623,1,0,0:0:0:0:
320,192,87726,1,0,0:0:0:0:
448,192,87830,1,0,0:0:0:0:
64,192,87830,1,0,0:0:0:0:
192,192,87881,1,0,0:0:0:0:
320,192,87933,1,0,0:0:0:0:
64,192,87985,1,0,0:0:0:0:
448,192,88037,1,0,0:0:0:0:
192,192,88088,1,0,0:0:0:0:
320,192,88140,1,0,0:0:0:0:
64,192,88192,1,0,0:0:0:0:
320,192,88243,1,0,0:0:0:0:
192,192,88243,1,0,0:0:0:0:
448,192,88295,1,0,0:0:0:0:
64,192,88347,1,0,0:0:0:0:
320,192,88399,1,0,0:0:0:0:
192,192,88450,1,0,0:0:0:0:
448,192,88502,1,0,0:0:0:0:
64,192,88554,1,0,0:0:0:0:
320,192,88606,1,0,0:0:0:0:
192,192,88657,1,0,0:0:0:0:
64,192,88657,1,0,0:0:0:0:
448,192,88761,1,0,0:0:0:0:
64,192,88864,1,0,0:0:0:0:
320,192,88968,1,0,0:0:0:0:
448,192,89071,1,0,0:0:0:0:
192,192,89071,1,0,0:0:0:0:
64,192,89174,1,0,0:0:0:0:
192,192,89278,1,0,0:0:0:0:
320,192,89278,1,0,0:0:0:0:
448,192,89381,1,0,0:0:0:0:
192,192,89485,1,0,0:0:0:0:
64,192,89485,1,0,0:0:0:0:
320,192,89537,1,0,0:0:0:0:
448,192,89588,1,0,0:0:0:0:
192,192,89640,1,0,0:0:0:0:
320,192,89692,1,0,0:0:0:0:
64,192,89692,1,0,0:0:0:0:
448,192,89743,1,0,0:0:0:0:
192,192,89795,1,0,0:0:0:0:
320,192,89847,1,0,0:0:0:0:
64,192,89899,1,0,0:0:0:0:
448,192,89950,1,0,0:0:0:0:
320,192,90002,1,0,0:0:0:0:
448,192,90054,1,0,0:0:0:0:
192,192,90106,1,0,0:0:0:0:
64,192,90106,1,0,0:0:0:0:
320,192,90157,1,0,0:0:0:0:
64,192,90209,1,0,0:0:0:0:
192,192,90261,1,0,0:0:0:0:
448,192,90312,1,0,0:0:0:0:
320,192,90312,1,0,0:0:0:0:
64,192,90364,1,0,0:0:0:0:
448,192,90416,1,0,0:0:0:0:
192,192,90468,1,0,0:0:0:0:
320,192,90519,1,0,0:0:0:0:
64,192,90519,1,0,0:0:0:0:
448,192,90571,1,0,0:0:0:0:
192,192,90623,1,0,0:0:0:0:
320,192,90674,1,0,0:0:0:0:
192,192,90726,1,0,0:0:0:0:
64,192,90726,1,0,0:0:0:0:
448,192,90778,1,0,0:0:0:0:
320,192,90830,1,0,0:0:0:0:
64,192,90881,1,0,0:0:0:0:
448,192,90933,1,0,0:0:0:0:
192,192,90985,1,0,0:0:0:0:
320,192,91037,1,0,0:0:0:0:
448,192,91088,1,0,0:0:0:0:
192,192,91140,1,0,0:0:0:0:
64,192,91140,1,0,0:0:0:0:
320,192,91192,1,0,0:0:0:0:
192,192,91243,1,0,0:0:0:0:
448,192,91295,1,0,0:0:0:0:
64,192,91347,1,0,0:0:0:0:
320,192,91347,1,0,0:0:0:0:
192,192,91399,1,0,0:0:0:0:
64,192,91450,1,0,0:0:0:0:
320,192,91502,1,0,0:0:0:0:
448,192,91554,1,0,0:0:0:0:
192,192,91606,1,0,0:0:0:0:
320,192,91657,1,0,0:0:0:0:
448,192,91709,1,0,0:0:0:0:
192,192,91761,1,0,0:0:0:0:
64,192,91761,1,0,0:0:0:0:
320,192,91812,1,0,0:0:0:0:
192,192,91864,1,0,0:0:0:0:
64,192,91916,1,0,0:0:0:0:
448,192,91968,1,0,0:0:0:0:
320,192,91968,1,0,0:0:0:0:
192,192,92019,1,0,0:0:0:0:
64,192,92071,1,0,0:0:0:0:
448,192,92123,1,0,0:0:0:0:
320,192,92174,1,0,0:0:0:0:
192,192,92174,1,0,0:0:0:0:
64,192,92226,1,0,0:0:0:0:
320,192,92278,1,0,0:0:0:0:
448,192,92330,1,0,0:0:0:0:
64,192,92381,1,0,0:0:0:0:
192,192,92381,1,0,0:0:0:0:
448,192,92433,1,0,0:0:0:0:
320,192,92485,1,0,0:0:0:0:
64,192,92537,1,0,0:0:0:0:
192,192,92588,1,0,0:0:0:0:
448,192,92640,1,0,0:0:0:0:
64,192,92692,1,0,0:0:0:0:
320,192,92743,1,0,0:0:0:0:
448,192,92795,1,0,0:0:0:0:
192,192,92795,1,0,0:0:0:0:
64,192,92795,128,0,92899:0:0:0:0:
320,192,93002,1,0,0:0:0:0:
192,192,93209,1,0,0:0:0:0:
448,192,93416,1,0,0:0:0:0:
192,192,93416,1,0,0:0:0:0:
64,192,93416,128,0,93485:0:0:0:0:
320,192,93623,1,0,0:0:0:0:
448,192,93623,1,0,0:0:0:0:
64,192,93830,1,0,0:0:0:0:
64,192,94037,1,0,0:0:0:0:
192,192,94037,1,0,0:0:0:0:
448,192,94037,1,0,0:0:0:0:
320,192,94243,1,0,0:0:0:0:
448,192,94450,128,0,94554:0:0:0:0:
192,192,94450,1,0,0:0:0:0:
320,192,94450,1,0,0:0:0:0:
64,192,94657,1,0,0:0:0:0:
320,192,94864,1,0,0:0:0:0:
192,192,95071,1,0,0:0:0:0:
320,192,95071,1,0,0:0:0:0:
448,192,95071,1,0,0:0:0:0:
64,192,95278,1,0,0:0:0:0:
192,192,95278,1,0,0:0:0:0:
448,192,95485,1,0,0:0:0:0:
192,192,95692,1,0,0:0:0:0:
320,192,95692,1,0,0:0:0:0:
448,192,95692,1,0,0:0:0:0:
64,192,95899,1,0,0:0:0:0:
64,192,96106,128,0,96209:0:0:0:0:
192,192,96106,1,0,0:0:0:0:
320,192,96106,1,0,0:0:0:0:
448,192,96312,1,0,0:0:0:0:
64,192,96519,1,0,0:0:0:0:
192,192,96726,128,0,96830:0:0:0:0:
64,192,96726,1,0,0:0:0:0:
320,192,96726,1,0,0:0:0:0:
320,192,96933,1,0,0:0:0:0:
448,192,96933,1,0,0:0:0:0:
64,192,97037,1,0,0:0:0:0:
192,192,97037,1,0,0:0:0:0:
448,192,97140,128,0,97243:0:0:0:0:
64,192,97347,1,0,0:0:0:0:
192,192,97347,1,0,0:0:0:0:
320,192,97347,128,0,97450:0:0:0:0:
448,192,97554,1,0,0:0:0:0:
192,192,97761,1,0,0:0:0:0:
320,192,97761,1,0,0:0:0:0:
64,192,97761,128,0,97864:0:0:0:0:
448,192,97968,1,0,0:0:0:0:
64,192,98174,1,0,0:0:0:0:
64,192,98381,1,0,0:0:0:0:
320,192,98381,1,0,0:0:0:0:
192,192,98381,128,0,98485:0:0:0:0:
320,192,98588,1,0,0:0:0:0:
448,192,98588,1,0,0:0:0:0:
64,192,98692,1,0,0:0:0:0:
192,192,98692,1,0,0:0:0:0:
448,192,98795,128,0,98899:0:0:0:0:
64,192,99002,1,0,0:0:0:0:
192,192,99002,1,0,0:0:0:0:
320,192,99002,128,0,99106:0:0:0:0:
192,192,99209,1,0,0:0:0:0:
64,192,99416,1,0,0:0:0:0:
320,192,99416,1,0,0:0:0:0:
448,192,99416,128,0,99519:0:0:0:0:
192,192,99623,1,0,0:0:0:0:
320,192,99830,1,0,0:0:0:0:
320,192,100037,1,0,0:0:0:0:
448,192,100037,1,0,0:0:0:0:
64,192,100037,1,0,0:0:0:0:
64,192,100243,1,0,0:0:0:0:
192,192,100243,1,0,0:0:0:0:
448,192,100450,1,0,0:0:0:0:
64,192,100657,1,0,0:0:0:0:
320,192,100657,1,0,0:0:0:0:
448,192,100657,1,0,0:0:0:0:
192,192,100864,1,0,0:0:0:0:
320,192,101071,1,0,0:0:0:0:
192,192,101071,1,0,0:0:0:0:
64,192,101071,128,0,101174:0:0:0:0:
448,192,101278,1,0,0:0:0:0:
192,192,101485,1,0,0:0:0:0:
320,192,101692,1,0,0:0:0:0:
192,192,101692,1,0,0:0:0:0:
64,192,101692,1,0,0:0:0:0:
320,192,101899,1,0,0:0:0:0:
448,192,101899,1,0,0:0:0:0:
64,192,102106,1,0,0:0:0:0:
320,192,102312,1,0,0:0:0:0:
192,192,102312,1,0,0:0:0:0:
64,192,102312,1,0,0:0:0:0:
448,192,102519,1,0,0:0:0:0:
320,192,102726,1,0,0:0:0:0:
192,192,102726,1,0,0:0:0:0:
448,192,102726,128,0,102830:0:0:0:0:
64,192,102933,1,0,0:0:0:0:
448,192,103140,1,0,0:0:0:0:
448,192,103347,1,0,0:0:0:0:
192,192,103347,1,0,0:0:0:0:
320,192,103347,128,0,103450:0:0:0:0:
64,192,103554,1,0,0:0:0:0:
192,192,103554,1,0,0:0:0:0:
448,192,103657,1,0,0:0:0:0:
320,192,103657,1,0,0:0:0:0:
64,192,103761,128,0,103864:0:0:0:0:
448,192,103968,1,0,0:0:0:0:
320,192,103968,1,0,0:0:0:0:
192,192,103968,128,0,104071:0:0:0:0:
64,192,104174,1,0,0:0:0:0:
320,192,104381,1,0,0:0:0:0:
192,192,104381,1,0,0:0:0:0:
448,192,104381,128,0,104485:0:0:0:0:
192,192,105002,5,0,0:0:0:0:
448,192,105002,1,0,0:0:0:0:
320,192,105002,1,0,0:0:0:0:
320,192,105623,1,0,0:0:0:0:
448,192,105623,1,0,0:0:0:0:
192,192,105623,1,0,0:0:0:0:
448,192,106037,128,0,106450:0:0:0:0:
320,192,106037,1,0,0:0:0:0:
192,192,106243,1,0,0:0:0:0:
64,192,106450,128,0,106554:0:0:0:0:
448,192,106657,128,0,106864:0:0:0:0:
320,192,106657,1,0,0:0:0:0:
64,192,106864,1,0,0:0:0:0:
192,192,106864,128,0,107278:0:0:0:0:
448,192,107071,128,0,107174:0:0:0:0:
320,192,107071,1,0,0:0:0:0:
448,192,107278,128,0,107485:0:0:0:0:
320,192,107278,1,0,0:0:0:0:
64,192,107485,1,0,0:0:0:0:
64,192,107692,128,0,108106:0:0:0:0:
192,192,107692,1,0,0:0:0:0:
320,192,107899,1,0,0:0:0:0:
448,192,108106,128,0,108209:0:0:0:0:
64,192,108312,128,0,108519:0:0:0:0:
192,192,108312,1,0,0:0:0:0:
320,192,108519,1,0,0:0:0:0:
448,192,108519,1,0,0:0:0:0:
64,192,108726,128,0,108830:0:0:0:0:
448,192,108726,1,0,0:0:0:0:
448,192,108830,1,0,0:0:0:0:
64,192,108933,128,0,109140:0:0:0:0:
320,192,108933,128,0,109037:0:0:0:0:
448,192,109140,128,0,109243:0:0:0:0:
192,192,109140,1,0,0:0:0:0:
192,192,109243,1,0,0:0:0:0:
320,192,109347,128,0,109761:0:0:0:0:
448,192,109347,1,0,0:0:0:0:
192,192,109554,1,0,0:0:0:0:
64,192,109761,128,0,109864:0:0:0:0:
320,192,109968,128,0,110174:0:0:0:0:
448,192,109968,1,0,0:0:0:0:
64,192,110174,1,0,0:0:0:0:
192,192,110174,1,0,0:0:0:0:
320,192,110381,128,0,110485:0:0:0:0:
448,192,110381,1,0,0:0:0:0:
320,192,110588,128,0,110795:0:0:0:0:
448,192,110588,1,0,0:0:0:0:
192,192,110795,1,0,0:0:0:0:
192,192,111002,128,0,111416:0:0:0:0:
64,192,111002,1,0,0:0:0:0:
320,192,111209,1,0,0:0:0:0:
448,192,111416,128,0,111519:0:0:0:0:
192,192,111623,128,0,111830:0:0:0:0:
64,192,111623,1,0,0:0:0:0:
320,192,111830,1,0,0:0:0:0:
448,192,111830,1,0,0:0:0:0:
448,192,112037,128,0,112140:0:0:0:0:
192,192,112037,1,0,0:0:0:0:
320,192,112243,128,0,112450:0:0:0:0:
64,192,112243,128,0,112347:0:0:0:0:
192,192,112450,128,0,112554:0:0:0:0:
448,192,112657,128,0,113071:0:0:0:0:
192,192,112657,1,0,0:0:0:0:
320,192,112864,1,0,0:0:0:0:
64,192,113071,128,0,113174:0:0:0:0:
448,192,113278,128,0,113485:0:0:0:0:
192,192,113278,1,0,0:0:0:0:
64,192,113485,1,0,0:0:0:0:
320,192,113485,128,0,113899:0:0:0:0:
448,192,113692,128,0,113795:0:0:0:0:
192,192,113692,1,0,0:0:0:0:
448,192,113899,128,0,114106:0:0:0:0:
192,192,113899,1,0,0:0:0:0:
64,192,114106,1,0,0:0:0:0:
64,192,114312,128,0,114726:0:0:0:0:
320,192,114312,1,0,0:0:0:0:
192,192,114519,1,0,0:0:0:0:
448,192,114726,128,0,114830:0:0:0:0:
64,192,114933,128,0,115140:0:0:0:0:
320,192,114933,1,0,0:0:0:0:
192,192,115140,1,0,0:0:0:0:
448,192,115140,1,0,0:0:0:0:
64,192,115347,128,0,115450:0:0:0:0:
320,192,115347,1,0,0:0:0:0:
192,192,115347,1,0,0:0:0:0:
64,192,115554,128,0,115761:0:0:0:0:
320,192,115554,128,0,115657:0:0:0:0:
192,192,115554,1,0,0:0:0:0:
448,192,115761,128,0,115864:0:0:0:0:
192,192,115761,1,0,0:0:0:0:
192,192,115968,128,0,116381:0:0:0:0:
448,192,115968,1,0,0:0:0:0:
320,192,116174,1,0,0:0:0:0:
64,192,116381,128,0,116485:0:0:0:0:
192,192,116588,128,0,116795:0:0:0:0:
448,192,116588,1,0,0:0:0:0:
64,192,116795,1,0,0:0:0:0:
320,192,116795,1,0,0:0:0:0:
192,192,117002,128,0,117106:0:0:0:0:
448,192,117002,1,0,0:0:0:0:
192,192,117209,128,0,117416:0:0:0:0:
448,192,117209,1,0,0:0:0:0:
320,192,117416,1,0,0:0:0:0:
320,192,117623,128,0,118037:0:0:0:0:
64,192,117623,1,0,0:0:0:0:
192,192,117830,1,0,0:0:0:0:
448,192,118037,128,0,118140:0:0:0:0:
320,192,118243,128,0,118450:0:0:0:0:
64,192,118243,1,0,0:0:0:0:
192,192,118450,1,0,0:0:0:0:
448,192,118450,1,0,0:0:0:0:
64,192,118450,128,0,118554:0:0:0:0:
320,192,118657,1,0,0:0:0:0:
64,192,118657,128,0,118761:0:0:0:0:
448,192,118864,128,0,118968:0:0:0:0:
64,192,118864,128,0,118968:0:0:0:0:
320,192,119071,128,0,119174:0:0:0:0:
64,192,119071,128,0,119174:0:0:0:0:
448,192,119278,128,0,119692:0:0:0:0:
192,192,119278,1,0,0:0:0:0:
320,192,119485,1,0,0:0:0:0:
64,192,119692,128,0,119795:0:0:0:0:
192,192,119761,1,0,0:0:0:0:
320,192,119830,1,0,0:0:0:0:
448,192,119899,128,0,120106:0:0:0:0:
192,192,119899,1,0,0:0:0:0:
64,192,119968,1,0,0:0:0:0:
320,192,120037,1,0,0:0:0:0:
192,192,120106,1,0,0:0:0:0:
64,192,120106,128,0,120519:0:0:0:0:
448,192,120312,128,0,120416:0:0:0:0:
320,192,120312,1,0,0:0:0:0:
448,192,120519,128,0,120726:0:0:0:0:
192,192,120519,1,0,0:0:0:0:
320,192,120571,1,0,0:0:0:0:
64,192,120623,1,0,0:0:0:0:
320,192,120726,1,0,0:0:0:0:
64,192,120933,128,0,121347:0:0:0:0:
448,192,120933,1,0,0:0:0:0:
192,192,121140,1,0,0:0:0:0:
320,192,121347,128,0,121450:0:0:0:0:
64,192,121554,128,0,121761:0:0:0:0:
192,192,121554,1,0,0:0:0:0:
320,192,121761,1,0,0:0:0:0:
448,192,121761,1,0,0:0:0:0:
192,192,121899,1,0,0:0:0:0:
64,192,121968,128,0,122071:0:0:0:0:
320,192,122037,1,0,0:0:0:0:
64,192,122174,128,0,122381:0:0:0:0:
448,192,122174,1,0,0:0:0:0:
320,192,122312,1,0,0:0:0:0:
192,192,122450,1,0,0:0:0:0:
320,192,122588,128,0,123002:0:0:0:0:
64,192,122588,1,0,0:0:0:0:
192,192,122795,1,0,0:0:0:0:
448,192,123002,128,0,123106:0:0:0:0:
192,192,123071,1,0,0:0:0:0:
64,192,123140,1,0,0:0:0:0:
320,192,123209,128,0,123416:0:0:0:0:
448,192,123209,1,0,0:0:0:0:
192,192,123278,1,0,0:0:0:0:
448,192,123347,1,0,0:0:0:0:
64,192,123416,1,0,0:0:0:0:
192,192,123416,1,0,0:0:0:0:
320,192,123623,128,0,123726:0:0:0:0:
448,192,123623,1,0,0:0:0:0:
320,192,123830,128,0,124037:0:0:0:0:
192,192,123830,1,0,0:0:0:0:
64,192,123881,1,0,0:0:0:0:
448,192,123933,1,0,0:0:0:0:
64,192,124037,1,0,0:0:0:0:
192,192,124243,128,0,124657:0:0:0:0:
320,192,124243,1,0,0:0:0:0:
64,192,124450,1,0,0:0:0:0:
448,192,124657,128,0,124726:0:0:0:0:
64,192,124726,1,0,0:0:0:0:
320,192,124795,1,0,0:0:0:0:
192,192,124864,128,0,125071:0:0:0:0:
448,192,124864,1,0,0:0:0:0:
320,192,124933,1,0,0:0:0:0:
64,192,125002,1,0,0:0:0:0:
448,192,125071,1,0,0:0:0:0:
320,192,125071,1,0,0:0:0:0:
192,192,125209,1,0,0:0:0:0:
448,192,125278,128,0,125381:0:0:0:0:
64,192,125347,1,0,0:0:0:0:
320,192,125485,128,0,125692:0:0:0:0:
192,192,125485,128,0,125588:0:0:0:0:
448,192,125692,128,0,125795:0:0:0:0:
64,192,125899,128,0,126312:0:0:0:0:
320,192,125899,1,0,0:0:0:0:
192,192,126106,1,0,0:0:0:0:
320,192,126312,128,0,126416:0:0:0:0:
448,192,126381,1,0,0:0:0:0:
192,192,126450,1,0,0:0:0:0:
64,192,126519,128,0,126726:0:0:0:0:
320,192,126519,1,0,0:0:0:0:
448,192,126588,1,0,0:0:0:0:
192,192,126657,1,0,0:0:0:0:
448,192,126726,1,0,0:0:0:0:
320,192,126726,128,0,127140:0:0:0:0:
64,192,126933,128,0,127037:0:0:0:0:
192,192,126933,1,0,0:0:0:0:
64,192,127140,128,0,127347:0:0:0:0:
448,192,127140,1,0,0:0:0:0:
320,192,127347,1,0,0:0:0:0:
448,192,127554,128,0,127968:0:0:0:0:
192,192,127554,1,0,0:0:0:0:
64,192,127761,1,0,0:0:0:0:
192,192,127968,128,0,128071:0:0:0:0:
448,192,128174,128,0,128381:0:0:0:0:
320,192,128174,1,0,0:0:0:0:
192,192,128381,1,0,0:0:0:0:
64,192,128381,1,0,0:0:0:0:
320,192,128519,1,0,0:0:0:0:
448,192,128588,128,0,128692:0:0:0:0:
64,192,128588,1,0,0:0:0:0:
192,192,128657,1,0,0:0:0:0:
448,192,128795,128,0,129002:0:0:0:0:
320,192,128795,1,0,0:0:0:0:
64,192,128795,1,0,0:0:0:0:
64,192,129002,1,0,0:0:0:0:
192,192,129209,128,0,129623:0:0:0:0:
320,192,129209,1,0,0:0:0:0:
64,192,129416,1,0,0:0:0:0:
448,192,129623,128,0,129726:0:0:0:0:
64,192,129692,1,0,0:0:0:0:
320,192,129761,1,0,0:0:0:0:
192,192,129830,128,0,130037:0:0:0:0:
448,192,129830,1,0,0:0:0:0:
320,192,129899,1,0,0:0:0:0:
64,192,129968,1,0,0:0:0:0:
448,192,130037,1,0,0:0:0:0:
320,192,130037,1,0,0:0:0:0:
192,192,130243,128,0,130347:0:0:0:0:
64,192,130243,1,0,0:0:0:0:
192,192,130450,128,0,130657:0:0:0:0:
320,192,130450,1,0,0:0:0:0:
64,192,130502,1,0,0:0:0:0:
448,192,130554,1,0,0:0:0:0:
64,192,130657,1,0,0:0:0:0:
320,192,130864,128,0,131278:0:0:0:0:
448,192,130864,1,0,0:0:0:0:
192,192,131071,1,0,0:0:0:0:
448,192,131278,128,0,131381:0:0:0:0:
64,192,131347,1,0,0:0:0:0:
192,192,131416,1,0,0:0:0:0:
320,192,131485,128,0,131692:0:0:0:0:
448,192,131485,1,0,0:0:0:0:
64,192,131554,1,0,0:0:0:0:
448,192,131623,1,0,0:0:0:0:
64,192,131692,128,0,131795:0:0:0:0:
192,192,131692,1,0,0:0:0:0:
448,192,131830,1,0,0:0:0:0:
64,192,131899,128,0,132002:0:0:0:0:
320,192,131968,1,0,0:0:0:0:
64,192,132106,128,0,132209:0:0:0:0:
192,192,132106,128,0,132209:0:0:0:0:
64,192,132312,128,0,132416:0:0:0:0:
320,192,132312,128,0,132416:0:0:0:0:
192,192,132519,128,0,132623:0:0:0:0:
448,192,132519,128,0,132623:0:0:0:0:
64,192,132933,1,0,0:0:0:0:
320,192,133140,128,0,133209:0:0:0:0:
448,192,133554,1,0,0:0:0:0:
320,192,133761,1,0,0:0:0:0:
192,192,133968,1,0,0:0:0:0:
448,192,134174,128,0,134278:0:0:0:0:
64,192,134174,128,0,134278:0:0:0:0:
320,192,134381,1,0,0:0:0:0:
192,192,134588,1,0,0:0:0:0:
64,192,134795,1,0,0:0:0:0:
448,192,135002,1,0,0:0:0:0:
320,192,135209,1,0,0:0:0:0:
192,192,135416,1,0,0:0:0:0:
64,192,135623,1,0,0:0:0:0:
448,192,135830,128,0,135933:0:0:0:0:
192,192,135830,128,0,135933:0:0:0:0:
320,192,136037,1,0,0:0:0:0:
192,192,136243,1,0,0:0:0:0:
64,192,136450,1,0,0:0:0:0:
448,192,136657,1,0,0:0:0:0:
320,192,136864,1,0,0:0:0:0:
192,192,137071,1,0,0:0:0:0:
64,192,137278,1,0,0:0:0:0:
448,192,137485,1,0,0:0:0:0:
320,192,137692,1,0,0:0:0:0:
192,192,137899,1,0,0:0:0:0:
64,192,138106,1,0,0:0:0:0:
448,192,138312,1,0,0:0:0:0:
320,192,138519,1,0,0:0:0:0:
192,192,138726,1,0,0:0:0:0:
64,192,138933,1,0,0:0:0:0:
448,192,139140,128,0,139243:0:0:0:0:
192,192,139140,128,0,139243:0:0:0:0:
320,192,139347,1,0,0:0:0:0:
192,192,139554,1,0,0:0:0:0:
64,192,139761,128,0,139830:0:0:0:0:
448,192,139968,1,0,0:0:0:0:
64,192,140174,1,0,0:0:0:0:
192,192,140381,1,0,0:0:0:0:
320,192,140588,1,0,0:0:0:0:
448,192,140795,128,0,140899:0:0:0:0:
64,192,140795,128,0,140899:0:0:0:0:
320,192,141002,1,0,0:0:0:0:
192,192,141209,1,0,0:0:0:0:
64,192,141416,1,0,0:0:0:0:
448,192,141623,1,0,0:0:0:0:
320,192,141830,1,0,0:0:0:0:
192,192,142037,1,0,0:0:0:0:
64,192,142243,1,0,0:0:0:0:
192,192,142450,128,0,142554:0:0:0:0:
320,192,142450,128,0,142554:0:0:0:0:
448,192,142657,1,0,0:0:0:0:
192,192,142864,1,0,0:0:0:0:
64,192,143071,1,0,0:0:0:0:
448,192,143278,1,0,0:0:0:0:
320,192,143485,1,0,0:0:0:0:
192,192,143692,1,0,0:0:0:0:
64,192,143899,1,0,0:0:0:0:
448,192,144106,1,0,0:0:0:0:
320,192,144312,1,0,0:0:0:0:
192,192,144519,1,0,0:0:0:0:
64,192,144726,1,0,0:0:0:0:
192,192,145761,1,0,0:0:0:0:
64,192,145761,1,0,0:0:0:0:
320,192,145812,1,0,0:0:0:0:
64,192,145864,1,0,0:0:0:0:
448,192,145864,1,0,0:0:0:0:
192,192,145916,1,0,0:0:0:0:
320,192,145968,1,0,0:0:0:0:
448,192,146019,1,0,0:0:0:0:
192,192,146071,1,0,0:0:0:0:
64,192,146123,1,0,0:0:0:0:
320,192,146174,1,0,0:0:0:0:
448,192,146226,1,0,0:0:0:0:
192,192,146278,1,0,0:0:0:0:
320,192,146330,1,0,0:0:0:0:
64,192,146381,1,0,0:0:0:0:
448,192,146433,1,0,0:0:0:0:
64,192,146485,1,0,0:0:0:0:
192,192,146537,1,0,0:0:0:0:
320,192,146588,1,0,0:0:0:0:
448,192,146588,128,0,147002:0:0:0:0:
192,192,146795,1,0,0:0:0:0:
64,192,147002,1,0,0:0:0:0:
320,192,147209,1,0,0:0:0:0:
192,192,147416,1,0,0:0:0:0:
64,192,147416,1,0,0:0:0:0:
448,192,147468,1,0,0:0:0:0:
320,192,147519,1,0,0:0:0:0:
64,192,147571,1,0,0:0:0:0:
448,192,147623,1,0,0:0:0:0:
192,192,147674,1,0,0:0:0:0:
320,192,147726,1,0,0:0:0:0:
448,192,147778,1,0,0:0:0:0:
192,192,147830,1,0,0:0:0:0:
64,192,147881,1,0,0:0:0:0:
320,192,147933,1,0,0:0:0:0:
192,192,147985,1,0,0:0:0:0:
64,192,148037,1,0,0:0:0:0:
448,192,148088,1,0,0:0:0:0:
320,192,148140,1,0,0:0:0:0:
192,192,148192,1,0,0:0:0:0:
448,192,148243,1,0,0:0:0:0:
64,192,148243,1,0,0:0:0:0:
64,192,148347,1,0,0:0:0:0:
448,192,148450,1,0,0:0:0:0:
192,192,148450,1,0,0:0:0:0:
448,192,148554,1,0,0:0:0:0:
192,192,148657,128,0,148968:0:0:0:0:
64,192,148657,1,0,0:0:0:0:
320,192,148864,1,0,0:0:0:0:
448,192,149071,1,0,0:0:0:0:
320,192,149071,1,0,0:0:0:0:
64,192,149123,1,0,0:0:0:0:
192,192,149174,1,0,0:0:0:0:
448,192,149226,1,0,0:0:0:0:
320,192,149278,1,0,0:0:0:0:
192,192,149330,1,0,0:0:0:0:
320,192,149381,1,0,0:0:0:0:
64,192,149433,1,0,0:0:0:0:
192,192,149485,1,0,0:0:0:0:
448,192,149537,1,0,0:0:0:0:
64,192,149588,1,0,0:0:0:0:
320,192,149640,1,0,0:0:0:0:
192,192,149692,1,0,0:0:0:0:
448,192,149692,1,0,0:0:0:0:
64,192,149795,1,0,0:0:0:0:
320,192,149847,1,0,0:0:0:0:
192,192,149899,1,0,0:0:0:0:
64,192,149899,1,0,0:0:0:0:
448,192,149950,1,0,0:0:0:0:
320,192,150002,1,0,0:0:0:0:
64,192,150054,1,0,0:0:0:0:
320,192,150106,1,0,0:0:0:0:
448,192,150106,1,0,0:0:0:0:
192,192,150157,1,0,0:0:0:0:
64,192,150209,1,0,0:0:0:0:
448,192,150261,1,0,0:0:0:0:
192,192,150312,1,0,0:0:0:0:
320,192,150312,1,0,0:0:0:0:
448,192,150364,1,0,0:0:0:0:
64,192,150416,1,0,0:0:0:0:
320,192,150468,1,0,0:0:0:0:
64,192,150519,1,0,0:0:0:0:
448,192,150571,1,0,0:0:0:0:
192,192,150623,1,0,0:0:0:0:
64,192,150674,1,0,0:0:0:0:
448,192,150726,1,0,0:0:0:0:
320,192,150726,1,0,0:0:0:0:
192,192,150778,1,0,0:0:0:0:
448,192,150830,1,0,0:0:0:0:
64,192,150881,1,0,0:0:0:0:
192,192,150933,1,0,0:0:0:0:
320,192,150985,1,0,0:0:0:0:
64,192,151037,1,0,0:0:0:0:
448,192,151088,1,0,0:0:0:0:
320,192,151140,1,0,0:0:0:0:
192,192,151192,1,0,0:0:0:0:
64,192,151243,1,0,0:0:0:0:
320,192,151295,1,0,0:0:0:0:
448,192,151347,1,0,0:0:0:0:
192,192,151347,1,0,0:0:0:0:
64,192,151399,1,0,0:0:0:0:
320,192,151450,1,0,0:0:0:0:
448,192,151502,1,0,0:0:0:0:
192,192,151554,1,0,0:0:0:0:
64,192,151554,1,0,0:0:0:0:
320,192,151606,1,0,0:0:0:0:
192,192,151657,1,0,0:0:0:0:
64,192,151709,1,0,0:0:0:0:
320,192,151761,1,0,0:0:0:0:
448,192,151761,1,0,0:0:0:0:
192,192,151812,1,0,0:0:0:0:
448,192,151864,1,0,0:0:0:0:
64,192,151916,1,0,0:0:0:0:
320,192,151968,1,0,0:0:0:0:
192,192,151968,1,0,0:0:0:0:
448,192,152019,1,0,0:0:0:0:
320,192,152071,1,0,0:0:0:0:
64,192,152123,1,0,0:0:0:0:
448,192,152174,1,0,0:0:0:0:
192,192,152226,1,0,0:0:0:0:
320,192,152278,1,0,0:0:0:0:
64,192,152330,1,0,0:0:0:0:
448,192,152381,1,0,0:0:0:0:
320,192,152381,1,0,0:0:0:0:
192,192,152433,1,0,0:0:0:0:
64,192,152485,1,0,0:0:0:0:
320,192,152537,1,0,0:0:0:0:
192,192,152588,1,0,0:0:0:0:
448,192,152640,1,0,0:0:0:0:
320,192,152692,1,0,0:0:0:0:
64,192,152743,1,0,0:0:0:0:
192,192,152795,1,0,0:0:0:0:
448,192,152847,1,0,0:0:0:0:
64,192,152899,1,0,0:0:0:0:
320,192,152950,1,0,0:0:0:0:
448,192,153002,1,0,0:0:0:0:
192,192,153054,1,0,0:0:0:0:
64,192,153106,1,0,0:0:0:0:
448,192,153157,1,0,0:0:0:0:
320,192,153209,1,0,0:0:0:0:
192,192,153209,1,0,0:0:0:0:
64,192,153312,1,0,0:0:0:0:
448,192,153416,1,0,0:0:0:0:
320,192,153416,1,0,0:0:0:0:
192,192,153519,1,0,0:0:0:0:
320,192,153623,1,0,0:0:0:0:
64,192,153623,1,0,0:0:0:0:
448,192,153726,1,0,0:0:0:0:
192,192,153830,1,0,0:0:0:0:
64,192,153830,1,0,0:0:0:0:
320,192,153933,1,0,0:0:0:0:
448,192,154037,1,0,0:0:0:0:
64,192,154037,1,0,0:0:0:0:
192,192,154088,1,0,0:0:0:0:
320,192,154140,1,0,0:0:0:0:
64,192,154192,1,0,0:0:0:0:
448,192,154243,1,0,0:0:0:0:
192,192,154295,1,0,0:0:0:0:
320,192,154347,1,0,0:0:0:0:
64,192,154399,1,0,0:0:0:0:
320,192,154450,1,0,0:0:0:0:
192,192,154450,1,0,0:0:0:0:
448,192,154502,1,0,0:0:0:0:
64,192,154554,1,0,0:0:0:0:
320,192,154606,1,0,0:0:0:0:
192,192,154657,1,0,0:0:0:0:
448,192,154709,1,0,0:0:0:0:
64,192,154761,1,0,0:0:0:0:
320,192,154812,1,0,0:0:0:0:
192,192,154864,1,0,0:0:0:0:
64,192,154864,1,0,0:0:0:0:
448,192,154968,1,0,0:0:0:0:
64,192,155071,1,0,0:0:0:0:
320,192,155174,1,0,0:0:0:0:
448,192,155278,1,0,0:0:0:0:
192,192,155278,1,0,0:0:0:0:
64,192,155381,1,0,0:0:0:0:
192,192,155485,1,0,0:0:0:0:
320,192,155485,1,0,0:0:0:0:
448,192,155588,1,0,0:0:0:0:
192,192,155692,1,0,0:0:0:0:
64,192,155692,1,0,0:0:0:0:
320,192,155743,1,0,0:0:0:0:
448,192,155795,1,0,0:0:0:0:
192,192,155847,1,0,0:0:0:0:
320,192,155899,1,0,0:0:0:0:
64,192,155899,1,0,0:0:0:0:
448,192,155950,1,0,0:0:0:0:
192,192,156002,1,0,0:0:0:0:
320,192,156054,1,0,0:0:0:0:
64,192,156106,1,0,0:0:0:0:
448,192,156157,1,0,0:0:0:0:
320,192,156209,1,0,0:0:0:0:
448,192,156261,1,0,0:0:0:0:
192,192,156312,1,0,0:0:0:0:
64,192,156312,1,0,0:0:0:0:
320,192,156364,1,0,0:0:0:0:
64,192,156416,1,0,0:0:0:0:
192,192,156468,1,0,0:0:0:0:
448,192,156519,1,0,0:0:0:0:
320,192,156519,1,0,0:0:0:0:
64,192,156571,1,0,0:0:0:0:
448,192,156623,1,0,0:0:0:0:
192,192,156674,1,0,0:0:0:0:
320,192,156726,1,0,0:0:0:0:
64,192,156726,1,0,0:0:0:0:
448,192,156778,1,0,0:0:0:0:
192,192,156830,1,0,0:0:0:0:
320,192,156881,1,0,0:0:0:0:
192,192,156933,1,0,0:0:0:0:
64,192,156933,1,0,0:0:0:0:
448,192,156985,1,0,0:0:0:0:
320,192,157037,1,0,0:0:0:0:
64,192,157088,1,0,0:0:0:0:
448,192,157140,1,0,0:0:0:0:
192,192,157192,1,0,0:0:0:0:
320,192,157243,1,0,0:0:0:0:
448,192,157295,1,0,0:0:0:0:
192,192,157347,1,0,0:0:0:0:
64,192,157347,1,0,0:0:0:0:
320,192,157399,1,0,0:0:0:0:
192,192,157450,1,0,0:0:0:0:
448,192,157502,1,0,0:0:0:0:
64,192,157554,1,0,0:0:0:0:
320,192,157554,1,0,0:0:0:0:
192,192,157606,1,0,0:0:0:0:
64,192,157657,1,0,0:0:0:0:
320,192,157709,1,0,0:0:0:0:
448,192,157761,1,0,0:0:0:0:
192,192,157812,1,0,0:0:0:0:
320,192,157864,1,0,0:0:0:0:
448,192,157916,1,0,0:0:0:0:
192,192,157968,1,0,0:0:0:0:
64,192,157968,1,0,0:0:0:0:
320,192,158019,1,0,0:0:0:0:
192,192,158071,1,0,0:0:0:0:
64,192,158123,1,0,0:0:0:0:
448,192,158174,1,0,0:0:0:0:
320,192,158174,1,0,0:0:0:0:
192,192,158243,1,0,0:0:0:0:
448,192,158312,1,0,0:0:0:0:
320,192,158381,1,0,0:0:0:0:
64,192,158381,1,0,0:0:0:0:
192,192,158450,1,0,0:0:0:0:
448,192,158519,1,0,0:0:0:0:
64,192,158588,1,0,0:0:0:0:
192,192,158588,1,0,0:0:0:0:
320,192,158657,1,0,0:0:0:0:
64,192,158726,1,0,0:0:0:0:
192,192,158795,1,0,0:0:0:0:
448,192,158864,1,0,0:0:0:0:
64,192,158933,1,0,0:0:0:0:
320,192,159002,1,0,0:0:0:0:
192,192,159002,1,0,0:0:0:0:
448,192,159054,1,0,0:0:0:0:
64,192,159106,1,0,0:0:0:0:
320,192,159157,1,0,0:0:0:0:
192,192,159209,1,0,0:0:0:0:
448,192,159261,1,0,0:0:0:0:
320,192,159312,1,0,0:0:0:0:
64,192,159364,1,0,0:0:0:0:
448,192,159416,1,0,0:0:0:0:
192,192,159468,1,0,0:0:0:0:
320,192,159519,1,0,0:0:0:0:
64,192,159571,1,0,0:0:0:0:
192,192,159623,1,0,0:0:0:0:
448,192,159674,1,0,0:0:0:0:
320,192,159726,1,0,0:0:0:0:
192,192,159778,1,0,0:0:0:0:
448,192,159830,1,0,0:0:0:0:
320,192,159830,1,0,0:0:0:0:
192,192,160037,1,0,0:0:0:0:
64,192,160243,1,0,0:0:0:0:
320,192,160450,1,0,0:0:0:0:
64,192,160657,1,0,0:0:0:0:
192,192,160657,1,0,0:0:0:0:
320,192,160709,1,0,0:0:0:0:
448,192,160761,1,0,0:0:0:0:
64,192,160812,1,0,0:0:0:0:
320,192,160864,1,0,0:0:0:0:
192,192,160916,1,0,0:0:0:0:
448,192,160968,1,0,0:0:0:0:
320,192,161019,1,0,0:0:0:0:
192,192,161071,1,0,0:0:0:0:
448,192,161123,1,0,0:0:0:0:
64,192,161174,1,0,0:0:0:0:
192,192,161226,1,0,0:0:0:0:
320,192,161278,1,0,0:0:0:0:
64,192,161330,1,0,0:0:0:0:
448,192,161381,1,0,0:0:0:0:
192,192,161433,1,0,0:0:0:0:
320,192,161485,1,0,0:0:0:0:
64,192,161485,1,0,0:0:0:0:
448,192,161692,1,0,0:0:0:0:
320,192,161899,1,0,0:0:0:0:
192,192,161899,128,0,162209:0:0:0:0:
448,192,162106,1,0,0:0:0:0:
64,192,162106,1,0,0:0:0:0:
320,192,162174,1,0,0:0:0:0:
448,192,162243,1,0,0:0:0:0:
64,192,162312,1,0,0:0:0:0:
192,192,162312,1,0,0:0:0:0:
448,192,162364,1,0,0:0:0:0:
320,192,162416,1,0,0:0:0:0:
64,192,162468,1,0,0:0:0:0:
192,192,162519,1,0,0:0:0:0:
320,192,162571,1,0,0:0:0:0:
192,192,162623,1,0,0:0:0:0:
448,192,162674,1,0,0:0:0:0:
320,192,162726,1,0,0:0:0:0:
64,192,162778,1,0,0:0:0:0:
448,192,162830,1,0,0:0:0:0:
192,192,162881,1,0,0:0:0:0:
320,192,162933,1,0,0:0:0:0:
64,192,162933,1,0,0:0:0:0:
448,192,163037,1,0,0:0:0:0:
192,192,163088,1,0,0:0:0:0:
320,192,163140,1,0,0:0:0:0:
448,192,163140,1,0,0:0:0:0:
64,192,163192,1,0,0:0:0:0:
192,192,163243,1,0,0:0:0:0:
448,192,163295,1,0,0:0:0:0:
192,192,163347,1,0,0:0:0:0:
64,192,163347,1,0,0:0:0:0:
320,192,163399,1,0,0:0:0:0:
448,192,163450,1,0,0:0:0:0:
64,192,163502,1,0,0:0:0:0:
320,192,163554,1,0,0:0:0:0:
192,192,163554,1,0,0:0:0:0:
64,192,163606,1,0,0:0:0:0:
448,192,163657,1,0,0:0:0:0:
192,192,163709,1,0,0:0:0:0:
448,192,163761,1,0,0:0:0:0:
64,192,163812,1,0,0:0:0:0:
320,192,163864,1,0,0:0:0:0:
448,192,163916,1,0,0:0:0:0:
64,192,163968,1,0,0:0:0:0:
192,192,163968,1,0,0:0:0:0:
320,192,164019,1,0,0:0:0:0:
64,192,164071,1,0,0:0:0:0:
448,192,164123,1,0,0:0:0:0:
320,192,164174,1,0,0:0:0:0:
192,192,164226,1,0,0:0:0:0:
448,192,164278,1,0,0:0:0:0:
64,192,164330,1,0,0:0:0:0:
192,192,164381,1,0,0:0:0:0:
320,192,164433,1,0,0:0:0:0:
448,192,164485,1,0,0:0:0:0:
192,192,164537,1,0,0:0:0:0:
64,192,164588,1,0,0:0:0:0:
320,192,164588,1,0,0:0:0:0:
448,192,164640,1,0,0:0:0:0:
192,192,164692,1,0,0:0:0:0:
64,192,164743,1,0,0:0:0:0:
320,192,164795,1,0,0:0:0:0:
448,192,164795,1,0,0:0:0:0:
192,192,164847,1,0,0:0:0:0:
320,192,164899,1,0,0:0:0:0:
448,192,164950,1,0,0:0:0:0:
192,192,165002,1,0,0:0:0:0:
64,192,165002,1,0,0:0:0:0:
320,192,165054,1,0,0:0:0:0:
64,192,165106,1,0,0:0:0:0:
448,192,165157,1,0,0:0:0:0:
192,192,165209,1,0,0:0:0:0:
320,192,165209,1,0,0:0:0:0:
64,192,165261,1,0,0:0:0:0:
192,192,165312,1,0,0:0:0:0:
448,192,165364,1,0,0:0:0:0:
64,192,165416,1,0,0:0:0:0:
320,192,165468,1,0,0:0:0:0:
192,192,165519,1,0,0:0:0:0:
448,192,165571,1,0,0:0:0:0:
64,192,165623,1,0,0:0:0:0:
192,192,165623,1,0,0:0:0:0:
320,192,165674,1,0,0:0:0:0:
448,192,165726,1,0,0:0:0:0:
192,192,165778,1,0,0:0:0:0:
320,192,165830,1,0,0:0:0:0:
64,192,165881,1,0,0:0:0:0:
192,192,165933,1,0,0:0:0:0:
448,192,165985,1,0,0:0:0:0:
320,192,166037,1,0,0:0:0:0:
64,192,166088,1,0,0:0:0:0:
448,192,166140,1,0,0:0:0:0:
192,192,166192,1,0,0:0:0:0:
64,192,166243,1,0,0:0:0:0:
320,192,166295,1,0,0:0:0:0:
448,192,166347,1,0,0:0:0:0:
64,192,166399,1,0,0:0:0:0:
192,192,166450,1,0,0:0:0:0:
320,192,166450,1,0,0:0:0:0:
448,192,166554,1,0,0:0:0:0:
64,192,166657,1,0,0:0:0:0:
192,192,166657,1,0,0:0:0:0:
320,192,166761,1,0,0:0:0:0:
192,192,166864,1,0,0:0:0:0:
448,192,166864,1,0,0:0:0:0:
64,192,166968,1,0,0:0:0:0:
320,192,167071,1,0,0:0:0:0:
448,192,167071,1,0,0:0:0:0:
192,192,167174,1,0,0:0:0:0:
64,192,167278,1,0,0:0:0:0:
448,192,167278,1,0,0:0:0:0:
320,192,167330,1,0,0:0:0:0:
192,192,167381,1,0,0:0:0:0:
448,192,167433,1,0,0:0:0:0:
64,192,167485,1,0,0:0:0:0:
320,192,167537,1,0,0:0:0:0:
192,192,167588,1,0,0:0:0:0:
448,192,167640,1,0,0:0:0:0:
192,192,167692,1,0,0:0:0:0:
320,192,167692,1,0,0:0:0:0:
64,192,167743,1,0,0:0:0:0:
448,192,167795,1,0,0:0:0:0:
192,192,167847,1,0,0:0:0:0:
320,192,167899,1,0,0:0:0:0:
64,192,167950,1,0,0:0:0:0:
448,192,168002,1,0,0:0:0:0:
192,192,168054,1,0,0:0:0:0:
320,192,168106,1,0,0:0:0:0:
448,192,168106,1,0,0:0:0:0:
64,192,168209,1,0,0:0:0:0:
448,192,168312,1,0,0:0:0:0:
192,192,168416,1,0,0:0:0:0:
64,192,168519,1,0,0:0:0:0:
320,192,168519,1,0,0:0:0:0:
448,192,168623,1,0,0:0:0:0:
320,192,168726,1,0,0:0:0:0:
192,192,168726,1,0,0:0:0:0:
64,192,168830,1,0,0:0:0:0:
320,192,168933,1,0,0:0:0:0:
448,192,168933,1,0,0:0:0:0:
192,192,168985,1,0,0:0:0:0:
64,192,169037,1,0,0:0:0:0:
320,192,169088,1,0,0:0:0:0:
192,192,169140,1,0,0:0:0:0:
448,192,169140,1,0,0:0:0:0:
64,192,169192,1,0,0:0:0:0:
320,192,169243,1,0,0:0:0:0:
192,192,169295,1,0,0:0:0:0:
448,192,169347,1,0,0:0:0:0:
64,192,169399,1,0,0:0:0:0:
192,192,169450,1,0,0:0:0:0:
64,192,169502,1,0,0:0:0:0:
320,192,169554,1,0,0:0:0:0:
448,192,169554,1,0,0:0:0:0:
192,192,169606,1,0,0:0:0:0:
448,192,169657,1,0,0:0:0:0:
320,192,169709,1,0,0:0:0:0:
64,192,169761,1,0,0:0:0:0:
192,192,169761,1,0,0:0:0:0:
448,192,169812,1,0,0:0:0:0:
64,192,169864,1,0,0:0:0:0:
320,192,169916,1,0,0:0:0:0:
192,192,169968,1,0,0:0:0:0:
448,192,169968,1,0,0:0:0:0:
64,192,170019,1,0,0:0:0:0:
320,192,170071,1,0,0:0:0:0:
192,192,170123,1,0,0:0:0:0:
320,192,170174,1,0,0:0:0:0:
448,192,170174,1,0,0:0:0:0:
64,192,170226,1,0,0:0:0:0:
192,192,170278,1,0,0:0:0:0:
448,192,170330,1,0,0:0:0:0:
64,192,170381,1,0,0:0:0:0:
320,192,170433,1,0,0:0:0:0:
192,192,170485,1,0,0:0:0:0:
64,192,170537,1,0,0:0:0:0:
320,192,170588,1,0,0:0:0:0:
448,192,170588,1,0,0:0:0:0:
192,192,170640,1,0,0:0:0:0:
320,192,170692,1,0,0:0:0:0:
64,192,170743,1,0,0:0:0:0:
448,192,170795,1,0,0:0:0:0:
192,192,170795,1,0,0:0:0:0:
320,192,170847,1,0,0:0:0:0:
448,192,170899,1,0,0:0:0:0:
192,192,170950,1,0,0:0:0:0:
64,192,171002,1,0,0:0:0:0:
320,192,171054,1,0,0:0:0:0:
192,192,171106,1,0,0:0:0:0:
64,192,171157,1,0,0:0:0:0:
320,192,171209,1,0,0:0:0:0:
448,192,171209,1,0,0:0:0:0:
192,192,171261,1,0,0:0:0:0:
320,192,171312,1,0,0:0:0:0:
448,192,171364,1,0,0:0:0:0:
64,192,171416,1,0,0:0:0:0:
192,192,171416,1,0,0:0:0:0:
320,192,171468,1,0,0:0:0:0:
448,192,171519,1,0,0:0:0:0:
64,192,171571,1,0,0:0:0:0:
192,192,171623,1,0,0:0:0:0:
320,192,171623,1,0,0:0:0:0:
448,192,171674,1,0,0:0:0:0:
192,192,171726,1,0,0:0:0:0:
64,192,171778,1,0,0:0:0:0:
448,192,171830,1,0,0:0:0:0:
320,192,171830,1,0,0:0:0:0:
64,192,171881,1,0,0:0:0:0:
192,192,171933,1,0,0:0:0:0:
448,192,171985,1,0,0:0:0:0:
320,192,172037,1,0,0:0:0:0:
192,192,172088,1,0,0:0:0:0:
448,192,172140,1,0,0:0:0:0:
320,192,172192,1,0,0:0:0:0:
64,192,172243,128,0,173071:0:0:0:0:
192,192,172554,128,0,173071:0:0:0:0:
448,192,172864,128,0,173071:0:0:0:0:
320,192,173071,1,0,0:0:0:0:
448,192,173278,1,0,0:0:0:0:
192,192,173485,1,0,0:0:0:0:
64,192,173692,1,0,0:0:0:0:
320,192,173899,128,0,174726:0:0:0:0:
448,192,174209,128,0,174726:0:0:0:0:
192,192,174519,128,0,174726:0:0:0:0:
64,192,174726,1,0,0:0:0:0:
64,192,174830,1,0,0:0:0:0:
448,192,174933,1,0,0:0:0:0:
192,192,174933,1,0,0:0:0:0:
448,192,175037,1,0,0:0:0:0:
320,192,175140,128,0,175450:0:0:0:0:
64,192,175140,1,0,0:0:0:0:
192,192,175347,1,0,0:0:0:0:
64,192,175554,1,0,0:0:0:0:
192,192,175554,1,0,0:0:0:0:
448,192,175606,1,0,0:0:0:0:
320,192,175657,1,0,0:0:0:0:
64,192,175709,1,0,0:0:0:0:
192,192,175761,1,0,0:0:0:0:
320,192,175812,1,0,0:0:0:0:
192,192,175864,1,0,0:0:0:0:
448,192,175916,1,0,0:0:0:0:
320,192,175968,1,0,0:0:0:0:
64,192,176019,1,0,0:0:0:0:
448,192,176071,1,0,0:0:0:0:
192,192,176123,1,0,0:0:0:0:
320,192,176174,1,0,0:0:0:0:
64,192,176174,1,0,0:0:0:0:
448,192,176278,1,0,0:0:0:0:
192,192,176330,1,0,0:0:0:0:
320,192,176381,1,0,0:0:0:0:
448,192,176381,1,0,0:0:0:0:
64,192,176433,1,0,0:0:0:0:
192,192,176485,1,0,0:0:0:0:
448,192,176537,1,0,0:0:0:0:
192,192,176588,1,0,0:0:0:0:
64,192,176588,1,0,0:0:0:0:
320,192,176640,1,0,0:0:0:0:
448,192,176692,1,0,0:0:0:0:
64,192,176743,1,0,0:0:0:0:
320,192,176795,1,0,0:0:0:0:
192,192,176795,1,0,0:0:0:0:
64,192,176847,1,0,0:0:0:0:
448,192,176899,1,0,0:0:0:0:
192,192,176950,1,0,0:0:0:0:
448,192,177002,1,0,0:0:0:0:
64,192,177054,1,0,0:0:0:0:
320,192,177106,1,0,0:0:0:0:
448,192,177157,1,0,0:0:0:0:
64,192,177209,1,0,0:0:0:0:
192,192,177209,1,0,0:0:0:0:
320,192,177261,1,0,0:0:0:0:
64,192,177312,1,0,0:0:0:0:
448,192,177364,1,0,0:0:0:0:
320,192,177416,1,0,0:0:0:0:
192,192,177468,1,0,0:0:0:0:
448,192,177519,1,0,0:0:0:0:
64,192,177571,1,0,0:0:0:0:
192,192,177623,1,0,0:0:0:0:
320,192,177674,1,0,0:0:0:0:
448,192,177726,1,0,0:0:0:0:
192,192,177778,1,0,0:0:0:0:
64,192,177830,1,0,0:0:0:0:
320,192,177830,1,0,0:0:0:0:
448,192,177881,1,0,0:0:0:0:
192,192,177933,1,0,0:0:0:0:
64,192,177985,1,0,0:0:0:0:
320,192,178037,1,0,0:0:0:0:
448,192,178037,1,0,0:0:0:0:
192,192,178088,1,0,0:0:0:0:
320,192,178140,1,0,0:0:0:0:
448,192,178192,1,0,0:0:0:0:
192,192,178243,1,0,0:0:0:0:
64,192,178243,1,0,0:0:0:0:
320,192,178295,1,0,0:0:0:0:
64,192,178347,1,0,0:0:0:0:
448,192,178399,1,0,0:0:0:0:
192,192,178450,1,0,0:0:0:0:
320,192,178450,1,0,0:0:0:0:
64,192,178502,1,0,0:0:0:0:
192,192,178554,1,0,0:0:0:0:
448,192,178606,1,0,0:0:0:0:
64,192,178657,1,0,0:0:0:0:
320,192,178709,1,0,0:0:0:0:
192,192,178761,1,0,0:0:0:0:
448,192,178812,1,0,0:0:0:0:
320,192,178864,128,0,179588:0:0:0:0:
448,192,179174,128,0,179692:0:0:0:0:
64,192,179485,128,0,179692:0:0:0:0:
192,192,179692,1,0,0:0:0:0:
320,192,179692,1,0,0:0:0:0:
448,192,179795,1,0,0:0:0:0:
64,192,179899,1,0,0:0:0:0:
192,192,179899,1,0,0:0:0:0:
320,192,180002,1,0,0:0:0:0:
192,192,180106,1,0,0:0:0:0:
448,192,180106,1,0,0:0:0:0:
64,192,180209,1,0,0:0:0:0:
320,192,180312,1,0,0:0:0:0:
448,192,180312,1,0,0:0:0:0:
192,192,180416,1,0,0:0:0:0:
320,192,180519,128,0,181243:0:0:0:0:
64,192,180519,1,0,0:0:0:0:
192,192,180830,128,0,181347:0:0:0:0:
64,192,180933,1,0,0:0:0:0:
448,192,180933,1,0,0:0:0:0:
64,192,181140,128,0,181347:0:0:0:0:
320,192,181347,1,0,0:0:0:0:
448,192,181347,1,0,0:0:0:0:
64,192,181450,1,0,0:0:0:0:
448,192,181554,1,0,0:0:0:0:
192,192,181657,1,0,0:0:0:0:
64,192,181761,1,0,0:0:0:0:
320,192,181761,1,0,0:0:0:0:
448,192,181864,1,0,0:0:0:0:
320,192,181968,1,0,0:0:0:0:
192,192,181968,1,0,0:0:0:0:
64,192,182071,1,0,0:0:0:0:
320,192,182174,1,0,0:0:0:0:
448,192,182174,1,0,0:0:0:0:
192,192,182226,1,0,0:0:0:0:
64,192,182278,1,0,0:0:0:0:
320,192,182330,1,0,0:0:0:0:
192,192,182381,1,0,0:0:0:0:
448,192,182381,1,0,0:0:0:0:
64,192,182433,1,0,0:0:0:0:
320,192,182485,1,0,0:0:0:0:
192,192,182537,1,0,0:0:0:0:
448,192,182588,1,0,0:0:0:0:
64,192,182640,1,0,0:0:0:0:
192,192,182692,1,0,0:0:0:0:
64,192,182743,1,0,0:0:0:0:
320,192,182795,1,0,0:0:0:0:
448,192,182795,1,0,0:0:0:0:
192,192,182847,1,0,0:0:0:0:
448,192,182899,1,0,0:0:0:0:
320,192,182950,1,0,0:0:0:0:
64,192,183002,1,0,0:0:0:0:
192,192,183002,1,0,0:0:0:0:
448,192,183054,1,0,0:0:0:0:
64,192,183106,1,0,0:0:0:0:
320,192,183157,1,0,0:0:0:0:
192,192,183209,1,0,0:0:0:0:
448,192,183209,1,0,0:0:0:0:
64,192,183261,1,0,0:0:0:0:
320,192,183312,1,0,0:0:0:0:
192,192,183364,1,0,0:0:0:0:
320,192,183416,1,0,0:0:0:0:
448,192,183416,1,0,0:0:0:0:
64,192,183468,1,0,0:0:0:0:
192,192,183519,1,0,0:0:0:0:
448,192,183571,1,0,0:0:0:0:
64,192,183623,1,0,0:0:0:0:
320,192,183674,1,0,0:0:0:0:
192,192,183726,1,0,0:0:0:0:
64,192,183778,1,0,0:0:0:0:
320,192,183830,1,0,0:0:0:0:
448,192,183830,1,0,0:0:0:0:
192,192,183881,1,0,0:0:0:0:
320,192,183933,1,0,0:0:0:0:
64,192,183985,1,0,0:0:0:0:
448,192,184037,1,0,0:0:0:0:
192,192,184037,1,0,0:0:0:0:
320,192,184088,1,0,0:0:0:0:
448,192,184140,1,0,0:0:0:0:
192,192,184192,1,0,0:0:0:0:
64,192,184243,1,0,0:0:0:0:
320,192,184295,1,0,0:0:0:0:
192,192,184347,1,0,0:0:0:0:
64,192,184399,1,0,0:0:0:0:
320,192,184450,1,0,0:0:0:0:
448,192,184450,1,0,0:0:0:0:
192,192,184502,1,0,0:0:0:0:
320,192,184554,1,0,0:0:0:0:
448,192,184606,1,0,0:0:0:0:
64,192,184657,1,0,0:0:0:0:
192,192,184657,1,0,0:0:0:0:
320,192,184726,1,0,0:0:0:0:
64,192,184795,1,0,0:0:0:0:
192,192,184864,1,0,0:0:0:0:
448,192,184864,1,0,0:0:0:0:
320,192,184933,1,0,0:0:0:0:
64,192,185002,1,0,0:0:0:0:
448,192,185071,1,0,0:0:0:0:
320,192,185071,1,0,0:0:0:0:
192,192,185140,1,0,0:0:0:0:
448,192,185209,1,0,0:0:0:0:
320,192,185278,1,0,0:0:0:0:
64,192,185347,1,0,0:0:0:0:
448,192,185416,1,0,0:0:0:0:
192,192,185485,1,0,0:0:0:0:
320,192,185485,1,0,0:0:0:0:
64,192,185537,1,0,0:0:0:0:
448,192,185588,1,0,0:0:0:0:
192,192,185640,1,0,0:0:0:0:
320,192,185692,1,0,0:0:0:0:
64,192,185743,1,0,0:0:0:0:
192,192,185795,1,0,0:0:0:0:
448,192,185847,1,0,0:0:0:0:
64,192,185899,1,0,0:0:0:0:
320,192,185950,1,0,0:0:0:0:
192,192,186002,1,0,0:0:0:0:
448,192,186054,1,0,0:0:0:0:
320,192,186106,1,0,0:0:0:0:
64,192,186157,1,0,0:0:0:0:
192,192,186209,1,0,0:0:0:0:
320,192,186261,1,0,0:0:0:0:
64,192,186312,1,0,0:0:0:0:
192,192,186312,1,0,0:0:0:0:
448,192,186519,1,0,0:0:0:0:
192,192,186726,1,0,0:0:0:0:
64,192,186933,1,0,0:0:0:0:
448,192,187140,1,0,0:0:0:0:
320,192,187140,1,0,0:0:0:0:
192,192,187192,1,0,0:0:0:0:
64,192,187243,1,0,0:0:0:0:
448,192,187295,1,0,0:0:0:0:
192,192,187347,1,0,0:0:0:0:
320,192,187399,1,0,0:0:0:0:
64,192,187450,1,0,0:0:0:0:
192,192,187502,1,0,0:0:0:0:
320,192,187554,1,0,0:0:0:0:
64,192,187606,1,0,0:0:0:0:
448,192,187657,1,0,0:0:0:0:
320,192,187709,1,0,0:0:0:0:
192,192,187761,1,0,0:0:0:0:
448,192,187812,1,0,0:0:0:0:
64,192,187864,1,0,0:0:0:0:
320,192,187916,1,0,0:0:0:0:
192,192,187968,1,0,0:0:0:0:
448,192,187968,1,0,0:0:0:0:
64,192,188174,1,0,0:0:0:0:
192,192,188381,1,0,0:0:0:0:
320,192,188381,128,0,188692:0:0:0:0:
64,192,188588,1,0,0:0:0:0:
448,192,188588,1,0,0:0:0:0:
192,192,188657,1,0,0:0:0:0:
64,192,188726,1,0,0:0:0:0:
448,192,188795,1,0,0:0:0:0:
320,192,188795,1,0,0:0:0:0:
64,192,188847,1,0,0:0:0:0:
192,192,188899,1,0,0:0:0:0:
448,192,188950,1,0,0:0:0:0:
320,192,189002,1,0,0:0:0:0:
192,192,189054,1,0,0:0:0:0:
320,192,189106,1,0,0:0:0:0:
64,192,189157,1,0,0:0:0:0:
192,192,189209,1,0,0:0:0:0:
448,192,189261,1,0,0:0:0:0:
64,192,189312,1,0,0:0:0:0:
320,192,189364,1,0,0:0:0:0:
192,192,189416,1,0,0:0:0:0:
448,192,189416,1,0,0:0:0:0:
64,192,189519,1,0,0:0:0:0:
320,192,189571,1,0,0:0:0:0:
192,192,189623,1,0,0:0:0:0:
64,192,189623,1,0,0:0:0:0:
448,192,189674,1,0,0:0:0:0:
320,192,189726,1,0,0:0:0:0:
64,192,189778,1,0,0:0:0:0:
320,192,189830,1,0,0:0:0:0:
448,192,189830,1,0,0:0:0:0:
192,192,189881,1,0,0:0:0:0:
64,192,189933,1,0,0:0:0:0:
448,192,189985,1,0,0:0:0:0:
192,192,190037,1,0,0:0:0:0:
320,192,190037,1,0,0:0:0:0:
448,192,190088,1,0,0:0:0:0:
64,192,190140,1,0,0:0:0:0:
320,192,190192,1,0,0:0:0:0:
64,192,190243,1,0,0:0:0:0:
448,192,190295,1,0,0:0:0:0:
192,192,190347,1,0,0:0:0:0:
64,192,190399,1,0,0:0:0:0:
448,192,190450,1,0,0:0:0:0:
320,192,190450,1,0,0:0:0:0:
192,192,190502,1,0,0:0:0:0:
448,192,190554,1,0,0:0:0:0:
64,192,190606,1,0,0:0:0:0:
192,192,190657,1,0,0:0:0:0:
320,192,190709,1,0,0:0:0:0:
64,192,190761,1,0,0:0:0:0:
448,192,190812,1,0,0:0:0:0:
320,192,190864,1,0,0:0:0:0:
192,192,190916,1,0,0:0:0:0:
64,192,190968,1,0,0:0:0:0:
320,192,191019,1,0,0:0:0:0:
448,192,191071,1,0,0:0:0:0:
192,192,191071,1,0,0:0:0:0:
64,192,191123,1,0,0:0:0:0:
320,192,191174,1,0,0:0:0:0:
448,192,191226,1,0,0:0:0:0:
192,192,191278,1,0,0:0:0:0:
64,192,191278,1,0,0:0:0:0:
320,192,191330,1,0,0:0:0:0:
192,192,191381,1,0,0:0:0:0:
64,192,191433,1,0,0:0:0:0:
320,192,191485,1,0,0:0:0:0:
448,192,191485,1,0,0:0:0:0:
192,192,191537,1,0,0:0:0:0:
448,192,191588,1,0,0:0:0:0:
64,192,191640,1,0,0:0:0:0:
320,192,191692,1,0,0:0:0:0:
192,192,191692,1,0,0:0:0:0:
448,192,191743,1,0,0:0:0:0:
320,192,191795,1,0,0:0:0:0:
64,192,191847,1,0,0:0:0:0:
448,192,191899,1,0,0:0:0:0:
192,192,191950,1,0,0:0:0:0:
320,192,192002,1,0,0:0:0:0:
64,192,192054,1,0,0:0:0:0:
192,192,192106,128,0,192830:0:0:0:0:
448,192,192416,128,0,192933:0:0:0:0:
64,192,192726,128,0,192933:0:0:0:0:
320,192,192933,1,0,0:0:0:0:
192,192,192933,1,0,0:0:0:0:
64,192,193037,1,0,0:0:0:0:
448,192,193140,1,0,0:0:0:0:
320,192,193140,1,0,0:0:0:0:
192,192,193243,1,0,0:0:0:0:
320,192,193347,1,0,0:0:0:0:
64,192,193347,1,0,0:0:0:0:
448,192,193450,1,0,0:0:0:0:
192,192,193554,1,0,0:0:0:0:
64,192,193554,1,0,0:0:0:0:
320,192,193657,1,0,0:0:0:0:
448,192,193761,1,0,0:0:0:0:
64,192,193761,128,0,194485:0:0:0:0:
320,192,194071,128,0,194588:0:0:0:0:
192,192,194174,1,0,0:0:0:0:
448,192,194174,1,0,0:0:0:0:
448,192,194381,128,0,194588:0:0:0:0:
192,192,194588,1,0,0:0:0:0:
64,192,194588,1,0,0:0:0:0:
448,192,194692,1,0,0:0:0:0:
64,192,194795,1,0,0:0:0:0:
320,192,194899,1,0,0:0:0:0:
448,192,195002,1,0,0:0:0:0:
192,192,195002,1,0,0:0:0:0:
64,192,195106,1,0,0:0:0:0:
192,192,195209,1,0,0:0:0:0:
320,192,195209,1,0,0:0:0:0:
448,192,195312,1,0,0:0:0:0:
192,192,195416,1,0,0:0:0:0:
64,192,195416,1,0,0:0:0:0:
320,192,195468,1,0,0:0:0:0:
448,192,195519,1,0,0:0:0:0:
192,192,195571,1,0,0:0:0:0:
320,192,195623,1,0,0:0:0:0:
64,192,195623,1,0,0:0:0:0:
448,192,195674,1,0,0:0:0:0:
192,192,195726,1,0,0:0:0:0:
320,192,195778,1,0,0:0:0:0:
64,192,195830,1,0,0:0:0:0:
448,192,195881,1,0,0:0:0:0:
320,192,195933,1,0,0:0:0:0:
448,192,195985,1,0,0:0:0:0:
192,192,196037,1,0,0:0:0:0:
64,192,196037,1,0,0:0:0:0:
320,192,196088,1,0,0:0:0:0:
64,192,196140,1,0,0:0:0:0:
192,192,196192,1,0,0:0:0:0:
448,192,196243,1,0,0:0:0:0:
320,192,196243,1,0,0:0:0:0:
64,192,196295,1,0,0:0:0:0:
448,192,196347,1,0,0:0:0:0:
192,192,196399,1,0,0:0:0:0:
320,192,196450,1,0,0:0:0:0:
64,192,196450,1,0,0:0:0:0:
448,192,196502,1,0,0:0:0:0:
192,192,196554,1,0,0:0:0:0:
320,192,196606,1,0,0:0:0:0:
192,192,196657,1,0,0:0:0:0:
64,192,196657,1,0,0:0:0:0:
448,192,196709,1,0,0:0:0:0:
320,192,196761,1,0,0:0:0:0:
64,192,196812,1,0,0:0:0:0:
448,192,196864,1,0,0:0:0:0:
192,192,196916,1,0,0:0:0:0:
320,192,196968,1,0,0:0:0:0:
448,192,197019,1,0,0:0:0:0:
192,192,197071,1,0,0:0:0:0:
64,192,197071,1,0,0:0:0:0:
320,192,197123,1,0,0:0:0:0:
192,192,197174,1,0,0:0:0:0:
448,192,197226,1,0,0:0:0:0:
64,192,197278,1,0,0:0:0:0:
320,192,197278,1,0,0:0:0:0:
192,192,197330,1,0,0:0:0:0:
64,192,197381,1,0,0:0:0:0:
320,192,197433,1,0,0:0:0:0:
448,192,197485,1,0,0:0:0:0:
192,192,197537,1,0,0:0:0:0:
320,192,197588,1,0,0:0:0:0:
448,192,197640,1,0,0:0:0:0:
192,192,197692,1,0,0:0:0:0:
64,192,197692,1,0,0:0:0:0:
320,192,197743,1,0,0:0:0:0:
192,192,197795,1,0,0:0:0:0:
64,192,197847,1,0,0:0:0:0:
448,192,197899,1,0,0:0:0:0:
320,192,197899,1,0,0:0:0:0:
192,192,197950,1,0,0:0:0:0:
64,192,198002,1,0,0:0:0:0:
448,192,198054,1,0,0:0:0:0:
320,192,198106,1,0,0:0:0:0:
192,192,198106,1,0,0:0:0:0:
64,192,198157,1,0,0:0:0:0:
320,192,198209,1,0,0:0:0:0:
448,192,198261,1,0,0:0:0:0:
64,192,198312,1,0,0:0:0:0:
192,192,198312,1,0,0:0:0:0:
448,192,198364,1,0,0:0:0:0:
320,192,198416,1,0,0:0:0:0:
64,192,198468,1,0,0:0:0:0:
448,192,198519,1,0,0:0:0:0:
192,192,198571,1,0,0:0:0:0:
64,192,198623,1,0,0:0:0:0:
320,192,198674,1,0,0:0:0:0:
448,192,198726,1,0,0:0:0:0:
192,192,198726,1,0,0:0:0:0:
64,192,198795,1,0,0:0:0:0:
192,192,198864,1,0,0:0:0:0:
320,192,198933,1,0,0:0:0:0:
448,192,199002,1,0,0:0:0:0:
64,192,199071,1,0,0:0:0:0:
448,192,199140,128,0,199243:0:0:0:0:
320,192,199209,1,0,0:0:0:0:
192,192,199278,1,0,0:0:0:0:
64,192,199347,1,0,0:0:0:0:
448,192,199416,1,0,0:0:0:0:
320,192,199485,1,0,0:0:0:0:
192,192,199554,128,0,199761:0:0:0:0:
320,192,199657,128,0,199864:0:0:0:0:
448,192,199761,128,0,199968:0:0:0:0:
64,192,199864,128,0,200071:0:0:0:0:
192,192,199968,128,0,200381:0:0:0:0:
320,192,200381,1,0,0:0:0:0:
64,192,200381,1,0,0:0:0:0:
448,192,200450,1,0,0:0:0:0:
320,192,200519,1,0,0:0:0:0:
64,192,200588,1,0,0:0:0:0:
192,192,200657,1,0,0:0:0:0:
448,192,200726,1,0,0:0:0:0:
320,192,200795,128,0,200899:0:0:0:0:
64,192,200864,1,0,0:0:0:0:
192,192,200933,1,0,0:0:0:0:
448,192,201002,1,0,0:0:0:0:
320,192,201071,1,0,0:0:0:0:
192,192,201140,1,0,0:0:0:0:
448,192,201209,1,0,0:0:0:0:
64,192,201209,1,0,0:0:0:0:
448,192,201416,1,0,0:0:0:0:
320,192,201468,1,0,0:0:0:0:
448,192,201623,1,0,0:0:0:0:
64,192,201623,128,0,201726:0:0:0:0:
320,192,201674,1,0,0:0:0:0:
448,192,201830,1,0,0:0:0:0:
192,192,201830,128,0,201933:0:0:0:0:
320,192,201881,1,0,0:0:0:0:
320,192,202037,1,0,0:0:0:0:
448,192,202037,1,0,0:0:0:0:
192,192,202106,1,0,0:0:0:0:
64,192,202174,1,0,0:0:0:0:
320,192,202243,1,0,0:0:0:0:
448,192,202312,1,0,0:0:0:0:
192,192,202381,1,0,0:0:0:0:
64,192,202450,128,0,202554:0:0:0:0:
320,192,202519,1,0,0:0:0:0:
192,192,202588,1,0,0:0:0:0:
448,192,202657,1,0,0:0:0:0:
64,192,202657,1,0,0:0:0:0:
320,192,202726,1,0,0:0:0:0:
192,192,202795,1,0,0:0:0:0:
320,192,202864,1,0,0:0:0:0:
448,192,202864,1,0,0:0:0:0:
64,192,202933,1,0,0:0:0:0:
448,192,203002,1,0,0:0:0:0:
64,192,203071,1,0,0:0:0:0:
320,192,203071,1,0,0:0:0:0:
192,192,203140,1,0,0:0:0:0:
448,192,203209,1,0,0:0:0:0:
64,192,203278,1,0,0:0:0:0:
192,192,203278,128,0,203381:0:0:0:0:
320,192,203347,1,0,0:0:0:0:
448,192,203416,1,0,0:0:0:0:
64,192,203485,1,0,0:0:0:0:
192,192,203554,1,0,0:0:0:0:
448,192,203623,1,0,0:0:0:0:
192,192,203692,1,0,0:0:0:0:
320,192,203692,1,0,0:0:0:0:
64,192,203761,1,0,0:0:0:0:
448,192,203830,1,0,0:0:0:0:
320,192,203899,1,0,0:0:0:0:
64,192,203968,1,0,0:0:0:0:
192,192,204037,1,0,0:0:0:0:
448,192,204106,128,0,204209:0:0:0:0:
320,192,204174,1,0,0:0:0:0:
64,192,204243,1,0,0:0:0:0:
192,192,204312,1,0,0:0:0:0:
448,192,204312,1,0,0:0:0:0:
320,192,204381,1,0,0:0:0:0:
448,192,204450,1,0,0:0:0:0:
64,192,204519,1,0,0:0:0:0:
192,192,204519,1,0,0:0:0:0:
320,192,204588,1,0,0:0:0:0:
448,192,204657,1,0,0:0:0:0:
320,192,204726,1,0,0:0:0:0:
64,192,204726,1,0,0:0:0:0:
192,192,204795,1,0,0:0:0:0:
448,192,204864,1,0,0:0:0:0:
192,192,204933,1,0,0:0:0:0:
320,192,204933,128,0,205037:0:0:0:0:
64,192,205002,1,0,0:0:0:0:
448,192,205071,1,0,0:0:0:0:
320,192,205140,1,0,0:0:0:0:
192,192,205209,1,0,0:0:0:0:
64,192,205278,1,0,0:0:0:0:
448,192,205347,1,0,0:0:0:0:
320,192,205347,1,0,0:0:0:0:
192,192,205416,1,0,0:0:0:0:
64,192,205485,1,0,0:0:0:0:
320,192,205554,1,0,0:0:0:0:
448,192,205623,1,0,0:0:0:0:
192,192,205692,1,0,0:0:0:0:
64,192,205761,128,0,205864:0:0:0:0:
448,192,205830,1,0,0:0:0:0:
320,192,205899,1,0,0:0:0:0:
192,192,205968,1,0,0:0:0:0:
64,192,206037,1,0,0:0:0:0:
448,192,206106,1,0,0:0:0:0:
320,192,206174,128,0,206381:0:0:0:0:
192,192,206278,128,0,206485:0:0:0:0:
64,192,206381,128,0,206588:0:0:0:0:
448,192,206485,128,0,206692:0:0:0:0:
320,192,206588,128,0,207002:0:0:0:0:
64,192,207002,1,0,0:0:0:0:
448,192,207002,1,0,0:0:0:0:
192,192,207071,1,0,0:0:0:0:
320,192,207140,1,0,0:0:0:0:
448,192,207209,1,0,0:0:0:0:
64,192,207278,1,0,0:0:0:0:
192,192,207347,1,0,0:0:0:0:
448,192,207416,128,0,207519:0:0:0:0:
320,192,207485,1,0,0:0:0:0:
192,192,207554,1,0,0:0:0:0:
64,192,207623,1,0,0:0:0:0:
448,192,207692,1,0,0:0:0:0:
320,192,207761,1,0,0:0:0:0:
64,192,207830,1,0,0:0:0:0:
192,192,207830,1,0,0:0:0:0:
320,192,208243,128,0,208347:0:0:0:0:
192,192,208450,128,0,208554:0:0:0:0:
448,192,208657,1,0,0:0:0:0:
64,192,208657,1,0,0:0:0:0:
192,192,208726,1,0,0:0:0:0:
320,192,208795,1,0,0:0:0:0:
448,192,208864,1,0,0:0:0:0:
64,192,208933,1,0,0:0:0:0:
192,192,209002,1,0,0:0:0:0:
448,192,209071,128,0,209174:0:0:0:0:
320,192,209140,1,0,0:0:0:0:
64,192,209209,1,0,0:0:0:0:
192,192,209278,1,0,0:0:0:0:
320,192,209278,1,0,0:0:0:0:
448,192,209347,1,0,0:0:0:0:
64,192,209416,1,0,0:0:0:0:
192,192,209485,1,0,0:0:0:0:
448,192,209485,1,0,0:0:0:0:
320,192,209554,1,0,0:0:0:0:
64,192,209623,1,0,0:0:0:0:
448,192,209692,1,0,0:0:0:0:
320,192,209692,1,0,0:0:0:0:
192,192,209761,1,0,0:0:0:0:
448,192,209830,1,0,0:0:0:0:
192,192,209899,128,0,210002:0:0:0:0:
64,192,209899,1,0,0:0:0:0:
320,192,209968,1,0,0:0:0:0:
448,192,210037,1,0,0:0:0:0:
64,192,210106,1,0,0:0:0:0:
192,192,210174,1,0,0:0:0:0:
320,192,210243,1,0,0:0:0:0:
64,192,210312,1,0,0:0:0:0:
448,192,210312,1,0,0:0:0:0:
192,192,210381,1,0,0:0:0:0:
320,192,210450,1,0,0:0:0:0:
448,192,210519,1,0,0:0:0:0:
192,192,210588,1,0,0:0:0:0:
64,192,210657,1,0,0:0:0:0:
320,192,210726,128,0,210830:0:0:0:0:
448,192,210795,1,0,0:0:0:0:
192,192,210864,1,0,0:0:0:0:
64,192,210933,1,0,0:0:0:0:
320,192,210933,1,0,0:0:0:0:
448,192,211002,1,0,0:0:0:0:
320,192,211071,1,0,0:0:0:0:
64,192,211140,1,0,0:0:0:0:
192,192,211140,1,0,0:0:0:0:
448,192,211209,1,0,0:0:0:0:
192,192,211278,1,0,0:0:0:0:
64,192,211347,1,0,0:0:0:0:
320,192,211347,1,0,0:0:0:0:
448,192,211416,1,0,0:0:0:0:
192,192,211485,1,0,0:0:0:0:
320,192,211554,128,0,211657:0:0:0:0:
448,192,211554,1,0,0:0:0:0:
64,192,211623,1,0,0:0:0:0:
192,192,211692,1,0,0:0:0:0:
448,192,211761,1,0,0:0:0:0:
192,192,211830,1,0,0:0:0:0:
320,192,211899,1,0,0:0:0:0:
64,192,211968,1,0,0:0:0:0:
192,192,211968,1,0,0:0:0:0:
448,192,212106,1,0,0:0:0:0:
320,192,212174,1,0,0:0:0:0:
192,192,212243,1,0,0:0:0:0:
64,192,212312,1,0,0:0:0:0:
320,192,212381,1,0,0:0:0:0:
448,192,212485,1,0,0:0:0:0:
192,192,212588,1,0,0:0:0:0:
64,192,212692,1,0,0:0:0:0:
192,192,212795,1,0,0:0:0:0:
448,192,212899,1,0,0:0:0:0:
320,192,213002,1,0,0:0:0:0:
192,192,213106,1,0,0:0:0:0:
64,192,213209,1,0,0:0:0:0:
320,192,213312,1,0,0:0:0:0:
192,192,213416,1,0,0:0:0:0:
448,192,213485,1,0,0:0:0:0:
64,192,213692,1,0,0:0:0:0:
192,192,213761,1,0,0:0:0:0:
448,192,213899,1,0,0:0:0:0:
320,192,214037,1,0,0:0:0:0:
192,192,214174,1,0,0:0:0:0:
64,192,214312,1,0,0:0:0:0:
192,192,214450,1,0,0:0:0:0:
448,192,214657,1,0,0:0:0:0:
320,192,214864,1,0,0:0:0:0:
192,192,215071,1,0,0:0:0:0:
64,192,215381,1,0,0:0:0:0:
448,192,215485,1,0,0:0:0:0:
320,192,215554,1,0,0:0:0:0:
192,192,215830,1,0,0:0:0:0:
64,192,216106,1,0,0:0:0:0:
320,192,216381,1,0,0:0:0:0:
320,192,216588,1,0,0:0:0:0:
192,192,217002,1,0,0:0:0:0:
448,192,217347,1,0,0:0:0:0:
448,192,217623,1,0,0:0:0:0:
64,192,218071,1,0,0:0:0:0:
64,192,218278,1,0,0:0:0:0:
