osu file format v14

[General]
AudioFilename: audio.mp3
AudioLeadIn: 0
PreviewTime: 52028
Countdown: 0
SampleSet: Soft
StackLeniency: 0.4
Mode: 0
LetterboxInBreaks: 0
WidescreenStoryboard: 1

[Editor]
Bookmarks: 4761,15923,24295,27086,35458,43830,74528
DistanceSpacing: 0.4
BeatDivisor: 4
GridSize: 4
TimelineZoom: 2.4

[Metadata]
Title:Love Vacation
TitleUnicode:Love♡Vacation
Artist:Matsushita/nayuta
ArtistUnicode:松下/nayuta
Creator:tomatas95
Version:Normal
Source:かけぬけ★青春スパーキング!
Tags:Akihiko Yamaguchi eroge sagaplanets saga planets galgame vn visual novel video game japanese op opening kakenuke seishun sparking うらん uran 山口朗彦 pop j-pop jpop short version ver POPHOLIC
BeatmapID:3096490
BeatmapSetID:1498595

[Difficulty]
HPDrainRate:3
CircleSize:3
OverallDifficulty:4
ApproachRate:5.5
SliderMultiplier:1.1
SliderTickRate:1

[Events]
//Background and Video events
Video,0,"Iloveswimsuits.mp4"
0,0,"NagikoEmbarrasedowo.jpg",0,0
//Break Periods
//Storyboard Layer 0 (Background)
//Storyboard Layer 1 (Fail)
//Storyboard Layer 2 (Pass)
//Storyboard Layer 3 (Foreground)
//Storyboard Layer 4 (Overlay)
//Storyboard Sound Samples

[TimingPoints]
575,348.837209302326,4,2,1,10,1,0
575,-100,4,2,1,10,0,0
1272,-100,4,2,1,20,0,0
1970,-100,4,2,1,30,0,0
2668,-100,4,2,1,40,0,0
3365,-100,4,2,1,50,0,0
3888,-100,4,2,1,60,0,0
4237,-100,4,2,1,65,0,0
4412,-100,4,2,1,70,0,0
4586,-100,4,2,1,75,0,0
4761,-100,4,2,2,80,0,0
4935,-100,4,2,1,70,0,0
10342,-100,4,2,1,75,0,0
10691,-100,4,2,1,70,0,0
11563,-100,4,2,1,75,0,0
11737,-100,4,2,1,70,0,0
13133,-100,4,2,1,75,0,0
13481,-100,4,2,1,70,0,0
14528,-100,4,2,1,60,0,0
14702,-100,4,2,1,70,0,0
14876,-100,4,2,1,60,0,0
15051,-100,4,2,1,70,0,0
15226,-100,4,2,4,70,0,0
15575,-100,4,2,4,75,0,0
15923,-111.111111111111,4,2,4,55,0,0
16272,-111.111111111111,4,2,1,55,0,0
24295,-111.111111111111,4,2,2,65,0,0
24470,-111.111111111111,4,2,1,65,0,0
24993,-111.111111111111,4,2,1,70,0,0
25342,-111.111111111111,4,2,1,75,0,0
25691,-111.111111111111,4,2,4,80,0,0
26388,-111.111111111111,4,2,4,65,0,0
26912,-111.111111111111,4,2,4,55,0,0
27086,-100,4,2,1,60,0,0
32668,-100,4,2,2,60,0,0
32842,-100,4,2,1,60,0,0
34063,-100,4,2,1,65,0,0
34586,-100,4,2,2,65,0,0
34935,-100,4,2,1,65,0,0
35458,-100,4,2,1,65,0,0
35633,-100,4,2,1,65,0,0
36679,-100,4,2,2,65,0,0
37028,-100,4,2,1,65,0,0
38249,-100,4,2,1,65,0,0
38423,-100,4,2,1,65,0,0
41040,-100,4,2,1,55,0,0
41388,-100,4,2,1,65,0,0
41737,-100,4,2,1,55,0,0
42085,-100,4,2,1,65,0,0
43830,-100,4,2,2,65,0,0
44179,-100,4,2,1,65,0,0
46621,-100,4,2,1,70,0,0
46970,-100,4,2,1,80,0,0
47144,-100,4,2,1,70,0,0
47668,-100,4,2,1,80,0,0
47842,-100,4,2,1,70,0,0
48016,-100,4,2,1,55,0,0
48278,-100,4,2,1,60,0,0
48540,-100,4,2,1,65,0,0
48714,-100,4,2,4,70,0,0
48976,-100,4,2,4,75,0,0
49237,-100,4,2,4,80,0,0
49412,-100,4,2,2,80,0,0
50109,-100,4,2,1,70,0,0
50633,-100,4,2,2,70,0,0
50981,-100,4,2,1,75,0,0
52202,-90.9090909090909,4,2,2,85,0,1
52377,-90.9090909090909,4,2,1,85,0,1
56388,-90.9090909090909,4,2,2,70,0,1
56737,-90.9090909090909,4,2,1,85,0,1
57086,-90.9090909090909,4,2,2,70,0,1
57435,-90.9090909090909,4,2,1,85,0,1
60575,-90.9090909090909,4,2,2,85,0,1
60749,-90.9090909090909,4,2,1,85,0,1
62668,-90.9090909090909,4,2,1,70,0,0
63365,-90.9090909090909,4,2,2,85,0,1
63540,-90.9090909090909,4,2,1,85,0,1
68947,-90.9090909090909,4,2,2,85,0,1
69121,-90.9090909090909,4,2,1,85,0,1
71737,-90.9090909090909,4,2,2,85,0,1
71912,-90.9090909090909,4,2,1,85,0,1
72958,-90.9090909090909,4,2,2,85,0,1
73133,-90.9090909090909,4,2,1,85,0,1
74528,-100,4,2,4,75,0,0
74877,-100,4,2,1,75,0,0
80109,-100,4,2,2,75,0,0
80284,-100,4,2,1,75,0,0
84121,-100,4,2,1,70,0,0
84295,-100,4,2,1,60,0,0
84470,-100,4,2,1,70,0,0
84644,-100,4,2,1,60,0,0
84819,-100,4,2,1,70,0,0
85342,-100,4,2,1,75,0,0
85691,-100,4,2,1,70,0,0
86388,-100,4,2,1,60,0,0
86563,-100,4,2,1,70,0,0
87086,-100,4,2,1,60,0,0
87261,-100,4,2,1,70,0,0
89179,-100,4,2,1,60,0,0
89354,-100,4,2,1,70,0,0
89877,-100,4,2,1,60,0,0
90051,-100,4,2,1,80,0,0
90226,-100,4,2,1,75,0,0
90400,-100,4,2,1,70,0,0
90575,-100,4,2,1,65,0,0
90749,-100,4,2,1,60,0,0
90923,-100,4,2,1,55,0,0
91098,-100,4,2,2,50,0,0
91621,-100,4,2,1,40,0,0
91970,-100,4,2,1,30,0,0
92319,-100,4,2,1,20,0,0
92668,-100,4,2,1,10,0,0

[Colours]
Combo1 : 255,255,128
Combo2 : 2,242,68
Combo3 : 221,125,137
Combo4 : 0,255,255

[HitObjects]
256,192,575,12,0,3888,0:0:0:0:
11,22,4761,5,6,3:2:0:0:
90,80,5109,2,0,P|113:86|155:74,1,55,10|0,0:0|0:0,0:0:0:0:
173,41,5458,2,0,P|218:28|295:54,1,110,2|8,3:2|0:0,0:0:0:0:
323,63,5981,1,2,0:0:0:0:
302,163,6330,1,2,0:0:0:0:
302,163,6505,2,0,L|295:231,1,55,10|2,0:0|0:0,0:0:0:0:
311,265,6854,2,0,L|323:390,1,110,2|10,3:2|0:0,0:0:0:0:
421,376,7551,6,0,P|416:345|428:308,1,55,2|2,3:2|0:0,0:0:0:0:
464,298,7900,2,0,P|472:255|441:178,1,110,10|2,0:0|3:2,0:0:0:0:
469,148,8423,1,2,0:0:0:0:
469,148,8598,2,0,L|479:76,1,55,10|2,0:0|0:0,0:0:0:0:
411,22,9121,1,2,0:0:0:0:
411,22,9295,2,0,P|374:26|349:19,1,55,10|2,0:0|3:2,0:0:0:0:
308,11,9644,2,0,P|280:6|253:11,1,55,10|0,0:0|0:0,0:0:0:0:
215,27,9993,1,10,0:0:0:0:
220,125,10342,6,0,L|213:183,1,55,10|10,3:2|0:0,0:0:0:0:
206,228,10691,1,2,3:2:0:0:
234,322,11040,2,0,P|190:307|113:329,1,110,2|0,3:2|3:2,0:0:0:0:
88,348,11563,1,14,0:0:0:0:
17,287,11912,1,10,0:0:0:0:
17,287,12086,2,0,P|16:253|14:222,1,55,10|0,0:2|3:3,0:0:0:0:
5,183,12435,2,0,L|14:60,1,110,2|10,3:2|0:0,0:0:0:0:
97,20,13133,6,0,L|102:92,1,55,10|2,3:2|0:0,0:0:0:0:
104,124,13481,1,2,3:2:0:0:
195,161,13830,2,0,L|189:233,2,55,2|2|10,3:2|0:0|0:0,0:0:0:0:
197,111,14354,1,14,3:2:0:0:
275,51,14702,1,14,3:2:0:0:
356,116,15051,1,14,3:2:0:0:
356,116,15226,2,0,L|347:192,1,55,10|10,3:2|0:0,0:0:0:0:
368,216,15575,2,0,L|359:292,1,55,10|2,0:0|0:0,0:0:0:0:
382,309,15923,5,6,3:2:0:0:
471,310,16272,2,0,L|484:191,1,98.9999969787599,2|2,3:2|3:2,0:0:0:0:
490,167,16795,1,2,0:0:0:0:
495,78,17144,2,0,P|454:91|389:64,1,98.9999969787599,2|0,0:0|0:0,0:0:0:0:
384,34,17668,2,0,P|356:29|313:34,1,49.4999984893799,2|2,3:2|0:0,0:0:0:0:
291,39,18016,1,2,3:2:0:0:
206,35,18365,1,0,3:2:0:0:
206,35,18540,6,0,P|193:78|213:148,1,98.9999969787599,2|2,0:0|0:0,0:0:0:0:
201,174,19063,2,0,L|193:236,1,49.4999984893799,2|0,3:2|0:0,0:0:0:0:
166,257,19412,1,2,3:2:0:0:
101,195,19761,2,0,L|107:145,1,49.4999984893799,2|0,3:2|0:0,0:0:0:0:
114,102,20109,2,0,P|75:87|8:113,1,98.9999969787599,2|2,3:2|3:2,0:0:0:0:
7,144,20633,1,2,0:0:0:0:
29,229,20981,2,0,L|15:348,1,98.9999969787599,2|0,0:0|0:0,0:0:0:0:
32,369,21505,5,0,3:0:0:0:
121,372,21854,2,0,P|111:324|138:260,1,98.9999969787599,2|2,3:2|3:2,0:0:0:0:
158,247,22377,1,2,0:0:0:0:
158,247,22551,1,2,3:2:0:0:
197,327,22900,2,0,L|313:338,1,98.9999969787599,2|0,3:2|3:0,0:0:0:0:
344,340,23423,1,2,0:0:0:0:
344,340,23598,2,0,P|348:301|317:233,1,98.9999969787599,2|0,3:2|3:0,0:0:0:0:
265,181,24295,6,0,B|260:150|260:150|266:120|266:120|260:65,1,98.9999969787599,6|2,3:2|3:2,0:0:0:0:
268,42,24819,1,10,0:0:0:0:
268,42,24993,2,0,L|335:36,1,49.4999984893799,2|0,3:2|3:0,0:0:0:0:
361,45,25342,2,0,L|430:38,1,49.4999984893799,2|10,3:2|0:0,0:0:0:0:
454,46,25691,1,6,3:2:0:0:
509,220,26388,1,10,3:2:0:0:
509,220,26563,1,10,3:2:0:0:
422,340,27086,6,0,B|403:352|403:352|409:311|390:249,1,110,6|10,3:2|0:0,0:0:0:0:
343,186,27784,1,2,3:2:0:0:
343,186,27958,2,0,L|266:176,1,55,2|8,0:0|0:0,0:0:0:0:
257,218,28307,2,0,L|135:233,1,110,2|2,0:0|0:0,0:0:0:0:
121,273,28830,1,10,0:0:0:0:
36,324,29179,2,0,P|37:280|24:193,1,110,2|8,3:2|0:0,0:0:0:0:
7,169,29702,1,2,0:0:0:0:
13,76,30051,5,2,0:0:0:0:
13,76,30226,2,0,P|44:81|78:74,1,55,10|2,0:0|0:0,0:0:0:0:
113,60,30575,2,0,P|109:32|114:5,2,55,2|2|10,3:2|0:0|0:0,0:0:0:0:
209,83,31272,2,0,P|230:66|256:57,2,55,2|2|10,3:2|0:0|0:0,0:0:0:0:
206,132,31795,2,0,L|191:257,1,110,2|2,0:0|0:0,0:0:0:0:
224,279,32319,2,0,L|216:341,1,55,10|8,0:0|0:0,0:0:0:0:
243,375,32668,5,6,3:2:0:0:
341,379,33016,2,0,P|337:351|348:307,1,55,10|0,0:0|0:0,0:0:0:0:
380,294,33365,2,0,P|385:258|357:182,1,110,2|10,3:2|0:0,0:0:0:0:
321,172,33888,1,2,0:0:0:0:
321,172,34063,2,0,L|330:55,1,110,4|10,3:3|0:0,0:0:0:0:
354,19,34586,1,6,3:2:0:0:
455,40,34935,1,8,0:0:0:0:
455,40,35109,2,0,L|450:98,1,55,10|2,0:0|3:2,0:0:0:0:
466,142,35458,6,0,B|462:180|462:180|469:202|469:202|461:261,1,110,14|10,3:2|0:0,0:0:0:0:
460,299,35981,1,2,0:0:0:0:
370,341,36330,2,0,L|365:282,1,55,2|10,0:0|0:0,0:0:0:0:
361,236,36679,2,0,B|276:238|276:238|261:214,1,110,6|10,3:2|0:0,0:0:0:0:
242,171,37202,1,2,3:2:0:0:
256,73,37551,2,0,P|289:79|325:68,2,55,2|8|10,3:2|0:0|0:0,0:0:0:0:
230,35,38075,1,10,0:0:0:0:
230,35,38249,6,0,L|114:24,1,110,6|10,3:2|0:0,0:0:0:0:
70,21,38772,1,10,0:0:0:0:
69,120,39121,2,0,L|60:176,1,55,2|8,3:2|0:0,0:0:0:0:
56,223,39470,1,2,0:0:0:0:
56,223,39644,2,0,P|30:218|-13:227,2,55,2|2|10,3:2|0:0|0:0,0:0:0:0:
98,248,40168,2,0,P|147:263|215:232,1,110,10|0,0:0|3:0,0:0:0:0:
238,211,40691,1,10,0:0:0:0:
334,235,41040,5,2,3:2:0:0:
325,333,41388,1,10,0:0:0:0:
226,337,41737,2,0,L|158:345,1,55,2|0,3:2|3:0,0:0:0:0:
122,351,42086,1,10,0:0:0:0:
22,351,42435,2,0,B|17:309|17:309|20:285|20:285|16:223,1,110,2|10,3:2|0:0,0:0:0:0:
20,191,42958,2,0,P|55:204|126:178,1,110,10|2,0:0|0:2,0:0:0:0:
125,133,43481,1,10,0:0:0:0:
90,40,43830,6,0,B|137:26|137:26|207:45,1,110,14|10,3:2|0:0,0:0:0:0:
238,77,44354,1,2,0:0:0:0:
238,77,44528,2,0,L|244:146,1,55,2|0,3:2|0:0,0:0:0:0:
239,181,44877,1,10,0:0:0:0:
235,279,45226,6,0,B|282:293|282:293|352:274,1,110,2|10,3:2|0:0,0:0:0:0:
389,247,45749,1,2,0:0:0:0:
389,247,45923,2,0,L|395:178,1,55,2|0,3:2|0:0,0:0:0:0:
378,145,46272,2,0,L|372:76,1,55,10|2,0:0|0:0,0:0:0:0:
380,41,46621,1,2,3:2:0:0:
479,43,46970,2,0,P|476:77|484:111,1,55,10|2,0:0|0:0,0:0:0:0:
502,141,47319,2,0,P|505:175|497:209,1,55,2|0,3:2|3:0,0:0:0:0:
488,243,47668,1,10,0:0:0:0:
434,325,48016,6,0,P|465:320|529:353,2,82.5,6|4|2,3:2|3:3|3:2,0:0:0:0:
385,315,48714,2,0,P|373:344|313:383,2,82.5,2|4|10,3:2|3:3|0:0,0:0:0:0:
377,265,49412,2,0,B|387:215|369:162|369:162|346:142|308:132|277:143|263:193,1,220,14|10,3:2|0:0,0:0:0:0:
205,248,50458,1,10,0:0:0:0:
205,248,50633,6,0,B|162:247|162:247|143:230|143:230|80:230,1,110,6|2,3:2|3:2,0:0:0:0:
52,222,51156,2,0,P|53:197|43:159,2,55,2|2|10,3:2|3:2|0:0,0:0:0:0:
11,247,51679,1,10,0:0:0:0:
11,247,51854,1,10,0:0:0:0:
11,355,52202,6,0,L|91:345,1,60.5000018463135,6|0,3:2|0:0,0:0:0:0:
122,330,52551,2,0,L|182:337,1,60.5000018463135,10|0,0:0|0:0,0:0:0:0:
234,322,52900,2,0,P|240:351|240:383,2,60.5000018463135,2|2|10,3:2|0:0|0:0,0:0:0:0:
235,271,53423,1,2,0:0:0:0:
235,271,53598,2,0,P|221:222|256:142,1,121.000003692627,2|10,3:2|0:0,0:0:0:0:
270,112,54121,1,2,0:0:0:0:
270,112,54295,1,2,3:2:0:0:
359,50,54644,2,0,L|435:60,1,60.5000018463135,8|2,0:0|0:0,0:0:0:0:
472,66,54993,6,0,P|476:31|468:-3,2,60.5000018463135,2|2|10,3:2|0:0|0:0,0:0:0:0:
492,122,55516,1,2,0:0:0:0:
492,122,55691,2,0,L|503:253,1,121.000003692627,2|10,3:2|0:0,0:0:0:0:
504,351,56388,2,0,P|467:347|433:354,1,60.5000018463135,2|2,3:2|0:0,0:0:0:0:
390,359,56737,2,0,P|374:324|351:299,1,60.5000018463135,10|0,0:0|0:0,0:0:0:0:
325,267,57086,2,0,P|346:236|357:204,1,60.5000018463135,2|8,3:2|0:0,0:0:0:0:
373,163,57435,2,0,P|410:167|444:160,1,60.5000018463135,10|8,0:0|0:0,0:0:0:0:
467,121,57784,5,2,3:2:0:0:
394,39,58133,2,0,L|320:30,1,60.5000018463135,10|2,0:0|0:0,0:0:0:0:
280,39,58481,2,0,L|148:23,1,121.000003692627,2|10,3:2|0:0,0:0:0:0:
50,16,59179,2,0,P|66:56|48:137,1,121.000003692627,2|10,3:2|0:0,0:0:0:0:
24,179,59702,1,2,0:0:0:0:
24,179,59877,2,0,P|8:219|26:300,1,121.000003692627,2|10,3:2|0:0,0:0:0:0:
114,350,60575,5,2,3:2:0:0:
114,350,60749,2,0,L|119:283,1,60.5000018463135,2|10,0:0|0:0,0:0:0:0:
147,243,61098,1,2,0:0:0:0:
147,243,61272,2,0,P|175:249|214:239,2,60.5000018463135,2|2|10,3:2|3:2|0:0,0:0:0:0:
123,193,61795,1,6,3:2:0:0:
146,89,62144,1,2,3:2:0:0:
146,89,62319,2,0,L|228:83,1,60.5000018463135,8|0,0:0|3:0,0:0:0:0:
252,55,62668,2,0,L|334:49,1,60.5000018463135,10|8,0:0|0:0,0:0:0:0:
355,17,63016,2,0,L|437:11,1,60.5000018463135,10|10,0:0|0:0,0:0:0:0:
466,30,63365,5,6,3:2:0:0:
501,133,63714,2,0,P|464:128|433:134,1,60.5000018463135,10|0,0:0|0:0,0:0:0:0:
405,172,64063,2,0,P|368:177|337:171,1,60.5000018463135,2|0,3:2|0:0,0:0:0:0:
305,136,64412,1,10,0:0:0:0:
204,93,64761,1,2,3:2:0:0:
112,151,65109,2,0,P|107:188|113:219,1,60.5000018463135,10|0,0:0|0:0,0:0:0:0:
158,237,65458,2,0,P|163:274|157:305,1,60.5000018463135,2|0,3:2|0:0,0:0:0:0:
152,350,65807,1,10,0:0:0:0:
257,322,66156,6,0,B|298:320|298:320|325:334|325:334|381:328,1,121.000003692627,2|10,3:2|0:0,0:0:0:0:
432,324,66679,1,2,0:0:0:0:
432,324,66854,2,0,P|429:353|437:396,2,60.5000018463135,2|2|10,3:2|0:0|0:0,0:0:0:0:
480,299,67377,2,0,L|494:162,1,121.000003692627,2|2,0:0|0:0,0:0:0:0:
502,124,67900,1,10,0:0:0:0:
491,15,68249,2,0,L|422:21,1,60.5000018463135,2|8,3:2|0:0,0:0:0:0:
380,39,68598,2,0,L|311:32,1,60.5000018463135,8|8,0:2|0:0,0:0:0:0:
265,26,68947,5,6,3:2:0:0:
156,35,69295,2,0,P|153:72|158:103,1,60.5000018463135,10|0,0:0|0:0,0:0:0:0:
189,138,69644,2,0,P|192:175|187:206,1,60.5000018463135,2|0,3:2|0:0,0:0:0:0:
181,252,69993,1,10,0:0:0:0:
105,329,70342,1,0,3:2:0:0:
17,264,70691,2,0,P|14:227|19:196,1,60.5000018463135,10|0,0:0|0:0,0:0:0:0:
49,159,71040,2,0,P|52:122|47:91,1,60.5000018463135,2|0,3:2|0:0,0:0:0:0:
23,50,71388,1,10,0:0:0:0:
130,21,71737,5,10,3:2:0:0:
130,21,71912,2,0,L|252:29,1,121.000003692627,2|10,0:0|0:0,0:0:0:0:
290,66,72435,1,10,3:2:0:0:
290,66,72609,2,0,L|369:71,1,60.5000018463135,10|8,3:2|0:0,0:0:0:0:
400,90,72958,1,14,3:2:0:0:
481,170,73307,1,2,3:2:0:0:
481,170,73481,2,0,P|477:201|484:246,1,60.5000018463135,10|0,0:0|3:0,0:0:0:0:
484,284,73830,2,0,P|455:296|419:324,1,60.5000018463135,2|10,3:2|0:0,0:0:0:0:
386,344,74179,2,0,P|361:325|318:308,1,60.5000018463135,10|8,0:0|0:0,0:0:0:0:
292,339,74528,5,6,3:2:0:0:
196,365,74877,2,0,L|202:304,1,55,10|0,0:0|0:0,0:0:0:0:
199,261,75226,2,0,L|188:149,1,110,2|8,3:2|0:0,0:0:0:0:
206,105,75749,1,2,0:0:0:0:
171,17,76098,1,2,0:0:0:0:
171,17,76272,2,0,P|142:23|115:17,1,55,10|2,0:0|0:0,0:0:0:0:
68,9,76621,2,0,L|57:120,1,110,2|10,3:2|0:0,0:0:0:0:
94,213,77319,6,0,P|69:210|29:219,1,55,2|2,3:2|0:0,0:0:0:0:
5,250,77668,1,10,0:0:0:0:
40,342,78016,2,0,P|65:339|105:348,1,55,2|2,3:2|0:0,0:0:0:0:
144,365,78365,1,10,0:0:0:0:
144,365,78540,1,2,0:0:0:0:
227,310,78888,1,2,0:0:0:0:
227,310,79063,2,0,L|232:244,1,55,10|2,0:0|0:0,0:0:0:0:
212,209,79412,2,0,L|217:143,1,55,2|8,3:2|0:0,0:0:0:0:
216,104,79761,1,2,3:2:0:0:
273,23,80109,6,0,P|309:18|350:30,1,55,6|0,3:2|0:0,0:0:0:0:
374,35,80458,2,0,P|420:46|486:24,1,110,10|2,0:0|3:2,0:0:0:0:
497,131,81156,1,8,0:0:0:0:
497,131,81330,2,0,L|426:142,1,55,2|0,0:0|3:0,0:0:0:0:
397,161,81679,2,0,P|401:189|396:227,2,55,2|8|2,0:0|0:0|0:0,0:0:0:0:
360,128,82202,2,0,P|314:113|242:134,1,110,2|10,3:2|0:0,0:0:0:0:
198,207,82900,6,0,L|191:272,1,55,6|2,3:2|0:0,0:0:0:0:
186,311,83249,1,10,0:0:0:0:
282,333,83598,2,0,L|289:268,1,55,2|2,3:2|3:2,0:0:0:0:
294,229,83947,1,10,0:0:0:0:
294,229,84121,1,14,0:2:0:0:
307,130,84470,2,0,P|279:123|235:131,2,55,14|2|14,0:0|3:2|0:0,0:0:0:0:
353,148,84993,2,0,P|381:155|425:147,1,55,10|10,0:0|0:0,0:0:0:0:
453,136,85342,1,10,0:0:0:0:
458,234,85691,6,0,P|489:232|531:248,2,55,6|2|10,3:2|0:0|0:0,0:0:0:0:
423,269,86214,1,2,0:0:0:0:
390,362,86563,2,0,P|358:363|317:348,1,55,2|10,0:0|0:0,0:0:0:0:
286,352,86912,1,2,0:0:0:0:
235,266,87261,2,0,L|169:276,2,55,2|10|2,0:0|0:0|0:0,0:0:0:0:
276,238,87784,1,2,3:2:0:0:
318,148,88133,1,10,0:0:0:0:
250,76,88481,6,0,L|260:10,2,55,2|2|10,3:2|0:0|0:0,0:0:0:0:
226,120,89005,1,2,0:0:0:0:
126,120,89354,2,0,L|136:54,1,55,2|10,0:0|0:0,0:0:0:0:
125,17,89702,1,2,0:0:0:0:
34,51,90051,1,2,0:0:0:0:
34,51,90226,2,0,P|37:83|25:127,1,55,10|2,0:0|0:0,0:0:0:0:
15,151,90575,2,0,P|12:183|24:227,1,55,2|2,3:2|3:2,0:0:0:0:
36,256,90923,1,10,0:0:0:0:
36,256,91098,1,6,3:2:0:0:
256,192,91272,12,0,92668,3:0:0:0:
