osu file format v14

[General]
AudioFilename: audio.mp3
AudioLeadIn: 0
PreviewTime: 52028
Countdown: 0
SampleSet: Soft
StackLeniency: 0.4
Mode: 0
LetterboxInBreaks: 0
WidescreenStoryboard: 1

[Editor]
Bookmarks: 4761,15923,24295,27086,35458,43830,74528,85691
DistanceSpacing: 0.4
BeatDivisor: 16
GridSize: 4
TimelineZoom: 2.4

[Metadata]
Title:Love Vacation
TitleUnicode:Love♡Vacation
Artist:Matsushita/nayuta
ArtistUnicode:松下/nayuta
Creator:tomatas95
Version:Light Insane
Source:かけぬけ★青春スパーキング!
Tags:Akihiko Yamaguchi eroge sagaplanets saga planets galgame vn visual novel video game japanese op opening kakenuke seishun sparking うらん uran 山口朗彦 pop j-pop jpop short version ver POPHOLIC
BeatmapID:3096489
BeatmapSetID:1498595

[Difficulty]
HPDrainRate:5
CircleSize:3.8
OverallDifficulty:7.5
ApproachRate:8.5
SliderMultiplier:1.4
SliderTickRate:1

[Events]
//Background and Video events
Video,0,"Iloveswimsuits.mp4"
0,0,"HibikiSwimsuitkawaii.jpg",0,0
//Break Periods
//Storyboard Layer 0 (Background)
//Storyboard Layer 1 (Fail)
//Storyboard Layer 2 (Pass)
//Storyboard Layer 3 (Foreground)
//Storyboard Layer 4 (Overlay)
//Storyboard Sound Samples

[TimingPoints]
575,348.837209302326,4,2,1,10,1,0
575,-100,4,2,1,10,0,0
1272,-100,4,2,1,20,0,0
1970,-100,4,2,1,30,0,0
2668,-100,4,2,1,40,0,0
3365,-100,4,2,1,50,0,0
3888,-100,4,2,1,60,0,0
4237,-100,4,2,1,65,0,0
4412,-100,4,2,1,70,0,0
4586,-100,4,2,1,75,0,0
4761,-100,4,2,2,80,0,0
4935,-100,4,2,1,70,0,0
10342,-100,4,2,1,75,0,0
10691,-100,4,2,1,70,0,0
11563,-100,4,2,1,75,0,0
11737,-100,4,2,1,70,0,0
13133,-100,4,2,1,75,0,0
13481,-100,4,2,1,70,0,0
14528,-100,4,2,1,60,0,0
14702,-100,4,2,1,70,0,0
14876,-100,4,2,1,60,0,0
15051,-100,4,2,1,70,0,0
15226,-100,4,2,4,70,0,0
15575,-100,4,2,4,75,0,0
15923,-142.857142857143,4,2,4,55,0,0
16272,-142.857142857143,4,2,1,55,0,0
24295,-111.111111111111,4,2,2,65,0,0
24470,-111.111111111111,4,2,1,65,0,0
24993,-111.111111111111,4,2,1,70,0,0
25342,-111.111111111111,4,2,1,75,0,0
25691,-111.111111111111,4,2,4,80,0,0
26388,-111.111111111111,4,2,4,65,0,0
26912,-111.111111111111,4,2,4,55,0,0
27086,-100,4,2,1,60,0,0
32668,-100,4,2,2,60,0,0
32842,-100,4,2,1,60,0,0
34063,-100,4,2,1,65,0,0
34586,-100,4,2,2,65,0,0
34935,-100,4,2,1,65,0,0
35458,-100,4,2,1,65,0,0
35633,-100,4,2,1,65,0,0
36679,-100,4,2,2,65,0,0
37028,-100,4,2,1,65,0,0
38249,-100,4,2,1,65,0,0
38423,-100,4,2,1,65,0,0
41040,-100,4,2,1,55,0,0
41388,-100,4,2,1,65,0,0
41737,-100,4,2,1,55,0,0
42085,-100,4,2,1,65,0,0
43830,-100,4,2,2,65,0,0
44179,-100,4,2,1,65,0,0
46621,-100,4,2,1,70,0,0
46970,-100,4,2,1,80,0,0
47144,-100,4,2,1,70,0,0
47668,-100,4,2,1,80,0,0
47842,-100,4,2,1,70,0,0
48016,-86.9565217391304,4,2,1,55,0,0
48278,-100,4,2,1,60,0,0
48540,-100,4,2,1,65,0,0
48714,-76.9230769230769,4,2,4,70,0,0
48976,-100,4,2,4,75,0,0
49237,-100,4,2,4,80,0,0
49412,-100,4,2,2,80,0,0
50109,-100,4,2,1,70,0,0
50633,-100,4,2,2,70,0,0
50981,-100,4,2,1,75,0,0
52202,-90.9090909090909,4,2,2,85,0,1
52377,-90.9090909090909,4,2,1,85,0,1
56388,-90.9090909090909,4,2,2,70,0,1
56737,-90.9090909090909,4,2,1,85,0,1
57086,-90.9090909090909,4,2,2,70,0,1
57435,-90.9090909090909,4,2,1,85,0,1
60575,-90.9090909090909,4,2,2,85,0,1
60749,-90.9090909090909,4,2,1,85,0,1
62668,-90.9090909090909,4,2,1,70,0,0
63365,-90.9090909090909,4,2,2,85,0,1
63540,-90.9090909090909,4,2,1,85,0,1
68947,-90.9090909090909,4,2,2,85,0,1
69121,-90.9090909090909,4,2,1,85,0,1
71737,-90.9090909090909,4,2,2,85,0,1
71912,-90.9090909090909,4,2,1,85,0,1
72958,-90.9090909090909,4,2,2,85,0,1
73133,-90.9090909090909,4,2,1,85,0,1
74528,-100,4,2,4,75,0,0
74877,-100,4,2,1,75,0,0
80109,-100,4,2,2,75,0,0
80284,-100,4,2,1,75,0,0
84121,-100,4,2,1,70,0,0
84295,-100,4,2,1,60,0,0
84470,-100,4,2,1,70,0,0
84644,-100,4,2,1,60,0,0
84819,-100,4,2,1,70,0,0
85342,-100,4,2,1,75,0,0
85691,-111.111111111111,4,2,1,70,0,0
86388,-111.111111111111,4,2,1,60,0,0
86563,-111.111111111111,4,2,1,70,0,0
87086,-111.111111111111,4,2,1,60,0,0
87261,-111.111111111111,4,2,1,70,0,0
89179,-111.111111111111,4,2,1,60,0,0
89354,-111.111111111111,4,2,1,70,0,0
89877,-111.111111111111,4,2,1,60,0,0
90051,-111.111111111111,4,2,1,80,0,0
90226,-111.111111111111,4,2,1,75,0,0
90400,-111.111111111111,4,2,1,70,0,0
90575,-111.111111111111,4,2,1,65,0,0
90749,-111.111111111111,4,2,1,60,0,0
90923,-111.111111111111,4,2,1,55,0,0
91098,-111.111111111111,4,2,2,50,0,0
91621,-111.111111111111,4,2,1,40,0,0
91970,-111.111111111111,4,2,1,30,0,0
92319,-111.111111111111,4,2,1,20,0,0
92668,-111.111111111111,4,2,1,10,0,0

[Colours]
Combo1 : 255,255,128
Combo2 : 150,157,252
Combo3 : 221,125,137
Combo4 : 0,255,255

[HitObjects]
256,192,575,12,2,4063,0:0:0:0:
21,42,4412,5,2,0:0:0:0:
21,42,4499,1,2,0:0:0:0:
21,42,4586,1,2,0:0:0:0:
21,42,4673,1,2,0:0:0:0:
21,42,4761,6,0,B|66:28|66:28|137:48,1,105,6|0,3:2|0:0,0:0:0:0:
121,43,5109,2,0,L|111:138,1,70,10|0,0:0|0:0,0:0:0:0:
214,42,5458,2,0,L|197:200,1,140,2|8,3:2|0:0,0:0:0:0:
182,339,5981,6,0,L|192:244,1,70,2|0,0:0|3:0,0:0:0:0:
199,181,6330,1,2,0:0:0:0:
37,264,6505,1,10,0:0:0:0:
47,176,6679,1,2,0:0:0:0:
117,222,6854,2,0,L|109:291,1,70,2|0,3:2|0:0,0:0:0:0:
102,361,7202,2,0,L|109:291,1,70,10|0,0:0|0:0,0:0:0:0:
199,181,7551,5,2,3:2:0:0:
201,191,7638,1,2,0:0:0:0:
203,201,7726,1,2,0:0:0:0:
255,118,7900,2,0,P|290:111|349:133,1,70,10|2,0:0|0:0,0:0:0:0:
389,193,8249,5,2,3:2:0:0:
387,183,8336,1,2,0:0:0:0:
385,173,8423,1,2,0:0:0:0:
265,252,8598,2,0,P|300:259|359:237,1,70,10|2,0:0|0:0,0:0:0:0:
439,96,8947,5,0,3:0:0:0:
505,150,9121,1,2,0:0:0:0:
451,225,9295,1,10,0:0:0:0:
385,171,9470,1,2,3:2:0:0:
433,27,9644,2,0,P|440:67|438:113,1,70,10|0,0:0|0:0,0:0:0:0:
511,219,9993,2,0,P|504:179|506:133,1,70,10|0,0:0|0:0,0:0:0:0:
503,350,10342,5,10,3:2:0:0:
352,267,10516,1,10,0:0:0:0:
428,309,10691,2,0,L|420:382,1,70,2|0,3:2|0:0,0:0:0:0:
260,364,11040,2,0,L|276:214,1,140,2|0,3:2|3:2,0:0:0:0:
167,349,11563,6,0,L|175:276,1,70,14|0,0:0|3:0,0:0:0:0:
189,125,11912,1,10,0:0:0:0:
182,202,12086,2,0,P|144:195|97:209,1,70,10|0,0:2|3:3,0:0:0:0:
67,338,12435,2,0,P|92:308|103:260,1,70,2|0,3:2|0:0,0:0:0:0:
7,170,12784,2,0,P|17:203|40:229,1,70,10|0,0:0|0:0,0:0:0:0:
12,34,13133,5,10,3:2:0:0:
175,6,13307,1,2,0:0:0:0:
94,20,13481,2,0,P|97:57|94:117,1,70,2|2,3:2|0:0,0:0:0:0:
187,127,13830,1,2,3:2:0:0:
187,116,13918,1,2,0:0:0:0:
187,105,14005,1,2,0:0:0:0:
272,44,14179,1,10,0:0:0:0:
187,138,14354,5,14,3:2:0:0:
366,28,14702,1,14,3:2:0:0:
476,207,15051,1,14,3:2:0:0:
490,108,15226,2,0,L|409:118,1,70,10|10,3:2|0:0,0:0:0:0:
380,116,15487,1,10,0:0:0:0:
380,116,15575,2,0,B|374:151|374:151|382:180|382:180|378:232,1,105,10|2,0:0|0:0,0:0:0:0:
378,269,15923,5,6,3:2:0:0:
380,283,16272,2,0,P|422:275|483:300,1,97.9999970092774,2|2,3:2|3:2,0:0:0:0:
467,369,16795,2,0,P|425:377|364:352,1,97.9999970092774,2|2,0:0|0:0,0:0:0:0:
301,315,17319,6,0,P|275:312|242:319,1,48.9999985046387,0|2,3:0|0:0,0:0:0:0:
195,242,17668,2,0,P|179:263|169:295,1,48.9999985046387,2|2,3:2|0:0,0:0:0:0:
185,369,18016,2,0,L|67:352,1,97.9999970092774,2|0,3:2|3:2,0:0:0:0:
17,291,18540,1,2,0:0:0:0:
0,384,18714,6,0,P|-4:342|30:279,1,97.9999970092774,0|2,3:2|3:2,0:0:0:0:
53,213,19237,1,2,0:0:0:0:
53,213,19412,2,0,P|57:171|23:108,1,97.9999970092774,2|2,3:2|3:2,0:0:0:0:
1,46,19935,1,2,0:0:0:0:
106,7,20109,6,0,P|141:2|225:15,1,97.9999970092774,2|2,3:2|3:2,0:0:0:0:
175,83,20633,2,0,P|157:80|115:87,1,48.9999985046387,2|2,0:0|3:2,0:0:0:0:
111,162,20981,2,0,P|146:157|230:170,1,97.9999970092774,2|0,0:0|0:0,0:0:0:0:
208,163,21505,5,0,3:0:0:0:
212,177,21854,2,0,L|202:284,1,97.9999970092774,2|2,3:2|3:2,0:0:0:0:
190,370,22377,1,2,0:0:0:0:
281,337,22551,2,0,L|286:283,1,48.9999985046387,2|2,3:2|0:0,0:0:0:0:
370,363,22900,6,0,L|380:250,1,97.9999970092774,2|0,3:2|3:0,0:0:0:0:
467,376,23423,1,2,0:0:0:0:
467,376,23598,2,0,L|477:263,1,97.9999970092774,2|0,3:2|3:0,0:0:0:0:
482,195,24121,1,2,0:0:0:0:
393,121,24295,6,0,L|388:189,1,62.9999980773926,6|2,3:2|0:0,0:0:0:0:
479,83,24644,1,2,3:2:0:0:
399,25,24819,1,10,0:0:0:0:
313,72,24993,2,0,P|280:82|241:71,1,62.9999980773926,2|0,3:2|3:0,0:0:0:0:
150,0,25342,1,2,3:2:0:0:
60,89,25516,1,10,0:0:0:0:
157,99,25691,6,0,B|181:125|188:162|174:204|141:223|141:223|110:205|104:172,1,188.999994232178,6|0,3:2|0:0,0:0:0:0:
60,89,26388,1,10,3:2:0:0:
0,210,26563,1,10,3:2:0:0:
0,210,26912,1,2,0:0:0:0:
1,220,26999,1,2,0:0:0:0:
2,235,27086,6,0,L|10:353,1,105,6|0,3:2|0:0,0:0:0:0:
16,377,27435,2,0,P|47:384|87:370,1,70,10|0,0:0|0:0,0:0:0:0:
172,299,27784,1,2,3:2:0:0:
172,299,27958,2,0,P|141:306|101:292,1,70,2|8,0:0|0:0,0:0:0:0:
1,220,28307,6,0,L|143:202,1,140,2|2,0:0|0:0,0:0:0:0:
200,121,28830,1,10,0:0:0:0:
139,202,29005,1,2,0:0:0:0:
172,299,29179,2,0,P|226:286|322:326,1,140,2|8,3:2|0:0,0:0:0:0:
400,384,29702,6,0,P|403:353|393:312,1,70,2|0,0:0|3:0,0:0:0:0:
493,311,30051,1,2,0:0:0:0:
493,311,30226,2,0,P|490:342|500:383,1,70,10|2,0:0|0:0,0:0:0:0:
438,231,30575,1,2,3:2:0:0:
465,148,30749,1,2,0:0:0:0:
492,65,30923,2,0,L|476:-10,1,70,10|0,0:0|0:0,0:0:0:0:
376,20,31272,6,0,L|392:95,1,70,2|2,3:2|0:0,0:0:0:0:
465,148,31621,1,10,0:0:0:0:
355,176,31795,2,0,P|293:172|202:181,1,140,2|2,0:0|0:0,0:0:0:0:
126,239,32319,1,10,0:0:0:0:
209,345,32493,1,8,0:0:0:0:
196,347,32580,1,8,0:0:0:0:
183,350,32668,6,0,B|143:353|143:353|117:363|117:363|64:350,1,105,6|0,3:2|0:0,0:0:0:0:
29,347,33016,2,0,L|22:264,1,70,10|0,0:0|0:0,0:0:0:0:
126,239,33365,2,0,L|114:99,1,140,2|10,3:2|0:0,0:0:0:0:
101,5,33888,1,2,0:0:0:0:
20,112,34063,5,4,3:3:0:0:
7,18,34237,1,4,3:3:0:0:
114,99,34412,1,10,0:0:0:0:
227,11,34586,2,0,B|209:-12|209:-12|210:115,1,140,6|8,3:2|0:0,0:0:0:0:
197,186,35109,1,10,0:0:0:0:
182,274,35284,1,2,3:2:0:0:
279,152,35458,6,0,L|296:290,1,140,14|10,3:2|0:0,0:0:0:0:
367,381,35981,2,0,L|377:302,1,70,2|0,0:0|3:0,0:0:0:0:
399,213,36330,1,2,0:0:0:0:
495,245,36505,1,10,0:0:0:0:
478,384,36679,6,0,L|495:245,1,140,6|10,3:2|0:0,0:0:0:0:
491,91,37202,1,2,3:2:0:0:
390,37,37377,1,10,0:0:0:0:
311,114,37551,1,2,3:2:0:0:
404,135,37726,1,8,0:0:0:0:
404,146,37813,1,8,0:0:0:0:
404,157,37900,1,10,0:0:0:0:
390,37,38075,1,10,0:0:0:0:
406,170,38249,6,0,L|391:337,1,140,6|10,3:2|0:0,0:0:0:0:
475,384,38772,2,0,P|480:336|471:304,1,70,10|0,0:0|0:0,0:0:0:0:
312,310,39121,2,0,P|307:358|316:390,1,70,2|8,3:2|0:0,0:0:0:0:
393,309,39470,1,2,0:0:0:0:
227,310,39644,6,0,L|212:155,1,140,2|10,3:2|0:0,0:0:0:0:
125,183,40168,2,0,L|139:323,1,140,10|0,0:0|3:0,0:0:0:0:
51,336,40691,2,0,L|38:199,1,105,10|0,0:0|0:0,0:0:0:0:
22,191,41040,6,0,P|19:153|6:112,1,70,2|0,3:2|0:0,0:0:0:0:
3,22,41388,2,0,P|40:19|76:8,1,70,10|0,0:0|0:0,0:0:0:0:
170,3,41737,2,0,P|172:40|185:81,1,70,2|0,3:2|3:0,0:0:0:0:
190,171,42086,2,0,P|152:173|116:184,1,70,10|0,0:0|0:0,0:0:0:0:
95,95,42435,5,2,3:2:0:0:
181,71,42609,1,2,0:0:0:0:
121,182,42784,1,10,0:0:0:0:
181,71,42958,2,0,L|345:55,1,140,10|2,0:0|0:2,0:0:0:0:
361,48,43394,1,2,0:2:0:0:
361,48,43481,1,10,0:0:0:0:
444,9,43656,1,2,0:2:0:0:
428,169,43830,6,0,L|437:85,1,70,14|0,3:2|0:0,0:0:0:0:
512,210,44179,1,10,0:0:0:0:
428,265,44354,1,2,0:0:0:0:
336,193,44528,2,0,L|322:348,1,140,2|10,3:2|0:0,0:0:0:0:
420,356,45051,1,2,0:0:0:0:
421,345,45138,1,2,0:0:0:0:
422,334,45226,6,0,L|430:237,1,70,2|2,3:2|0:0,0:0:0:0:
428,169,45575,1,10,0:0:0:0:
512,210,45749,1,2,0:0:0:0:
494,72,45923,2,0,P|430:94|341:52,1,140,2|10,3:2|0:0,0:0:0:0:
199,0,46447,1,2,0:0:0:0:
281,40,46621,6,0,L|267:135,1,70,2|0,3:2|0:0,0:0:0:0:
266,152,46883,1,2,0:0:0:0:
266,152,46970,1,10,0:0:0:0:
199,0,47144,1,2,0:0:0:0:
108,21,47319,2,0,L|94:116,1,70,2|0,3:2|3:0,0:0:0:0:
93,133,47580,1,2,0:0:0:0:
93,133,47668,1,10,0:0:0:0:
127,243,47842,1,2,3:2:0:0:
118,238,47929,1,2,3:2:0:0:
110,236,48016,6,0,P|61:220|-7:254,2,120.750002303124,6|4|2,3:2|3:3|3:2,0:0:0:0:
122,354,48714,2,0,P|64:378|-10:339,2,136.499993751526,2|4|10,3:2|3:3|0:0,0:0:0:0:
229,278,49412,6,0,B|239:320|212:344|212:344|182:294|203:217|223:253|244:192|222:145,1,280,14|10,3:2|0:0,0:0:0:0:
140,24,50284,1,10,0:0:0:0:
296,15,50458,1,10,0:0:0:0:
222,145,50633,6,0,B|291:161|291:161|369:123,1,140,6|2,3:2|3:2,0:0:0:0:
423,37,51156,1,2,3:2:0:0:
442,197,51330,1,2,3:2:0:0:
512,104,51505,1,10,0:0:0:0:
353,130,51679,1,10,0:0:0:0:
351,113,51766,1,10,0:0:0:0:
349,96,51854,1,10,0:0:0:0:
512,274,52202,6,0,B|472:263|472:263|426:273,1,77.0000023498536,6|0,3:2|0:0,0:0:0:0:
512,366,52551,2,0,B|472:377|472:377|426:367,1,77.0000023498536,10|0,0:0|0:0,0:0:0:0:
314,273,52900,1,2,3:2:0:0:
437,369,53075,1,2,0:0:0:0:
437,273,53249,1,10,0:0:0:0:
314,369,53423,1,2,0:0:0:0:
376,321,53598,6,0,L|357:160,1,154.000004699707,2|10,3:2|0:0,0:0:0:0:
284,10,54121,1,2,0:0:0:0:
351,58,54295,2,0,P|284:91|210:43,1,154.000004699707,2|8,3:2|0:0,0:0:0:0:
142,0,54819,1,2,0:0:0:0:
36,82,54993,6,0,B|70:70|70:70|137:83,1,77.0000023498536,2|2,3:2|0:0,0:0:0:0:
148,227,55342,2,0,B|120:203|120:203|107:164,1,77.0000023498536,10|2,0:0|0:0,0:0:0:0:
218,57,55691,2,0,B|211:92|211:92|184:123,1,77.0000023498536,2|2,3:2|0:0,0:0:0:0:
134,131,55952,1,2,0:0:0:0:
134,131,56040,1,10,0:0:0:0:
36,82,56214,1,2,0:0:0:0:
32,248,56388,6,0,L|23:165,1,77.0000023498536,2|2,3:2|0:0,0:0:0:0:
156,303,56737,2,0,L|147:220,1,77.0000023498536,10|0,0:0|0:0,0:0:0:0:
280,358,57086,2,0,L|271:275,1,77.0000023498536,2|8,3:2|0:0,0:0:0:0:
254,129,57435,2,0,L|263:212,1,77.0000023498536,10|8,0:0|0:0,0:0:0:0:
271,281,57697,1,8,0:0:0:0:
271,281,57784,6,0,P|310:272|367:291,1,77.0000023498536,2|2,3:2|0:0,0:0:0:0:
408,372,58133,1,10,0:0:0:0:
439,216,58307,1,2,0:0:0:0:
496,310,58481,2,0,L|408:292,1,77.0000023498536,2|0,3:2|0:0,0:0:0:0:
363,200,58830,2,0,L|451:218,1,77.0000023498536,10|0,0:0|0:0,0:0:0:0:
512,83,59179,6,0,P|434:101|355:48,1,154.000004699707,2|10,3:2|0:0,0:0:0:0:
448,7,59702,1,2,0:0:0:0:
282,0,59877,2,0,L|266:167,1,154.000004699707,2|10,3:2|0:0,0:0:0:0:
246,246,60400,1,2,0:0:0:0:
132,130,60575,5,2,3:2:0:0:
81,191,60749,1,2,0:0:0:0:
142,242,60923,1,10,0:0:0:0:
193,181,61098,1,2,0:0:0:0:
81,191,61272,5,2,3:2:0:0:
0,101,61447,1,2,3:2:0:0:
86,17,61621,1,10,0:0:0:0:
81,191,61795,6,0,B|77:231|77:231|85:269|85:269|72:345,1,154.000004699707,6|2,3:2|3:2,0:0:0:0:
64,384,62231,1,2,0:0:0:0:
64,384,62319,1,8,0:0:0:0:
9,275,62493,1,0,3:0:0:0:
157,232,62668,2,0,P|193:227|241:242,1,77.0000023498536,10|8,0:0|0:0,0:0:0:0:
275,275,62929,1,8,0:0:0:0:
275,275,63016,2,0,P|247:302|233:337,1,77.0000023498536,10|10,0:0|0:0,0:0:0:0:
215,379,63278,1,10,0:0:0:0:
215,379,63365,5,6,3:2:0:0:
483,289,63714,2,0,P|492:326|486:366,1,77.0000023498536,10|0,0:0|0:0,0:0:0:0:
376,367,64063,2,0,P|366:329|373:290,1,77.0000023498536,2|0,3:2|0:0,0:0:0:0:
426,200,64412,2,0,L|437:73,1,115.50000352478,14|0,0:0|0:0,0:0:0:0:
453,41,64761,6,0,B|412:29|412:29|382:41|382:41|323:29,1,115.50000352478,2|0,3:2|0:0,0:0:0:0:
294,27,65109,2,0,P|285:68|295:112,1,77.0000023498536,10|0,0:0|0:0,0:0:0:0:
173,99,65458,2,0,P|182:58|172:14,1,77.0000023498536,2|0,3:2|0:0,0:0:0:0:
233,177,65807,2,0,L|245:303,1,115.50000352478,14|0,0:0|0:0,0:0:0:0:
270,345,66156,6,0,P|220:320|117:368,1,154.000004699707,2|10,3:2|0:0,0:0:0:0:
0,297,66679,1,2,0:0:0:0:
131,349,66854,1,2,3:2:0:0:
108,209,67028,1,2,0:0:0:0:
50,360,67202,1,10,0:0:0:0:
159,272,67377,1,2,0:0:0:0:
28,222,67551,6,0,L|22:78,1,115.50000352478,2|0,3:2|0:0,0:0:0:0:
23,62,67900,2,0,P|64:68|111:56,1,77.0000023498536,10|0,0:0|0:0,0:0:0:0:
227,0,68249,2,0,P|202:29|189:65,1,77.0000023498536,2|8,3:2|0:0,0:0:0:0:
178,207,68598,2,0,P|164:171|139:141,1,77.0000023498536,8|8,0:2|0:0,0:0:0:0:
146,94,68859,1,8,0:0:0:0:
146,94,68947,6,0,B|186:93|186:93|216:76|216:76|280:74,1,115.50000352478,6|0,3:2|0:0,0:0:0:0:
309,78,69295,2,0,P|316:38|302:-13,1,77.0000023498536,10|0,0:0|0:0,0:0:0:0:
406,5,69644,2,0,P|437:31|488:44,1,77.0000023498536,2|0,3:2|0:0,0:0:0:0:
443,166,69993,2,0,P|392:150|326:173,1,115.50000352478,14|0,0:0|0:0,0:0:0:0:
308,199,70342,6,0,B|303:235|303:235|310:269|310:269|297:335,1,115.50000352478,0|0,3:2|0:0,0:0:0:0:
310,366,70691,2,0,P|343:358|411:375,1,77.0000023498536,10|0,0:0|0:0,0:0:0:0:
504,283,71040,2,0,P|471:291|403:274,1,77.0000023498536,2|0,3:2|0:0,0:0:0:0:
308,199,71388,2,0,P|341:207|409:190,1,77.0000023498536,14|2,0:0|0:0,0:0:0:0:
444,39,71737,5,10,3:2:0:0:
487,108,71912,2,0,P|454:116|386:99,1,77.0000023498536,2|8,0:0|0:0,0:0:0:0:
323,8,72261,1,10,0:0:0:0:
323,17,72348,1,8,0:0:0:0:
323,26,72435,1,10,3:2:0:0:
411,111,72609,1,10,3:2:0:0:
308,199,72784,1,8,0:0:0:0:
220,96,72958,6,0,B|199:59|199:59|180:119|192:190,1,154.000004699707,14|2,3:2|3:2,0:0:0:0:
246,323,73481,1,10,0:0:0:0:
149,250,73656,1,0,3:0:0:0:
55,325,73830,1,2,3:2:0:0:
152,376,74005,1,10,0:0:0:0:
149,366,74092,1,10,0:0:0:0:
146,356,74179,1,10,0:0:0:0:
246,323,74354,1,8,0:0:0:0:
55,325,74528,6,0,B|50:282|50:282|53:258|53:258|44:211,1,105,6|0,3:2|0:0,0:0:0:0:
27,183,74877,2,0,L|115:166,1,70,10|0,0:0|0:0,0:0:0:0:
163,66,75226,2,0,P|101:47|11:78,1,140,2|8,3:2|0:0,0:0:0:0:
95,169,75749,6,0,P|157:188|247:157,1,140,2|2,0:0|0:0,0:0:0:0:
270,67,76272,1,10,0:0:0:0:
228,170,76447,1,2,0:0:0:0:
271,42,76621,2,0,L|360:34,1,70,2|0,3:2|0:0,0:0:0:0:
489,26,76970,2,0,L|400:34,1,70,10|0,0:0|0:0,0:0:0:0:
393,134,77319,5,2,3:2:0:0:
391,125,77406,1,2,0:0:0:0:
389,116,77493,1,2,0:0:0:0:
488,193,77668,2,0,P|488:156|469:113,1,70,10|2,0:0|0:0,0:0:0:0:
396,214,78016,5,2,3:2:0:0:
398,224,78104,1,2,0:0:0:0:
400,233,78191,1,2,0:0:0:0:
297,196,78365,2,0,P|297:159|316:116,1,70,10|0,0:0|0:0,0:0:0:0:
404,242,78714,6,0,L|420:324,1,70,2|2,3:2|0:0,0:0:0:0:
512,378,79063,1,10,0:0:0:0:
417,310,79237,1,2,0:0:0:0:
325,384,79412,1,2,3:2:0:0:
251,338,79586,1,10,0:0:0:0:
176,292,79761,1,10,0:0:0:0:
297,196,79935,1,8,0:0:0:0:
297,196,80022,1,8,0:0:0:0:
297,196,80109,6,0,B|256:199|256:199|231:183|231:183|174:183,1,105,6|0,3:2|0:0,0:0:0:0:
154,186,80458,2,0,P|150:153|159:101,1,70,10|0,0:0|0:0,0:0:0:0:
234,55,80807,2,0,P|197:22|89:43,1,140,2|8,3:2|0:0,0:0:0:0:
47,89,81330,6,0,P|51:122|42:174,1,70,2|0,0:0|3:0,0:0:0:0:
18,266,81679,1,2,0:0:0:0:
154,186,81854,1,8,0:0:0:0:
46,158,82028,1,2,0:0:0:0:
125,287,82202,2,0,L|115:374,1,70,2|0,3:2|0:0,0:0:0:0:
10,335,82551,2,0,L|20:248,1,70,10|0,0:0|0:0,0:0:0:0:
44,132,82900,5,6,3:2:0:0:
45,145,82987,1,2,0:0:0:0:
46,158,83075,1,2,0:0:0:0:
147,189,83249,2,0,L|140:120,1,70,10|2,0:0|0:0,0:0:0:0:
241,126,83598,5,2,3:2:0:0:
242,139,83685,1,2,0:0:0:0:
243,152,83772,1,2,3:2:0:0:
147,189,83947,1,10,0:0:0:0:
206,30,84121,5,14,0:2:0:0:
408,100,84470,1,14,0:0:0:0:
338,302,84819,1,14,0:0:0:0:
420,363,84993,2,0,L|434:273,1,70,10|10,0:0|0:0,0:0:0:0:
465,264,85255,1,10,0:0:0:0:
465,264,85342,2,0,L|479:174,1,70,10|2,0:0|0:0,0:0:0:0:
503,158,85604,1,2,0:0:0:0:
503,158,85691,5,6,3:2:0:0:
392,93,85865,1,2,0:0:0:0:
500,25,86040,1,10,0:0:0:0:
370,90,86214,2,0,L|300:85,1,62.9999980773926,2|0,0:0|3:0,0:0:0:0:
207,21,86563,1,2,0:0:0:0:
307,85,86737,1,10,0:0:0:0:
225,187,86912,6,0,L|215:111,1,62.9999980773926,2|0,0:0|3:0,0:0:0:0:
207,21,87261,1,2,0:0:0:0:
113,133,87435,1,10,0:0:0:0:
104,30,87609,1,2,0:0:0:0:
216,124,87784,1,2,3:2:0:0:
9,79,88133,2,0,P|11:122|9:195,1,94.499997116089,10|0,0:0|0:0,0:0:0:0:
27,218,88481,5,2,3:2:0:0:
113,133,88656,1,2,0:0:0:0:
85,282,88830,5,10,0:0:0:0:
171,197,89005,2,0,L|175:265,1,62.9999980773926,2|0,0:0|3:0,0:0:0:0:
158,373,89354,1,2,0:0:0:0:
85,282,89528,1,10,0:0:0:0:
228,326,89702,2,0,L|296:330,1,62.9999980773926,2|0,0:0|3:2,0:0:0:0:
469,357,90051,5,2,0:0:0:0:
290,329,90226,1,2,3:2:0:0:
458,282,90400,1,8,0:0:0:0:
321,259,90575,1,2,3:2:0:0:
447,207,90749,1,2,3:2:0:0:
352,189,90923,1,10,0:0:0:0:
415,115,91098,5,14,3:2:0:0:
256,192,91272,12,0,92668,3:0:0:0:
