osu file format v14

[General]
AudioFilename: audio.mp3
AudioLeadIn: 0
PreviewTime: 52028
Countdown: 0
SampleSet: Soft
StackLeniency: 0.4
Mode: 0
LetterboxInBreaks: 0
WidescreenStoryboard: 1

[Editor]
Bookmarks: 4761,15923,24295,27086,35458,43830,74528,85691
DistanceSpacing: 0.4
BeatDivisor: 4
GridSize: 4
TimelineZoom: 2.4

[Metadata]
Title:Love Vacation
TitleUnicode:Love♡Vacation
Artist:Matsushita/nayuta
ArtistUnicode:松下/nayuta
Creator:tomatas95
Version:Insane
Source:かけぬけ★青春スパーキング!
Tags:Akihiko Yamaguchi eroge sagaplanets saga planets galgame vn visual novel video game japanese op opening kakenuke seishun sparking うらん uran 山口朗彦 pop j-pop jpop short version ver POPHOLIC
BeatmapID:3096488
BeatmapSetID:1498595

[Difficulty]
HPDrainRate:6
CircleSize:3.8
OverallDifficulty:8
ApproachRate:9
SliderMultiplier:1.6
SliderTickRate:1

[Events]
//Background and Video events
Video,0,"Iloveswimsuits.mp4"
0,0,"RiriBestwaifuuu.jpg",0,0
//Break Periods
//Storyboard Layer 0 (Background)
//Storyboard Layer 1 (Fail)
//Storyboard Layer 2 (Pass)
//Storyboard Layer 3 (Foreground)
//Storyboard Layer 4 (Overlay)
//Storyboard Sound Samples

[TimingPoints]
575,348.837209302326,4,2,1,10,1,0
575,-100,4,2,1,10,0,0
1272,-100,4,2,1,20,0,0
1970,-100,4,2,1,30,0,0
2668,-100,4,2,1,40,0,0
3365,-100,4,2,1,50,0,0
3888,-100,4,2,1,60,0,0
4063,-125,4,2,1,60,0,0
4237,-125,4,2,1,65,0,0
4412,-125,4,2,1,70,0,0
4586,-125,4,2,1,75,0,0
4761,-100,4,2,2,80,0,0
4935,-100,4,2,1,70,0,0
10342,-100,4,2,1,75,0,0
10691,-100,4,2,1,70,0,0
11563,-83.3333333333333,4,2,1,75,0,0
11737,-83.3333333333333,4,2,1,70,0,0
12086,-100,4,2,1,70,0,0
13133,-83.3333333333333,4,2,1,75,0,0
13481,-83.3333333333333,4,2,1,70,0,0
14354,-100,4,2,1,70,0,0
14528,-100,4,2,1,60,0,0
14702,-100,4,2,1,70,0,0
14876,-100,4,2,1,60,0,0
15051,-100,4,2,1,70,0,0
15226,-83.3333333333333,4,2,4,70,0,0
15575,-83.3333333333333,4,2,4,75,0,0
15923,-125,4,2,4,55,0,0
16272,-125,4,2,1,55,0,0
24295,-111.111111111111,4,2,2,65,0,0
24470,-111.111111111111,4,2,1,65,0,0
24993,-111.111111111111,4,2,1,70,0,0
25342,-111.111111111111,4,2,1,75,0,0
25691,-111.111111111111,4,2,4,80,0,0
26301,-111.111111111111,4,2,4,5,0,0
26388,-111.111111111111,4,2,4,65,0,0
26912,-111.111111111111,4,2,4,55,0,0
27086,-100,4,2,1,60,0,0
27348,-100,4,2,1,5,0,0
27435,-100,4,2,1,60,0,0
32668,-100,4,2,2,60,0,0
32842,-100,4,2,1,60,0,0
32929,-100,4,2,1,5,0,0
33016,-100,4,2,1,60,0,0
34063,-100,4,2,1,65,0,0
34586,-100,4,2,2,65,0,0
34935,-100,4,2,1,65,0,0
35458,-100,4,2,1,65,0,0
35633,-100,4,2,1,65,0,0
36679,-100,4,2,2,65,0,0
37028,-100,4,2,1,65,0,0
38249,-100,4,2,1,65,0,0
38423,-100,4,2,1,65,0,0
39383,-100,4,2,1,5,0,0
39470,-100,4,2,1,55,0,0
41040,-100,4,2,1,55,0,0
41388,-100,4,2,1,65,0,0
41737,-100,4,2,1,55,0,0
42085,-100,4,2,1,65,0,0
43743,-100,4,2,1,5,0,0
43830,-100,4,2,2,65,0,0
44179,-100,4,2,1,65,0,0
46185,-100,4,2,1,5,0,0
46272,-100,4,2,1,65,0,0
46621,-100,4,2,1,70,0,0
46970,-74.0740740740741,4,2,1,80,0,0
47144,-74.0740740740741,4,2,1,70,0,0
47319,-100,4,2,1,70,0,0
47668,-74.0740740740741,4,2,1,80,0,0
47842,-74.0740740740741,4,2,1,70,0,0
48016,-100,4,2,1,55,0,0
48278,-100,4,2,1,60,0,0
48540,-100,4,2,1,65,0,0
48714,-80,4,2,4,70,0,0
48976,-80,4,2,4,75,0,0
49237,-80,4,2,4,80,0,0
49412,-90.9090909090909,4,2,2,80,0,0
50109,-90.9090909090909,4,2,1,70,0,0
50633,-100,4,2,2,70,0,0
50981,-100,4,2,1,75,0,0
51854,-200,4,2,1,75,0,0
52115,-200,4,2,1,5,0,0
52202,-83.3333333333333,4,2,2,85,0,1
52377,-83.3333333333333,4,2,1,85,0,1
56388,-250,4,2,2,70,0,1
56737,-80,4,2,1,85,0,1
57086,-250,4,2,2,70,0,1
57435,-80,4,2,1,85,0,1
57784,-83.3333333333333,4,2,1,85,0,1
60575,-83.3333333333333,4,2,2,85,0,1
60749,-83.3333333333333,4,2,1,85,0,1
62668,-83.3333333333333,4,2,1,70,0,0
63365,-83.3333333333333,4,2,2,85,0,1
63540,-83.3333333333333,4,2,1,85,0,1
64412,-74.0740740740741,4,2,1,85,0,1
64673,-74.0740740740741,4,2,1,5,0,1
64761,-83.3333333333333,4,2,1,85,0,1
65807,-74.0740740740741,4,2,1,85,0,1
66069,-74.0740740740741,4,2,1,5,0,1
66156,-83.3333333333333,4,2,1,85,0,1
68947,-83.3333333333333,4,2,2,85,0,1
69121,-83.3333333333333,4,2,1,85,0,1
69208,-74.0740740740741,4,2,1,5,0,1
69295,-74.0740740740741,4,2,1,85,0,1
69993,-74.0740740740741,4,2,1,85,0,1
70255,-74.0740740740741,4,2,1,5,0,1
70342,-83.3333333333333,4,2,1,85,0,1
71388,-74.0740740740741,4,2,1,85,0,1
71650,-74.0740740740741,4,2,1,5,0,1
71737,-83.3333333333333,4,2,2,85,0,1
71912,-83.3333333333333,4,2,1,85,0,1
72958,-83.3333333333333,4,2,2,85,0,1
73133,-83.3333333333333,4,2,1,85,0,1
74179,-200,4,2,1,85,0,1
74441,-74.0740740740741,4,2,1,5,0,1
74528,-100,4,2,4,75,0,0
74877,-100,4,2,1,75,0,0
80109,-100,4,2,2,75,0,0
80284,-100,4,2,1,75,0,0
80371,-100,4,2,1,5,0,0
80458,-100,4,2,1,70,0,0
84121,-100,4,2,1,70,0,0
84295,-100,4,2,1,60,0,0
84470,-100,4,2,1,70,0,0
84644,-100,4,2,1,60,0,0
84819,-100,4,2,1,70,0,0
85342,-200,4,2,1,75,0,0
85604,-100,4,2,1,5,0,0
85691,-111.111111111111,4,2,1,70,0,0
86388,-111.111111111111,4,2,1,60,0,0
86563,-111.111111111111,4,2,1,70,0,0
87086,-111.111111111111,4,2,1,60,0,0
87261,-111.111111111111,4,2,1,70,0,0
88394,-100,4,2,1,5,0,0
88481,-100,4,2,1,60,0,0
89179,-111.111111111111,4,2,1,60,0,0
89354,-111.111111111111,4,2,1,70,0,0
89877,-111.111111111111,4,2,1,60,0,0
90051,-111.111111111111,4,2,1,80,0,0
90226,-111.111111111111,4,2,1,75,0,0
90400,-111.111111111111,4,2,1,70,0,0
90575,-111.111111111111,4,2,1,65,0,0
90749,-111.111111111111,4,2,1,60,0,0
90923,-111.111111111111,4,2,1,55,0,0
91098,-111.111111111111,4,2,2,50,0,0
91621,-111.111111111111,4,2,1,40,0,0
91970,-111.111111111111,4,2,1,30,0,0
92319,-111.111111111111,4,2,1,20,0,0
92668,-111.111111111111,4,2,1,10,0,0

[Colours]
Combo1 : 255,255,128
Combo2 : 150,157,252
Combo3 : 221,125,137
Combo4 : 0,255,255

[HitObjects]
256,192,575,12,0,3888,0:0:0:0:
13,28,4063,5,2,0:0:0:0:
33,36,4150,1,2,0:0:0:0:
55,40,4237,1,2,0:0:0:0:
77,38,4325,1,2,0:0:0:0:
99,32,4412,2,0,L|96:4,7,16,2|0|2|0|2|0|2|0,0:0|0:0|0:0|0:0|0:0|0:0|0:0|0:0,0:0:0:0:
104,70,4761,6,0,B|99:112|99:112|104:141|104:141|93:208,1,120,6|0,3:2|0:0,0:0:0:0:
93,232,5109,2,0,L|3:217,1,80,10|0,0:0|0:0,0:0:0:0:
0,355,5458,2,0,L|180:325,1,160,2|8,3:2|0:0,0:0:0:0:
356,301,5981,2,0,L|266:316,1,80,2|0,0:0|3:0,0:0:0:0:
157,328,6330,5,2,0:0:0:0:
262,150,6505,1,10,0:0:0:0:
277,314,6679,1,2,0:0:0:0:
210,241,6854,2,0,P|164:245|106:222,1,80,2|0,3:2|0:0,0:0:0:0:
262,150,7202,2,0,P|308:146|366:169,1,80,10|0,0:0|0:0,0:0:0:0:
379,336,7551,6,0,L|385:287,1,40,2|2,3:2|0:0,0:0:0:0:
399,215,7726,1,2,0:0:0:0:
469,352,7900,2,0,L|481:253,1,80,10|2,0:0|0:0,0:0:0:0:
512,44,8249,2,0,L|506:93,1,40,2|2,3:2|0:0,0:0:0:0:
498,159,8423,2,0,L|492:208,1,40,2|2,0:0|0:0,0:0:0:0:
469,352,8598,2,0,L|481:253,1,80,10|2,0:0|0:0,0:0:0:0:
507,83,8947,5,0,3:0:0:0:
484,67,9121,1,2,0:0:0:0:
381,22,9295,1,10,0:0:0:0:
268,89,9470,1,2,3:2:0:0:
268,107,9557,1,0,3:0:0:0:
268,127,9644,2,0,P|226:133|171:117,1,80,10|0,0:0|0:0,0:0:0:0:
141,54,9906,1,2,0:0:0:0:
141,54,9993,2,0,P|99:48|44:64,1,80,10|0,0:0|0:0,0:0:0:0:
0,251,10342,5,10,3:2:0:0:
62,55,10516,1,10,0:0:0:0:
100,133,10691,2,0,L|89:231,1,80,2|0,3:2|0:0,0:0:0:0:
73,371,11040,2,0,L|93:185,1,160,2|0,3:2|3:2,0:0:0:0:
219,377,11563,6,0,L|232:264,1,95.9999970703126,14|0,0:0|3:0,0:0:0:0:
245,70,11912,1,10,0:0:0:0:
236,150,12086,2,0,L|247:46,1,80,10|0,0:2|3:3,0:0:0:0:
167,212,12435,2,0,P|133:220|61:191,1,80,2|0,3:2|0:0,0:0:0:0:
298,219,12784,2,0,P|332:227|404:198,1,80,10|0,0:0|0:0,0:0:0:0:
500,38,13133,6,0,L|491:97,1,47.9999985351563,10|0,3:2|0:0,0:0:0:0:
509,168,13307,2,0,L|500:227,1,47.9999985351563,2|0,0:0|0:0,0:0:0:0:
487,310,13481,2,0,L|504:198,1,95.9999970703126,2|2,3:2|0:0,0:0:0:0:
373,40,13830,6,0,L|364:99,1,47.9999985351563,2|2,3:2|0:0,0:0:0:0:
382,170,14005,2,0,L|373:229,1,47.9999985351563,2|0,0:0|0:0,0:0:0:0:
377,300,14179,1,10,0:0:0:0:
254,83,14354,5,14,3:2:0:0:
27,139,14702,1,14,3:2:0:0:
83,366,15051,1,14,3:2:0:0:
36,294,15226,6,0,B|83:279|83:279|145:302,1,95.9999970703126,10|10,3:2|0:0,0:0:0:0:
175,357,15487,1,10,0:0:0:0:
175,357,15575,2,0,B|222:372|222:372|284:349,1,95.9999970703126,10|2,0:0|0:0,0:0:0:0:
336,326,15836,1,2,0:0:0:0:
336,326,15923,6,0,P|397:322|475:334,2,128,6|2|2,3:2|3:2|3:2,0:0:0:0:
326,251,16795,2,0,P|390:244|468:254,1,128,2|2,0:0|0:0,0:0:0:0:
505,181,17319,5,0,3:0:0:0:
454,251,17493,1,2,0:0:0:0:
480,101,17668,1,2,3:2:0:0:
429,171,17842,1,2,0:0:0:0:
455,21,18016,2,0,L|311:34,1,128,2|0,3:2|3:2,0:0:0:0:
240,137,18540,6,0,P|240:73|226:10,1,128,2|2,0:0|0:0,0:0:0:0:
156,131,19063,1,2,3:2:0:0:
226,221,19237,1,2,0:0:0:0:
323,158,19412,2,0,L|315:314,1,128,2|2,3:2|3:2,0:0:0:0:
310,379,19935,1,2,0:0:0:0:
432,380,20109,6,0,P|373:363|297:386,1,128,2|2,3:2|3:2,0:0:0:0:
191,384,20633,2,0,L|195:306,1,64,2|2,0:0|3:2,0:0:0:0:
70,384,20981,2,0,L|77:244,1,128,2|0,0:0|0:0,0:0:0:0:
127,146,21505,6,0,P|73:168|-3:130,2,128,0|2|2,3:0|3:2|3:2,0:0:0:0:
145,8,22377,1,2,0:0:0:0:
127,146,22551,1,2,3:2:0:0:
67,68,22726,1,2,0:0:0:0:
205,86,22900,6,0,P|211:135|212:224,1,128,2|0,3:2|3:0,0:0:0:0:
322,219,23423,1,2,0:0:0:0:
322,219,23598,2,0,P|316:170|315:81,1,128,2|0,3:2|3:0,0:0:0:0:
360,4,24121,1,2,0:0:0:0:
487,74,24295,6,0,B|454:65|454:65|393:76,1,71.9999978027344,6|2,3:2|0:0,0:0:0:0:
450,253,24644,1,2,3:2:0:0:
314,91,24819,1,10,0:0:0:0:
345,270,24993,1,2,3:2:0:0:
417,72,25168,1,2,0:0:0:0:
278,188,25342,1,2,3:2:0:0:
484,153,25516,1,10,0:0:0:0:
336,300,25691,6,0,B|402:260|408:170|326:91|249:173|285:208,1,251.999992309571,6|0,3:2|0:0,0:0:0:0:
229,245,26388,1,10,3:2:0:0:
478,370,26563,1,10,3:2:0:0:
36,376,26912,1,2,0:0:0:0:
36,376,26999,1,2,0:0:0:0:
36,376,27086,6,0,L|21:236,1,120,6|0,3:2|0:0,0:0:0:0:
21,214,27435,2,0,P|55:221|102:208,1,80,10|0,0:0|0:0,0:0:0:0:
61,25,27784,1,2,3:2:0:0:
100,114,27958,2,0,P|66:123|18:113,1,80,2|8,0:0|0:0,0:0:0:0:
188,13,28307,6,0,L|203:187,1,160,2|2,0:0|0:0,0:0:0:0:
146,280,28830,1,10,0:0:0:0:
201,172,29005,1,2,0:0:0:0:
330,258,29179,2,0,L|345:84,1,160,2|8,3:2|0:0,0:0:0:0:
350,18,29702,6,0,L|342:104,1,80,2|0,0:0|3:0,0:0:0:0:
431,29,30051,1,2,0:0:0:0:
270,18,30226,1,10,0:0:0:0:
343,97,30400,1,2,0:0:0:0:
270,0,30575,1,2,3:2:0:0:
431,11,30749,1,2,0:0:0:0:
343,117,30923,2,0,P|383:111|433:128,1,80,10|0,0:0|0:0,0:0:0:0:
429,262,31272,5,2,3:2:0:0:
504,143,31447,1,2,0:0:0:0:
511,231,31621,1,10,0:0:0:0:
376,196,31795,2,0,L|213:208,1,160,2|2,0:0|0:0,0:0:0:0:
5,223,32319,1,10,0:0:0:0:
106,146,32493,1,8,0:0:0:0:
107,162,32580,1,8,0:0:0:0:
110,178,32668,6,0,P|116:241|112:325,1,120,6|0,3:2|0:0,0:0:0:0:
91,332,33016,2,0,P|53:326|8:337,1,80,10|0,0:0|0:0,0:0:0:0:
193,356,33365,2,0,P|263:344|357:372,1,160,2|10,3:2|0:0,0:0:0:0:
438,375,33888,1,2,0:0:0:0:
484,183,34063,5,4,3:3:0:0:
461,279,34237,1,4,3:3:0:0:
438,375,34412,1,10,0:0:0:0:
391,218,34586,2,0,B|341:220|341:220|312:197|312:197|226:197,1,160,6|8,3:2|0:0,0:0:0:0:
369,130,35109,1,10,0:0:0:0:
277,279,35284,1,2,3:2:0:0:
368,108,35458,6,0,L|361:20,1,80,14|0,3:2|0:0,0:0:0:0:
462,111,35807,1,10,0:0:0:0:
276,121,35981,2,0,L|269:33,1,80,2|0,0:0|3:0,0:0:0:0:
183,126,36330,1,2,0:0:0:0:
276,121,36505,1,10,0:0:0:0:
112,24,36679,6,0,B|89:2|89:2|90:144,1,160,6|10,3:2|0:0,0:0:0:0:
6,237,37202,1,2,3:2:0:0:
89,130,37377,1,10,0:0:0:0:
189,235,37551,1,2,3:2:0:0:
98,224,37726,1,8,0:0:0:0:
97,243,37813,1,8,0:0:0:0:
96,262,37900,1,10,0:0:0:0:
9,154,38075,1,10,0:0:0:0:
15,323,38249,5,6,3:2:0:0:
99,353,38423,1,2,0:0:0:0:
183,383,38598,1,10,0:0:0:0:
183,383,38772,2,0,P|184:336|173:280,1,80,10|0,0:0|0:0,0:0:0:0:
282,380,39121,2,0,P|272:318|307:243,1,120,2|2,3:2|0:0,0:0:0:0:
305,222,39470,1,2,0:0:0:0:
441,247,39644,5,2,3:2:0:0:
465,147,39819,1,2,0:0:0:0:
489,48,39993,1,10,0:0:0:0:
489,48,40168,2,0,L|320:24,1,160,10|0,0:0|3:0,0:0:0:0:
175,1,40691,2,0,L|259:12,1,80,10|0,0:0|0:0,0:0:0:0:
330,25,40952,1,2,0:0:0:0:
330,25,41040,6,0,P|331:68|316:111,1,80,2|0,3:2|0:0,0:0:0:0:
176,90,41388,2,0,P|213:110|243:145,1,80,10|0,0:0|0:0,0:0:0:0:
155,255,41737,2,0,P|191:232|236:224,1,80,2|0,3:2|3:0,0:0:0:0:
288,355,42086,2,0,P|287:311|302:268,1,80,10|0,0:0|0:0,0:0:0:0:
312,190,42435,5,2,3:2:0:0:
498,221,42609,1,2,0:0:0:0:
432,291,42784,1,10,0:0:0:0:
378,120,42958,1,10,0:0:0:0:
405,205,43133,2,0,L|389:233,6,20,2|0|2|0|10|0|2,0:2|0:0|0:2|0:0|0:2|0:0|0:2,0:0:0:0:
448,191,43481,2,0,L|461:314,1,120,10|2,0:0|3:2,0:0:0:0:
467,362,43830,6,0,B|416:343|416:343|364:361|364:361|300:341,1,160,14|10,3:2|0:0,0:0:0:0:
159,300,44354,1,2,0:0:0:0:
257,203,44528,2,0,L|231:351,1,120,2|0,3:2|0:0,0:0:0:0:
228,364,44877,1,10,0:0:0:0:
164,266,45051,1,2,0:0:0:0:
161,283,45138,1,2,0:0:0:0:
159,300,45226,5,2,3:2:0:0:
87,383,45400,1,2,0:0:0:0:
4,311,45575,1,10,0:0:0:0:
76,227,45749,1,2,0:0:0:0:
81,305,45923,2,0,P|82:252|45:165,1,120,2|0,3:2|0:0,0:0:0:0:
19,166,46272,1,10,0:0:0:0:
0,80,46447,1,2,0:0:0:0:
114,9,46621,6,0,P|116:58|111:143,1,120,2|0,3:2|0:0,0:0:0:0:
61,188,46970,2,0,P|112:204|189:165,1,108.000000411987,10|2,0:0|0:0,0:0:0:0:
293,7,47319,6,0,P|291:56|296:141,1,120,2|0,3:2|0:0,0:0:0:0:
346,186,47668,2,0,P|295:202|218:163,1,108.000000411987,10|2,0:0|3:2,0:0:0:0:
207,118,47929,1,2,3:2:0:0:
207,118,48016,6,0,P|207:52|195:-24,2,120,6|4|2,3:2|3:3|3:2,0:0:0:0:
163,189,48714,6,0,P|106:155|3:131,2,150,2|4|10,3:2|3:3|0:0,0:0:0:0:
132,358,49412,6,0,B|147:292|81:257|81:257|42:220|57:145|146:140|170:203,1,308.000009399414,14|0,3:2|0:0,0:0:0:0:
184,234,50109,1,10,0:0:0:0:
289,334,50284,1,10,0:0:0:0:
389,229,50458,1,10,0:0:0:0:
284,129,50633,1,6,3:2:0:0:
284,129,50981,5,2,3:2:0:0:
489,124,51156,1,2,3:2:0:0:
384,24,51330,1,2,3:2:0:0:
389,229,51505,1,10,0:0:0:0:
387,202,51592,1,10,0:0:0:0:
385,175,51679,1,10,0:0:0:0:
383,148,51766,1,10,0:0:0:0:
381,121,51854,2,0,L|374:55,1,60,10|0,0:0|0:0,0:0:0:0:
384,24,52202,6,0,P|429:17|488:32,1,95.9999970703126,6|0,3:2|0:0,0:0:0:0:
295,21,52551,2,0,P|250:14|191:29,1,95.9999970703126,10|0,0:0|0:0,0:0:0:0:
37,145,52900,1,2,3:2:0:0:
86,32,53075,1,2,0:0:0:0:
5,63,53249,1,10,0:0:0:0:
118,113,53423,1,2,0:0:0:0:
49,279,53598,6,0,L|61:73,1,191.999994140625,2|10,3:2|0:0,0:0:0:0:
201,24,54121,1,2,0:0:0:0:
223,206,54295,1,2,3:2:0:0:
212,115,54470,1,0,0:0:0:0:
201,24,54644,1,8,0:0:0:0:
223,206,54819,6,0,P|174:197|121:212,1,95.9999970703126,2|2,0:0|3:2,0:0:0:0:
67,384,55168,1,2,0:0:0:0:
0,254,55342,1,10,0:0:0:0:
129,207,55516,1,2,0:0:0:0:
88,292,55691,1,2,3:2:0:0:
279,320,55865,1,2,0:0:0:0:
279,320,55952,1,2,0:0:0:0:
279,320,56040,2,0,L|179:304,1,95.9999970703126,10|2,0:0|0:0,0:0:0:0:
407,384,56388,6,0,L|401:332,1,48,2|0,3:2|0:0,0:0:0:0:
394,294,56737,2,0,P|443:305|506:284,1,100,10|0,0:0|0:0,0:0:0:0:
466,102,57086,6,0,L|472:154,1,48,2|0,3:2|0:0,0:0:0:0:
479,192,57435,2,0,P|430:181|367:202,1,100,10|8,0:0|0:0,0:0:0:0:
323,251,57697,1,8,0:0:0:0:
323,251,57784,6,0,L|212:239,1,95.9999970703126,2|2,3:2|0:0,0:0:0:0:
7,201,58133,2,0,L|102:211,1,95.9999970703126,10|2,0:0|0:0,0:0:0:0:
140,383,58481,2,0,L|150:287,1,95.9999970703126,2|0,3:2|0:0,0:0:0:0:
190,68,58830,2,0,L|178:179,1,95.9999970703126,10|0,0:0|0:0,0:0:0:0:
74,15,59179,6,0,L|51:219,1,191.999994140625,2|10,3:2|0:0,0:0:0:0:
33,384,59702,1,2,0:0:0:0:
0,288,59877,2,0,L|111:300,1,95.9999970703126,2|0,3:2|0:0,0:0:0:0:
200,379,60226,1,10,0:0:0:0:
95,298,60400,1,2,0:0:0:0:
197,137,60575,6,0,B|244:128|244:128|310:150,1,95.9999970703126,2|2,3:2|0:0,0:0:0:0:
445,254,60923,1,10,0:0:0:0:
469,165,61098,1,2,0:0:0:0:
493,76,61272,1,2,3:2:0:0:
354,4,61447,1,2,3:2:0:0:
290,144,61621,1,10,0:0:0:0:
445,254,61795,6,0,B|399:234|355:257|355:257|385:311|356:378,1,191.999994140625,6|2,3:2|3:2,0:0:0:0:
404,374,62231,1,2,0:0:0:0:
404,374,62319,2,0,P|451:361|519:380,1,95.9999970703126,8|0,0:0|3:0,0:0:0:0:
445,254,62668,1,10,0:0:0:0:
447,242,62755,1,8,0:0:0:0:
450,233,62842,2,0,P|448:206|456:167,1,47.9999985351563,8|8,0:0|0:0,0:0:0:0:
512,119,63016,1,10,0:0:0:0:
484,99,63104,1,10,0:0:0:0:
452,90,63191,1,10,0:0:0:0:
418,92,63278,1,10,0:0:0:0:
385,103,63365,6,0,B|364:137|364:137|342:87|358:26,1,143.999995605469,6|0,3:2|0:0,0:0:0:0:
397,15,63714,2,0,L|505:6,1,95.9999970703126,10|0,0:0|0:0,0:0:0:0:
279,23,64063,2,0,L|171:14,1,95.9999970703126,2|0,3:2|0:0,0:0:0:0:
34,12,64412,6,0,P|98:40|204:-7,1,162.000000617981,14|0,0:0|0:0,0:0:0:0:
183,14,64761,6,0,P|184:63|191:122,1,95.9999970703126,2|0,3:2|0:0,0:0:0:0:
268,249,65109,2,0,P|225:225|171:202,1,95.9999970703126,10|0,0:0|0:0,0:0:0:0:
22,205,65458,2,0,P|63:180|110:144,1,95.9999970703126,2|0,3:2|0:0,0:0:0:0:
0,327,65807,6,0,P|64:299|169:350,1,162.000000617981,14|0,0:0|0:0,0:0:0:0:
148,326,66156,6,0,L|251:345,1,95.9999970703126,2|0,3:2|0:0,0:0:0:0:
406,378,66505,1,10,0:0:0:0:
406,378,66679,1,2,0:0:0:0:
353,206,66854,2,0,L|334:309,1,95.9999970703126,2|2,3:2|0:0,0:0:0:0:
266,190,67202,1,10,0:0:0:0:
440,222,67377,1,2,0:0:0:0:
390,31,67551,6,0,L|371:134,1,95.9999970703126,2|2,3:2|0:0,0:0:0:0:
461,143,67900,2,0,L|480:40,1,95.9999970703126,10|0,0:0|0:0,0:0:0:0:
300,14,68249,1,2,3:2:0:0:
266,190,68423,1,8,0:0:0:0:
266,190,68511,1,8,0:0:0:0:
266,190,68598,1,8,0:0:0:0:
187,17,68772,1,8,0:0:0:0:
185,29,68859,1,8,0:0:0:0:
182,41,68947,6,0,B|174:85|174:85|183:122|183:122|168:201,1,143.999995605469,6|0,3:2|0:0,0:0:0:0:
174,222,69295,2,0,P|124:209|59:230,1,108.000000411987,10|0,0:0|0:0,0:0:0:0:
215,323,69644,2,0,P|266:311|334:334,1,108.000000411987,2|0,3:2|0:0,0:0:0:0:
87,384,69993,6,0,L|70:217,1,162.000000617981,14|0,0:0|0:0,0:0:0:0:
20,162,70342,6,0,P|71:146|122:165,1,95.9999970703126,0|0,3:2|0:0,0:0:0:0:
44,0,70691,2,0,P|32:52|-9:86,1,95.9999970703126,10|0,0:0|0:0,0:0:0:0:
172,101,71040,2,0,P|132:64|123:11,1,95.9999970703126,2|0,3:2|0:0,0:0:0:0:
363,15,71388,6,0,L|196:32,1,162.000000617981,14|0,0:0|0:0,0:0:0:0:
201,31,71737,5,10,3:2:0:0:
170,196,71912,2,0,P|166:146|172:99,1,95.9999970703126,2|8,0:0|0:0,0:0:0:0:
281,25,72261,1,10,0:0:0:0:
282,38,72348,1,8,0:0:0:0:
283,51,72435,1,10,3:2:0:0:
171,100,72609,1,10,3:2:0:0:
251,211,72784,1,8,0:0:0:0:
442,153,72958,6,0,L|261:130,1,143.999995605469,14|0,3:2|0:0,0:0:0:0:
254,131,73307,1,2,3:2:0:0:
386,26,73481,1,10,0:0:0:0:
490,158,73656,1,0,3:0:0:0:
358,262,73830,1,2,3:2:0:0:
388,249,73918,1,10,0:0:0:0:
422,247,74005,1,10,0:0:0:0:
454,258,74092,1,10,0:0:0:0:
486,282,74179,6,0,L|477:343,1,60,10|0,0:0|0:0,0:0:0:0:
467,384,74528,6,0,B|421:379|421:379|393:363|393:363|340:366,1,120,6|0,3:2|0:0,0:0:0:0:
272,384,74877,2,0,L|266:292,1,80,10|0,0:0|0:0,0:0:0:0:
108,384,75226,2,0,L|97:223,1,160,2|8,3:2|0:0,0:0:0:0:
185,305,75749,6,0,L|191:397,1,80,2|0,0:0|3:0,0:0:0:0:
97,224,76098,1,2,0:0:0:0:
21,314,76272,1,10,0:0:0:0:
185,305,76447,1,2,0:0:0:0:
108,384,76621,2,0,L|102:304,1,80,2|0,3:2|0:0,0:0:0:0:
15,151,76970,2,0,L|20:230,1,80,10|0,0:0|0:0,0:0:0:0:
42,62,77319,6,0,P|64:59|85:62,1,40,2|2,3:2|0:0,0:0:0:0:
166,69,77493,2,0,P|179:86|187:106,1,40,2|0,0:0|0:0,0:0:0:0:
221,179,77668,2,0,P|212:199|165:233,1,80,10|2,0:0|0:0,0:0:0:0:
42,62,78016,6,0,P|39:84|42:105,1,40,2|2,3:2|0:0,0:0:0:0:
49,186,78191,2,0,P|66:199|86:207,1,40,2|2,0:0|0:0,0:0:0:0:
167,232,78365,2,0,P|187:223|221:176,1,80,10|0,0:0|0:0,0:0:0:0:
275,49,78714,5,2,3:2:0:0:
305,35,78888,1,2,0:0:0:0:
413,31,79063,1,10,0:0:0:0:
490,141,79237,1,2,0:0:0:0:
410,268,79412,2,0,L|401:166,1,80,2|8,3:2|0:0,0:0:0:0:
498,352,79761,2,0,L|489:250,1,80,2|8,3:2|0:0,0:0:0:0:
336,384,80109,6,0,L|322:232,1,120,6|0,3:2|0:0,0:0:0:0:
320,230,80458,2,0,P|281:222|226:239,1,80,10|0,0:0|0:0,0:0:0:0:
197,384,80807,2,0,P|223:354|236:298,1,80,2|0,3:2|0:0,0:0:0:0:
164,267,81156,1,8,0:0:0:0:
64,384,81330,6,0,L|52:279,1,80,2|0,0:0|3:0,0:0:0:0:
17,103,81679,1,2,0:0:0:0:
137,194,81854,1,8,0:0:0:0:
30,208,82028,1,2,0:0:0:0:
122,87,82202,2,0,L|110:5,1,80,2|0,3:2|0:0,0:0:0:0:
5,23,82551,2,0,L|17:105,1,80,10|0,0:0|0:0,0:0:0:0:
137,194,82900,6,0,P|161:197|190:190,1,40,6|2,3:2|0:0,0:0:0:0:
260,173,83075,2,0,P|274:153|283:125,1,40,2|0,0:0|0:0,0:0:0:0:
303,55,83249,2,0,P|293:32|232:5,1,80,10|2,0:0|0:0,0:0:0:0:
176,194,83598,6,0,P|152:197|123:190,1,40,2|2,3:2|0:0,0:0:0:0:
53,173,83772,2,0,P|38:153|29:125,1,40,2|0,3:2|0:0,0:0:0:0:
10,55,83947,1,10,0:0:0:0:
62,297,84121,5,14,0:2:0:0:
158,74,84470,1,14,0:0:0:0:
176,194,84644,1,2,3:2:0:0:
245,1,84819,1,14,0:0:0:0:
263,121,84993,1,10,0:0:0:0:
291,130,85080,1,10,0:0:0:0:
317,129,85168,1,10,0:0:0:0:
345,123,85255,1,10,0:0:0:0:
369,111,85342,6,0,L|376:37,1,60,10|2,0:0|0:0,0:0:0:0:
383,6,85691,5,6,3:2:0:0:
502,42,85865,1,2,0:0:0:0:
504,169,86040,1,10,0:0:0:0:
385,210,86214,1,2,0:0:0:0:
385,210,86563,5,2,0:0:0:0:
504,169,86737,1,10,0:0:0:0:
502,42,86912,1,2,0:0:0:0:
502,42,87261,5,2,0:0:0:0:
381,5,87435,1,10,0:0:0:0:
262,41,87609,1,2,0:0:0:0:
260,168,87784,1,2,3:2:0:0:
260,168,88133,2,0,P|210:153|142:177,1,107.999996704102,10|0,0:0|0:0,0:0:0:0:
115,191,88481,5,2,3:2:0:0:
185,294,88656,1,2,0:0:0:0:
82,364,88830,1,10,0:0:0:0:
12,261,89005,1,2,0:0:0:0:
12,261,89354,5,2,0:0:0:0:
82,364,89528,1,10,0:0:0:0:
185,294,89702,1,2,0:0:0:0:
185,294,90051,5,2,0:0:0:0:
157,113,90226,1,10,0:0:0:0:
323,70,90400,1,2,0:0:0:0:
441,177,90575,1,2,3:2:0:0:
399,301,90749,1,2,3:2:0:0:
303,278,90923,1,10,0:0:0:0:
256,192,91098,1,6,3:2:0:0:
256,192,91272,12,0,92668,3:0:0:0:
