osu file format v14

[General]
AudioFilename: audio.mp3
AudioLeadIn: 0
PreviewTime: 52028
Countdown: 0
SampleSet: Soft
StackLeniency: 0.4
Mode: 0
LetterboxInBreaks: 0
WidescreenStoryboard: 1

[Editor]
Bookmarks: 4746,15908,24280,27071,35443,43815,74513,85676
DistanceSpacing: 0.4
BeatDivisor: 4
GridSize: 4
TimelineZoom: 2.4

[Metadata]
Title:Love Vacation
TitleUnicode:Love♡Vacation
Artist:Matsushita/nayuta
ArtistUnicode:松下/nayuta
Creator:tomatas95
Version:Hard
Source:かけぬけ★青春スパーキング!
Tags:Akihiko Yamaguchi eroge sagaplanets saga planets galgame vn visual novel video game japanese op opening kakenuke seishun sparking うらん uran 山口朗彦 pop j-pop jpop short version ver POPHOLIC
BeatmapID:3096487
BeatmapSetID:1498595

[Difficulty]
HPDrainRate:4
CircleSize:3.5
OverallDifficulty:6
ApproachRate:8
SliderMultiplier:1.3
SliderTickRate:1

[Events]
//Background and Video events
Video,0,"Iloveswimsuits.mp4"
0,0,"RuriILoveYou.jpg",0,0
//Break Periods
//Storyboard Layer 0 (Background)
//Storyboard Layer 1 (Fail)
//Storyboard Layer 2 (Pass)
//Storyboard Layer 3 (Foreground)
//Storyboard Layer 4 (Overlay)
//Storyboard Sound Samples

[TimingPoints]
575,348.837209302326,4,2,1,10,1,0
575,-100,4,2,1,10,0,0
1272,-100,4,2,1,20,0,0
1970,-100,4,2,1,30,0,0
2668,-100,4,2,1,40,0,0
3365,-100,4,2,1,50,0,0
3888,-100,4,2,1,60,0,0
4237,-100,4,2,1,65,0,0
4412,-100,4,2,1,70,0,0
4586,-100,4,2,1,75,0,0
4761,-100,4,2,2,80,0,0
4935,-100,4,2,1,70,0,0
10342,-100,4,2,1,75,0,0
10691,-100,4,2,1,70,0,0
11563,-100,4,2,1,75,0,0
11737,-100,4,2,1,70,0,0
13133,-100,4,2,1,75,0,0
13481,-100,4,2,1,70,0,0
14528,-100,4,2,1,60,0,0
14702,-100,4,2,1,70,0,0
14876,-100,4,2,1,60,0,0
15051,-100,4,2,1,70,0,0
15226,-100,4,2,4,70,0,0
15575,-100,4,2,4,75,0,0
15923,-125,4,2,4,55,0,0
16272,-125,4,2,1,55,0,0
24295,-111.111111111111,4,2,2,65,0,0
24470,-111.111111111111,4,2,1,65,0,0
24993,-111.111111111111,4,2,1,70,0,0
25342,-111.111111111111,4,2,1,75,0,0
25691,-111.111111111111,4,2,4,80,0,0
26388,-111.111111111111,4,2,4,65,0,0
26912,-111.111111111111,4,2,4,55,0,0
27086,-100,4,2,1,60,0,0
32668,-100,4,2,2,60,0,0
32842,-100,4,2,1,60,0,0
34063,-100,4,2,1,65,0,0
34586,-100,4,2,2,65,0,0
34935,-100,4,2,1,65,0,0
35458,-100,4,2,1,65,0,0
35633,-100,4,2,1,65,0,0
36679,-100,4,2,2,65,0,0
37028,-100,4,2,1,65,0,0
38249,-100,4,2,1,65,0,0
38423,-100,4,2,1,65,0,0
41040,-100,4,2,1,55,0,0
41388,-100,4,2,1,65,0,0
41737,-100,4,2,1,55,0,0
42085,-100,4,2,1,65,0,0
43830,-100,4,2,2,65,0,0
44179,-100,4,2,1,65,0,0
46621,-100,4,2,1,70,0,0
46970,-100,4,2,1,80,0,0
47144,-100,4,2,1,70,0,0
47668,-100,4,2,1,80,0,0
47842,-100,4,2,1,70,0,0
48016,-100,4,2,1,55,0,0
48278,-100,4,2,1,60,0,0
48540,-100,4,2,1,65,0,0
48714,-100,4,2,4,70,0,0
48976,-100,4,2,4,75,0,0
49237,-100,4,2,4,80,0,0
49412,-125,4,2,2,80,0,0
50022,-125,4,2,1,80,0,0
50109,-125,4,2,1,70,0,0
50633,-100,4,2,2,70,0,0
50981,-100,4,2,1,75,0,0
52202,-90.9090909090909,4,2,2,85,0,1
52377,-90.9090909090909,4,2,1,85,0,1
56388,-90.9090909090909,4,2,2,70,0,1
56737,-90.9090909090909,4,2,1,85,0,1
57086,-90.9090909090909,4,2,2,70,0,1
57435,-90.9090909090909,4,2,1,85,0,1
60575,-90.9090909090909,4,2,2,85,0,1
60749,-90.9090909090909,4,2,1,85,0,1
62668,-90.9090909090909,4,2,1,70,0,0
63365,-90.9090909090909,4,2,2,85,0,1
63540,-90.9090909090909,4,2,1,85,0,1
68947,-90.9090909090909,4,2,2,85,0,1
69121,-90.9090909090909,4,2,1,85,0,1
71737,-90.9090909090909,4,2,2,85,0,1
71912,-90.9090909090909,4,2,1,85,0,1
72958,-90.9090909090909,4,2,2,85,0,1
73133,-90.9090909090909,4,2,1,85,0,1
74528,-100,4,2,4,75,0,0
74877,-100,4,2,1,75,0,0
80109,-100,4,2,2,75,0,0
80284,-100,4,2,1,75,0,0
84121,-100,4,2,1,70,0,0
84295,-100,4,2,1,60,0,0
84470,-100,4,2,1,70,0,0
84644,-100,4,2,1,60,0,0
84819,-100,4,2,1,70,0,0
85342,-100,4,2,1,75,0,0
85691,-111.111111111111,4,2,1,70,0,0
86388,-111.111111111111,4,2,1,60,0,0
86563,-111.111111111111,4,2,1,70,0,0
87086,-111.111111111111,4,2,1,60,0,0
87261,-111.111111111111,4,2,1,70,0,0
89179,-111.111111111111,4,2,1,60,0,0
89354,-111.111111111111,4,2,1,70,0,0
89877,-111.111111111111,4,2,1,60,0,0
90051,-111.111111111111,4,2,1,80,0,0
90226,-111.111111111111,4,2,1,75,0,0
90400,-111.111111111111,4,2,1,70,0,0
90575,-111.111111111111,4,2,1,65,0,0
90749,-111.111111111111,4,2,1,60,0,0
90923,-111.111111111111,4,2,1,55,0,0
91098,-111.111111111111,4,2,2,50,0,0
91621,-111.111111111111,4,2,1,40,0,0
91970,-111.111111111111,4,2,1,30,0,0
92319,-111.111111111111,4,2,1,20,0,0
92668,-111.111111111111,4,2,1,10,0,0

[Colours]
Combo1 : 255,255,128
Combo2 : 150,157,252
Combo3 : 221,125,137
Combo4 : 0,255,255

[HitObjects]
256,192,575,12,2,4063,0:0:0:0:
37,20,4761,6,0,B|34:50|34:50|42:76|42:76|33:134,1,97.5,6|0,3:2|0:0,0:0:0:0:
39,167,5109,2,0,P|75:160|122:177,1,65,10|0,0:0|0:0,0:0:0:0:
109,252,5458,2,0,P|73:245|26:262,1,65,2|0,3:2|0:0,0:0:0:0:
11,331,5807,1,8,0:0:0:0:
89,370,5981,6,0,L|224:355,1,130,2|2,0:0|0:0,0:0:0:0:
306,350,6505,1,10,0:0:0:0:
301,262,6680,1,2,0:0:0:0:
213,267,6854,2,0,P|207:234|215:192,1,65,2|0,3:2|0:0,0:0:0:0:
290,158,7202,2,0,P|292:124|280:83,1,65,10|0,0:0|0:0,0:0:0:0:
221,30,7551,6,0,L|171:36,2,32.5,2|2|2,3:2|0:0|0:0,0:0:0:0:
285,94,7900,2,0,L|358:85,1,65,10|2,0:0|0:0,0:0:0:0:
435,41,8249,2,0,L|429:-9,2,32.5,2|2|2,3:2|0:0|0:0,0:0:0:0:
442,87,8511,1,2,0:0:0:0:
442,87,8598,2,0,L|450:160,1,65,10|2,0:0|0:0,0:0:0:0:
511,213,8947,5,0,3:0:0:0:
511,213,9121,1,2,0:0:0:0:
472,292,9295,1,10,0:0:0:0:
384,277,9469,1,2,3:2:0:0:
371,191,9644,2,0,P|331:185|293:196,1,65,10|0,0:0|0:0,0:0:0:0:
253,116,9993,2,0,P|227:147|218:186,1,65,10|0,0:0|0:0,0:0:0:0:
260,284,10342,5,10,3:2:0:0:
180,324,10516,1,10,0:0:0:0:
100,364,10691,2,0,L|85:292,1,65,2|0,3:2|0:0,0:0:0:0:
28,232,11040,2,0,L|0:94,1,130,2|0,3:2|3:2,0:0:0:0:
75,15,11563,6,0,B|109:7|109:7|155:20,1,65,14|0,0:0|3:0,0:0:0:0:
203,116,11912,1,10,0:0:0:0:
203,116,12086,2,0,B|169:108|169:108|123:121,1,65,10|0,0:0|3:3,0:0:0:0:
173,197,12435,2,0,L|166:292,1,65,2|0,3:2|0:0,0:0:0:0:
245,316,12784,2,0,L|252:221,1,65,10|0,0:0|0:0,0:0:0:0:
315,150,13133,5,10,3:2:0:0:
400,190,13307,1,2,0:0:0:0:
485,230,13481,2,0,P|487:191|475:147,1,65,2|2,3:2|0:0,0:0:0:0:
425,102,13830,2,0,P|409:105|391:102,2,32.5,2|2|2,3:2|0:0|0:0,0:0:0:0:
489,40,14179,1,10,0:0:0:0:
379,0,14354,5,14,3:2:0:0:
221,89,14702,1,14,3:2:0:0:
310,246,15051,1,14,3:2:0:0:
371,181,15226,2,0,L|438:187,1,65,10|10,3:2|0:0,0:0:0:0:
486,177,15487,1,10,0:0:0:0:
486,177,15575,2,0,B|484:215|484:215|492:240|492:240|493:298,1,97.5,10|2,0:0|0:0,0:0:0:0:
512,318,15923,5,6,3:2:0:0:
334,361,16272,2,0,P|276:372|215:346,1,104,2|2,3:2|3:2,0:0:0:0:
188,289,16795,2,0,P|138:275|87:287,1,104,2|2,0:0|0:0,0:0:0:0:
14,348,17319,6,0,L|6:276,1,52,0|2,3:0|0:0,0:0:0:0:
87,287,17668,2,0,L|79:215,1,52,2|2,3:2|0:0,0:0:0:0:
160,226,18016,2,0,L|148:119,1,104,2|0,3:2|3:2,0:0:0:0:
193,49,18540,6,0,P|154:62|83:36,1,104,2|2,0:0|0:0,0:0:0:0:
12,21,19063,2,0,P|8:55|15:90,1,52,2|2,3:2|0:0,0:0:0:0:
51,143,19412,2,0,P|64:182|38:253,1,104,2|2,3:2|3:2,0:0:0:0:
9,312,19935,1,2,0:0:0:0:
83,348,20109,6,0,P|131:334|204:352,1,104,2|2,3:2|3:2,0:0:0:0:
258,380,20633,2,0,P|265:328|236:276,2,104,2|2|0,0:0|0:0|0:0,0:0:0:0:
183,342,21505,5,0,3:0:0:0:
348,356,21854,2,0,L|475:343,1,104,2|2,3:2|3:2,0:0:0:0:
481,270,22377,1,2,0:0:0:0:
481,270,22551,2,0,L|417:263,1,52,2|2,3:2|0:0,0:0:0:0:
376,190,22900,6,0,L|503:177,1,104,2|0,3:2|3:0,0:0:0:0:
500,88,23423,1,2,0:0:0:0:
500,88,23598,2,0,P|464:100|391:60,1,104,2|0,3:2|3:0,0:0:0:0:
458,18,24121,1,2,0:0:0:0:
337,0,24295,6,0,L|325:65,1,58.4999982147217,6|2,3:2|0:0,0:0:0:0:
311,140,24644,1,2,3:2:0:0:
228,125,24818,1,10,0:0:0:0:
243,42,24993,2,0,L|178:30,1,58.4999982147217,2|0,3:2|3:0,0:0:0:0:
91,11,25342,1,2,3:2:0:0:
90,102,25516,1,10,0:0:0:0:
185,31,25691,6,0,B|175:83|175:83|184:122|184:122|162:208,1,175.499994644165,6|0,3:2|0:0,0:0:0:0:
134,319,26388,1,10,3:2:0:0:
134,319,26563,1,10,3:2:0:0:
28,23,27086,6,0,L|17:140,1,97.5,6|0,3:2|0:0,0:0:0:0:
17,169,27435,2,0,P|52:165|90:172,1,65,10|0,0:0|0:0,0:0:0:0:
163,204,27784,1,2,3:2:0:0:
163,204,27958,2,0,P|215:222|286:186,1,130,2|2,0:0|0:0,0:0:0:0:
347,136,28481,6,0,P|342:107|348:68,2,65,0|2|10,3:0|0:0|0:0,0:0:0:0:
408,198,29005,1,2,0:0:0:0:
408,198,29179,2,0,P|426:250|407:329,1,130,2|8,3:2|0:0,0:0:0:0:
336,373,29702,6,0,L|201:365,1,130,2|2,0:0|0:0,0:0:0:0:
129,321,30226,2,0,P|122:354|128:392,1,65,10|2,0:0|0:0,0:0:0:0:
27,380,30575,2,0,P|33:346|27:308,1,65,2|2,3:2|0:0,0:0:0:0:
16,230,30923,2,0,L|92:237,1,65,10|0,0:0|0:0,0:0:0:0:
149,163,31272,5,2,3:2:0:0:
149,163,31447,2,0,L|73:156,1,65,2|10,0:0|0:0,0:0:0:0:
0,126,31795,2,0,P|-15:80|29:-11,1,130,2|2,0:0|0:0,0:0:0:0:
80,71,32319,1,10,0:0:0:0:
159,22,32493,1,8,0:0:0:0:
171,23,32580,1,8,0:0:0:0:
184,25,32668,6,0,B|218:22|218:22|245:3|245:3|319:6,1,130,6|10,3:2|0:0,0:0:0:0:
493,55,33365,2,0,P|451:32|357:70,1,130,2|10,3:2|0:0,0:0:0:0:
434,117,33888,1,2,0:0:0:0:
434,117,34063,6,0,L|446:258,1,130,4|10,3:3|0:0,0:0:0:0:
498,361,34586,2,0,B|447:342|447:342|361:362,1,130,6|8,3:2|0:0,0:0:0:0:
291,384,35109,1,10,0:0:0:0:
234,317,35284,1,2,3:2:0:0:
304,233,35458,6,0,B|329:262|329:262|326:147,1,130,14|10,3:2|0:0,0:0:0:0:
385,72,35981,2,0,P|324:95|252:52,1,130,2|2,0:0|0:0,0:0:0:0:
327,12,36505,1,10,0:0:0:0:
187,24,36679,6,0,B|177:63|177:63|183:106|183:106|166:167,1,130,6|10,3:2|0:0,0:0:0:0:
223,224,37202,1,2,3:2:0:0:
170,298,37377,1,10,0:0:0:0:
83,269,37551,1,2,3:2:0:0:
83,178,37726,1,8,0:0:0:0:
83,178,37900,2,0,P|49:171|5:182,1,65,10|10,0:0|0:0,0:0:0:0:
0,61,38249,6,0,P|39:78|125:49,1,130,6|10,3:2|0:0,0:0:0:0:
188,7,38772,2,0,L|338:21,1,130,10|2,0:0|3:2,0:0:0:0:
403,5,39295,1,8,0:0:0:0:
460,70,39470,1,2,0:0:0:0:
407,139,39644,6,0,L|324:146,1,65,2|2,3:2|0:0,0:0:0:0:
263,92,39993,1,10,0:0:0:0:
263,92,40168,2,0,P|245:161|284:221,1,130,10|0,0:0|3:0,0:0:0:0:
342,145,40691,1,10,0:0:0:0:
510,254,41040,6,0,P|474:245|432:256,1,65,2|0,3:2|0:0,0:0:0:0:
376,214,41388,2,0,P|368:245|372:277,1,65,10|0,0:0|0:0,0:0:0:0:
339,345,41737,2,0,P|374:353|416:342,1,65,2|0,3:2|3:0,0:0:0:0:
470,384,42086,2,0,P|477:352|473:320,1,65,10|0,0:0|0:0,0:0:0:0:
446,250,42435,6,0,L|456:171,1,65,2|2,3:2|0:0,0:0:0:0:
495,112,42784,1,10,0:0:0:0:
460,35,42958,2,0,P|411:54|326:14,1,130,10|2,0:0|0:2,0:0:0:0:
297,9,43394,1,2,0:2:0:0:
297,9,43481,1,10,0:0:0:0:
223,65,43656,1,2,0:2:0:0:
259,156,43830,6,0,B|216:158|216:158|185:138|185:138|130:137,1,130,14|10,3:2|0:0,0:0:0:0:
44,162,44354,1,2,0:0:0:0:
44,162,44528,2,0,L|35:303,1,130,2|10,3:2|0:0,0:0:0:0:
93,360,45051,1,2,0:0:0:0:
166,310,45226,2,0,L|170:239,1,65,2|2,3:2|0:0,0:0:0:0:
259,257,45575,2,0,L|254:327,1,65,10|2,0:0|0:0,0:0:0:0:
347,338,45923,6,0,L|356:197,1,130,2|10,3:2|0:0,0:0:0:0:
365,112,46447,1,2,0:0:0:0:
365,112,46621,2,0,P|322:126|239:94,1,130,2|10,3:2|0:0,0:0:0:0:
123,111,47145,1,2,0:0:0:0:
123,111,47319,2,0,P|166:125|249:93,1,130,2|10,3:2|0:0,0:0:0:0:
176,29,47842,1,2,3:2:0:0:
53,15,48016,6,0,L|31:137,2,97.5,6|4|2,3:2|3:3|3:2,0:0:0:0:
123,111,48714,2,0,L|101:233,2,97.5,2|4|10,3:2|3:3|0:0,0:0:0:0:
193,207,49412,6,0,L|218:31,1,156,14|0,3:2|0:0,0:0:0:0:
224,15,50022,1,2,0:0:0:0:
224,15,50109,1,10,0:0:0:0:
307,58,50284,1,10,0:0:0:0:
380,0,50458,1,10,0:0:0:0:
505,20,50633,6,0,B|498:122|498:122|461:122,1,130,6|2,3:2|3:2,0:0:0:0:
383,133,51156,1,2,3:2:0:0:
366,218,51330,1,2,3:2:0:0:
444,261,51505,1,10,0:0:0:0:
507,202,51679,1,10,0:0:0:0:
508,211,51766,1,10,0:0:0:0:
509,220,51854,1,10,0:0:0:0:
359,372,52202,6,0,L|367:282,1,71.5000021820069,6|0,3:2|0:0,0:0:0:0:
275,286,52551,2,0,L|267:376,1,71.5000021820069,10|0,0:0|0:0,0:0:0:0:
184,375,52900,1,2,3:2:0:0:
129,308,53075,1,2,0:0:0:0:
176,236,53249,2,0,L|184:146,1,71.5000021820069,10|2,0:0|0:0,0:0:0:0:
251,81,53598,6,0,P|200:106|111:68,1,143.000004364014,2|10,3:2|0:0,0:0:0:0:
42,28,54121,1,2,0:0:0:0:
42,28,54295,2,0,L|28:180,1,143.000004364014,2|8,3:2|0:0,0:0:0:0:
0,252,54819,1,2,0:0:0:0:
39,336,54993,6,0,B|77:329|77:329|118:340,1,71.5000021820069,2|2,3:2|0:0,0:0:0:0:
195,370,55342,2,0,P|196:334|186:300,1,71.5000021820069,10|0,0:0|0:0,0:0:0:0:
222,216,55691,2,0,P|252:234|287:243,1,71.5000021820069,2|0,3:2|0:0,0:0:0:0:
327,281,55952,1,2,0:0:0:0:
327,281,56040,2,0,L|321:368,1,71.5000021820069,10|0,0:0|0:0,0:0:0:0:
442,379,56388,6,0,P|444:342|422:291,1,71.5000021820069,2|2,3:2|0:0,0:0:0:0:
512,236,56737,2,0,P|480:215|425:209,1,71.5000021820069,10|0,0:0|0:0,0:0:0:0:
423,104,57086,2,0,P|389:120|356:165,1,71.5000021820069,2|8,3:2|0:0,0:0:0:0:
264,115,57435,2,0,P|262:151|284:202,1,71.5000021820069,10|8,0:0|0:0,0:0:0:0:
278,242,57697,1,8,0:0:0:0:
278,242,57784,6,0,B|246:228|246:228|189:236,1,71.5000021820069,2|2,3:2|0:0,0:0:0:0:
170,318,58133,2,0,B|138:332|138:332|81:324,1,71.5000021820069,10|2,0:0|0:0,0:0:0:0:
26,278,58481,2,0,L|17:122,1,143.000004364014,2|10,3:2|0:0,0:0:0:0:
27,52,59005,1,0,0:0:0:0:
105,21,59179,6,0,P|140:15|187:25,1,71.5000021820069,2|2,3:2|0:0,0:0:0:0:
261,28,59528,1,10,0:0:0:0:
253,112,59703,1,2,0:0:0:0:
168,105,59877,2,0,P|155:169|176:247,1,143.000004364014,2|8,3:2|0:0,0:0:0:0:
246,293,60400,1,2,0:0:0:0:
312,197,60575,6,0,P|346:192|393:205,1,71.5000021820069,2|2,3:2|0:0,0:0:0:0:
494,236,60923,2,0,P|472:209|460:161,1,71.5000021820069,10|2,0:0|0:0,0:0:0:0:
505,91,61272,1,2,3:2:0:0:
434,39,61447,1,2,3:2:0:0:
361,89,61621,1,10,0:0:0:0:
461,174,61795,6,0,L|481:324,1,143.000004364014,6|2,3:2|3:2,0:0:0:0:
429,384,62319,1,8,0:0:0:0:
336,384,62493,1,0,3:0:0:0:
304,301,62668,2,0,L|292:210,1,71.5000021820069,10|8,0:0|0:0,0:0:0:0:
287,180,62929,1,8,0:0:0:0:
287,180,63016,2,0,L|275:89,1,71.5000021820069,10|10,0:0|0:0,0:0:0:0:
277,60,63278,1,10,0:0:0:0:
277,60,63365,5,6,3:2:0:0:
101,15,63714,2,0,P|66:23|15:12,1,71.5000021820069,10|0,0:0|0:0,0:0:0:0:
24,117,64063,2,0,P|59:109|110:120,1,71.5000021820069,2|0,3:2|0:0,0:0:0:0:
65,205,64412,2,0,L|50:332,1,107.25000327301,14|0,0:0|0:0,0:0:0:0:
47,358,64761,5,2,3:2:0:0:
232,362,65109,2,0,L|241:282,1,71.5000021820069,10|0,0:0|0:0,0:0:0:0:
147,284,65458,2,0,L|137:363,1,71.5000021820069,2|0,3:2|0:0,0:0:0:0:
47,358,65807,2,0,L|62:231,1,107.25000327301,14|0,0:0|0:0,0:0:0:0:
65,205,66156,6,0,P|118:229|205:194,1,143.000004364014,2|10,3:2|0:0,0:0:0:0:
238,121,66679,1,2,0:0:0:0:
238,121,66854,2,0,P|278:116|314:126,1,71.5000021820069,2|2,3:2|0:0,0:0:0:0:
388,158,67202,1,10,0:0:0:0:
353,239,67377,1,2,0:0:0:0:
272,204,67551,6,0,B|265:242|265:242|269:261|269:261|260:324,1,107.25000327301,2|0,3:2|0:0,0:0:0:0:
262,351,67900,2,0,P|298:346|351:363,1,71.5000021820069,10|0,0:0|0:0,0:0:0:0:
423,365,68249,2,0,P|459:370|512:353,1,71.5000021820069,2|8,3:2|0:0,0:0:0:0:
512,281,68598,1,8,0:2:0:0:
468,205,68772,1,8,0:0:0:0:
469,194,68859,1,8,0:0:0:0:
470,183,68947,6,0,L|480:57,1,107.25000327301,6|0,3:2|0:0,0:0:0:0:
486,31,69295,2,0,P|454:39|403:29,1,71.5000021820069,10|0,0:0|0:0,0:0:0:0:
363,107,69644,2,0,P|340:83|323:34,1,71.5000021820069,2|0,3:2|0:0,0:0:0:0:
227,0,69993,2,0,L|209:133,1,107.25000327301,14|0,0:0|0:0,0:0:0:0:
208,154,70342,5,0,3:2:0:0:
39,16,70691,2,0,L|27:99,1,71.5000021820069,10|0,0:0|0:0,0:0:0:0:
121,101,71040,2,0,L|132:17,1,71.5000021820069,2|0,3:2|0:0,0:0:0:0:
227,0,71388,2,0,L|209:133,1,107.25000327301,14|0,0:0|0:0,0:0:0:0:
208,154,71737,6,0,P|170:137|71:162,1,143.000004364014,10|8,3:2|0:0,0:0:0:0:
10,227,72261,1,10,0:0:0:0:
79,288,72435,2,0,P|117:305|216:280,1,143.000004364014,10|8,3:2|0:0,0:0:0:0:
312,196,72958,6,0,B|332:169|332:169|349:228|333:305,1,143.000004364014,14|2,3:2|3:2,0:0:0:0:
319,361,73481,1,10,0:0:0:0:
403,379,73656,1,0,3:0:0:0:
421,295,73830,2,0,L|429:217,1,71.5000021820069,2|10,3:2|0:0,0:0:0:0:
496,149,74179,2,0,L|504:71,1,71.5000021820069,10|8,0:0|0:0,0:0:0:0:
498,35,74441,1,8,0:0:0:0:
498,35,74528,6,0,B|453:38|453:38|427:21|427:21|370:19,1,130,6|10,3:2|0:0,0:0:0:0:
288,10,75051,1,0,0:0:0:0:
288,10,75226,2,0,P|272:60|294:154,1,130,2|8,3:2|0:0,0:0:0:0:
390,201,75749,6,0,P|354:162|262:134,1,130,2|2,0:0|0:0,0:0:0:0:
248,215,76272,1,10,0:0:0:0:
167,179,76447,1,0,0:0:0:0:
202,99,76621,2,0,L|192:11,1,65,2|0,3:2|0:0,0:0:0:0:
107,0,76970,2,0,L|97:88,1,65,10|0,0:0|0:0,0:0:0:0:
32,139,77319,6,0,P|15:136|-10:142,2,32.5,2|2|2,3:2|0:0|0:0,0:0:0:0:
84,209,77668,2,0,P|89:251|78:294,1,65,10|2,0:0|0:0,0:0:0:0:
47,371,78016,2,0,P|30:373|5:368,2,32.5,2|2|2,3:2|0:0|0:0,0:0:0:0:
96,362,78278,1,2,0:0:0:0:
96,362,78365,2,0,P|138:357|181:368,1,65,10|0,0:0|0:0,0:0:0:0:
245,380,78714,5,2,3:2:0:0:
245,380,78888,1,2,0:0:0:0:
291,306,79063,1,10,0:0:0:0:
234,238,79237,1,2,0:0:0:0:
153,271,79412,2,0,L|145:189,1,65,2|8,3:2|0:0,0:0:0:0:
218,149,79761,2,0,L|210:67,1,65,2|8,3:2|0:0,0:0:0:0:
307,0,80109,6,0,L|321:146,1,130,6|10,3:2|0:0,0:0:0:0:
409,130,80633,1,0,0:0:0:0:
409,130,80807,2,0,L|394:-16,1,130,2|8,3:2|0:0,0:0:0:0:
491,48,81330,6,0,L|499:130,1,65,2|0,0:0|3:0,0:0:0:0:
510,202,81679,1,2,0:0:0:0:
422,220,81854,1,8,0:0:0:0:
409,130,82028,1,2,0:0:0:0:
409,130,82202,2,0,P|377:126|323:143,1,65,2|0,3:2|0:0,0:0:0:0:
358,217,82551,2,0,P|389:213|443:230,1,65,10|0,0:0|0:0,0:0:0:0:
480,287,82900,6,0,P|502:286|518:290,2,32.5,6|2|2,3:2|0:0|0:0,0:0:0:0:
426,354,83249,2,0,P|394:357|340:340,1,65,10|2,0:0|0:0,0:0:0:0:
303,284,83598,2,0,P|281:283|265:287,2,32.5,2|2|2,3:2|0:0|3:2,0:0:0:0:
358,217,83947,1,10,0:0:0:0:
281,120,84121,5,14,0:2:0:0:
144,240,84470,1,14,0:0:0:0:
24,103,84819,1,14,0:0:0:0:
75,28,84993,2,0,P|111:22|158:36,1,65,10|10,0:0|0:0,0:0:0:0:
184,48,85255,1,10,0:0:0:0:
184,48,85342,2,0,P|220:54|267:40,1,65,10|2,0:0|0:0,0:0:0:0:
323,5,85691,5,6,3:2:0:0:
385,63,85865,1,2,0:0:0:0:
352,142,86040,1,10,0:0:0:0:
265,132,86214,1,2,0:0:0:0:
75,28,86563,5,2,0:0:0:0:
48,108,86737,1,10,0:0:0:0:
21,188,86912,1,2,0:0:0:0:
72,348,87261,5,2,0:0:0:0:
103,269,87435,1,10,0:0:0:0:
182,300,87609,1,2,0:0:0:0:
151,379,87784,1,2,3:2:0:0:
166,210,88133,1,10,0:0:0:0:
335,225,88481,5,2,3:2:0:0:
266,275,88656,1,2,0:0:0:0:
332,327,88830,1,10,0:0:0:0:
403,281,89005,1,2,0:0:0:0:
492,139,89354,5,2,0:0:0:0:
424,88,89528,1,10,0:0:0:0:
356,37,89702,1,2,0:0:0:0:
188,17,90051,5,2,0:0:0:0:
188,17,90226,2,0,P|156:11|118:18,2,58.4999982147217,10|2|2,0:0|0:0|3:2,0:0:0:0:
248,79,90749,1,2,3:2:0:0:
191,146,90923,1,10,0:0:0:0:
256,250,91098,1,6,3:2:0:0:
256,192,91272,12,0,92668,3:0:0:0:
