osu file format v14

[General]
AudioFilename: audio.mp3
AudioLeadIn: 0
PreviewTime:52156
Countdown: 0
SampleSet: Soft
StackLeniency: 0.7
Mode: 0
LetterboxInBreaks: 0
WidescreenStoryboard: 1

[Editor]
Bookmarks: 52156,74482,85645,96808,107970,121924,144249,155412,166401,177738,183319,188901,212622,220994,232156,237563,239133
DistanceSpacing: 1
BeatDivisor: 4
GridSize: 32
TimelineZoom: 2.3

[Metadata]
Title:Love Vacation
TitleUnicode:Love♡Vacation
Artist:Matsushita/nayuta
ArtistUnicode:松下/nayuta
Creator:Kazato Asa
Version:Normal
Source:かけぬけ★青春スパーキング!
Tags:Shizuku- Kakenuke★Seishun Sparking! Yamaguchi Akihiko 山口 朗彦 Uran うらん POPHOLIC eroge galgame vn visual novel SAGA PLANETS full version op opening video game pop japanese
BeatmapID:2597154
BeatmapSetID:1246919

[Difficulty]
HPDrainRate:4
CircleSize:3.3
OverallDifficulty:4.5
ApproachRate:5.5
SliderMultiplier:0.96
SliderTickRate:1

[Events]
//Background and Video events
0,0,"ev_rr02_0101.jpg",0,0
//Break Periods
2,85844,94287
2,177938,182194
//Storyboard Layer 0 (Background)
//Storyboard Layer 1 (Fail)
//Storyboard Layer 2 (Pass)
//Storyboard Layer 3 (Foreground)
//Storyboard Layer 4 (Overlay)
//Storyboard Sound Samples

[TimingPoints]
529,348.837209302326,4,2,1,40,1,0
4715,-100,4,2,1,70,0,0
15877,-100,4,2,1,50,0,0
16226,-111.111111111111,4,2,1,50,0,0
25645,-111.111111111111,4,2,1,60,0,0
27040,-100,4,2,1,60,0,0
52156,-90.9090909090909,4,2,1,80,0,1
74482,-100,4,2,1,70,0,0
96808,-100,4,2,1,60,0,0
121924,-90.9090909090909,4,2,1,80,0,1
144249,-100,4,2,1,70,0,0
155412,-111.111111111111,4,2,1,60,0,0
166401,-100,4,2,1,70,0,0
183319,-111.111111111111,4,2,1,60,0,0
190296,-90.9090909090909,4,2,1,80,0,1
216633,-90.9090909090909,4,2,1,70,0,0
218203,-100,4,2,1,70,0,0

[Colours]
Combo1 : 232,132,215
Combo2 : 214,221,123
Combo3 : 159,219,142
Combo4 : 139,228,228

[HitObjects]
384,383,4715,6,0,P|403:340|398:293,1,96,4|2,3:1|3:2,2:0:0:0:
351,208,5412,2,0,L|256:227,1,96,2|8,3:2|2:0,2:0:0:0:
209,237,5935,1,2,2:0:0:0:
119,261,6284,1,2,2:0:0:0:
119,261,6459,2,0,L|97:355,2,96,0|2|0,3:0|3:2|3:0,2:0:0:0:
46,197,7505,6,0,B|34:149|34:149|49:106,1,96,0|0,3:0|3:0,2:0:0:0:
68,60,8029,1,2,2:0:0:0:
68,60,8203,2,0,P|111:79|159:75,1,96,0|0,3:0|3:2,2:0:0:0:
192,39,8726,1,2,2:0:0:0:
274,98,9075,1,2,2:0:0:0:
274,98,9249,2,0,L|368:79,2,96,0|0|12,3:0|3:0|2:1,2:0:0:0:
214,173,10296,6,0,L|223:221,1,48,12|12,2:0|2:0,2:0:0:0:
197,260,10645,2,0,L|215:355,1,96,2|2,3:2|3:2,2:0:0:0:
359,362,11517,2,0,P|401:340|448:339,1,96,12|12,2:1|2:1,2:0:0:0:
494,352,12040,1,2,3:2:0:0:
471,258,12389,2,0,L|492:165,1,96,2|8,3:2|2:0,2:0:0:0:
444,80,13087,6,0,L|454:34,2,48,12|12|2,2:0|2:0|3:2,2:0:0:0:
358,123,13784,2,0,P|310:125|266:105,1,96,0|0,3:0|3:0,2:0:0:0:
236,67,14308,1,12,2:1:0:0:
156,14,14656,2,0,L|62:33,1,96,8|8,2:0|2:0,2:0:0:0:
13,29,15180,2,0,P|-7:71|1:118,1,96,4|12,3:2|2:1,2:0:0:0:
61,180,15877,5,4,3:2:0:0:
146,194,16226,2,0,L|229:172,1,86.4000000000001,2|0,3:2|3:0,2:0:0:0:
271,159,16749,1,2,2:0:0:0:
355,178,17098,2,0,P|370:138|368:95,1,86.4000000000001,2|2,2:0|2:0,2:0:0:0:
355,53,17622,2,0,P|333:48|314:39,2,43.1999986816407,0|2|0,3:0|0:0|3:0,0:0:0:0:
437,27,18319,1,0,3:0:0:0:
478,101,18668,6,0,L|497:185,1,86.4000000000001,2|0,3:2|3:0,2:0:0:0:
512,230,19191,1,2,2:0:0:0:
512,230,19366,2,0,P|469:227|430:246,1,86.4000000000001,2|0,3:2|3:0,2:0:0:0:
374,311,20063,2,0,L|286:299,1,86.4000000000001,2|2,3:2|3:2,2:0:0:0:
252,323,20587,1,2,2:0:0:0:
224,241,20935,2,0,B|210:198|210:198|225:159,1,86.4000000000001,2|2,2:0|2:0,2:0:0:0:
248,122,21459,1,0,3:0:0:0:
228,37,21808,6,0,L|143:53,1,86.4000000000001,0|0,3:0|3:0,2:0:0:0:
104,65,22331,1,2,2:0:0:0:
104,65,22505,1,0,3:0:0:0:
24,28,22854,6,0,P|-4:84|7:146,1,129.599996044922,0|2,3:0|0:0,0:0:0:0:
43,171,23552,2,0,L|26:255,1,86.4000000000001,0|0,3:0|3:0,2:0:0:0:
39,341,24249,6,0,B|81:337|81:337|118:360,1,86.4000000000001,4|0,3:2|3:0,2:0:0:0:
158,376,24773,1,2,2:0:0:0:
158,376,24947,2,0,L|174:291,1,86.4000000000001,0|0,3:0|3:0,2:0:0:0:
155,206,25645,6,0,P|137:144|160:85,1,129.6,4|0,3:1|3:0,2:0:0:0:
193,57,26342,1,10,2:1:0:0:
193,57,26517,1,10,2:1:0:0:
287,88,26866,5,2,2:0:0:0:
287,88,27040,2,0,L|382:70,1,96,6|10,3:1|2:0,2:0:0:0:
458,11,27738,1,2,3:2:0:0:
458,11,27912,1,0,3:0:0:0:
510,91,28261,2,0,L|492:186,1,96,2|0,2:0|3:0,2:0:0:0:
458,219,28784,2,0,L|467:266,2,48,10|0|2,2:0|2:0|2:0,2:0:0:0:
378,165,29482,5,8,2:0:0:0:
377,165,29656,2,0,P|331:172|286:154,1,96,2|2,2:0|2:0,2:0:0:0:
255,118,30180,1,8,2:0:0:0:
178,59,30529,2,0,L|189:12,2,48,0|2|8,3:0|2:0|2:0,2:0:0:0:
102,118,31226,2,0,L|113:164,1,48,2|2,3:0|2:0,2:0:0:0:
144,201,31575,1,8,2:0:0:0:
144,201,31749,2,0,L|50:222,1,96,2|2,2:0|2:0,2:0:0:0:
29,319,32447,5,8,2:0:0:0:
29,319,32622,2,0,L|122:340,1,96,4|10,3:1|2:0,2:0:0:0:
213,308,33319,2,0,L|223:354,2,48,2|0|10,2:0|3:0|2:0,2:0:0:0:
239,268,33842,1,2,2:0:0:0:
239,268,34017,2,0,L|257:173,1,96,4|8,3:2|2:0,2:0:0:0:
264,126,34540,1,4,3:1:0:0:
262,34,34889,1,0,3:0:0:0:
262,34,35063,2,0,L|308:44,1,48,8|2,2:0|2:0,2:0:0:0:
352,22,35412,6,0,B|396:46|396:46|440:36,1,96,4|8,3:2|2:0,2:0:0:0:
486,21,35935,2,0,P|500:65|489:111,1,96,2|2,2:0|2:0,2:0:0:0:
452,142,36459,1,8,2:0:0:0:
452,142,36633,2,0,L|471:235,1,96,4|8,3:1|2:0,2:0:0:0:
487,281,37156,1,8,2:0:0:0:
409,337,37505,2,0,L|418:383,2,48,0|8|0,3:0|2:0|3:0,2:0:0:0:
327,286,38203,6,0,L|280:295,1,48,4|0,3:1|2:0,2:0:0:0:
239,317,38552,1,8,2:0:0:0:
239,317,38726,2,0,B|217:283|217:283|227:228,1,96,10|0,2:0|3:0,2:0:0:0:
290,156,39424,1,0,2:0:0:0:
290,156,39598,2,0,L|279:109,1,48,2|0,3:2|3:0,2:0:0:0:
297,64,39947,1,8,2:0:0:0:
297,64,40122,2,0,B|219:77|243:25|159:40,1,144,10|10,2:0|2:0,2:0:0:0:
69,5,40994,5,2,3:2:0:0:
10,80,41342,1,8,2:0:0:0:
10,80,41517,2,0,L|29:173,1,96,8|0,2:0|3:0,2:0:0:0:
44,219,42040,1,10,2:0:0:0:
137,197,42389,2,0,L|183:187,1,48,2|0,3:2|3:0,2:0:0:0:
224,159,42738,1,8,2:0:0:0:
224,159,42912,2,0,B|305:183|305:183|359:159,1,144,8|8,2:0|2:0,2:0:0:0:
435,100,43784,6,0,P|457:141|454:188,1,96,4|0,3:1|3:0,2:0:0:0:
429,231,44308,1,2,2:0:0:0:
429,231,44482,2,0,L|438:278,2,48,0|0|12,3:0|2:0|2:1,2:0:0:0:
343,276,45180,2,0,P|296:280|252:262,1,96,4|0,3:2|3:2,2:0:0:0:
228,227,45703,1,2,2:0:0:0:
228,227,45877,2,0,L|248:133,1,96,0|12,3:0|2:0,2:0:0:0:
208,45,46575,6,0,P|163:59|117:49,1,96,0|14,3:0|2:1,2:0:0:0:
76,23,47098,1,2,2:0:0:0:
76,23,47273,2,0,L|55:116,1,96,0|14,3:0|2:1,2:0:0:0:
80,209,47970,2,0,L|9:224,2,72,4|0|0,3:2|3:0|3:0,2:0:0:0:
118,238,48668,2,0,L|102:308,2,72,10|8|0,2:1|2:0|3:0,2:0:0:0:
162,220,49366,6,0,B|237:204|214:262|299:242,1,144,14|0,2:1|3:0,2:0:0:0:
338,216,50063,1,14,2:1:0:0:
410,152,50412,1,8,3:2:0:0:
410,152,50587,2,0,P|432:193|431:241,1,96,14|8,2:1|2:0,2:0:0:0:
409,284,51110,2,0,L|422:330,1,48,8|8,2:0|2:0,2:0:0:0:
391,366,51459,2,0,B|344:372|344:372|302:346,1,96,0|14,3:0|2:1,2:0:0:0:
215,286,52156,6,0,L|231:181,1,105.6,4|8,3:1|2:0,2:0:0:0:
280,156,52680,1,2,2:0:0:0:
280,156,52854,2,0,P|286:104|266:56,1,105.6,0|8,3:0|2:0,2:0:0:0:
169,13,53552,2,0,L|66:36,1,105.6,2|8,3:1|2:0,2:0:0:0:
14,48,54075,1,2,2:0:0:0:
14,48,54249,1,0,3:0:0:0:
41,150,54598,5,8,2:0:0:0:
41,150,54773,2,0,P|54:200|43:251,1,105.6,2|0,2:3|3:0,2:0:0:0:
5,288,55296,1,8,2:0:0:0:
75,366,55645,2,0,L|126:353,1,52.8,0|2,3:0|2:0,2:0:0:0:
161,314,55994,2,0,L|212:301,1,52.8,8|2,2:0|2:0,2:0:0:0:
262,317,56342,1,6,3:1:0:0:
302,219,56691,1,14,2:1:0:0:
256,123,57040,2,0,L|204:134,2,52.8,6|8|8,3:1|2:0|2:0,2:0:0:0:
305,29,57738,6,0,L|408:6,1,105.6,4|8,3:1|2:0,2:0:0:0:
460,2,58261,1,2,2:0:0:0:
460,2,58435,2,0,P|481:49|473:101,1,105.6,2|10,3:1|2:0,2:0:0:0:
406,183,59133,2,0,L|431:285,1,105.6,2|8,3:1|2:0,2:0:0:0:
445,336,59656,1,2,2:0:0:0:
445,336,59831,1,0,3:2:0:0:
290,371,60354,6,0,L|264:268,1,105.6,6|2,2:2|2:0,2:0:0:0:
250,217,60877,1,8,2:0:0:0:
310,130,61226,2,0,P|319:105|321:79,1,52.8,0|2,3:1|3:1,2:0:0:0:
295,32,61575,1,8,2:0:0:0:
295,31,61749,2,0,L|191:52,1,105.6,6|2,3:1|2:0,2:0:0:0:
139,63,62273,1,8,2:0:0:0:
34,44,62622,2,0,B|11:91|11:91|26:142,1,105.6,0|12,3:0|2:0,2:0:0:0:
58,242,63319,1,4,3:1:0:0:
28,343,63668,6,0,P|74:367|125:359,1,105.6,10|0,2:1|3:0,2:0:0:0:
169,329,64191,1,8,2:1:0:0:
169,329,64366,1,10,2:1:0:0:
206,230,64715,2,0,L|187:127,1,105.6,0|10,3:0|2:1,2:0:0:0:
261,50,65412,2,0,L|251:-1,2,52.8,0|8|10,3:0|2:0|2:1,2:0:0:0:
309,71,65935,1,0,2:0:0:0:
309,71,66110,6,0,P|361:70|407:47,1,105.6,2|8,3:2|2:0,2:0:0:0:
441,5,66633,1,2,2:0:0:0:
441,5,66808,1,0,3:0:0:0:
505,94,67156,1,8,2:0:0:0:
505,94,67331,2,0,L|482:197,1,105.6,2|0,2:0|2:0,2:0:0:0:
502,246,67854,1,14,2:1:0:0:
430,324,68203,2,0,L|441:375,2,52.8,6|0|8,3:1|3:0|2:0,2:0:0:0:
332,282,68901,5,4,3:1:0:0:
241,336,69249,2,0,P|224:286|238:236,1,105.6,10|0,2:1|3:0,2:0:0:0:
273,195,69773,1,8,2:0:0:0:
273,195,69947,1,10,2:1:0:0:
222,102,70296,2,0,L|119:127,1,105.6,0|10,3:0|2:1,2:0:0:0:
16,100,70994,2,0,L|3:151,1,52.8,2|8,3:2|2:0,2:0:0:0:
28,197,71342,2,0,L|15:248,1,52.8,10|0,2:1|2:0,2:0:0:0:
5,300,71691,5,0,3:0:0:0:
5,299,71866,2,0,P|57:299|102:325,1,105.6,2|2,2:1|2:0,2:0:0:0:
137,365,72389,2,0,L|188:354,1,52.8,0|2,3:0|2:0,2:0:0:0:
253,270,72912,2,0,B|262:232|262:232|253:203|253:203|261:167,1,105.6,14|8,2:1|2:0,2:0:0:0:
292,124,73435,2,0,L|282:72,1,52.8,8|0,2:0|3:0,2:0:0:0:
310,27,73784,2,0,L|414:43,1,105.6,0|12,3:0|2:0,2:0:0:0:
509,30,74482,6,0,P|515:77|500:121,1,96,4|10,3:2|2:1,2:0:0:0:
431,189,75180,2,0,L|447:283,1,96,2|8,3:2|2:0,2:0:0:0:
458,330,75703,1,2,2:0:0:0:
372,373,76052,1,2,2:0:0:0:
372,373,76226,2,0,L|324:364,1,48,8|2,2:0|2:0,2:0:0:0:
287,334,76575,2,0,B|249:345|249:345|239:353|239:353|196:364,1,96,2|8,3:1|2:0,2:0:0:0:
102,342,77273,6,0,P|88:296|99:250,1,96,0|8,3:0|2:0,2:0:0:0:
134,217,77796,1,2,2:0:0:0:
134,217,77970,2,0,L|115:122,1,96,0|8,3:0|2:0,2:0:0:0:
103,75,78494,1,2,2:0:0:0:
184,25,78842,1,2,2:0:0:0:
184,25,79017,2,0,L|231:32,1,48,8|2,2:0|2:0,2:0:0:0:
273,9,79366,1,2,3:1:0:0:
350,65,79715,2,0,L|340:112,1,48,8|8,2:0|2:0,2:0:0:0:
361,155,80063,6,0,L|267:175,1,96,6|10,3:1|2:0,2:0:0:0:
181,132,80761,2,0,L|87:152,1,96,2|8,3:2|2:0,2:0:0:0:
40,136,81284,2,0,P|20:179|22:226,1,96,2|2,2:1|2:0,2:0:0:0:
54,263,81808,2,0,L|43:309,1,48,8|2,2:0|2:0,2:0:0:0:
76,345,82156,2,0,L|169:322,1,96,2|10,3:2|2:0,2:0:0:0:
234,252,82854,6,0,L|280:263,2,48,4|2|8,3:1|2:0|2:0,2:0:0:0:
186,168,83552,2,0,L|197:121,1,48,0|0,3:0|3:0,2:0:0:0:
182,75,83901,1,8,2:0:0:0:
182,75,84075,2,0,L|276:55,1,96,12|8,2:1|2:0,2:0:0:0:
370,92,84773,1,8,2:0:0:0:
370,92,84947,2,0,L|391:-1,2,96,12|8|4,2:0|2:0|3:1,2:0:0:0:
256,32,95412,6,0,B|215:20|188:46|188:46|159:71|120:60,1,144,4|0,3:2|3:0,2:0:0:0:
83,41,96110,1,10,2:0:0:0:
83,41,96284,1,10,2:0:0:0:
10,102,96633,5,2,2:0:0:0:
10,102,96808,2,0,L|23:197,1,96,6|10,3:1|2:0,2:0:0:0:
81,273,97505,1,2,3:2:0:0:
81,273,97680,2,0,L|128:263,1,48,0|8,3:0|2:0,2:0:0:0:
157,224,98029,2,0,P|204:221|246:243,1,96,2|0,2:0|3:0,2:0:0:0:
279,278,98552,1,10,2:0:0:0:
371,304,98901,2,0,P|418:301|457:274,1,96,2|10,2:0|2:0,2:0:0:0:
474,229,99424,6,0,L|453:135,1,96,2|2,2:0|2:0,2:0:0:0:
477,93,99947,1,10,2:0:0:0:
392,46,100296,2,0,L|402:0,2,48,0|2|10,3:0|2:0|2:0,2:0:0:0:
317,107,100994,2,0,L|327:153,1,48,2|2,3:0|2:0,2:0:0:0:
339,204,101342,1,10,2:0:0:0:
339,204,101517,2,0,B|292:197|292:197|253:226,1,96,2|2,2:0|2:0,2:0:0:0:
220,319,102215,1,8,2:0:0:0:
220,319,102389,6,0,P|172:322|129:302,1,96,4|10,3:2|2:0,2:0:0:0:
38,269,103087,2,0,L|29:316,2,48,2|0|10,2:0|3:0|2:0,2:0:0:0:
11,228,103610,1,0,2:0:0:0:
11,228,103784,2,0,L|28:133,1,96,4|8,3:2|2:0,2:0:0:0:
8,89,104308,1,4,3:2:0:0:
87,36,104656,1,2,2:0:0:0:
87,36,104831,2,0,L|133:46,1,48,0|0,3:0|3:0,2:0:0:0:
180,33,105180,6,0,P|189:79|198:127,1,96,4|8,3:1|2:0,2:0:0:0:
208,174,105703,2,0,P|255:169|297:190,1,96,4|0,3:2|3:0,2:0:0:0:
325,229,106226,1,8,2:0:0:0:
325,229,106401,2,0,L|419:209,1,96,4|8,3:1|2:0,2:0:0:0:
454,176,106924,1,8,2:0:0:0:
504,257,107273,2,0,P|513:303|497:348,1,96,0|0,3:0|3:0,2:0:0:0:
404,372,107970,6,0,L|357:362,1,48,4|0,3:2|3:0,2:0:0:0:
311,376,108319,1,8,2:0:0:0:
310,375,108494,2,0,P|286:335|284:287,1,96,8|0,2:0|3:0,2:0:0:0:
313,195,109191,1,0,2:0:0:0:
313,195,109366,2,0,L|359:183,2,48,2|0|8,3:2|3:0|2:0,2:0:0:0:
272,167,109889,2,0,B|235:85|292:118|246:29,1,144,8|8,2:0|2:0,2:0:0:0:
152,7,110761,6,0,P|113:33|66:38,1,96,2|8,3:2|2:0,2:0:0:0:
18,31,111284,2,0,L|37:124,1,96,8|0,2:0|3:0,2:0:0:0:
50,171,111808,1,10,2:0:0:0:
9,257,112156,2,0,L|18:303,1,48,2|0,3:2|3:0,2:0:0:0:
26,351,112505,1,8,2:0:0:0:
26,351,112680,2,0,B|65:350|97:332|97:332|117:364|149:376,1,144,8|8,2:0|2:0,2:0:0:0:
239,342,113552,6,0,P|255:297|248:250,1,96,4|0,3:1|3:0,2:0:0:0:
215,215,114075,1,2,2:0:0:0:
215,215,114249,2,0,L|231:120,1,96,0|12,3:0|2:0,2:0:0:0:
251,26,114947,2,0,B|293:46|293:46|341:34,1,96,4|0,3:1|3:0,2:0:0:0:
381,8,115470,1,2,2:0:0:0:
381,7,115645,2,0,P|428:7|468:32,1,96,0|12,3:0|2:0,2:0:0:0:
494,125,116342,6,0,L|474:218,1,96,0|14,3:0|2:1,2:0:0:0:
495,262,116866,1,2,2:0:0:0:
495,262,117040,2,0,L|401:281,1,96,0|14,3:0|2:1,2:0:0:0:
307,259,117738,6,0,L|289:328,2,72,0|0|0,3:2|3:0|3:2,2:0:0:0:
321,213,118435,2,0,L|390:195,2,72,8|8|0,2:0|2:0|3:0,2:0:0:0:
299,170,119133,2,0,B|266:159|230:182|230:182|214:217|172:217,1,144,12|0,2:1|3:0,2:0:0:0:
139,251,119831,1,14,2:1:0:0:
48,239,120180,1,8,2:0:0:0:
48,239,120354,2,0,P|29:195|34:147,1,96,14|0,2:1|3:0,2:0:0:0:
58,105,120877,2,0,L|48:58,1,48,8|8,2:0|2:0,2:0:0:0:
36,11,121226,2,0,L|130:28,1,96,0|14,3:0|2:1,2:0:0:0:
233,3,121924,6,0,P|261:46|258:98,1,105.6,4|8,3:2|2:0,2:0:0:0:
224,139,122447,1,0,2:0:0:0:
224,139,122622,2,0,L|243:242,1,105.6,0|8,3:0|2:0,2:0:0:0:
313,321,123319,2,0,L|303:372,2,52.8,0|2|8,3:0|2:0|2:0,2:0:0:0:
359,293,123842,1,2,2:0:0:0:
359,293,124017,2,0,P|407:312|459:307,1,105.6,0|8,3:0|2:0,2:0:0:0:
500,274,124540,5,2,3:0:0:0:
468,173,124889,1,0,2:0:0:0:
468,173,125063,2,0,L|481:121,1,52.8,8|2,2:0|2:0,2:0:0:0:
465,71,125412,2,0,L|478:19,2,52.8,0|2|8,3:0|2:0|2:0,2:0:0:0:
364,103,126110,1,6,3:1:0:0:
259,85,126459,1,14,2:1:0:0:
204,175,126808,2,0,L|152:161,2,52.8,6|8|8,3:1|0:0|0:0,2:0:0:0:
272,255,127505,6,0,P|273:307|247:351,1,105.6,6|8,3:1|2:0,2:0:0:0:
195,366,128029,1,2,2:0:0:0:
195,366,128203,2,0,P|148:341|96:342,1,105.6,2|10,3:1|2:1,2:0:0:0:
51,246,128901,2,0,L|-1:253,2,52.8,0|2|8,3:0|2:0|2:0,2:0:0:0:
95,216,129424,1,2,2:0:0:0:
95,216,129598,2,0,P|111:166|99:116,1,105.6,0|8,3:0|2:0,2:0:0:0:
66,74,130122,6,0,L|168:50,1,105.6,2|2,2:0|2:1,2:0:0:0:
208,15,130645,1,8,2:1:0:0:
286,85,130994,2,0,L|274:136,1,52.8,0|2,3:1|2:1,2:0:0:0:
234,170,131342,1,8,2:0:0:0:
234,170,131517,2,0,P|232:222|254:269,1,105.6,6|2,3:1|2:0,2:0:0:0:
298,299,132040,1,8,2:0:0:0:
390,248,132389,2,0,P|391:195|369:148,1,105.6,0|14,3:0|2:0,2:0:0:0:
286,85,133087,1,4,3:1:0:0:
196,141,133435,6,0,L|91:124,1,105.6,10|0,2:1|3:0,2:0:0:0:
43,116,133959,1,8,2:0:0:0:
43,116,134133,1,10,2:1:0:0:
2,213,134482,2,0,P|0:265|22:312,1,105.6,0|10,3:0|2:1,2:0:0:0:
126,332,135180,2,0,L|137:383,2,52.8,0|8|10,3:0|2:0|2:1,2:0:0:0:
164,295,135703,1,0,2:0:0:0:
164,295,135877,6,0,L|140:192,1,105.6,2|8,3:2|2:0,2:0:0:0:
128,145,136401,1,2,2:0:0:0:
128,145,136575,2,0,P|180:143|224:116,1,105.6,0|8,3:0|2:0,2:0:0:0:
255,73,137098,2,0,L|359:88,1,105.6,6|0,2:0|2:0,2:0:0:0:
405,115,137622,1,14,2:1:0:0:
505,82,137970,2,0,L|494:30,2,52.8,6|0|8,3:1|3:0|2:0,2:0:0:0:
484,186,138668,5,4,3:1:0:0:
509,288,139017,2,0,P|466:318|414:324,1,105.6,10|0,2:1|3:0,2:0:0:0:
370,295,139540,1,8,2:1:0:0:
370,295,139715,1,10,2:1:0:0:
279,240,140063,2,0,L|257:343,1,105.6,0|10,3:0|2:1,2:0:0:0:
157,377,140761,2,0,L|105:366,1,52.8,0|8,3:0|2:1,2:0:0:0:
54,380,141110,2,0,L|43:328,1,52.8,10|0,2:1|2:0,2:0:0:0:
8,296,141459,5,0,3:0:0:0:
8,296,141633,2,0,P|0:244|21:197,1,105.6,2|0,2:0|2:0,2:0:0:0:
73,204,142156,2,0,L|124:193,1,52.8,0|2,3:0|2:0,2:0:0:0:
227,167,142680,2,0,B|246:120|246:120|232:66,1,105.6,14|8,2:1|2:0,2:0:0:0:
271,31,143203,2,0,L|322:41,1,52.8,8|8,2:0|2:0,2:0:0:0:
369,16,143552,2,0,L|472:37,1,105.6,0|8,3:0|2:0,2:0:0:0:
510,125,144249,6,0,P|511:172|490:215,1,96,6|8,3:1|2:0,2:0:0:0:
454,246,144773,2,0,B|422:242|422:242|397:251|397:251|360:246,1,96,2|0,2:0|3:1,2:0:0:0:
316,255,145296,1,8,2:0:0:0:
316,255,145470,2,0,L|299:161,1,96,0|0,2:0|3:0,2:0:0:0:
288,113,145994,1,10,2:1:0:0:
196,142,146342,1,2,2:1:0:0:
101,126,146691,1,10,2:1:0:0:
19,75,147040,6,0,L|2:169,1,96,2|8,3:1|2:1,2:0:0:0:
34,204,147563,2,0,P|51:248|46:295,1,96,2|2,2:1|2:0,2:0:0:0:
30,343,148087,1,8,2:0:0:0:
30,343,148261,2,0,L|123:323,1,96,2|0,2:1|3:1,2:0:0:0:
170,311,148784,1,8,2:0:0:0:
262,337,149133,2,0,L|251:383,2,48,2|0|10,3:1|3:0|2:0,2:0:0:0:
345,288,149831,6,0,P|354:241|338:197,1,96,4|8,3:1|2:0,2:0:0:0:
306,160,150354,2,0,P|376:160|429:113,1,144,2|12,2:1|2:0,2:0:0:0:
392,24,151226,2,0,L|299:48,1,96,0|8,3:0|2:0,2:0:0:0:
255,25,151749,1,0,2:0:0:0:
255,25,151924,2,0,P|236:68|239:115,1,96,2|10,2:1|2:1,2:0:0:0:
294,194,152622,6,0,P|297:241|277:284,1,96,4|10,3:2|2:0,2:0:0:0:
241,316,153145,2,0,L|144:298,1,96,2|2,2:1|2:1,2:0:0:0:
103,291,153668,1,8,2:0:0:0:
103,291,153842,1,6,3:1:0:0:
14,319,154191,1,8,2:0:0:0:
14,319,154366,2,0,L|3:272,1,48,8|8,2:0|2:0,2:0:0:0:
27,230,154715,2,0,L|6:136,1,96,0|14,3:0|2:1,2:0:0:0:
50,51,155412,6,0,P|90:65|136:63,1,86.4000000000001,4|0,3:2|3:0,2:0:0:0:
169,40,155935,1,2,2:0:0:0:
239,99,156284,1,2,2:0:0:0:
239,99,156459,2,0,L|230:141,1,43.2,0|2,3:0|2:0,2:0:0:0:
197,168,156808,2,0,L|213:252,1,86.4000000000001,0|0,3:0|3:0,2:0:0:0:
225,294,157331,1,2,2:0:0:0:
299,347,157680,1,4,2:3:0:0:
299,347,157854,2,0,L|341:339,1,43.2,8|2,2:0|2:0,2:0:0:0:
383,348,158203,6,0,P|402:309|400:266,1,86.4000000000001,0|0,3:0|3:0,2:0:0:0:
373,233,158726,1,2,2:0:0:0:
391,148,159075,2,0,L|432:137,2,43.2,2|8|4,2:0|2:3|2:3,2:0:0:0:
355,122,159598,2,0,L|271:142,1,86.4000000000001,0|0,3:0|3:0,2:0:0:0:
229,155,160122,1,2,2:0:0:0:
151,127,160470,1,0,3:0:0:0:
151,127,160645,2,0,L|109:137,1,43.2,8|2,2:0|2:0,2:0:0:0:
67,148,160994,6,0,P|50:188|54:231,1,86.4000000000001,4|0,3:1|3:0,2:0:0:0:
117,290,161691,1,0,3:1:0:0:
194,252,162040,1,0,3:1:0:0:
267,297,162389,2,0,L|252:382,2,86.4000000000001,0|0|0,3:0|3:0|3:1,2:0:0:0:
335,243,163435,1,8,2:0:0:0:
422,250,163784,6,0,P|448:170|416:92,1,172.8,4|0,3:1|3:0,2:0:0:0:
333,65,164831,1,8,2:0:0:0:
256,105,165180,2,0,P|213:107|171:96,1,86.4000000000001,4|8,3:1|2:0,2:0:0:0:
94,56,165877,2,0,L|79:141,1,86.4000000000001,0|8,3:0|2:0,2:0:0:0:
44,174,166401,6,0,B|55:220|55:220|50:228|50:228|58:266,1,96,4|0,3:1|3:0,2:0:0:0:
72,312,166924,1,8,2:0:0:0:
162,345,167273,2,0,L|207:330,1,48,0|0,3:0|3:0,2:0:0:0:
260,334,167622,1,8,2:0:0:0:
260,334,167796,2,0,P|276:289|267:243,1,96,6|0,3:2|3:0,2:0:0:0:
214,162,168494,1,2,2:0:0:0:
197,67,168842,1,0,3:0:0:0:
278,16,169191,6,0,P|320:36|367:33,1,96,6|0,3:1|3:0,2:0:0:0:
410,10,169715,1,10,2:0:0:0:
489,63,170063,2,0,L|477:110,1,48,2|0,3:2|3:0,2:0:0:0:
455,153,170412,1,8,2:0:0:0:
455,153,170587,2,0,B|498:169|498:169|523:220|486:260,1,144,4|8,3:2|2:0,2:0:0:0:
408,314,171459,2,0,L|427:385,2,72,8|8|0,2:0|2:0|3:0,2:0:0:0:
394,268,172156,6,0,P|347:276|302:262,1,96,12|8,2:1|2:0,2:0:0:0:
279,226,172680,1,2,3:0:0:0:
279,226,172854,2,0,L|298:131,1,96,8|8,2:0|2:0,2:0:0:0:
238,56,173552,2,0,B|194:76|194:76|148:61,1,96,12|0,2:1|3:0,2:0:0:0:
105,40,174075,2,0,L|88:134,1,96,8|0,2:0|3:0,2:0:0:0:
83,182,174598,1,8,2:0:0:0:
16,251,174947,5,8,2:0:0:0:
81,321,175296,2,0,L|174:299,1,96,8|0,2:0|3:0,2:0:0:0:
220,285,175819,1,8,2:0:0:0:
292,347,176168,2,0,L|385:325,1,96,12|2,2:1|2:0,2:0:0:0:
428,346,176691,1,2,3:2:0:0:
505,288,177040,2,0,L|494:241,1,48,0|0,3:0|3:0,2:0:0:0:
453,215,177389,2,0,L|442:168,1,48,14|2,2:0|2:0,2:0:0:0:
463,124,177738,5,4,3:1:0:0:
512,320,183319,6,0,B|469:305|433:336|433:336|396:366|350:353,1,172.8,4|2,3:1|2:0,2:0:0:0:
277,307,184366,1,0,2:0:0:0:
196,339,184715,2,0,P|158:262|179:180,1,172.8,4|2,3:1|2:0,2:0:0:0:
215,11,186110,6,0,B|146:32|146:32|125:54|125:54|58:77,2,172.8,4|4|4,3:2|3:2|3:1,2:0:0:0:
256,192,187680,12,2,188901,3:2:0:0:
416,384,189947,5,8,2:0:0:0:
498,317,190296,2,0,P|513:268|504:216,1,105.6,4|8,3:1|2:0,2:0:0:0:
465,181,190819,1,2,2:0:0:0:
465,181,190994,2,0,L|485:77,1,105.6,0|8,3:0|2:0,2:0:0:0:
404,9,191691,2,0,B|366:39|366:39|308:30,1,105.6,2|8,3:1|2:0,2:0:0:0:
261,24,192215,1,2,2:0:0:0:
261,24,192389,1,0,3:0:0:0:
185,97,192738,5,8,2:0:0:0:
185,97,192912,2,0,P|135:110|84:99,1,105.6,2|0,3:0|3:0,2:0:0:0:
39,69,193435,1,8,2:0:0:0:
2,168,193784,2,0,L|15:219,1,52.8,0|2,3:0|2:0,2:0:0:0:
58,249,194133,2,0,L|71:300,1,52.8,8|2,2:0|2:0,2:0:0:0:
62,352,194482,1,6,3:1:0:0:
163,381,194831,1,14,2:1:0:0:
228,298,195180,2,0,L|280:287,2,52.8,4|8|8,3:1|2:0|2:0,2:0:0:0:
160,216,195877,6,0,P|146:165|160:115,1,105.6,4|8,3:1|2:0,2:0:0:0:
156,66,196401,1,2,2:0:0:0:
156,66,196575,2,0,L|262:88,1,105.6,2|10,3:1|2:0,2:0:0:0:
347,28,197273,2,0,P|399:25|444:50,1,105.6,0|8,3:0|2:0,2:0:0:0:
473,101,197796,1,2,2:0:0:0:
473,101,197970,1,0,3:0:0:0:
512,256,198494,6,0,L|409:282,1,105.6,6|2,2:0|2:0,2:0:0:0:
358,297,199017,1,8,2:0:0:0:
268,240,199366,2,0,P|259:215|257:189,1,52.8,0|2,3:2|2:1,2:0:0:0:
279,140,199715,1,8,2:0:0:0:
279,139,199889,2,0,P|298:91|291:39,1,105.6,4|8,3:1|2:0,2:0:0:0:
247,10,200412,2,0,L|195:21,1,52.8,8|8,2:0|2:0,2:0:0:0:
144,7,200761,2,0,P|92:6|49:36,1,105.6,0|12,3:0|2:0,2:0:0:0:
19,138,201459,1,4,3:1:0:0:
78,225,201808,6,0,L|55:333,1,105.6,10|0,2:1|3:1,2:0:0:0:
48,383,202331,1,8,2:1:0:0:
48,383,202505,1,10,2:1:0:0:
149,353,202854,2,0,B|202:341|202:375|252:359,1,105.6,2|10,3:2|2:1,2:0:0:0:
326,284,203552,2,0,L|316:233,2,52.8,0|8|10,3:0|2:0|2:1,2:0:0:0:
361,330,204075,1,0,2:0:0:0:
361,330,204249,6,0,P|407:352|458:342,1,105.6,2|8,3:2|2:0,2:0:0:0:
493,303,204773,1,2,2:0:0:0:
493,303,204947,1,0,3:0:0:0:
466,206,205296,1,8,2:0:0:0:
466,206,205470,2,0,L|489:103,1,105.6,6|0,2:0|2:0,2:0:0:0:
499,51,205994,2,0,P|448:60|399:42,1,105.6,14|6,2:1|3:1,2:0:0:0:
364,10,206517,1,8,2:0:0:0:
364,10,206691,1,8,2:0:0:0:
267,53,207040,5,4,3:1:0:0:
293,155,207389,2,0,L|274:259,1,105.6,10|0,2:1|3:0,2:0:0:0:
263,313,207912,1,8,2:1:0:0:
263,313,208087,1,10,2:1:0:0:
175,371,208435,2,0,P|122:373|77:347,1,105.6,0|10,3:0|2:1,2:0:0:0:
30,252,209133,6,0,L|19:200,1,52.8,2|8,3:2|2:0,2:0:0:0:
47,154,209482,2,0,L|36:102,1,52.8,10|0,2:1|2:0,2:0:0:0:
10,63,209831,5,0,3:0:0:0:
9,63,210005,2,0,P|53:36|106:37,1,105.6,2|0,2:0|2:0,2:0:0:0:
145,72,210529,2,0,L|196:61,1,52.8,0|2,3:0|2:0,2:0:0:0:
294,101,211052,6,0,B|316:151|316:151|296:197,1,105.6,14|8,2:1|2:0,2:0:0:0:
258,234,211575,2,0,L|269:285,1,52.8,8|8,2:0|2:0,2:0:0:0:
252,335,211924,2,0,L|356:351,1,105.6,0|12,3:0|2:1,2:0:0:0:
461,367,212622,6,0,P|484:320|480:268,1,105.6,4|8,3:1|2:0,2:0:0:0:
496,218,213145,2,0,P|444:225|396:204,1,105.6,6|0,3:1|3:0,2:0:0:0:
362,164,213668,1,8,2:0:0:0:
314,69,214017,2,0,L|262:79,1,52.8,6|0,3:1|3:0,2:0:0:0:
220,46,214366,1,8,2:0:0:0:
220,46,214540,2,0,B|170:57|170:57|120:34,1,105.6,6|8,3:1|2:0,2:0:0:0:
74,8,215063,1,0,3:0:0:0:
12,93,215412,6,0,B|23:138|23:138|19:151|19:151|30:195,1,105.6,2|0,3:1|3:0,2:0:0:0:
15,246,215935,1,8,2:0:0:0:
19,250,216110,2,0,P|71:248|116:274,1,105.6,10|8,2:1|2:0,2:0:0:0:
142,314,216633,1,14,2:1:0:0:
142,314,218203,6,0,B|191:308|220:249|190:202|190:202|126:180|86:86|137:11|228:-6|287:49,1,480,2|0,2:0|2:0,2:0:0:0:
351,120,220296,2,0,L|444:97,1,96,2|8,3:2|2:0,2:0:0:0:
494,88,220819,1,2,2:0:0:0:
494,88,220994,6,0,P|512:131|509:179,1,96,4|10,3:1|2:1,2:0:0:0:
484,271,221691,2,0,P|436:267|392:286,1,96,2|8,3:2|2:0,2:0:0:0:
361,323,222215,1,2,2:0:0:0:
270,313,222563,1,2,2:0:0:0:
270,313,222738,2,0,L|261:265,1,48,8|2,2:0|2:0,2:0:0:0:
286,224,223087,2,0,B|306:182|306:182|295:133,1,96,2|8,3:1|2:0,2:0:0:0:
272,40,223784,6,0,L|318:28,2,48,2|2|8,3:2|2:1|2:0,2:0:0:0:
178,17,224482,2,0,L|131:28,1,48,0|0,3:0|3:0,2:0:0:0:
88,19,224831,1,8,2:0:0:0:
88,19,225005,2,0,L|72:113,1,96,2|0,2:0|2:0,2:0:0:0:
6,184,225703,1,0,2:0:0:0:
5,184,225877,2,0,P|3:231|25:273,1,96,6|14,3:1|2:1,2:0:0:0:
104,328,226575,6,0,P|146:306|193:308,1,96,6|10,3:1|2:0,2:0:0:0:
268,369,227273,1,2,3:1:0:0:
352,327,227622,1,8,2:0:0:0:
356,331,227796,2,0,L|374:236,1,96,2|2,2:0|2:0,2:0:0:0:
383,189,228319,1,10,2:0:0:0:
445,115,228668,2,0,P|447:68|428:25,1,96,2|8,3:1|2:0,2:0:0:0:
387,10,229191,1,2,2:0:0:0:
387,10,229366,6,0,L|292:28,1,96,6|10,3:1|2:0,2:0:0:0:
212,80,230063,2,0,L|202:127,1,48,0|0,3:0|3:0,2:0:0:0:
240,165,230412,1,8,2:0:0:0:
240,165,230587,2,0,P|258:208|252:255,1,96,6|0,3:1|3:0,2:0:0:0:
216,288,231110,2,0,L|169:301,1,48,8|8,2:0|2:0,2:0:0:0:
137,336,231459,1,0,3:0:0:0:
42,354,231808,1,8,2:0:0:0:
5,265,232156,6,0,L|20:170,1,96,6|0,3:1|3:0,2:0:0:0:
29,122,232680,1,2,2:0:0:0:
103,61,233029,2,0,L|95:13,2,48,2|0|2,2:0|3:0|2:0,2:0:0:0:
197,96,233726,1,2,2:0:0:0:
197,96,233901,2,0,L|204:143,1,48,0|2,3:0|2:0,2:0:0:0:
185,187,234249,2,0,P|173:233|186:279,1,96,2|2,3:1|3:1,2:0:0:0:
256,344,234947,6,0,L|350:324,1,96,0|0,3:0|3:0,2:0:0:0:
397,316,235470,1,2,2:0:0:0:
465,248,235819,2,0,L|512:257,2,48,2|0|2,2:0|3:0|2:0,2:0:0:0:
415,171,236517,1,2,2:0:0:0:
415,171,236691,2,0,L|424:123,1,48,0|2,3:0|2:0,2:0:0:0:
430,76,237040,2,0,L|477:66,2,48,0|0|8,3:0|3:0|2:0,2:0:0:0:
402,36,237563,5,4,3:1:0:0:
256,192,237738,12,0,239133,3:0:0:0:
