osu file format v14

[General]
AudioFilename: audio.mp3
AudioLeadIn: 0
PreviewTime:52156
Countdown: 0
SampleSet: Soft
StackLeniency: 0.7
Mode: 0
LetterboxInBreaks: 0
WidescreenStoryboard: 1

[Editor]
Bookmarks: 52156,74482,85645,96808,107970,121924,144249,155412,166401,177738,183319,188901,212622,220994,232156,237563,239133
DistanceSpacing: 1
BeatDivisor: 4
GridSize: 32
TimelineZoom: 2.3

[Metadata]
Title:Love Vacation
TitleUnicode:Love♡Vacation
Artist:Matsushita/nayuta
ArtistUnicode:松下/nayuta
Creator:Kazato Asa
Version:Insane
Source:かけぬけ★青春スパーキング!
Tags:Shizuku- Kakenuke★Seishun Sparking! Yamaguchi Akihiko 山口 朗彦 Uran うらん POPHOLIC eroge galgame vn visual novel SAGA PLANETS full version op opening video game pop japanese
BeatmapID:2594454
BeatmapSetID:1246919

[Difficulty]
HPDrainRate:5
CircleSize:4
OverallDifficulty:8
ApproachRate:9
SliderMultiplier:1.68
SliderTickRate:1

[Events]
//Background and Video events
0,0,"ev_rr06_0107.jpg",0,0
//Break Periods
2,177937,182719
//Storyboard Layer 0 (Background)
//Storyboard Layer 1 (Fail)
//Storyboard Layer 2 (Pass)
//Storyboard Layer 3 (Foreground)
//Storyboard Layer 4 (Overlay)
//Storyboard Sound Samples

[TimingPoints]
529,348.837209302326,4,2,1,40,1,0
4715,-111.111111111111,4,2,1,70,0,0
6808,-66.6666666666667,4,2,1,70,0,0
7069,-66.6666666666667,4,2,1,5,0,0
7156,-111.111111111111,4,2,1,70,0,0
9859,-111.111111111111,4,2,1,5,0,0
9947,-66.6666666666667,4,2,1,70,0,0
10208,-66.6666666666667,4,2,1,5,0,0
10296,-66.6666666666667,4,2,1,70,0,0
10645,-111.111111111111,4,2,1,70,0,0
14656,-83.3333333333333,4,2,1,70,0,0
15529,-66.6666666666667,4,2,1,70,0,0
15790,-66.6666666666667,4,2,1,5,0,0
15877,-125,4,2,1,50,0,0
25645,-166.666666666667,4,2,1,60,0,0
27040,-66.6666666666667,4,2,1,60,0,0
27301,-66.6666666666667,4,2,1,5,0,0
27389,-100,4,2,1,60,0,0
28784,-111.111111111111,4,2,1,60,0,0
32622,-66.6666666666667,4,2,1,60,0,0
32883,-66.6666666666667,4,2,1,5,0,0
32970,-111.111111111111,4,2,1,60,0,0
34540,-90.9090909090909,4,2,1,60,0,0
35063,-100,4,2,1,60,0,0
38203,-111.111111111111,4,2,1,60,0,0
43784,-125,4,2,1,60,0,0
47970,-100,4,2,1,60,0,0
48842,-100,4,2,1,5,0,0
48930,-100,4,2,1,60,0,0
49104,-100,4,2,1,5,0,0
49191,-100,4,2,1,60,0,0
49366,-125,4,2,1,60,0,0
51808,-55.5555555555556,4,2,1,60,0,0
52069,-55.5555555555556,4,2,1,5,0,0
52156,-83.3333333333333,4,2,1,80,0,1
56342,-76.9230769230769,4,2,1,80,0,1
56603,-76.9230769230769,4,2,1,5,0,1
56691,-76.9230769230769,4,2,1,80,0,1
56952,-76.9230769230769,4,2,1,5,0,1
57040,-76.9230769230769,4,2,1,80,0,1
58435,-76.9230769230769,4,2,1,80,0,1
58696,-76.9230769230769,4,2,1,5,0,1
58784,-62.5,4,2,1,80,0,1
59045,-62.5,4,2,1,5,0,1
59133,-83.3333333333333,4,2,1,80,0,1
65063,-66.6666666666667,4,2,1,80,0,1
65324,-66.6666666666667,4,2,1,5,0,1
65412,-83.3333333333333,4,2,1,80,0,1
67505,-66.6666666666667,4,2,1,80,0,1
67766,-66.6666666666667,4,2,1,5,0,1
67854,-66.6666666666667,4,2,1,80,0,1
68115,-66.6666666666667,4,2,1,5,0,1
68203,-66.6666666666667,4,2,1,80,0,1
69249,-83.3333333333333,4,2,1,80,0,1
72912,-71.4285714285714,4,2,1,80,0,1
74133,-62.5,4,2,1,80,0,1
74394,-62.5,4,2,1,5,0,1
74482,-90.9090909090909,4,2,1,70,0,0
77185,-90.9090909090909,4,2,1,5,0,0
77273,-90.9090909090909,4,2,1,70,0,0
80063,-76.9230769230769,4,2,1,70,0,0
80324,-76.9230769230769,4,2,1,5,0,0
80412,-90.9090909090909,4,2,1,70,0,0
84075,-66.6666666666667,4,2,1,70,0,0
84336,-66.6666666666667,4,2,1,5,0,0
84424,-66.6666666666667,4,2,1,70,0,0
84685,-66.6666666666667,4,2,1,5,0,0
84773,-90.9090909090909,4,2,1,70,0,0
85296,-66.6666666666667,4,2,1,70,0,0
85557,-66.6666666666667,4,2,1,5,0,0
85645,-125,4,2,1,70,0,0
95412,-166.666666666667,4,2,1,70,0,0
96808,-66.6666666666667,4,2,1,60,0,0
97069,-66.6666666666667,4,2,1,5,0,0
97156,-100,4,2,1,60,0,0
98029,-83.3333333333333,4,2,1,60,0,0
98552,-111.111111111111,4,2,1,60,0,0
102389,-66.6666666666667,4,2,1,60,0,0
102738,-111.111111111111,4,2,1,60,0,0
104831,-100,4,2,1,60,0,0
106401,-83.3333333333333,4,2,1,60,0,0
106924,-100,4,2,1,60,0,0
107970,-111.111111111111,4,2,1,60,0,0
113552,-125,4,2,1,60,0,0
117738,-83.3333333333333,4,2,1,60,0,0
118610,-83.3333333333333,4,2,1,5,0,0
118697,-83.3333333333333,4,2,1,60,0,0
118872,-83.3333333333333,4,2,1,5,0,0
118959,-83.3333333333333,4,2,1,60,0,0
119133,-125,4,2,1,60,0,0
121575,-55.5555555555556,4,2,1,60,0,0
121836,-55.5555555555556,4,2,1,5,0,0
121924,-83.3333333333333,4,2,1,80,0,1
122883,-83.3333333333333,4,2,1,5,0,1
122970,-83.3333333333333,4,2,1,80,0,1
126110,-66.6666666666667,4,2,1,80,0,1
126371,-66.6666666666667,4,2,1,5,0,1
126459,-66.6666666666667,4,2,1,80,0,1
126720,-66.6666666666667,4,2,1,5,0,1
126808,-66.6666666666667,4,2,1,80,0,1
128203,-76.9230769230769,4,2,1,80,0,1
128464,-76.9230769230769,4,2,1,5,0,1
128552,-62.5,4,2,1,80,0,1
128813,-62.5,4,2,1,5,0,1
128901,-83.3333333333333,4,2,1,80,0,1
134831,-66.6666666666667,4,2,1,80,0,1
135092,-66.6666666666667,4,2,1,5,0,1
135180,-83.3333333333333,4,2,1,80,0,1
137273,-66.6666666666667,4,2,1,80,0,1
137534,-66.6666666666667,4,2,1,5,0,1
137622,-66.6666666666667,4,2,1,80,0,1
137883,-66.6666666666667,4,2,1,5,0,1
137970,-66.6666666666667,4,2,1,80,0,1
139017,-83.3333333333333,4,2,1,80,0,1
142680,-66.6666666666667,4,2,1,80,0,1
143901,-55.5555555555556,4,2,1,80,0,1
144249,-90.9090909090909,4,2,1,70,0,0
146952,-90.9090909090909,4,2,1,5,0,0
147040,-90.9090909090909,4,2,1,70,0,0
150092,-90.9090909090909,4,2,1,5,0,0
150180,-90.9090909090909,4,2,1,70,0,0
150877,-66.6666666666667,4,2,1,70,0,0
151138,-66.6666666666667,4,2,1,5,0,0
151226,-90.9090909090909,4,2,1,70,0,0
151924,-90.9090909090909,4,2,1,70,0,0
153842,-76.9230769230769,4,2,1,70,0,0
155063,-55.5555555555556,4,2,1,70,0,0
155324,-55.5555555555556,4,2,1,5,0,0
155412,-125,4,2,1,60,0,0
165180,-100,4,2,1,60,0,0
166401,-83.3333333333333,4,2,1,70,0,0
166924,-100,4,2,1,70,0,0
167796,-100,4,2,1,70,0,0
169191,-83.3333333333333,4,2,1,70,0,0
169715,-100,4,2,1,70,0,0
172156,-83.3333333333333,4,2,1,70,0,0
172417,-83.3333333333333,4,2,1,5,0,0
172505,-83.3333333333333,4,2,1,70,0,0
175557,-83.3333333333333,4,2,1,5,0,0
175645,-83.3333333333333,4,2,1,70,0,0
177389,-66.6666666666667,4,2,1,70,0,0
183319,-200,4,2,1,60,0,0
184715,-142.857142857143,4,2,1,60,0,0
186808,-100,4,2,1,60,0,0
187505,-111.111111111111,4,2,1,60,0,0
188901,-76.9230769230769,4,2,1,60,0,0
189162,-76.9230769230769,4,2,1,5,0,0
189249,-76.9230769230769,4,2,1,60,0,0
189510,-76.9230769230769,4,2,1,5,0,0
189598,-76.9230769230769,4,2,1,60,0,0
189947,-62.5,4,2,1,60,0,0
190208,-62.5,4,2,1,5,0,0
190296,-83.3333333333333,4,2,1,80,0,1
194482,-66.6666666666667,4,2,1,80,0,1
194743,-66.6666666666667,4,2,1,5,0,1
194831,-66.6666666666667,4,2,1,80,0,1
195092,-66.6666666666667,4,2,1,5,0,1
195180,-66.6666666666667,4,2,1,80,0,1
195877,-83.3333333333333,4,2,1,80,0,1
196575,-76.9230769230769,4,2,1,80,0,1
196836,-76.9230769230769,4,2,1,5,0,1
196924,-62.5,4,2,1,80,0,1
197185,-62.5,4,2,1,5,0,1
197273,-83.3333333333333,4,2,1,80,0,1
203203,-66.6666666666667,4,2,1,80,0,1
203464,-66.6666666666667,4,2,1,5,0,1
203552,-83.3333333333333,4,2,1,80,0,1
205645,-66.6666666666667,4,2,1,80,0,1
205906,-66.6666666666667,4,2,1,5,0,1
205994,-66.6666666666667,4,2,1,80,0,1
206255,-66.6666666666667,4,2,1,5,0,1
206342,-66.6666666666667,4,2,1,80,0,1
207389,-83.3333333333333,4,2,1,80,0,1
211052,-71.4285714285714,4,2,1,80,0,1
212273,-55.5555555555556,4,2,1,80,0,1
212534,-55.5555555555556,4,2,1,5,0,1
212622,-83.3333333333333,4,2,1,80,0,1
212883,-83.3333333333333,4,2,1,5,0,1
212970,-83.3333333333333,4,2,1,80,0,1
216633,-83.3333333333333,4,2,1,70,0,0
218203,-166.666666666667,4,2,1,70,0,0
220296,-100,4,2,1,70,0,0
220994,-90.9090909090909,4,2,1,70,0,0
230587,-66.6666666666667,4,2,1,70,0,0
230848,-66.6666666666667,4,2,1,5,0,0
230935,-66.6666666666667,4,2,1,70,0,0
231110,-90.9090909090909,4,2,1,70,0,0
232156,-125,4,2,1,70,0,0

[Colours]
Combo1 : 232,132,215
Combo2 : 214,221,123
Combo3 : 159,219,142
Combo4 : 139,228,228

[HitObjects]
64,224,4017,5,2,0:0:0:0:
37,207,4104,1,2,0:0:0:0:
23,179,4191,1,2,0:0:0:0:
24,148,4278,1,2,0:0:0:0:
40,122,4366,2,0,L|60:119,6,21,2|2|2|2|2|2|2,0:0|0:0|0:0|0:0|0:0|0:0|0:0,0:0:0:0:
76,109,4715,6,0,P|113:115|150:121,1,75.5999976928712,4|0,3:1|0:0,0:0:0:0:
203,40,5063,2,0,P|165:33|128:27,1,75.5999976928712,2|0,3:2|0:0,0:0:0:0:
217,177,5412,2,0,P|271:127|345:133,1,151.199995385742,2|8,3:2|0:0,0:0:0:0:
349,137,5935,6,0,P|355:99|361:62,1,75.5999976928712,2|0,0:0|3:0,0:0:0:0:
475,18,6284,1,2,0:0:0:0:
475,18,6459,2,0,P|468:55|462:92,1,75.5999976928712,0|2,3:0|0:0,0:0:0:0:
510,181,6720,5,0,0:0:0:0:
510,181,6808,2,0,B|463:155|420:182|420:182|395:227|341:221,1,189.000007209778,2|0,3:2|2:0,0:0:0:0:
341,221,7156,2,0,P|355:255|353:293,1,75.5999976928712,0|0,3:0|0:0,0:0:0:0:
228,372,7505,6,0,L|265:377,2,37.7999988464356,0|2|2,3:0|0:0|0:0,0:0:0:0:
194,218,7854,1,0,3:0:0:0:
194,218,8029,1,2,0:0:0:0:
66,303,8203,2,0,L|71:340,3,37.7999988464356,0|2|2|2,3:0|0:0|0:0|0:0,0:0:0:0:
73,354,8552,5,0,3:2:0:0:
194,218,8726,2,0,P|156:213|118:209,1,75.5999976928712,2|0,0:0|3:0,0:0:0:0:
255,31,9075,5,2,0:0:0:0:
255,31,9249,2,0,P|272:64|269:101,1,75.5999976928712,0|2,3:0|0:0,0:0:0:0:
256,128,9511,1,2,0:0:0:0:
272,150,9598,2,0,L|382:125,1,113.399996539307,0|0,3:0|2:0,0:0:0:0:
511,191,9947,6,0,B|474:144|415:168|415:168|412:191|385:218|361:223,1,189.000007209778,12|0,0:1|2:0,0:0:0:0:
352,256,10296,5,12,0:0:0:0:
118,209,10470,1,12,0:0:0:0:
118,209,10645,2,0,L|130:283,1,75.5999976928712,2|0,3:2|0:0,0:0:0:0:
55,375,10994,2,0,L|29:225,1,151.199995385742,2|0,3:2|3:0,0:0:0:0:
192,64,11517,5,12,0:1:0:0:
192,64,11866,1,12,0:1:0:0:
118,209,12040,6,0,P|99:176|98:138,1,75.5999976928712,2|4,3:2|0:3,0:0:0:0:
110,115,12302,1,4,0:3:0:0:
110,115,12389,2,0,L|36:100,1,75.5999976928712,2|0,3:2|3:0,0:0:0:0:
118,209,12738,2,0,L|192:224,1,75.5999976928712,8|0,0:0|0:0,0:0:0:0:
256,32,13087,5,12,0:0:0:0:
288,256,13261,1,12,0:0:0:0:
416,128,13435,6,0,P|379:119|341:112,1,75.5999976928712,2|0,3:2|0:0,0:0:0:0:
416,256,13784,1,0,3:0:0:0:
432,233,13871,1,2,0:0:0:0:
456,218,13958,1,2,0:0:0:0:
484,213,14045,1,2,0:0:0:0:
511,218,14132,1,0,3:0:0:0:
330,362,14308,5,12,0:1:0:0:
330,362,14656,2,0,P|280:353|230:345,1,100.799996923828,8|0,0:0|0:0,0:0:0:0:
106,169,15005,1,8,0:0:0:0:
39,341,15180,5,4,3:2:0:0:
60,366,15267,1,2,0:0:0:0:
90,381,15354,1,2,0:0:0:0:
124,383,15441,1,2,0:0:0:0:
155,375,15529,6,0,B|204:355|212:293|212:293|204:257|192:212,1,189.000007209778,12|0,0:1|2:0,0:0:0:0:
192,212,15877,6,0,L|258:224,1,67.2,4|0,3:2|0:0,0:0:0:0:
334,155,16226,2,0,P|389:190|454:178,1,134.4,2|0,3:2|3:0,0:0:0:0:
458,182,16749,2,0,L|446:248,1,67.2,2|0,0:0|3:0,0:0:0:0:
512,334,17098,6,0,B|442:325|466:377|387:367,1,134.4,2|2,0:0|0:0,0:0:0:0:
300,317,17622,2,0,L|288:384,1,67.2,0|2,3:0|0:0,0:0:0:0:
192,320,17970,2,0,B|178:272|178:272|182:228|214:198,1,134.4,0|0,3:0|3:0,0:0:0:0:
253,124,18494,6,0,P|200:163|134:161,1,134.4,2|2,0:0|0:0,0:0:0:0:
56,115,19017,2,0,P|61:81|66:48,1,67.2,0|2,3:0|0:0,0:0:0:0:
0,191,19366,2,0,P|10:258|20:324,1,134.4,2|0,3:2|3:0,0:0:0:0:
20,324,19889,1,2,0:0:0:0:
171,295,20063,6,0,P|121:251|56:255,1,134.4,2|2,3:2|3:2,0:0:0:0:
157,384,20587,2,0,L|222:367,1,67.2,2|0,0:0|3:0,0:0:0:0:
320,224,20935,1,2,0:0:0:0:
320,224,21110,2,0,L|254:240,1,67.2,0|2,3:0|0:0,0:0:0:0:
192,160,21459,6,0,L|205:94,1,67.2,0|0,3:0|0:0,0:0:0:0:
160,32,21808,2,0,B|183:41|196:61|196:61|281:45,1,134.4,0|0,3:0|3:0,0:0:0:0:
281,45,22331,1,2,0:0:0:0:
352,0,22505,2,0,L|418:12,1,67.2,0|2,3:0|0:0,0:0:0:0:
512,128,22854,6,0,P|447:120|399:165,1,134.4,2|0,3:2|3:0,0:0:0:0:
399,165,23377,1,2,0:0:0:0:
355,240,23552,2,0,P|342:173|329:108,1,134.4,0|0,3:0|3:0,0:0:0:0:
192,160,24075,5,2,0:0:0:0:
192,160,24162,1,2,0:0:0:0:
192,160,24249,2,0,P|158:166|126:172,1,67.2,4|2,3:2|0:0,0:0:0:0:
30,136,24598,1,0,3:0:0:0:
0,256,24773,1,2,0:0:0:0:
0,256,24860,1,2,0:0:0:0:
0,256,24947,2,0,B|66:244|54:298|127:280,1,134.4,0|0,3:0|3:0,0:0:0:0:
127,280,25470,1,2,0:0:0:0:
255,352,25645,6,0,P|293:288|276:216,1,151.199995385742,4|0,3:1|3:0,0:0:0:0:
214,146,26342,5,10,0:1:0:0:
448,224,26517,1,10,0:1:0:0:
448,224,26866,2,0,L|464:220,2,16.7999994873047,2|2|2,0:0|0:0|0:0,0:0:0:0:
435,231,27040,6,0,B|405:189|430:145|430:145|463:93|430:54,1,189.000007209778,6|0,3:1|2:0,0:0:0:0:
448,32,27389,2,0,L|366:51,1,84,10|0,0:0|0:0,0:0:0:0:
295,3,27738,1,2,3:2:0:0:
224,64,27912,2,0,L|243:145,1,84,0|8,3:0|0:0,0:0:0:0:
350,255,28261,6,0,B|264:242|283:307|193:294,1,168,2|0,0:2|3:0,0:0:0:0:
128,384,28784,2,0,P|94:367|56:366,1,75.5999976928712,10|0,0:0|0:0,0:0:0:0:
0,200,29133,5,2,0:0:0:0:
65,272,29308,1,0,3:0:0:0:
149,221,29482,2,0,L|134:146,1,75.5999976928712,8|2,0:0|0:0,0:0:0:0:
134,146,29744,1,2,0:0:0:0:
134,146,29831,6,0,P|96:139|59:132,1,75.5999976928712,0|2,3:0|0:0,0:0:0:0:
224,32,30180,2,0,P|261:38|298:45,1,75.5999976928712,8|2,0:0|0:0,0:0:0:0:
512,72,30529,5,0,3:0:0:0:
400,24,30703,1,2,0:0:0:0:
332,142,30877,1,8,0:0:0:0:
332,141,31226,6,0,P|323:178|315:215,1,75.5999976928712,2|2,3:3|0:0,0:0:0:0:
261,278,31575,1,8,0:0:0:0:
400,336,31749,6,0,B|363:317|326:335|326:335|303:367|261:366,1,151.199995385742,2|2,0:0|0:0,0:0:0:0:
160,256,32273,1,8,0:0:0:0:
80,384,32447,5,8,0:0:0:0:
80,384,32534,1,8,0:0:0:0:
78,383,32622,2,0,B|23:367|23:367|0:335|7:279|55:255,1,189.000007209778,4|0,3:1|2:0,0:0:0:0:
86,272,32970,2,0,L|159:255,1,75.5999976928712,10|0,0:0|0:0,0:0:0:0:
240,88,33319,5,2,0:0:0:0:
240,88,33494,1,0,3:0:0:0:
256,176,33668,2,0,L|182:159,1,75.5999976928712,10|2,0:0|0:0,0:0:0:0:
32,64,34017,6,0,L|105:47,1,75.5999976928712,4|0,3:2|3:0,0:0:0:0:
106,48,34279,1,0,3:0:0:0:
106,48,34366,1,8,0:0:0:0:
318,118,34540,6,0,B|440:92|440:92|404:86|387:65,1,184.800005639649,4|0,3:1|3:0,0:0:0:0:
476,188,35063,1,8,0:0:0:0:
472,208,35150,1,2,0:0:0:0:
467,228,35237,1,2,0:0:0:0:
463,249,35324,1,2,0:0:0:0:
462,273,35411,1,4,3:2:0:0:
462,273,35761,5,8,0:0:0:0:
512,384,35935,2,0,B|468:348|468:348|414:348|363:381,1,168,2|2,0:2|0:0,0:0:0:0:
256,176,36459,1,8,0:0:0:0:
104,307,36633,6,0,B|148:322|180:292|180:292|216:262|260:277,1,168,4|8,3:1|0:0,0:0:0:0:
260,277,37069,1,8,0:0:0:0:
260,277,37156,1,8,0:0:0:0:
352,160,37331,1,8,0:0:0:0:
192,32,37505,6,0,L|203:115,1,84,0|8,3:0|0:0,0:0:0:0:
203,115,37767,1,8,0:0:0:0:
203,115,37854,2,0,L|161:105,1,42,0|0,3:0|3:0,0:0:0:0:
96,215,38029,2,0,L|137:205,1,42,0|0,3:0|3:0,0:0:0:0:
33,80,38203,6,0,P|23:116|14:153,1,75.5999976928712,4|0,3:1|0:0,0:0:0:0:
133,294,38552,1,8,0:0:0:0:
2,352,38726,2,0,B|54:339|54:339|74:308|74:308|133:294,1,151.199995385742,10|0,0:0|3:0,0:0:0:0:
224,320,39249,2,0,L|234:245,1,75.5999976928712,8|0,0:0|0:0,0:0:0:0:
162,105,39598,6,0,L|151:179,1,75.5999976928712,2|0,3:2|3:0,0:0:0:0:
238,52,39947,1,8,0:0:0:0:
109,17,40122,2,0,P|165:64|237:52,1,151.199995385742,10|0,0:0|3:0,0:0:0:0:
353,25,40645,2,0,L|339:99,1,75.5999976928712,10|0,0:0|0:0,0:0:0:0:
338,99,40994,1,2,3:2:0:0:
480,288,41342,5,8,0:0:0:0:
416,224,41517,2,0,L|342:238,1,75.5999976928712,8|2,0:0|0:0,0:0:0:0:
162,105,41866,5,0,3:0:0:0:
213,173,42040,2,0,L|199:247,1,75.5999976928712,10|0,0:0|0:0,0:0:0:0:
288,378,42389,6,0,L|274:304,1,75.5999976928712,2|0,3:2|3:0,0:0:0:0:
341,238,42738,1,8,0:0:0:0:
195,354,42912,6,0,B|141:344|141:344|106:362|106:362|50:350,1,151.199995385742,8|0,0:0|3:0,0:0:0:0:
0,256,43435,2,0,L|15:182,1,75.5999976928712,8|2,0:0|0:0,0:0:0:0:
0,160,43697,1,2,0:0:0:0:
0,160,43784,6,0,B|44:160|75:174|75:174|100:165|125:146,1,134.4,4|0,3:1|3:0,0:0:0:0:
173,63,44308,1,2,0:0:0:0:
256,96,44482,1,0,3:0:0:0:
288,320,44831,6,0,L|354:307,1,67.2,12|2,0:1|0:0,0:0:0:0:
367,306,45092,1,0,0:0:0:0:
380,304,45180,1,4,3:2:0:0:
455,275,45354,1,2,0:0:0:0:
495,203,45529,1,0,3:2:0:0:
479,122,45703,1,2,0:0:0:0:
415,71,45878,1,0,3:0:0:0:
415,71,46226,2,0,L|348:83,1,67.2,12|2,0:2|0:0,0:0:0:0:
224,0,46575,5,0,3:0:0:0:
218,24,46662,1,2,0:0:0:0:
213,49,46749,1,2,0:0:0:0:
208,74,46836,1,2,0:0:0:0:
203,98,46923,1,14,0:1:0:0:
256,192,47098,1,2,0:0:0:0:
192,320,47273,5,0,3:0:0:0:
160,328,47360,1,2,0:0:0:0:
128,335,47447,1,2,0:0:0:0:
95,341,47534,1,2,0:0:0:0:
64,348,47621,1,14,0:1:0:0:
0,192,47796,2,0,L|33:195,1,33.6,2|2,0:2|0:0,0:0:0:0:
114,224,47970,6,0,P|53:234|11:280,2,126,4|0|0,3:2|3:0|3:0,0:0:0:0:
256,288,48668,2,0,L|338:270,1,84,10|0,0:1|0:0,0:0:0:0:
393,332,48930,2,0,P|414:296|414:254,1,84,8|0,0:0|2:0,0:0:0:0:
414,254,49191,1,0,3:0:0:0:
512,96,49366,6,0,B|457:114|422:73|422:73|384:29|330:46,1,201.6,14|0,0:1|3:0,0:0:0:0:
320,64,49947,2,0,L|324:85,2,22.4,0|0|14,3:0|3:0|0:1,0:0:0:0:
150,37,50238,1,8,0:0:0:0:
211,198,50412,1,8,3:2:0:0:
248,22,50587,1,14,0:1:0:0:
248,22,50935,5,8,0:0:0:0:
63,67,51110,1,8,0:0:0:0:
108,252,51284,1,8,0:0:0:0:
293,207,51459,1,0,3:0:0:0:
317,212,51546,1,0,3:0:0:0:
342,217,51633,1,0,3:0:0:0:
366,223,51720,1,0,3:0:0:0:
389,229,51808,6,0,B|446:277|428:351|360:364|360:364|337:354|315:345,1,226.799993078614,14|0,0:1|2:0,0:0:0:0:
288,320,52156,6,0,L|189:340,1,100.799996923828,4|2,3:1|0:2,0:0:0:0:
189,339,52418,1,0,0:0:0:0:
189,339,52505,1,8,0:0:0:0:
51,175,52680,1,2,0:0:0:0:
27,287,52854,2,0,P|72:265|121:257,1,100.799996923828,0|2,3:0|0:0,0:0:0:0:
203,129,53203,1,8,0:0:0:0:
317,212,53377,1,2,0:0:0:0:
480,60,53552,6,0,B|426:40|386:75|386:75|359:123|299:113,1,201.599993847656,2|8,3:1|0:0,0:0:0:0:
160,0,54075,1,2,0:0:0:0:
194,178,54249,1,0,3:0:0:0:
194,178,54424,2,0,L|202:128,1,50.3999984619141,8|0,0:0|0:0,0:0:0:0:
64,64,54598,2,0,L|55:113,1,50.3999984619141,8|0,0:0|0:0,0:0:0:0:
0,288,54773,6,0,B|97:264|80:364|184:339,1,201.599993847656,2|0,0:3|3:0,0:0:0:0:
330,260,55296,1,8,0:0:0:0:
330,260,55470,1,2,0:0:0:0:
202,128,55645,6,0,P|192:177|182:226,1,100.799996923828,0|2,3:0|0:0,0:0:0:0:
182,226,55906,1,2,0:0:0:0:
182,226,55994,1,8,0:0:0:0:
64,64,56168,1,2,0:0:0:0:
256,32,56342,6,0,B|292:11|330:36|330:36|354:75|403:67,1,163.799992501831,6|0,3:1|2:0,0:0:0:0:
480,0,56691,2,0,B|441:14|432:53|432:53|455:138,1,163.799992501831,14|0,0:1|2:0,0:0:0:0:
427,219,57040,1,6,3:1:0:0:
427,219,57215,2,0,L|373:208,1,54.5999975006105,8|0,0:0|0:0,0:0:0:0:
266,139,57389,2,0,L|320:128,1,54.5999975006105,8|0,0:0|0:0,0:0:0:0:
387,305,57563,5,8,0:0:0:0:
387,305,57651,1,8,0:0:0:0:
387,305,57738,2,0,P|333:316|280:328,1,109.199995001221,4|2,3:1|0:0,0:0:0:0:
84,258,58087,1,8,0:0:0:0:
157,384,58261,1,2,0:0:0:0:
210,227,58435,6,0,P|222:148|172:87,1,163.799992501831,2|0,3:1|2:0,0:0:0:0:
86,63,58784,2,0,B|193:72|162:-4|273:13,1,201.6,10|0,0:0|2:0,0:0:0:0:
352,64,59133,6,0,P|400:51|449:39,1,100.799996923828,2|2,3:1|0:0,0:0:0:0:
449,39,59395,1,2,0:0:0:0:
449,39,59482,1,8,0:0:0:0:
327,172,59656,1,2,0:0:0:0:
495,219,59831,6,0,P|501:169|509:119,1,100.799996923828,0|2,3:2|0:2,0:0:0:0:
393,249,60180,1,10,0:0:0:0:
480,352,60354,5,2,0:0:0:0:
480,352,60441,1,0,0:0:0:0:
480,352,60529,2,0,P|430:363|382:376,1,100.799996923828,4|2,3:1|0:2,0:0:0:0:
194,236,60877,1,8,0:0:0:0:
194,236,61052,1,2,0:1:0:0:
121,332,61226,5,0,3:1:0:0:
97,163,61401,1,2,3:1:0:0:
266,139,61575,1,8,0:2:0:0:
290,308,61749,1,6,3:1:0:0:
290,308,62098,5,2,0:0:0:0:
416,224,62273,2,0,P|422:174|429:124,1,100.799996923828,8|2,0:0|0:0,0:0:0:0:
429,124,62534,1,0,0:0:0:0:
429,124,62622,2,0,L|478:113,1,50.3999984619141,0|2,3:0|0:0,0:0:0:0:
352,32,62796,2,0,L|302:42,1,50.3999984619141,2|2,0:0|0:0,0:0:0:0:
224,160,62970,5,12,0:0:0:0:
183,178,63057,1,2,0:0:0:0:
138,177,63144,1,2,0:0:0:0:
98,156,63231,1,2,0:0:0:0:
71,120,63318,1,4,3:1:0:0:
71,120,63668,6,0,P|77:70|85:20,1,100.799996923828,10|0,0:1|0:0,0:0:0:0:
224,160,64017,1,0,3:0:0:0:
96,242,64191,6,0,P|71:246|46:249,1,50.3999984619141,8|0,0:1|0:0,0:0:0:0:
237,60,64366,2,0,P|230:110|223:159,1,100.799996923828,10|0,0:1|0:0,0:0:0:0:
279,318,64715,1,0,3:0:0:0:
279,318,65063,6,0,B|328:300|366:331|366:331|396:374|452:360,1,189.000007209778,10|0,0:1|2:0,0:0:0:0:
481,376,65412,2,0,L|500:276,1,100.799996923828,0|8,3:0|0:0,0:0:0:0:
381,109,65761,1,10,0:1:0:0:
381,109,65935,1,0,0:0:0:0:
512,192,66110,6,0,B|440:179|440:179|393:206|393:206|320:191,1,201.599993847656,2|8,3:2|0:0,0:0:0:0:
158,161,66633,1,2,0:0:0:0:
268,71,66808,1,0,3:0:0:0:
268,71,66982,1,2,0:0:0:0:
233,238,67156,2,0,P|185:252|137:267,1,100.799996923828,8|2,0:0|0:0,0:0:0:0:
137,267,67418,1,0,0:0:0:0:
137,267,67505,6,0,B|188:253|223:288|223:288|239:337|299:330,1,189.000007209778,6|0,3:1|2:0,0:0:0:0:
384,384,67854,2,0,B|335:371|328:323|328:323|342:278|358:227,1,189.000007209778,14|0,0:1|2:0,0:0:0:0:
416,160,68203,1,6,3:1:0:0:
416,160,68377,2,0,L|477:145,1,63.0000024032594,0|0,3:0|0:0,0:0:0:0:
320,0,68552,5,8,0:0:0:0:
281,14,68639,1,8,0:0:0:0:
257,48,68726,1,8,0:0:0:0:
256,89,68813,1,8,0:0:0:0:
277,124,68900,1,4,3:1:0:0:
277,124,69249,6,0,P|227:116|177:109,1,100.799996923828,10|0,0:1|0:0,0:0:0:0:
64,64,69598,1,0,3:0:0:0:
96,224,69773,2,0,P|100:199|105:174,1,50.3999984619141,8|0,0:0|0:0,0:0:0:0:
14,277,69947,2,0,B|119:256|90:347|201:318,1,201.599993847656,10|0,0:1|3:0,0:0:0:0:
320,64,70645,6,0,P|369:54|418:45,1,100.799996923828,10|0,0:1|0:0,0:0:0:0:
512,160,70994,1,2,3:2:0:0:
320,224,71168,2,0,P|315:199|310:175,1,50.3999984619141,8|0,0:0|0:0,0:0:0:0:
420,270,71342,2,0,P|409:319|400:368,1,100.799996923828,10|0,0:1|0:0,0:0:0:0:
400,368,71604,1,0,0:0:0:0:
400,368,71691,5,0,3:0:0:0:
320,224,71866,1,2,0:1:0:0:
195,333,72040,2,0,P|145:342|96:352,1,100.799996923828,12|2,0:0|0:0,0:0:0:0:
96,352,72302,1,0,0:0:0:0:
95,352,72389,1,0,3:0:0:0:
0,256,72563,2,0,P|49:246|99:237,1,100.799996923828,2|8,0:0|0:0,0:0:0:0:
185,41,72912,6,0,B|112:22|112:22|45:63|32:154,1,235.199992822266,14|8,0:1|0:0,0:0:0:0:
247,345,73435,1,8,0:0:0:0:
192,128,73610,1,0,3:0:0:0:
99,237,73784,5,0,3:0:0:0:
121,264,73871,1,0,3:0:0:0:
152,280,73958,1,0,3:0:0:0:
187,281,74045,1,0,3:0:0:0:
219,266,74133,2,0,B|272:250|310:288|310:288|333:337|395:328,1,201.6,12|0,0:0|2:0,0:0:0:0:
429,307,74482,6,0,P|436:261|450:217,1,92.4000028198243,4|2,3:2|0:0,0:0:0:0:
284,96,74831,2,0,P|297:140|305:185,1,92.4000028198243,10|2,0:1|0:0,0:0:0:0:
504,46,75180,2,0,B|416:64|432:-8|328:7,1,184.800005639649,2|8,3:2|0:0,0:0:0:0:
215,204,75703,2,0,P|259:193|305:185,1,92.4000028198243,2|0,0:0|3:0,0:0:0:0:
192,0,76052,5,2,0:0:0:0:
128,96,76226,2,0,P|82:104|37:114,1,92.4000028198243,8|2,0:0|0:0,0:0:0:0:
37,114,76488,1,2,0:0:0:0:
37,114,76575,2,0,P|27:159|19:204,1,92.4000028198243,2|2,3:1|0:0,0:0:0:0:
96,352,76924,2,0,B|144:335|190:326|190:326|223:349,1,138.600004229736,8|0,0:0|2:0,0:0:0:0:
242,367,77273,5,0,3:0:0:0:
305,185,77447,1,2,0:0:0:0:
305,185,77622,2,0,P|260:196|215:208,1,92.4000028198243,8|2,0:0|0:0,0:0:0:0:
128,0,77970,5,0,3:0:0:0:
150,26,78057,1,2,0:0:0:0:
180,42,78144,1,0,3:0:0:0:
214,46,78231,1,2,0:0:0:0:
247,37,78319,2,0,P|242:59|237:82,1,46.2000014099122,8|0,0:0|0:0,0:0:0:0:
305,185,78494,2,0,P|313:139|324:94,1,92.4000028198243,2|0,0:0|3:0,0:0:0:0:
384,352,78842,5,2,0:0:0:0:
288,288,79017,2,0,P|242:296|197:307,1,92.4000028198243,8|2,0:0|0:0,0:0:0:0:
32,256,79366,5,2,3:1:0:0:
32,256,79540,2,0,P|27:278|22:301,1,46.2000014099122,8|0,0:0|0:0,0:0:0:0:
160,224,79715,2,0,P|155:201|150:178,1,46.2000014099122,8|0,0:0|0:0,0:0:0:0:
13,19,79889,5,8,0:0:0:0:
3,36,79976,1,8,0:0:0:0:
0,56,80063,2,0,B|1:99|43:119|43:119|81:110|123:100,1,163.799992501831,6|0,3:1|2:0,0:0:0:0:
192,32,80412,2,0,P|236:44|280:57,1,92.4000028198243,10|0,0:0|0:0,0:0:0:0:
425,206,80761,2,0,P|488:143|475:55,1,184.800005639649,2|8,3:2|0:0,0:0:0:0:
305,185,81284,2,0,P|317:229|330:273,1,92.4000028198243,2|0,0:1|3:0,0:0:0:0:
192,384,81633,5,2,0:0:0:0:
125,321,81808,1,8,0:0:0:0:
31,355,81982,1,2,0:0:0:0:
31,355,82069,1,2,0:0:0:0:
31,355,82156,2,0,P|11:314|3:269,1,92.4000028198243,2|0,3:2|0:0,0:0:0:0:
182,200,82505,2,0,P|202:241|210:286,1,92.4000028198243,10|0,0:0|0:0,0:0:0:0:
74,178,82854,5,4,3:1:0:0:
74,178,82941,1,0,0:0:0:0:
74,178,83029,2,0,L|83:132,1,46.2000014099122,2|0,0:0|0:0,0:0:0:0:
191,59,83203,2,0,L|181:104,1,46.2000014099122,8|0,0:0|0:0,0:0:0:0:
55,19,83377,2,0,L|100:9,1,46.2000014099122,2|0,0:0|0:0,0:0:0:0:
288,128,83552,6,0,L|378:108,1,92.4000028198243,0|0,3:0|3:0,0:0:0:0:
378,108,83813,1,2,0:0:0:0:
378,108,83901,1,8,0:0:0:0:
256,288,84075,6,0,B|210:240|151:268|151:268|136:301|90:310,1,189.000007209778,12|0,0:1|2:0,0:0:0:0:
0,348,84424,2,0,P|54:277|33:188,1,189.000007209778,8|0,0:0|2:0,0:0:0:0:
31,186,84773,2,0,L|76:195,1,46.2000014099122,8|0,0:0|0:0,0:0:0:0:
224,224,84947,5,12,0:0:0:0:
262,210,85034,1,0,3:0:0:0:
287,177,85121,1,0,3:0:0:0:
290,136,85208,1,0,3:0:0:0:
271,100,85296,2,0,B|331:116|357:78|357:78|395:46|445:66,1,189.000007209778,8|0,0:0|2:0,0:0:0:0:
469,50,85645,5,4,3:1:0:0:
512,192,85819,1,8,0:0:0:0:
512,192,85994,2,0,P|478:186|445:182,1,67.2,0|0,3:0|0:0,0:0:0:0:
347,314,86342,5,0,3:0:0:0:
431,362,86517,2,0,P|464:356|497:352,1,67.2,2|0,0:0|3:0,0:0:0:0:
360,222,86866,5,12,0:0:0:0:
360,222,87215,1,12,0:0:0:0:
347,314,87389,2,0,P|313:318|280:325,1,67.2,0|0,3:0|0:0,0:0:0:0:
211,365,87738,2,0,P|175:309|189:245,1,134.4,0|0,3:0|0:0,0:0:0:0:
288,160,88261,5,0,3:0:0:0:
288,160,88348,1,0,3:0:0:0:
288,160,88435,1,12,0:2:0:0:
120,75,88610,1,12,0:0:0:0:
120,75,88784,2,0,L|134:9,1,67.2,0|0,3:0|0:0,0:0:0:0:
0,152,89133,6,0,P|65:152|116:195,1,134.4,0|0,3:0|3:0,0:0:0:0:
256,64,89656,1,12,0:1:0:0:
256,64,90005,2,0,L|268:129,1,67.2,12|0,0:1|3:0,0:0:0:0:
352,192,90354,2,0,B|428:173|428:173|476:201,1,134.4,2|0,0:0|3:0,0:0:0:0:
402,331,90877,2,0,L|414:265,1,67.2,8|0,0:0|3:0,0:0:0:0:
268,129,91226,5,12,0:0:0:0:
318,291,91401,1,12,0:0:0:0:
318,291,91575,2,0,P|263:254|198:265,1,134.4,2|2,3:2|3:2,0:0:0:0:
198,264,92098,1,0,0:0:0:0:
128,352,92273,1,2,3:2:0:0:
0,224,92447,5,12,0:1:0:0:
0,224,92796,1,12,0:1:0:0:
70,173,92970,2,0,L|135:188,1,67.2,2|2,0:0|0:0,0:0:0:0:
231,123,93319,2,0,P|166:132|135:188,1,134.4,2|0,3:2|3:0,0:0:0:0:
256,352,93842,5,2,0:0:0:0:
256,352,93930,1,0,0:0:0:0:
256,352,94017,1,4,3:2:0:0:
301,244,94191,1,0,0:0:0:0:
409,296,94366,2,0,L|473:278,1,67.2,0|0,3:2|0:0,0:0:0:0:
473,278,94627,1,0,0:0:0:0:
473,278,94715,2,0,P|487:248|487:214,1,67.2,0|2,3:0|0:0,0:0:0:0:
315,180,95063,2,0,P|300:209|300:243,1,67.2,0|2,3:0|0:0,0:0:0:0:
256,352,95412,6,0,B|216:362|192:330|192:330|164:296|121:310,1,151.199995385742,4|0,3:2|3:0,0:0:0:0:
121,310,96023,1,0,3:0:0:0:
121,310,96110,1,10,0:0:0:0:
7,202,96284,1,10,0:0:0:0:
7,202,96633,2,0,L|11:185,2,16.7999994873047,2|2|2,0:0|0:0|0:0,0:0:0:0:
0,224,96808,6,0,P|72:167|164:176,1,189.000007209778,6|0,3:1|2:0,0:0:0:0:
192,192,97156,2,0,L|274:174,1,84,10|0,0:0|0:0,0:0:0:0:
361,204,97505,1,2,3:2:0:0:
399,125,97680,2,0,L|381:42,1,84,0|8,3:0|0:0,0:0:0:0:
511,255,98029,6,0,B|461:234|417:266|417:266|394:314|331:308,1,201.599993847656,2|0,0:0|3:0,0:0:0:0:
192,192,98552,2,0,L|176:265,1,75.5999976928712,10|0,0:0|0:0,0:0:0:0:
32,160,98901,2,0,B|79:147|79:147|105:111|105:111|161:96,1,151.199995385742,2|10,0:0|0:0,0:0:0:0:
288,32,99424,5,2,0:0:0:0:
288,32,99511,1,2,0:0:0:0:
288,32,99598,2,0,L|362:42,1,75.5999976928712,0|2,3:0|0:0,0:0:0:0:
416,160,99947,2,0,L|341:149,1,75.5999976928712,10|2,0:0|0:0,0:0:0:0:
192,352,100296,5,0,3:0:0:0:
246,269,100470,1,2,0:0:0:0:
345,276,100645,2,0,L|355:350,1,75.5999976928712,10|2,0:0|0:0,0:0:0:0:
355,350,100906,1,2,0:0:0:0:
355,350,100994,6,0,P|390:338|428:339,1,75.5999976928712,2|2,3:0|0:0,0:0:0:0:
512,160,101342,1,10,0:0:0:0:
448,223,101517,2,0,P|374:224|323:171,1,151.199995385742,2|2,0:0|0:0,0:0:0:0:
276,84,102040,2,0,L|201:96,1,75.5999976928712,8|8,0:0|0:0,0:0:0:0:
201,96,102302,1,8,0:0:0:0:
201,96,102389,1,4,3:2:0:0:
36,299,102738,6,0,B|39:258|82:237|82:237|105:260|147:255,1,151.199995385742,10|2,0:0|0:0,0:0:0:0:
256,192,103261,1,0,3:0:0:0:
320,288,103435,2,0,L|298:360,1,75.5999976928712,10|0,0:0|0:0,0:0:0:0:
298,360,103697,1,2,0:0:0:0:
298,360,103784,2,0,P|334:350|371:344,1,75.5999976928712,4|0,3:2|3:0,0:0:0:0:
497,231,104133,5,8,0:0:0:0:
456,349,104308,2,0,B|445:296|445:296|421:277|421:277|405:212,1,151.199995385742,4|2,3:2|0:0,0:0:0:0:
512,96,104831,1,0,3:0:0:0:
481,105,104918,1,0,3:0:0:0:
450,103,105005,1,0,3:0:0:0:
422,90,105092,1,0,3:0:0:0:
399,68,105179,1,4,3:1:0:0:
399,68,105529,5,8,0:0:0:0:
306,0,105703,2,0,L|281:166,1,168,4|0,3:2|3:0,0:0:0:0:
405,212,106226,1,8,0:0:0:0:
288,352,106401,6,0,B|264:320|218:315|182:341|182:341|169:370|137:385|114:383,1,201.599993847656,4|8,3:1|0:0,0:0:0:0:
111,379,106837,1,8,0:0:0:0:
107,375,106924,2,0,L|98:333,1,42,8|0,0:0|0:0,0:0:0:0:
0,261,107098,2,0,L|8:302,1,42,8|0,0:0|0:0,0:0:0:0:
128,192,107273,6,0,L|210:208,1,84,0|8,3:0|0:0,0:0:0:0:
210,208,107534,1,8,0:0:0:0:
209,208,107622,2,0,L|250:200,2,42,0|0|0,3:0|3:0|3:0,0:0:0:0:
237,47,107970,6,0,L|311:62,1,75.5999976928712,4|0,3:2|3:0,0:0:0:0:
398,13,108319,1,8,0:0:0:0:
457,198,108494,2,0,P|395:156|320:154,1,151.199995385742,8|0,0:0|3:0,0:0:0:0:
248,289,109017,2,0,L|235:363,1,75.5999976928712,8|0,0:0|0:0,0:0:0:0:
108,259,109366,6,0,L|120:184,1,75.5999976928712,2|0,3:2|3:0,0:0:0:0:
206,124,109715,1,8,0:0:0:0:
70,94,109889,2,0,P|132:134|205:124,1,151.199995385742,8|0,0:0|3:0,0:0:0:0:
320,0,110412,2,0,L|308:74,1,75.5999976928712,8|0,0:0|0:0,0:0:0:0:
308,74,110761,1,2,3:2:0:0:
288,288,111110,5,8,0:0:0:0:
166,229,111284,2,0,L|240:217,1,75.5999976928712,8|2,0:0|0:0,0:0:0:0:
312,78,111633,5,0,3:0:0:0:
392,180,111808,2,0,L|317:168,1,75.5999976928712,10|0,0:0|0:0,0:0:0:0:
224,32,112156,5,2,3:2:0:0:
174,102,112331,1,0,3:0:0:0:
90,123,112505,1,8,0:0:0:0:
11,85,112680,2,0,L|36:234,1,151.199995385742,8|0,0:0|3:0,0:0:0:0:
160,288,113203,2,0,L|147:362,1,75.5999976928712,8|2,0:0|0:0,0:0:0:0:
147,362,113465,1,2,0:0:0:0:
147,362,113552,6,0,P|200:323|265:329,1,134.4,4|0,3:1|3:0,0:0:0:0:
350,362,114075,1,2,0:0:0:0:
404,289,114249,1,0,3:0:0:0:
404,289,114424,2,0,L|425:283,3,22.4,2|2|2|12,0:0|0:0|0:0|0:0,0:0:0:0:
490,171,114773,5,2,0:0:0:0:
490,171,114860,1,2,0:0:0:0:
490,171,114947,1,4,3:1:0:0:
406,192,115122,1,2,0:0:0:0:
325,160,115296,1,0,3:0:0:0:
278,86,115471,1,2,0:0:0:0:
284,0,115645,1,0,3:0:0:0:
284,0,115819,2,0,L|306:2,3,22.4,2|2|2|12,0:0|0:0|0:0|0:0,0:0:0:0:
278,86,116168,1,0,0:0:0:0:
128,176,116342,5,0,3:0:0:0:
103,171,116429,1,2,0:0:0:0:
78,167,116516,1,2,0:0:0:0:
53,163,116603,1,2,0:0:0:0:
28,159,116690,1,14,0:1:0:0:
102,52,116866,1,2,0:0:0:0:
208,131,117040,5,0,3:0:0:0:
219,169,117127,1,2,0:0:0:0:
216,208,117214,1,2,0:0:0:0:
196,243,117301,1,2,0:0:0:0:
164,266,117388,1,14,0:1:0:0:
128,384,117563,5,2,0:0:0:0:
128,384,117651,1,2,0:0:0:0:
128,384,117738,2,0,P|78:328|5:316,2,151.199995385742,0|0|0,3:2|3:0|3:2,0:0:0:0:
216,208,118435,6,0,P|256:178|305:177,1,100.799996923828,8|0,0:0|0:0,0:0:0:0:
352,96,118697,2,0,P|392:125|441:126,1,100.799996923828,8|0,0:0|0:0,0:0:0:0:
512,77,118959,1,0,3:0:0:0:
512,288,119133,6,0,B|458:270|421:310|421:310|386:353|329:338,1,201.6,12|0,0:1|3:0,0:0:0:0:
325,334,119715,2,0,L|320:355,2,22.4,0|0|14,3:0|3:0|0:1,0:0:0:0:
113,283,120005,1,8,0:0:0:0:
263,127,120180,1,8,0:0:0:0:
194,342,120354,1,14,0:1:0:0:
194,342,120703,5,0,3:0:0:0:
359,277,120877,1,8,0:0:0:0:
294,112,121052,1,8,0:0:0:0:
128,176,121226,1,0,3:0:0:0:
150,181,121313,1,0,3:0:0:0:
171,188,121400,1,0,3:0:0:0:
193,193,121487,1,0,3:0:0:0:
216,199,121575,6,0,B|232:168|265:146|314:153|314:153|325:188|366:208|404:202,1,226.799993078614,14|0,0:1|2:0,0:0:0:0:
448,192,121924,6,0,P|457:142|468:93,1,100.799996923828,4|2,3:2|0:0,0:0:0:0:
468,93,122185,1,2,0:0:0:0:
468,93,122273,1,8,0:0:0:0:
512,266,122447,1,0,0:0:0:0:
352,320,122622,6,0,B|296:302|260:291|260:291|238:304|212:317,1,151.199995385742,0|0,3:0|2:0,0:0:0:0:
167,341,122970,2,0,P|157:291|146:242,1,100.799996923828,8|2,0:0|0:0,0:0:0:0:
192,32,123319,6,0,B|90:8|112:96|2:71,1,201.599993847656,0|8,3:0|0:0,0:0:0:0:
165,131,123842,1,2,0:0:0:0:
32,256,124017,1,0,3:0:0:0:
32,256,124191,2,0,L|20:206,1,50.3999984619141,8|0,0:0|0:0,0:0:0:0:
178,291,124366,2,0,L|166:340,1,50.3999984619141,8|0,0:0|0:0,0:0:0:0:
256,192,124540,6,0,B|307:168|357:164|357:164|388:201|438:211,1,201.599993847656,2|0,3:0|0:0,0:0:0:0:
469,213,124976,1,2,0:0:0:0:
494,196,125063,2,0,P|484:146|475:96,1,100.799996923828,8|2,0:0|0:0,0:0:0:0:
329,253,125412,6,0,P|319:302|310:352,1,100.799996923828,0|2,3:0|0:0,0:0:0:0:
310,352,125674,1,2,0:0:0:0:
310,352,125761,1,8,0:0:0:0:
438,211,125935,1,2,0:0:0:0:
276,93,126110,6,0,B|176:106|200:31|100:44,1,189.000007209778,6|0,3:1|2:0,0:0:0:0:
16,16,126459,2,0,B|72:30|88:88|88:88|77:126|64:166,1,189.000007209778,14|0,0:1|2:0,0:0:0:0:
96,256,126808,1,6,3:1:0:0:
96,256,126982,2,0,L|34:270,1,63.0000024032594,8|0,0:0|0:0,0:0:0:0:
150,362,127156,2,0,L|211:347,1,63.0000024032594,8|0,0:0|0:0,0:0:0:0:
288,224,127331,5,8,0:0:0:0:
288,224,127418,1,8,0:0:0:0:
288,224,127505,2,0,B|299:179|299:179|286:146|286:146|296:103,1,126.000004806519,6|2,3:1|0:0,0:0:0:0:
296,103,127767,1,0,0:0:0:0:
296,103,127854,1,8,0:0:0:0:
479,71,128029,1,2,0:0:0:0:
512,293,128203,6,0,B|453:279|453:279|408:299|408:299|355:287,1,163.799992501831,2|0,3:1|2:0,0:0:0:0:
240,338,128552,2,0,B|257:356|286:364|327:341|348:285|287:222,1,201.6,10|0,0:1|2:0,0:0:0:0:
224,160,128901,2,0,P|179:181|129:181,1,100.799996923828,0|2,3:0|0:0,0:0:0:0:
129,181,129162,1,0,0:0:0:0:
129,181,129249,1,8,0:0:0:0:
64,96,129424,1,2,0:0:0:0:
0,256,129598,6,0,B|2:306|49:322|49:322|105:305|157:289,1,201.599993847656,0|8,3:0|0:0,0:0:0:0:
288,352,130122,2,0,P|297:302|305:252,1,100.799996923828,2|4,0:0|3:1,0:0:0:0:
192,160,130470,1,2,0:1:0:0:
344,65,130645,6,0,P|393:72|443:82,1,100.799996923828,8|2,0:1|0:1,0:0:0:0:
443,82,130906,1,0,0:0:0:0:
443,82,130994,1,0,3:1:0:0:
410,270,131168,1,2,0:1:0:0:
222,237,131342,1,8,0:0:0:0:
255,49,131517,1,6,3:1:0:0:
255,49,131866,5,2,0:0:0:0:
120,3,132040,2,0,P|109:52|101:102,1,100.799996923828,8|2,0:0|0:0,0:0:0:0:
101,102,132302,1,0,0:0:0:0:
101,102,132389,2,0,L|51:111,1,50.3999984619141,0|2,3:0|0:0,0:0:0:0:
0,256,132563,2,0,L|49:246,1,50.3999984619141,2|2,0:0|0:0,0:0:0:0:
192,320,132738,5,14,0:0:0:0:
226,305,132825,1,2,0:0:0:0:
249,276,132912,1,2,0:0:0:0:
254,239,132999,1,2,0:0:0:0:
242,205,133086,1,4,3:1:0:0:
242,205,133435,6,0,P|291:216|340:225,1,100.799996923828,10|0,0:1|0:0,0:0:0:0:
473,124,133784,1,0,3:0:0:0:
354,79,133959,2,0,P|358:103|364:128,1,50.3999984619141,8|0,0:0|0:0,0:0:0:0:
416,320,134133,2,0,P|366:329|317:340,1,100.799996923828,10|0,0:1|0:0,0:0:0:0:
199,119,134482,1,0,3:0:0:0:
199,119,134831,6,0,B|148:113|119:153|119:153|90:197|33:186,1,189.000007209778,10|0,0:1|2:0,0:0:0:0:
7,179,135180,2,0,P|18:227|26:277,1,100.799996923828,0|8,3:0|0:0,0:0:0:0:
26,278,135441,1,0,0:0:0:0:
26,278,135529,2,0,P|75:276|121:296,1,100.799996923828,10|0,0:1|0:0,0:0:0:0:
288,384,135877,6,0,P|386:364|485:345,1,201.599993847656,2|8,3:2|0:0,0:0:0:0:
485,345,136401,1,2,0:0:0:0:
361,273,136575,1,0,3:0:0:0:
361,273,136749,1,2,0:0:0:0:
479,224,136924,2,0,P|498:177|490:128,1,100.799996923828,8|2,0:0|0:0,0:0:0:0:
506,89,137185,5,0,0:0:0:0:
506,89,137273,2,0,B|458:73|419:102|419:102|414:113|414:113|379:137|332:125,1,189.000007209778,6|0,3:1|2:0,0:0:0:0:
270,63,137622,2,0,P|295:149|232:212,1,189.000007209778,14|0,0:1|2:0,0:0:0:0:
145,203,137970,1,6,3:1:0:0:
145,203,138145,2,0,L|155:265,1,63.0000024032594,0|0,3:0|0:0,0:0:0:0:
256,384,138319,5,8,0:0:0:0:
291,374,138406,1,8,0:0:0:0:
317,347,138493,1,8,0:0:0:0:
326,311,138580,1,8,0:0:0:0:
316,274,138667,1,4,3:1:0:0:
316,274,139017,6,0,P|365:284|414:296,1,100.799996923828,10|0,0:1|0:0,0:0:0:0:
504,206,139366,1,0,3:0:0:0:
381,135,139540,6,0,P|386:159|392:184,1,50.3999984619141,8|0,0:1|0:0,0:0:0:0:
480,32,139715,2,0,B|381:19|401:104|294:90,1,201.599993847656,10|0,0:1|3:0,0:0:0:0:
32,32,140412,6,0,P|20:80|15:131,1,100.799996923828,10|0,0:1|0:0,0:0:0:0:
128,192,140761,1,0,3:0:0:0:
0,288,140935,6,0,L|49:276,1,50.3999984619141,8|0,0:1|0:0,0:0:0:0:
128,192,141110,2,0,L|226:214,1,100.799996923828,10|0,0:1|0:0,0:0:0:0:
288,384,141459,5,0,3:0:0:0:
356,302,141633,1,2,0:0:0:0:
471,334,141808,2,0,P|485:286|485:236,1,100.799996923828,12|0,0:0|0:0,0:0:0:0:
485,236,142069,1,0,0:0:0:0:
485,236,142156,1,0,3:0:0:0:
367,118,142331,2,0,P|352:166|352:216,1,100.799996923828,2|8,0:0|0:0,0:0:0:0:
512,70,142680,6,0,B|389:94|417:-17|278:10,1,252.000009613037,14|8,0:1|0:0,0:0:0:0:
216,184,143203,1,8,0:0:0:0:
66,63,143377,1,8,0:0:0:0:
0,256,143552,5,0,3:0:0:0:
21,278,143639,1,2,0:0:0:0:
50,291,143726,1,2,0:0:0:0:
81,293,143813,1,2,0:0:0:0:
111,284,143901,6,0,L|119:247,6,37.7999988464356,8|0|2|0|2|0|2,0:0|0:0|0:0|0:0|0:0|0:0|0:0,0:0:0:0:
160,352,144249,6,0,B|222:336|222:336|269:357|269:357|337:340,1,184.800005639649,6|8,3:1|0:0,0:0:0:0:
423,204,144773,2,0,P|334:194|279:263,1,184.800005639649,2|0,0:2|3:1,0:0:0:0:
163,143,145296,2,0,L|182:52,1,92.4000028198243,8|0,0:0|0:0,0:0:0:0:
182,52,145558,1,0,0:0:0:0:
182,52,145645,2,0,P|224:68|269:62,1,92.4000028198243,2|0,0:0|3:0,0:0:0:0:
416,0,145994,1,10,0:1:0:0:
403,197,146168,6,0,L|391:152,1,46.2000014099122,0|0,3:0|0:0,0:0:0:0:
480,64,146342,2,0,B|496:94|496:94|480:150,1,92.4000028198243,2|0,0:1|3:0,0:0:0:0:
512,288,146691,6,0,P|444:282|390:323,1,138.600004229736,10|0,0:1|2:0,0:0:0:0:
384,352,147040,2,0,P|338:341|293:334,1,92.4000028198243,2|0,3:1|0:0,0:0:0:0:
192,160,147389,5,8,0:1:0:0:
137,248,147563,2,0,P|226:252|290:190,1,184.800005639649,2|2,0:1|0:0,0:0:0:0:
297,14,148087,5,8,0:0:0:0:
440,64,148261,2,0,B|353:53|363:122|265:102,1,184.800005639649,2|0,0:1|3:1,0:0:0:0:
149,15,148784,1,8,0:0:0:0:
32,96,148959,1,2,0:0:0:0:
32,96,149046,1,2,0:0:0:0:
32,96,149133,2,0,P|38:118|43:140,2,46.2000014099122,2|0|0,3:1|0:0|3:0,0:0:0:0:
173,166,149482,1,10,0:0:0:0:
128,330,149656,5,8,0:0:0:0:
128,330,149744,1,8,0:0:0:0:
128,330,149831,2,0,B|79:344|79:344|61:365|61:365|4:383,1,138.600004229736,4|0,3:1|2:0,0:0:0:0:
5,384,150180,1,8,0:0:0:0:
57,229,150354,2,0,P|147:246|238:262,1,184.800005639649,2|0,0:1|3:1,0:0:0:0:
434,35,150877,2,0,B|390:27|361:60|361:60|348:91|312:107|269:96,1,189.000007209778,12|0,0:0|2:0,0:0:0:0:
195,37,151226,5,0,3:0:0:0:
195,37,151313,1,0,0:0:0:0:
195,37,151401,2,0,L|180:128,1,92.4000028198243,2|8,0:1|0:0,0:0:0:0:
128,192,151662,2,0,L|142:283,1,92.4000028198243,2|0,0:1|3:0,0:0:0:0:
101,363,151924,6,0,L|40:350,2,61.6000018798829,2|0|0,0:1|3:0|3:0,0:0:0:0:
142,283,152273,2,0,L|203:270,2,61.6000018798829,10|0|0,0:1|3:0|3:0,0:0:0:0:
277,335,152622,6,0,B|297:273|297:273|277:218|277:218|296:159,1,184.800005639649,4|10,3:2|0:0,0:0:0:0:
388,86,153145,2,0,P|432:73|477:61,1,92.4000028198243,2|0,0:1|3:0,0:0:0:0:
398,187,153494,5,2,0:1:0:0:
296,69,153668,1,8,0:0:0:0:
147,234,153842,6,0,B|-1:202|-1:202|36:195|57:171,1,218.399990002442,6|8,3:1|0:0,0:0:0:0:
211,106,154366,1,8,0:0:0:0:
93,38,154540,1,8,0:0:0:0:
147,234,154715,5,0,3:0:0:0:
142,255,154802,1,2,0:0:0:0:
137,276,154889,1,2,0:0:0:0:
132,297,154976,1,2,0:0:0:0:
127,319,155063,2,0,B|157:289|202:294|226:323|226:323|234:356|271:380|319:369,1,226.799993078614,14|0,0:1|2:0,0:0:0:0:
334,378,155412,6,0,L|346:311,1,67.2,4|0,3:2|0:0,0:0:0:0:
423,271,155761,1,0,3:0:0:0:
398,187,155935,2,0,B|326:215|274:161,1,134.4,2|2,0:2|0:0,0:0:0:0:
224,96,156459,2,0,L|159:113,1,67.2,0|2,3:0|0:0,0:0:0:0:
38,3,156808,6,0,P|57:31|64:64,1,67.2,0|2,3:0|0:0,0:0:0:0:
0,155,157156,1,0,3:0:0:0:
102,220,157331,1,2,0:2:0:0:
102,220,157418,1,2,0:0:0:0:
102,220,157505,2,0,L|166:202,1,67.2,8|4,0:3|0:3,0:0:0:0:
224,96,157854,1,8,0:0:0:0:
224,96,158029,1,2,0:0:0:0:
320,159,158203,6,0,P|312:192|305:225,1,67.2,0|2,3:0|0:0,0:0:0:0:
239,289,158552,1,0,3:0:0:0:
238,289,158726,2,0,P|304:286|358:324,1,134.4,2|2,0:0|0:0,0:0:0:0:
445,370,159249,2,0,P|451:337|459:304,1,67.2,8|4,0:3|0:3,0:0:0:0:
415,171,159598,6,0,P|407:203|400:236,1,67.2,0|2,3:0|0:0,0:0:0:0:
320,159,159947,1,0,3:0:0:0:
421,79,160122,2,0,P|437:82|453:86,2,33.6,2|2|8,0:2|0:0|0:3,0:0:0:0:
320,0,160470,1,0,3:0:0:0:
256,96,160645,2,0,P|223:89|190:80,1,67.2,8|2,0:0|0:0,0:0:0:0:
96,46,160994,6,0,L|122:177,1,134.4,4|0,3:1|3:0,0:0:0:0:
122,177,161517,1,2,0:0:0:0:
81,256,161691,2,0,L|15:240,1,67.2,0|2,3:1|0:0,0:0:0:0:
0,320,162040,2,0,L|65:335,1,67.2,0|2,3:1|0:0,0:0:0:0:
191,358,162389,6,0,P|257:351|301:302,1,134.4,0|0,3:0|3:0,0:0:0:0:
229,206,162912,1,2,0:0:0:0:
229,206,162999,1,2,0:0:0:0:
229,206,163087,2,0,L|217:272,1,67.2,0|2,3:1|0:0,0:0:0:0:
149,128,163435,1,8,0:0:0:0:
149,128,163784,6,0,B|192:111|192:111|210:84|210:84|262:64,1,134.4,4|0,3:1|3:0,0:0:0:0:
330,8,164308,1,2,0:0:0:0:
330,8,164395,1,2,0:0:0:0:
330,8,164482,1,0,3:0:0:0:
393,90,164656,1,2,0:0:0:0:
492,47,164831,1,8,0:0:0:0:
492,47,165180,6,0,B|479:122|479:122|485:131|485:131|470:210,1,168,4|8,3:1|0:0,0:0:0:0:
430,321,165703,1,2,0:0:0:0:
430,321,165790,1,2,0:0:0:0:
430,321,165877,2,0,L|512:304,1,84,0|0,3:0|3:0,0:0:0:0:
381,225,166226,1,8,0:0:0:0:
256,352,166401,6,0,B|235:279|235:279|256:230|256:230|236:160,1,201.599993847656,4|0,3:1|3:0,0:0:0:0:
289,46,166924,2,0,L|206:32,1,84,8|2,0:0|0:0,0:0:0:0:
206,32,167185,1,2,0:0:0:0:
206,32,167273,1,0,3:0:0:0:
138,112,167447,1,0,3:0:0:0:
35,92,167622,1,8,0:0:0:0:
0,256,167796,6,0,P|1:298|18:336,1,84,6|0,3:2|0:0,0:0:0:0:
131,304,168145,2,0,P|130:262|113:224,1,84,0|8,3:0|0:0,0:0:0:0:
319,63,168494,6,0,P|318:105|301:143,1,84,2|0,0:0|0:0,0:0:0:0:
188,111,168843,2,0,P|189:69|206:31,1,84,0|8,3:0|0:0,0:0:0:0:
462,177,169191,6,0,B|358:159|391:254|281:238,1,201.599993847656,6|0,3:1|3:0,0:0:0:0:
196,119,169715,2,0,L|115:140,1,84,10|0,0:0|0:0,0:0:0:0:
114,139,169976,1,0,0:0:0:0:
114,139,170063,2,0,P|131:177|129:218,1,84,2|0,3:2|3:0,0:0:0:0:
193,286,170412,1,8,0:0:0:0:
128,384,170587,6,0,L|292:348,1,168,4|0,3:2|3:0,0:0:0:0:
320,192,171110,1,8,0:0:0:0:
476,286,171284,6,0,L|482:259,2,28,0|0|0,3:0|3:0|3:0,0:0:0:0:
483,302,171459,2,0,B|414:328|370:273,2,126,8|8|0,0:0|0:0|3:0,0:0:0:0:
320,192,172156,6,0,B|259:206|259:206|251:212|251:212|175:230,1,151.199995385742,12|0,0:1|2:0,0:0:0:0:
174,230,172505,1,8,0:0:0:0:
64,160,172680,1,2,3:3:0:0:
26,288,172854,2,0,B|127:272|108:355|214:335,1,201.599993847656,8|8,0:0|0:0,0:0:0:0:
412,159,173377,5,0,3:0:0:0:
412,159,173465,1,0,3:0:0:0:
412,159,173552,1,12,0:1:0:0:
303,288,173726,1,0,3:0:0:0:
246,130,173901,1,0,3:0:0:0:
394,254,174075,5,8,0:0:0:0:
337,96,174250,1,0,3:0:0:0:
228,225,174424,1,0,3:0:0:0:
320,192,174598,1,8,0:0:0:0:
96,32,174947,6,0,L|75:130,1,100.799996923828,8|0,0:0|3:0,0:0:0:0:
0,256,175296,2,0,B|79:244|58:305|140:291,1,151.199995385742,8|0,0:0|2:0,0:0:0:0:
140,291,175645,1,0,3:0:0:0:
256,192,175819,6,0,L|237:92,1,100.799996923828,8|0,0:0|3:0,0:0:0:0:
384,0,176168,2,0,L|402:99,1,100.799996923828,12|0,0:1|3:0,0:0:0:0:
512,288,176517,5,2,0:0:0:0:
413,264,176691,1,2,3:2:0:0:
343,338,176866,1,2,0:0:0:0:
256,192,177040,5,0,3:0:0:0:
251,167,177127,1,0,3:0:0:0:
246,142,177214,1,0,3:0:0:0:
241,117,177301,1,0,3:0:0:0:
237,92,177389,6,0,B|174:65|125:118|125:118|80:176|11:152,1,252.000009613037,14|4,0:0|3:1,0:0:0:0:
256,192,183319,6,0,B|315:181|315:181|356:207|356:207|414:193,1,168,4|2,3:1|0:0,0:0:0:0:
413,193,184715,2,0,B|350:175|306:221|306:221|265:268|199:250,1,235.199992822266,4|2,3:1|0:0,0:0:0:0:
0,32,186110,6,0,P|83:15|149:69,1,176.399994616699,4|0,3:2|0:0,0:0:0:0:
236,89,186808,2,0,B|192:69|142:89|118:137|118:137|127:171|113:211|75:228,1,252,4|0,3:2|0:0,0:0:0:0:
47,371,187505,6,0,B|48:295|-41:327|-55:213|35:182|74:228|74:228|128:202|183:260|145:337|77:324,1,453.599986157227,4|0,3:1|0:0,0:0:0:0:
77,324,188901,6,0,B|117:297|163:322|163:322|185:355|226:346,1,163.799992501831,2|0,3:2|2:0,0:0:0:0:
314,376,189249,2,0,B|301:306|301:306|295:301|295:301|279:217,1,163.799992501831,2|0,3:2|2:0,0:0:0:0:
352,160,189598,1,2,3:2:0:0:
352,160,189773,1,0,3:0:0:0:
256,32,189947,6,0,B|221:15|187:27|166:56|166:56|159:83|131:109|87:103,1,201.6,8|0,0:0|2:0,0:0:0:0:
14,76,190296,6,0,P|36:121|39:171,1,100.799996923828,4|2,3:1|0:0,0:0:0:0:
38,171,190558,1,2,0:0:0:0:
38,171,190645,1,8,0:0:0:0:
174,245,190819,1,2,0:0:0:0:
33,384,190994,2,0,P|25:334|14:285,1,100.799996923828,0|2,3:0|0:0,0:0:0:0:
132,175,191342,1,8,0:0:0:0:
132,175,191517,1,2,0:0:0:0:
256,320,191691,6,0,B|398:287|398:287|365:280|349:262,1,201.599993847656,2|8,3:1|0:0,0:0:0:0:
263,132,192215,1,2,0:0:0:0:
416,32,192389,1,0,3:0:0:0:
416,32,192563,2,0,L|403:81,1,50.3999984619141,8|0,0:0|0:0,0:0:0:0:
453,208,192738,2,0,L|466:159,1,50.3999984619141,8|0,0:0|0:0,0:0:0:0:
290,45,192912,6,0,B|231:31|196:71|196:71|177:121|117:115,1,201.599993847656,2|0,3:0|3:0,0:0:0:0:
97,107,193348,1,0,3:0:0:0:
77,102,193435,2,0,P|64:53|53:4,1,100.799996923828,8|0,0:0|0:0,0:0:0:0:
0,256,193784,6,0,P|49:269|98:280,1,100.799996923828,0|2,3:0|0:0,0:0:0:0:
97,279,194046,1,2,0:0:0:0:
97,279,194133,1,8,0:0:0:0:
203,172,194308,1,2,0:0:0:0:
282,361,194482,6,0,P|357:307|448:319,1,189.000007209778,6|0,3:1|2:0,0:0:0:0:
398,384,194831,2,0,P|343:311|364:222,1,189.000007209778,14|0,0:1|2:0,0:0:0:0:
438,165,195180,1,4,3:1:0:0:
438,165,195354,2,0,L|499:179,1,63.0000024032594,8|0,0:0|0:0,0:0:0:0:
401,71,195529,2,0,L|340:57,1,63.0000024032594,8|0,0:0|0:0,0:0:0:0:
192,32,195703,5,8,0:0:0:0:
192,32,195790,1,8,0:0:0:0:
192,32,195877,2,0,L|210:131,1,100.799996923828,4|2,3:1|0:0,0:0:0:0:
64,256,196226,1,8,0:0:0:0:
32,128,196401,1,2,0:0:0:0:
14,343,196575,6,0,P|77:294|157:299,1,163.799992501831,2|0,3:1|2:0,0:0:0:0:
213,361,196924,2,0,B|195:287|195:287|217:241|217:241|201:168,1,201.6,10|0,0:2|2:0,0:0:0:0:
165,82,197273,6,0,P|214:92|263:103,1,100.799996923828,0|2,3:0|0:0,0:0:0:0:
263,103,197534,1,2,0:0:0:0:
263,103,197622,1,8,0:0:0:0:
384,0,197796,1,2,0:0:0:0:
489,158,197970,2,0,P|391:156|320:224,1,201.599993847656,0|8,3:0|0:0,0:0:0:0:
160,384,198494,5,2,0:0:0:0:
160,384,198581,1,0,0:0:0:0:
160,383,198668,2,0,P|147:334|134:286,1,100.799996923828,4|2,3:1|0:0,0:0:0:0:
210,131,199017,1,8,0:2:0:0:
210,131,199191,1,2,0:1:0:0:
316,76,199366,5,0,3:2:0:0:
263,237,199540,1,2,0:1:0:0:
101,184,199715,1,8,0:2:0:0:
155,22,199889,2,0,L|57:46,1,100.799996923828,4|0,3:1|0:0,0:0:0:0:
101,184,200238,5,8,0:0:0:0:
210,131,200412,1,8,0:0:0:0:
263,237,200587,1,8,0:0:0:0:
372,184,200761,5,0,3:0:0:0:
375,159,200848,1,8,0:0:0:0:
379,134,200935,1,8,0:0:0:0:
383,109,201022,1,8,0:0:0:0:
387,84,201110,5,12,0:2:0:0:
345,96,201197,1,2,0:0:0:0:
301,90,201284,1,2,0:0:0:0:
264,67,201371,1,2,0:0:0:0:
240,30,201458,1,4,3:1:0:0:
240,30,201808,6,0,P|192:44|143:58,1,100.799996923828,10|0,0:1|0:0,0:0:0:0:
96,224,202156,1,0,3:1:0:0:
0,160,202331,6,0,P|24:153|48:146,1,50.3999984619141,8|0,0:1|0:0,0:0:0:0:
192,192,202505,2,0,P|178:240|164:288,1,100.799996923828,10|0,0:1|0:0,0:0:0:0:
320,352,202854,1,2,3:2:0:0:
320,352,203203,6,0,B|372:367|426:381|426:381|466:363|470:319,1,189.000007209778,10|0,0:1|2:0,0:0:0:0:
457,303,203552,2,0,P|445:253|435:204,1,100.799996923828,0|8,3:0|0:0,0:0:0:0:
512,96,203901,1,10,0:1:0:0:
512,96,204075,1,0,0:0:0:0:
320,160,204249,6,0,B|211:182|241:92|132:116,1,201.599993847656,2|8,3:2|0:0,0:0:0:0:
0,224,204773,1,2,0:0:0:0:
32,64,204947,1,0,3:0:0:0:
32,64,205122,1,2,0:0:0:0:
169,198,205296,2,0,P|159:247|150:297,1,100.799996923828,8|2,0:0|0:0,0:0:0:0:
150,298,205558,1,0,0:0:0:0:
150,298,205645,6,0,B|185:277|226:286|246:311|246:311|252:338|275:360|308:360,1,189.000007209778,6|0,3:1|2:0,0:0:0:0:
383,384,205994,2,0,P|443:315|417:228,1,189.000007209778,14|0,0:1|2:0,0:0:0:0:
316,156,206342,1,6,3:1:0:0:
320,160,206517,2,0,L|304:221,1,63.0000024032594,8|0,0:0|0:0,0:0:0:0:
111,380,206691,5,8,0:0:0:0:
81,357,206778,1,8,0:0:0:0:
61,328,206865,1,8,0:0:0:0:
53,293,206952,1,8,0:0:0:0:
58,257,207039,1,4,3:1:0:0:
58,257,207389,6,0,P|107:245|156:234,1,100.799996923828,10|0,0:1|0:1,0:0:0:0:
100,110,207738,1,0,3:0:0:0:
100,110,207912,2,0,P|94:134|88:159,1,50.3999984619141,8|0,0:1|0:1,0:0:0:0:
237,287,208087,6,0,P|248:237|259:188,1,100.799996923828,10|0,0:1|0:1,0:0:0:0:
304,35,208435,1,0,3:0:0:0:
304,35,208784,6,0,L|403:16,1,100.799996923828,10|0,0:1|0:1,0:0:0:0:
448,128,209133,1,2,3:2:0:0:
448,128,209308,2,0,L|398:118,1,50.3999984619141,8|0,0:0|0:0,0:0:0:0:
259,188,209482,2,0,L|277:287,1,100.799996923828,10|0,0:1|0:0,0:0:0:0:
277,287,209744,1,0,0:0:0:0:
277,287,209831,5,0,3:0:0:0:
384,384,210005,2,0,B|410:344|410:344|395:292,1,100.799996923828,2|12,0:0|0:0,0:0:0:0:
259,188,210354,5,0,0:0:0:0:
259,188,210441,1,0,0:0:0:0:
259,188,210529,2,0,L|209:198,1,50.3999984619141,0|0,3:0|0:0,0:0:0:0:
160,320,210703,2,0,L|61:340,1,100.799996923828,2|8,0:0|0:0,0:0:0:0:
24,105,211052,6,0,P|137:108|209:196,1,235.199992822266,14|8,0:1|0:0,0:0:0:0:
256,384,211575,1,8,0:0:0:0:
208,197,211749,1,8,0:0:0:0:
320,320,211924,5,0,3:0:0:0:
348,312,212011,1,0,3:0:0:0:
376,305,212098,1,0,3:0:0:0:
405,297,212185,1,0,3:0:0:0:
436,291,212273,2,0,B|479:318|479:318|531:302|561:244|517:172,1,226.799993078614,12|0,0:1|2:0,0:0:0:0:
512,160,212622,6,0,B|436:171|451:114|369:126,1,151.199995385742,4|0,3:1|2:0,0:0:0:0:
369,126,212970,1,8,0:0:0:0:
208,197,213145,2,0,B|283:176|283:176|254:56,1,201.599993847656,6|0,3:1|3:0,0:0:0:0:
128,0,213668,2,0,P|103:42|108:92,1,100.799996923828,8|0,0:0|0:0,0:0:0:0:
108,92,213930,1,0,0:0:0:0:
108,92,214017,6,0,L|9:111,1,100.799996923828,6|0,3:1|3:0,0:0:0:0:
208,197,214366,1,8,0:0:0:0:
80,372,214540,6,0,B|25:354|25:354|-5:282|58:225,1,201.599993847656,6|8,3:1|0:0,0:0:0:0:
63,230,214976,1,0,0:0:0:0:
67,234,215063,2,0,L|116:244,1,50.3999984619141,0|0,3:0|0:0,0:0:0:0:
179,112,215238,2,0,L|129:122,1,50.3999984619141,8|0,0:0|0:0,0:0:0:0:
288,320,215412,6,0,L|316:223,1,100.799996923828,2|8,3:1|0:0,0:0:0:0:
316,223,215674,1,8,0:0:0:0:
316,223,215761,2,0,P|361:243|410:234,1,100.799996923828,0|8,3:0|0:0,0:0:0:0:
433,211,216023,1,8,0:0:0:0:
433,211,216110,2,0,L|482:202,1,50.3999984619141,10|0,0:1|0:0,0:0:0:0:
378,101,216284,2,0,L|369:150,1,50.3999984619141,8|0,0:0|0:0,0:0:0:0:
216,246,216459,2,0,L|207:196,1,50.3999984619141,8|0,0:0|0:0,0:0:0:0:
175,16,216633,5,14,0:1:0:0:
175,16,218203,6,0,B|199:-12|258:-15|300:55|252:111|192:84|197:160|197:160|155:92|120:147|39:115|50:41|88:6|138:24,1,503.999984619141,2|0,0:2|0:0,0:0:0:0:
150,231,220296,5,2,3:2:0:0:
185,248,220383,1,2,0:0:0:0:
224,247,220470,1,2,0:0:0:0:
258,227,220557,1,2,0:0:0:0:
278,193,220644,1,8,0:0:0:0:
298,158,220732,1,2,0:0:0:0:
332,138,220819,1,2,0:0:0:0:
371,137,220906,1,2,0:0:0:0:
406,155,220994,1,4,3:1:0:0:
406,155,221342,6,0,P|393:199|386:244,1,92.4000028198243,10|0,0:1|0:0,0:0:0:0:
428,331,221604,1,0,0:0:0:0:
428,331,221691,2,0,P|357:274|267:276,1,184.800005639649,2|8,3:2|0:0,0:0:0:0:
160,352,222215,6,0,P|150:306|140:261,1,92.4000028198243,2|0,0:0|3:0,0:0:0:0:
202,178,222563,1,2,0:0:0:0:
58,30,222738,2,0,P|47:75|43:121,1,92.4000028198243,8|2,0:0|0:0,0:0:0:0:
43,120,222999,1,0,0:0:0:0:
43,120,223087,2,0,L|133:102,1,92.4000028198243,2|2,3:1|0:0,0:0:0:0:
234,17,223435,1,8,0:0:0:0:
313,104,223610,1,2,0:0:0:0:
431,66,223784,5,2,3:2:0:0:
431,66,223959,2,0,L|443:110,1,46.2000014099122,2|0,0:1|0:0,0:0:0:0:
480,224,224133,2,0,P|438:205|392:209,1,92.4000028198243,8|2,0:0|0:1,0:0:0:0:
288,320,224482,1,0,3:0:0:0:
255,331,224569,1,2,0:0:0:0:
221,331,224656,1,0,3:0:0:0:
189,318,224743,1,2,0:0:0:0:
164,294,224830,1,8,0:0:0:0:
215,112,225005,2,0,P|219:135|223:158,1,46.2000014099122,2|0,0:2|0:0,0:0:0:0:
238,248,225180,5,6,3:1:0:0:
238,248,225354,1,0,0:0:0:0:
131,179,225529,2,0,B|84:178|84:178|50:208,1,92.4000028198243,14|0,0:1|0:0,0:0:0:0:
50,208,225790,1,0,0:0:0:0:
50,208,225877,1,6,3:1:0:0:
0,32,226052,6,0,L|45:41,1,46.2000014099122,8|0,0:0|0:0,0:0:0:0:
215,112,226226,1,14,0:1:0:0:
238,95,226313,1,8,0:0:0:0:
253,68,226400,1,8,0:0:0:0:
257,36,226487,1,8,0:0:0:0:
249,6,226574,1,6,3:1:0:0:
249,6,226924,6,0,L|340:20,1,92.4000028198243,10|0,0:2|0:0,0:0:0:0:
507,136,227273,2,0,B|448:118|448:118|391:135|352:192,1,184.800005639649,2|8,3:1|0:0,0:0:0:0:
384,320,227796,6,0,P|318:258|228:258,1,184.800005639649,2|2,0:2|0:0,0:0:0:0:
160,352,228319,2,0,P|114:359|68:366,1,92.4000028198243,10|0,0:2|0:0,0:0:0:0:
68,366,228581,1,0,0:0:0:0:
68,366,228668,1,2,3:1:0:0:
0,275,228842,1,2,0:0:0:0:
107,189,229017,2,0,P|99:234|92:280,1,92.4000028198243,8|2,0:0|0:0,0:0:0:0:
0,128,229366,6,0,L|44:117,1,46.2000014099122,6|0,3:1|0:0,0:0:0:0:
151,199,229540,2,0,L|106:188,1,46.2000014099122,0|0,3:0|0:0,0:0:0:0:
250,18,229715,1,10,0:0:0:0:
250,18,229889,6,0,L|260:62,1,46.2000014099122,2|0,0:0|0:0,0:0:0:0:
288,192,230063,1,0,3:0:0:0:
399,123,230238,6,0,L|354:112,1,46.2000014099122,0|2,3:0|0:0,0:0:0:0:
199,281,230412,2,0,L|243:270,1,46.2000014099122,8|0,0:0|0:0,0:0:0:0:
416,383,230587,6,0,P|475:313|470:221,1,189.000007209778,6|0,3:1|2:0,0:0:0:0:
470,221,230935,1,0,3:0:0:0:
267,101,231110,2,0,L|287:191,1,92.4000028198243,8|8,0:0|0:0,0:0:0:0:
188,326,231459,6,0,L|198:280,3,46.2000014099122,0|2|2|2,3:0|0:0|0:0|0:0,0:0:0:0:
128,224,231808,1,8,0:0:0:0:
105,229,231895,1,2,0:0:0:0:
83,235,231982,1,2,0:0:0:0:
60,240,232069,1,2,0:0:0:0:
37,245,232156,6,0,P|21:216|19:183,1,67.2,6|2,3:1|0:0,0:0:0:0:
68,115,232505,1,0,3:0:0:0:
14,52,232680,2,0,L|145:81,1,134.4,2|2,0:0|0:0,0:0:0:0:
145,81,233203,1,0,3:0:0:0:
224,0,233377,6,0,L|253:131,1,134.4,2|2,0:0|0:0,0:0:0:0:
320,224,233900,1,0,3:0:0:0:
320,224,234075,1,2,0:0:0:0:
416,160,234249,1,2,3:1:0:0:
397,378,234598,1,2,3:1:0:0:
397,378,234947,6,0,L|330:367,1,67.2,0|2,3:0|0:0,0:0:0:0:
269,308,235296,1,0,3:0:0:0:
269,308,235470,2,0,B|227:351|227:351|153:337,1,134.4,2|2,0:0|0:0,0:0:0:0:
200,260,235994,1,0,3:0:0:0:
200,260,236168,1,2,0:0:0:0:
139,34,236517,5,2,0:0:0:0:
237,74,236692,1,0,3:0:0:0:
230,181,236866,1,2,0:0:0:0:
230,181,236953,1,2,0:0:0:0:
230,181,237040,1,0,3:0:0:0:
125,206,237215,1,0,3:0:0:0:
68,115,237389,1,8,0:0:0:0:
159,121,237563,5,4,3:1:0:0:
256,192,237651,12,0,239133,3:0:0:0:
