osu file format v14

[General]
AudioFilename: audio.mp3
AudioLeadIn: 0
PreviewTime: 46395
Countdown: 0
SampleSet: Soft
StackLeniency: 0.5
Mode: 0
LetterboxInBreaks: 0
WidescreenStoryboard: 1

[Editor]
DistanceSpacing: 1.5
BeatDivisor: 4
GridSize: 32
TimelineZoom: 2.1

[Metadata]
Title:raspberry cube
TitleUnicode:raspberry cube
Artist:Matsushita
ArtistUnicode:松下
Creator:Silky
Version:Extra
Source:ラズベリーキューブ
Tags:eroge まどそふと kemu fuyuyu- Mamayu Kanau Livia
BeatmapID:1718258
BeatmapSetID:819527

[Difficulty]
HPDrainRate:6.5
CircleSize:4
OverallDifficulty:8.8
ApproachRate:9.6
SliderMultiplier:1.8
SliderTickRate:1

[Events]
//Background and Video events
0,0,"BG.png",0,0
Video,0,"video.avi"
//Break Periods
//Storyboard Layer 0 (Background)
//Storyboard Layer 1 (Fail)
//Storyboard Layer 2 (Pass)
//Storyboard Layer 3 (Foreground)
//Storyboard Sound Samples

[TimingPoints]
1750,206.896551724138,4,2,1,70,1,0
5267,-100,4,2,1,5,0,0
6301,-133.333333333333,4,2,1,70,0,0
6508,-133.333333333333,4,2,1,5,0,0
6612,-90.9090909090909,4,2,1,70,0,0
13336,-133.333333333333,4,2,1,70,0,0
14784,-100,4,2,1,70,0,0
16646,-133.333333333333,4,2,1,70,0,0
24715,-100,4,2,1,70,0,0
26577,-133.333333333333,4,2,1,70,0,0
33195,-100,4,2,1,70,0,0
36508,-133.333333333333,4,2,1,70,0,0
39146,-133.333333333333,4,2,1,70,0,0
39198,-100,4,2,1,70,0,0
43129,-90.9090909090909,4,2,1,70,0,0
44784,-200,4,2,1,70,0,0
46336,-200,4,2,1,5,0,0
46439,-100,4,2,1,80,0,1
59629,-100,4,2,1,80,0,0
59681,-90.9090909090909,4,2,1,80,0,1
69612,-100,4,2,1,80,0,1
72922,-200,4,2,1,70,0,0
74370,-100,4,2,1,70,0,0
75818,-200,4,2,1,70,0,0
76129,-200,4,2,1,5,0,0
76232,-100,4,2,1,70,0,0
81043,-100,4,2,1,30,0,0
83629,-100,4,2,1,70,0,0

[Colours]
Combo1 : 145,229,103
Combo2 : 255,213,128
Combo3 : 242,121,97
Combo4 : 255,140,179
Combo5 : 187,103,229
Combo6 : 140,236,255

[HitObjects]
78,218,1750,6,0,L|173:234,1,90,4|0,3:2|0:0,0:0:0:0:
280,338,1956,2,0,B|219:353|219:353|175:332|175:332|108:349,1,180,4|8,3:2|0:0,0:0:0:0:
0,249,2267,2,0,P|-6:204|20:155,1,90,8|0,0:0|0:0,0:0:0:0:
138,22,2474,2,0,L|161:135,1,90,4|0,3:2|0:0,0:0:0:0:
229,252,2681,6,0,P|184:204|70:227,1,180,4|0,3:2|3:0,0:0:0:0:
185,358,2991,1,12,0:0:0:0:
185,358,3094,1,0,0:0:0:0:
315,281,3198,2,0,L|331:380,1,90,8|0,0:0|0:0,0:0:0:0:
461,277,3405,6,0,L|481:174,1,90,4|0,3:2|0:0,0:0:0:0:
320,77,3612,2,0,P|406:93|484:51,1,180,4|8,3:2|0:0,0:0:0:0:
356,205,3922,2,0,L|249:184,1,90,8|0,0:0|0:0,0:0:0:0:
143,12,4129,2,0,L|166:103,1,90,4|0,3:2|0:0,0:0:0:0:
0,249,4336,6,0,P|36:167|44:78,1,180,4|0,3:2|0:0,0:0:0:0:
168,188,4646,1,8,0:0:0:0:
168,188,4750,1,8,0:0:0:0:
85,318,4853,2,0,L|189:298,1,90,0|8,3:0|0:0,0:0:0:0:
425,384,5060,6,0,P|365:322|279:339,1,180,4|0,3:2|0:0,0:0:0:0:
280,338,6301,2,0,P|306:282|282:188,1,135.000005149842,2|0,0:0|0:0,0:0:0:0:
217,174,6612,6,0,P|336:178|409:118,1,198.000006042481,4|0,3:2|3:0,0:0:0:0:
474,298,6922,2,0,L|373:272,1,99.0000030212403,8|0,0:0|0:0,0:0:0:0:
224,325,7129,1,0,3:0:0:0:
366,240,7232,1,0,3:0:0:0:
217,137,7336,2,0,L|241:251,1,99.0000030212403,8|0,0:0|0:0,0:0:0:0:
86,375,7543,6,0,P|135:290|129:174,1,198.000006042481,0|8,3:0|0:0,0:0:0:0:
219,31,7853,2,0,L|324:-3,1,99.0000030212403,0|0,3:0|0:0,0:0:0:0:
94,106,8060,2,0,L|-11:72,1,99.0000030212403,0|8,3:0|0:0,0:0:0:0:
59,267,8267,6,0,P|143:217|239:235,1,198.000006042481,0|0,3:0|3:0,0:0:0:0:
365,228,8577,2,0,L|349:343,1,99.0000030212403,8|0,0:0|0:0,0:0:0:0:
262,153,8784,1,0,3:0:0:0:
399,77,8887,1,0,3:0:0:0:
241,22,8991,2,0,L|256:119,1,99.0000030212403,8|0,0:0|0:0,0:0:0:0:
285,256,9198,6,0,P|382:230|494:217,1,198.000006042481,0|8,3:0|0:0,0:0:0:0:
257,378,9508,2,0,P|193:302|90:319,1,198.000006042481,0|0,3:0|3:0,0:0:0:0:
6,190,9818,1,8,0:0:0:0:
51,384,9922,6,0,P|71:287|93:190,1,198.000006042481,4|0,3:2|3:0,0:0:0:0:
201,101,10232,1,8,0:0:0:0:
270,200,10336,1,0,0:0:0:0:
270,200,10387,1,0,0:0:0:0:
270,200,10439,2,0,P|217:209|158:224,1,99.0000030212403,0|0,3:0|3:0,0:0:0:0:
6,65,10646,2,0,P|54:76|102:84,1,99.0000030212403,8|0,0:0|0:0,0:0:0:0:
271,7,10853,6,0,L|239:111,1,99.0000030212403,0|0,3:0|0:0,0:0:0:0:
444,231,11060,2,0,P|460:175|346:90,1,198.000006042481,8|0,0:0|3:0,0:0:0:0:
230,216,11370,2,0,P|271:204|332:192,1,99.0000030212403,12|0,0:0|0:0,0:0:0:0:
503,357,11577,6,0,P|407:332|309:317,1,198.000006042481,4|0,3:2|3:0,0:0:0:0:
132,282,11887,2,0,L|154:387,1,99.0000030212403,12|0,0:0|0:0,0:0:0:0:
283,188,12094,1,0,3:0:0:0:
336,304,12198,1,0,3:0:0:0:
183,196,12301,2,0,P|191:138|218:102,1,99.0000030212403,12|0,0:0|0:0,0:0:0:0:
363,1,12508,6,0,P|374:46|390:111,1,99.0000030212403,4|0,3:2|0:0,0:0:0:0:
313,274,12715,1,8,0:0:0:0:
494,221,12818,2,0,L|442:206,1,49.5000015106202
399,194,12922,2,0,P|408:241|425:303,1,99.0000030212403,0|8,3:0|0:3,0:0:0:0:
298,372,13129,2,0,P|305:323|312:274,1,99.0000030212403,4|4,0:3|0:3,0:0:0:0:
243,103,13336,1,4,3:2:0:0:
243,103,13750,6,0,P|197:140|99:127,1,135.000005149842,2|0,0:0|0:0,0:0:0:0:
123,140,14163,2,0,P|139:66|156:1,1,135.000005149842,8|0,0:0|0:0,0:0:0:0:
30,26,14474,2,0,P|36:53|48:107,1,67.5000025749208,8|0,0:0|0:0,0:0:0:0:
0,278,14784,6,0,P|62:260|152:337,1,180,4|0,3:2|0:0,0:0:0:0:
312,236,15094,1,0,0:0:0:0:
238,380,15198,2,0,P|223:285|204:190,1,180,12|0,0:0|3:0,0:0:0:0:
274,86,15508,1,12,0:0:0:0:
377,146,15612,2,0,P|429:137|504:123,1,90,0|0,0:0|3:0,0:0:0:0:
339,295,15818,6,0,L|232:275,1,90,12|8,0:0|0:0,0:0:0:0:
139,200,16025,1,0,3:0:0:0:
105,342,16129,1,8,0:0:0:0:
268,251,16232,2,0,L|247:140,1,90,8|8,0:3|0:3,0:0:0:0:
130,16,16439,2,0,L|115:113,1,90,4|4,0:3|0:3,0:0:0:0:
12,276,16646,6,0,P|59:231|144:254,1,135.000005149842,4|0,3:2|0:0,0:0:0:0:
207,280,16956,2,0,L|189:358,1,67.5000025749208,0|8,0:0|0:0,0:0:0:0:
358,165,17267,1,0,0:0:0:0:
358,165,17474,2,0,P|343:97|333:20,1,135.000005149842,0|0,3:0|0:0,0:0:0:0:
452,12,17784,2,0,P|444:40|434:90,1,67.5000025749208,0|8,0:0|0:0,0:0:0:0:
501,275,18094,6,0,P|432:253|315:335,1,202.500007724762
238,375,18508,2,0,P|200:361|142:348,1,67.5000025749208
27,287,18715,2,0,P|101:276|169:252,1,135.000005149842,8|0,0:0|0:0,0:0:0:0:
84,26,19129,1,0,3:0:0:0:
84,26,19336,2,0,P|74:57|61:111,1,67.5000025749208
143,156,19543,2,0,P|200:163|266:112,1,135.000005149842,8|0,0:0|0:0,0:0:0:0:
483,261,19956,6,0,P|418:243|336:229,1,135.000005149842,0|0,3:0|0:0,0:0:0:0:
268,275,20267,2,0,P|274:304|283:352,1,67.5000025749208,0|8,0:0|0:0,0:0:0:0:
143,156,20577,1,0,0:0:0:0:
143,156,20784,2,0,P|160:86|170:19,1,135.000005149842,0|0,3:0|0:0,0:0:0:0:
251,60,21094,2,0,P|245:96|235:142,1,67.5000025749208,0|8,0:0|0:0,0:0:0:0:
199,294,21405,6,0,P|132:267|29:346,1,202.500007724762
134,384,21818,2,0,L|218:372,1,67.5000025749208
358,314,22025,2,0,L|274:302,1,67.5000025749208,8|0,0:0|0:0,0:0:0:0:
198,185,22232,2,0,L|185:268,1,67.5000025749208
317,199,22439,2,0,P|301:124|292:41,1,135.000005149842,0|0,3:0|0:0,0:0:0:0:
294,66,22853,2,0,L|383:46,1,67.5000025749208,8|0,0:0|0:0,0:0:0:0:
490,180,23060,2,0,L|413:167,1,67.5000025749208
298,227,23267,6,0,P|233:209|157:198,1,135.000005149842,0|0,3:0|0:0,0:0:0:0:
1,89,23681,2,0,P|73:92|121:52,1,135.000005149842,8|0,0:0|0:0,0:0:0:0:
27,214,24094,2,0,P|47:277|63:377,1,135.000005149842,0|0,3:0|0:0,0:0:0:0:
163,275,24405,1,0,0:0:0:0:
142,382,24508,2,0,P|147:346|156:303,1,67.5000025749208,8|0,0:0|0:0,0:0:0:0:
286,179,24715,6,0,P|358:175|428:259,1,180,4|0,3:2|0:0,0:0:0:0:
391,90,25025,1,8,0:0:0:0:
498,64,25129,2,0,P|488:110|470:172,1,90,8|0,0:0|0:0,0:0:0:0:
369,286,25336,2,0,P|413:292|457:301,1,90,8|0,0:0|0:0,0:0:0:0:
286,179,25543,2,0,P|243:188|159:198,1,90,8|4,0:3|0:3,0:0:0:0:
74,109,25750,5,0,3:0:0:0:
205,0,25853,1,8,0:0:0:0:
205,0,25905,1,8,0:0:0:0:
205,0,25956,2,0,P|218:44|230:98,1,90,8|8,0:0|0:0,0:0:0:0:
51,196,26163,2,0,P|60:152|74:109,1,90,8|0,0:0|0:0,0:0:0:0:
159,220,26370,1,8,0:3:0:0:
18,302,26474,1,4,0:3:0:0:
174,363,26577,6,0,P|108:347|20:332,1,135.000005149842,4|0,3:2|0:0,0:0:0:0:
250,133,26991,2,0,P|267:198|276:280,1,135.000005149842,8|0,0:0|3:0,0:0:0:0:
326,355,27301,1,0,3:0:0:0:
392,274,27405,2,0,P|461:288|529:310,1,135.000005149842,8|0,0:0|0:0,0:0:0:0:
510,172,27715,2,0,P|481:178|438:185,1,67.5000025749208,4|0,3:2|0:0,0:0:0:0:
249,29,28025,6,0,P|337:9|391:98,1,202.500007724762,4|0,3:2|0:0,0:0:0:0:
287,171,28439,2,0,P|292:134|302:94,1,67.5000025749208,0|0,3:0|0:0,0:0:0:0:
389,251,28646,1,8,0:0:0:0:
297,323,28750,2,0,P|238:292|174:307,1,135.000005149842,0|8,3:0|0:0,0:0:0:0:
64,363,29060,2,0,P|50:296|35:231,1,135.000005149842,0|0,3:0|3:0,0:0:0:0:
147,156,29370,2,0,P|137:192|131:234,1,67.5000025749208,0|8,0:0|0:0,0:0:0:0:
64,96,29577,2,0,P|111:57|190:66,1,135.000005149842,0|8,3:0|0:0,0:0:0:0:
274,163,29887,6,0,P|289:83|313:7,1,135.000005149842,4|0,3:2|3:0,0:0:0:0:
395,86,30198,1,0,0:0:0:0:
395,86,30301,2,0,L|375:152,1,67.5000025749208,8|0,0:0|3:0,0:0:0:0:
274,163,30508,2,0,L|289:229,1,67.5000025749208,0|8,0:0|0:0,0:0:0:0:
351,343,30715,2,0,P|403:306|486:324,1,135.000005149842,0|0,3:0|0:0,0:0:0:0:
512,224,31025,2,0,L|445:211,1,67.5000025749208,0|8,3:0|0:0,0:0:0:0:
321,65,31336,6,0,P|257:117|125:93,1,202.500007724762,4|0,3:2|0:0,0:0:0:0:
75,35,31750,2,0,L|52:118,1,67.5000025749208,0|0,3:0|0:0,0:0:0:0:
128,203,31956,1,8,0:0:0:0:
17,264,32060,2,0,P|55:232|147:241,1,135.000005149842,0|8,0:0|0:0,0:0:0:0:
266,189,32370,2,0,P|249:255|234:341,1,135.000005149842,0|0,3:0|0:0,0:0:0:0:
350,273,32681,1,0,3:0:0:0:
409,359,32784,2,0,L|485:343,1,67.5000025749208,8|0,0:0|3:0,0:0:0:0:
458,180,32991,2,0,L|442:265,1,67.5000025749208,0|8,0:0|0:0,0:0:0:0:
354,155,33198,5,4,3:2:0:0:
509,70,33301,1,8,0:0:0:0:
509,70,33353,1,8,0:0:0:0:
509,70,33405,2,0,P|463:60|401:40,1,90,8|0,0:0|3:0,0:0:0:0:
267,176,33612,2,0,P|308:165|373:153,1,90,8|8,0:0|0:0,0:0:0:0:
168,88,33818,1,8,0:3:0:0:
119,235,33922,1,4,0:3:0:0:
267,176,34025,6,0,P|245:79|230:-5,1,180,4|0,3:2|0:0,0:0:0:0:
82,58,34336,2,0,P|104:154|119:239,1,180,4|0,3:2|0:0,0:0:0:0:
0,334,34646,6,0,B|155:289|71:396|263:356,1,270,4|0,3:2|0:0,0:0:0:0:
444,334,35060,2,0,P|412:308|352:303,1,90,0|0,3:0|0:0,0:0:0:0:
191,231,35267,1,8,0:0:0:0:
295,180,35370,2,0,P|276:257|256:369,1,180,0|8,3:0|0:0,0:0:0:0:
0,334,35681,6,0,P|63:283|157:307,1,180,4|8,3:2|0:0,0:0:0:0:
295,180,35991,2,0,P|248:166|191:148,1,90,0|0,0:0|3:0,0:0:0:0:
37,184,36198,1,8,0:0:0:0:
89,15,36301,2,0,P|101:58|112:101,1,90,8|8,0:0|0:0,0:0:0:0:
139,255,36508,5,4,3:2:0:0:
139,255,37129,1,0,3:0:0:0:
139,255,37232,1,0,3:0:0:0:
139,255,37336,2,0,P|174:315|180:382,1,135.000005149842,8|0,0:0|0:0,0:0:0:0:
180,379,37646,2,0,P|232:351|314:356,1,135.000005149842,8|0,0:0|0:0,0:0:0:0:
422,253,37956,6,0,P|331:262|268:160,1,202.500007724762,4|0,3:2|0:0,0:0:0:0:
268,180,38784,2,0,L|280:139,3,33.7500012874604,0|0|0|0,3:0|3:0|3:0|3:0,0:0:0:0:
260,107,38991,2,0,P|247:167|231:237,1,101.250003862381,8|0,0:0|0:0,0:0:0:0:
213,233,39198,6,0,P|160:170|47:214,1,180,12|0,0:0|0:0,0:0:0:0:
118,353,39508,2,0,B|180:338|180:338|240:356|240:356|324:333,1,180,12|0,0:0|0:0,0:0:0:0:
428,267,39818,6,0,P|447:310|455:373,1,90,4|0,3:2|0:0,0:0:0:0:
287,218,40025,2,0,P|295:173|313:132,1,90,0|8,0:0|0:0,0:0:0:0:
434,71,40232,2,0,L|521:100,1,90,0|0,3:0|0:0,0:0:0:0:
288,2,40439,2,0,L|180:22,1,90,8|0,0:0|0:0,0:0:0:0:
20,103,40646,6,0,P|80:92|159:174,1,180,0|0,3:0|0:0,0:0:0:0:
20,256,40956,1,8,0:0:0:0:
108,348,41060,2,0,L|118:259,1,90,0|0,3:0|0:0,0:0:0:0:
237,115,41267,2,0,L|252:236,1,90,8|0,0:0|0:0,0:0:0:0:
342,337,41474,6,0,L|446:319,1,90,0|0,3:0|0:0,0:0:0:0:
511,204,41681,2,0,L|404:181,1,90,0|8,0:0|0:0,0:0:0:0:
313,93,41887,2,0,L|339:2,1,90,0|0,3:0|0:0,0:0:0:0:
165,127,42094,2,0,L|184:222,1,90,8|0,0:0|0:0,0:0:0:0:
225,379,42301,6,0,P|186:330|58:333,1,180,0|0,3:0|0:0,0:0:0:0:
165,127,42612,1,8,0:0:0:0:
2,201,42715,2,0,L|96:220,1,90,0|8,3:0|0:3,0:0:0:0:
253,110,42922,2,0,L|153:129,1,90,4|4,0:3|0:3,0:0:0:0:
376,147,43129,6,0,P|391:99|396:27,1,99.0000030212403,4|0,3:2|0:0,0:0:0:0:
237,205,43336,1,8,0:0:0:0:
356,293,43439,2,0,P|452:275|515:357,1,198.000006042481,4|0,3:2|3:0,0:0:0:0:
266,384,43750,2,0,P|256:323|246:274,1,99.0000030212403,12|0,0:0|0:0,0:0:0:0:
104,368,43956,5,4,3:2:0:0:
73,204,44060,1,8,0:0:0:0:
73,204,44112,1,8,0:0:0:0:
73,204,44163,2,0,P|35:216|-2:229,2,66.0000020141602,8|8|8,0:0|0:0|0:0,0:0:0:0:
166,113,44370,2,0,P|203:125|241:138,2,66.0000020141602,8|8|8,0:0|0:0|0:0,0:0:0:0:
25,9,44577,2,0,P|40:58|53:123,1,99.0000030212403,8|8,0:0|0:0,0:0:0:0:
457,368,46025,6,0,P|464:300|476:234,1,135,4|0,3:2|0:0,0:0:0:0:
476,234,46439,6,0,B|378:215|417:281|301:255,1,180,4|0,3:2|0:0,0:0:0:0:
240,100,46750,1,0,0:0:0:0:
139,213,46853,2,0,P|182:203|231:188,1,90,8|0,0:0|0:0,0:0:0:0:
404,77,47060,2,0,P|358:67|307:48,1,90
490,19,47267,6,0,P|512:110|459:175,1,180,0|0,3:0|0:0,0:0:0:0:
361,241,47577,2,0,P|352:198|343:140,1,90,0|8,0:0|0:0,0:0:0:0:
478,300,47784,1,0,0:0:0:0:
324,364,47887,2,0,P|278:352|225:342,1,90
46,282,48094,6,0,L|147:262,1,90,0|0,3:0|0:0,0:0:0:0:
237,183,48301,1,0,0:0:0:0:
140,89,48405,2,0,P|126:128|113:182,1,90,0|8,0:0|0:0,0:0:0:0:
317,86,48612,1,0,0:0:0:0:
317,86,48715,2,0,P|306:42|291:0,1,90
55,30,48922,6,0,P|130:86|216:76,1,180,0|0,3:0|0:0,0:0:0:0:
387,6,49232,1,0,0:0:0:0:
347,188,49336,2,0,P|302:178|254:169,1,90,8|0,0:0|0:0,0:0:0:0:
502,126,49543,2,0,P|492:167|481:224,1,90
380,364,49750,6,0,P|372:300|340:167,1,180,0|0,3:0|0:0,0:0:0:0:
233,265,50060,1,0,0:0:0:0:
161,368,50163,2,0,P|210:378|264:386,1,90,8|0,0:0|0:0,0:0:0:0:
111,204,50370,2,0,P|66:211|22:220,1,90
233,265,50577,6,0,P|246:182|265:87,1,180,0|0,3:0|0:0,0:0:0:0:
114,8,50887,2,0,P|123:47|136:114,1,90,0|8,0:0|0:0,0:0:0:0:
39,246,51094,1,0,0:0:0:0:
197,191,51198,2,0,P|153:184|97:176,1,90
10,363,51405,6,0,P|53:356|110:348,1,90,0|0,3:0|0:0,0:0:0:0:
301,268,51612,1,0,0:0:0:0:
213,384,51715,2,0,P|207:349|193:296,1,90,0|8,0:0|0:0,0:0:0:0:
330,150,51922,1,0,0:0:0:0:
330,150,52025,2,0,P|318:194|305:257,1,90
408,362,52232,6,0,P|456:351|507:343,1,90,0|0,3:0|0:0,0:0:0:0:
512,214,52439,2,0,P|468:226|416:235,1,90
249,173,52646,2,0,P|231:90|291:15,1,180,8|0,0:0|0:0,0:0:0:0:
363,113,52956,1,8,0:0:0:0:
312,258,53060,6,0,P|232:217|131:236,1,180,4|0,3:2|0:0,0:0:0:0:
0,158,53370,2,0,P|49:148|104:125,1,90,0|8,0:0|0:0,0:0:0:0:
220,37,53577,1,0,0:0:0:0:
220,37,53681,2,0,P|203:80|191:134,1,90
172,314,53887,6,0,P|160:270|145:228,1,90,0|0,3:0|0:0,0:0:0:0:
284,382,54094,2,0,P|344:321|438:341,1,180,0|8,0:0|0:0,0:0:0:0:
393,144,54405,1,0,0:0:0:0:
512,251,54508,2,0,P|469:242|413:231,1,90
342,52,54715,6,0,P|429:46|485:113,1,180,0|0,3:0|0:0,0:0:0:0:
254,120,55025,2,0,P|246:78|230:19,1,90,0|8,0:0|0:0,0:0:0:0:
180,226,55232,1,0,0:0:0:0:
180,226,55336,2,0,P|226:242|280:257,1,90
133,110,55543,6,0,L|24:132,1,90,0|0,3:0|0:0,0:0:0:0:
0,312,55750,2,0,P|111:313|150:371,1,180,0|8,0:0|0:0,0:0:0:0:
329,270,56060,1,0,0:0:0:0:
214,185,56163,2,0,P|221:227|231:285,1,90,8|4,0:3|0:3,0:0:0:0:
348,370,56370,6,0,L|441:357,1,90,4|0,3:2|0:0,0:0:0:0:
512,235,56577,2,0,L|411:208,1,90
309,72,56784,2,0,B|290:137|290:137|309:188|309:188|287:266,1,180,8|8,0:0|0:0,0:0:0:0:
180,123,57094,1,8,0:0:0:0:
88,219,57198,6,0,P|43:210|-6:203,1,90,4|0,3:2|0:0,0:0:0:0:
165,34,57405,2,0,P|174:78|179:122,1,90,8|0,0:0|0:0,0:0:0:0:
185,331,57612,2,0,P|190:286|199:242,1,90,0|0,3:0|0:0,0:0:0:0:
90,361,57818,1,8,0:0:0:0:
294,281,57922,1,8,0:0:0:0:
154,153,58025,6,0,P|173:237|186:345,1,180,4|8,3:2|0:0,0:0:0:0:
310,188,58336,2,0,P|290:100|279:10,1,180,0|0,3:0|3:0,0:0:0:0:
497,96,58646,2,0,P|450:88|406:79,1,90,12|0,0:0|0:0,0:0:0:0:
310,188,58853,5,4,3:2:0:0:
440,264,58956,1,8,0:0:0:0:
440,264,59008,1,8,0:0:0:0:
440,264,59060,2,0,P|454:221|457:170,1,90,8|8,0:0|0:0,0:0:0:0:
327,345,59267,2,0,P|285:328|224:316,1,90,0|8,3:0|0:0,0:0:0:0:
91,226,59474,1,8,0:0:0:0:
33,383,59577,1,8,0:0:0:0:
183,212,59681,6,0,P|127:140|13:177,1,198.000006042481,4|8,3:2|0:0,0:0:0:0:
119,337,59991,2,0,P|198:320|320:305,1,198.000006042481,0|0,3:0|3:0,0:0:0:0:
448,212,60301,1,8,0:0:0:0:
290,136,60405,1,0,0:0:0:0:
490,87,60508,6,0,P|487:137|469:183,1,99.0000030212403,0|0,3:0|0:0,0:0:0:0:
354,0,60715,1,8,0:0:0:0:
226,152,60818,2,0,P|297:92|395:133,1,198.000006042481,0|0,3:0|3:0,0:0:0:0:
264,277,61129,2,0,L|161:255,1,99.0000030212403,8|0,0:0|0:0,0:0:0:0:
42,183,61336,6,0,P|64:288|75:395,1,198.000006042481,0|8,3:0|0:0,0:0:0:0:
150,149,61646,2,0,P|112:84|-20:93,1,198.000006042481,0|0,3:0|3:0,0:0:0:0:
167,256,61956,2,0,L|273:236,1,99.0000030212403,8|0,0:0|0:0,0:0:0:0:
422,167,62163,5,0,3:0:0:0:
356,364,62267,1,0,0:0:0:0:
512,311,62370,2,0,P|465:289|395:275,1,99.0000030212403,8|0,0:0|3:0,0:0:0:0:
282,140,62577,2,0,P|274:191|261:250,1,99.0000030212403,0|0,0:0|3:0,0:0:0:0:
423,136,62784,2,0,P|412:87|405:38,1,99.0000030212403,8|0,0:0|0:0,0:0:0:0:
360,281,62991,6,0,P|283:263|155:244,1,198.000006042481,0|8,3:0|0:0,0:0:0:0:
8,144,63301,2,0,P|102:150|170:63,1,198.000006042481,0|0,3:0|3:0,0:0:0:0:
372,113,63612,1,8,0:0:0:0:
193,201,63715,1,0,0:0:0:0:
251,11,63818,6,0,P|260:65|274:138,1,99.0000030212403,0|0,3:0|0:0,0:0:0:0:
359,233,64025,1,8,0:0:0:0:
199,324,64129,2,0,B|134:307|134:307|73:325|73:325|-3:307,1,198.000006042481,0|0,3:0|3:0,0:0:0:0:
96,178,64439,2,0,P|144:191|209:202,1,99.0000030212403,8|0,0:0|0:0,0:0:0:0:
318,357,64646,6,0,P|420:333|523:326,1,198.000006042481,0|8,3:0|0:0,0:0:0:0:
374,78,64956,2,0,P|448:150|409:248,1,198.000006042481,0|0,3:0|3:0,0:0:0:0:
260,107,65267,2,0,P|266:59|283:-4,1,99.0000030212403,8|0,0:0|0:0,0:0:0:0:
167,210,65474,6,0,P|91:146|-3:163,1,198.000006042481,4|8,3:2|0:0,0:0:0:0:
139,336,65784,1,0,3:0:0:0:
23,261,65887,2,0,P|13:309|-1:365,1,99.0000030212403,0|0,0:0|3:0,0:0:0:0:
167,210,66094,2,0,P|154:162|145:113,1,99.0000030212403,8|8,0:0|0:0,0:0:0:0:
258,335,66301,6,0,B|387:294|334:375|466:334,1,198.000006042481,4|8,3:2|0:0,0:0:0:0:
512,196,66612,2,0,P|424:101|355:134,1,198.000006042481,0|0,3:0|3:0,0:0:0:0:
250,230,66922,2,0,P|239:181|228:133,1,99.0000030212403,8|0,0:0|0:0,0:0:0:0:
297,32,67129,5,4,3:2:0:0:
113,153,67232,1,8,0:0:0:0:
113,153,67284,1,8,0:0:0:0:
113,153,67336,2,0,P|58:139|6:129,1,99.0000030212403,8|8,0:0|0:0,0:0:0:0:
50,307,67543,1,8,0:0:0:0:
222,233,67646,1,8,0:0:0:0:
162,384,67750,2,0,P|153:332|137:266,1,99.0000030212403,8|4,0:3|0:3,0:0:0:0:
307,102,67956,6,0,B|348:77|424:123|395:198|355:238|306:185|259:204|215:238,1,297.000009063721,4|12,3:2|0:0,0:0:0:0:
222,233,68577,2,0,B|207:188|182:144|112:158|103:102|123:25|212:32|230:76,1,297.000009063721,12|8,0:0|0:0,0:0:0:0:
113,236,68991,6,0,L|11:214,1,99.0000030212403,8|8,0:0|0:0,0:0:0:0:
99,378,69198,2,0,P|144:363|204:361,1,99.0000030212403,0|8,3:0|0:0,0:0:0:0:
323,247,69405,1,8,0:3:0:0:
396,384,69508,1,4,0:3:0:0:
222,233,69612,6,0,P|243:135|259:43,1,180,4|8,3:2|0:0,0:0:0:0:
380,109,69922,1,0,0:0:0:0:
424,228,70025,2,0,P|468:218|512:211,1,90,0|0,3:0|0:0,0:0:0:0:
406,23,70232,2,0,P|393:59|374:133,1,90,8|0,0:0|0:0,0:0:0:0:
323,247,70439,6,0,P|261:192|134:209,1,180,0|8,3:0|0:0,0:0:0:0:
75,95,70750,1,0,0:0:0:0:
171,12,70853,2,0,P|181:53|189:111,1,90,0|0,3:0|0:0,0:0:0:0:
50,225,71060,2,0,P|55:181|71:108,1,90,8|0,0:0|0:0,0:0:0:0:
110,338,71267,6,0,P|60:345|0:357,1,90,4|0,3:2|0:0,0:0:0:0:
261,297,71474,2,0,P|311:304|371:316,1,90,8|0,0:0|0:0,0:0:0:0:
174,189,71681,2,0,P|180:144|188:100,1,90,0|0,3:0|0:0,0:0:0:0:
316,12,71887,2,0,P|323:56|330:100,1,90,8|0,0:0|0:0,0:0:0:0:
510,206,72094,6,0,P|428:190|353:275,1,180,0|8,3:0|0:0,0:0:0:0:
322,384,72405,1,8,0:0:0:0:
512,341,72508,2,0,P|469:331|406:318,1,90,8|8,0:3|0:3,0:0:0:0:
191,237,72715,2,0,P|233:227|297:214,1,90,4|4,0:3|0:3,0:0:0:0:
425,188,72922,5,4,3:2:0:0:
425,188,73336,2,0,P|413:91|398:9,2,180,2|2|2,0:0|0:0|0:0,0:0:0:0:
240,203,74370,6,0,P|234:173|228:144,2,60,0|0|0,3:0|3:0|3:0,0:0:0:0:
281,83,74577,5,8,0:0:0:0:
266,287,74784,1,0,0:0:0:0:
158,114,74991,1,8,0:0:0:0:
347,190,75198,1,0,3:0:0:0:
150,240,75405,1,8,0:0:0:0:
150,240,75818,6,0,P|78:254|29:204,1,135
34,217,76232,6,0,P|44:173|56:118,1,90,4|0,3:2|0:0,0:0:0:0:
223,28,76439,2,0,P|234:103|250:206,1,180,4|8,3:2|0:0,0:0:0:0:
181,359,76750,2,0,P|141:340|82:344,1,90,8|0,0:0|0:0,0:0:0:0:
340,313,76956,2,0,L|447:292,1,90,4|0,3:2|0:0,0:0:0:0:
495,165,77163,6,0,P|426:177|355:88,1,180,4|0,3:2|3:0,0:0:0:0:
183,154,77474,1,12,0:0:0:0:
183,154,77577,1,0,0:0:0:0:
242,0,77681,2,0,L|264:105,1,90,8|0,0:0|0:0,0:0:0:0:
69,158,77887,6,0,L|87:69,1,90,4|0,3:2|0:0,0:0:0:0:
166,270,78094,2,0,P|87:252|28:332,1,180,4|8,3:2|0:0,0:0:0:0:
154,384,78405,2,0,P|201:376|273:368,1,90,8|0,0:0|0:0,0:0:0:0:
348,233,78612,2,0,L|253:210,1,90,4|0,3:2|0:0,0:0:0:0:
464,349,78818,6,0,B|452:287|452:287|476:234|476:234|458:146,1,180,4|0,3:2|3:0,0:0:0:0:
348,233,79129,1,8,0:0:0:0:
348,233,79232,1,8,0:0:0:0:
403,81,79336,2,0,P|447:71|499:60,1,90,0|8,3:0|0:0,0:0:0:0:
269,12,79543,5,4,3:2:0:0:
175,155,79646,1,8,0:0:0:0:
175,155,79698,1,8,0:0:0:0:
175,155,79750,2,0,P|145:148|98:140,2,60,8|8|8,0:0|0:0|0:0,0:0:0:0:
289,244,79956,2,0,P|318:237|366:229,2,60,8|4|8,0:3|0:3|0:3,0:0:0:0:
158,370,80163,2,0,P|167:321|176:271,1,90,4|8,0:3|0:3,0:0:0:0:
298,359,80370,5,8,0:0:0:0:
66,232,80508,1,8,0:3:0:0:
310,88,80646,1,4,0:3:0:0:
174,281,80784,1,8,0:0:0:0:
174,281,80991,5,4,3:2:0:0:
256,192,81043,12,8,83629,0:0:0:0:
