osu file format v14

[General]
AudioFilename: audio.mp3
AudioLeadIn: 0
PreviewTime: 45496
Countdown: 0
SampleSet: Soft
StackLeniency: 0.7
Mode: 0
LetterboxInBreaks: 0
WidescreenStoryboard: 1

[Editor]
Bookmarks: 5669,12393,24807,35565,38876,42186,45496,57910,66186,75289
DistanceSpacing: 0.3
BeatDivisor: 4
GridSize: 32
TimelineZoom: 2.5

[Metadata]
Title:raspberry cube
TitleUnicode:raspberry cube
Artist:Matsushita
ArtistUnicode:松下
Creator:Primonix
Version:Lavila's Insane
Source:ラズベリーキューブ
Tags:堀江晶太 horie shota gram6design op opening visual novel eroge Video Game まどそふと madosoft japanese j-pop jpop pop ponbot Kuse KuBsNia_ZhoYL_ Lavila
BeatmapID:3110665
BeatmapSetID:1492234

[Difficulty]
HPDrainRate:5
CircleSize:3
OverallDifficulty:8
ApproachRate:9
SliderMultiplier:2.69999999999999
SliderTickRate:1

[Events]
//Background and Video events
0,0,"bg.jpg",0,0
//Break Periods
//Storyboard Layer 0 (Background)
//Storyboard Layer 1 (Fail)
//Storyboard Layer 2 (Pass)
//Storyboard Layer 3 (Foreground)
//Storyboard Layer 4 (Overlay)
//Storyboard Sound Samples

[TimingPoints]
-848,413.793103448276,4,2,0,100,1,0
186,-100,4,2,1,40,0,0
289,-100,4,2,1,5,0,0
393,-100,4,2,1,40,0,0
496,-100,4,2,1,5,0,0
600,-100,4,2,1,70,0,0
807,-83.3333333333333,4,2,1,70,0,0
1738,-71.4285714285714,4,2,1,70,0,0
2048,-83.3333333333333,4,2,1,70,0,0
3393,-71.4285714285714,4,2,1,70,0,0
4117,-66.6666666666667,4,2,1,70,0,0
5358,-100,4,2,1,50,0,0
5669,-62.5,4,2,1,70,0,0
5979,-83.3333333333333,4,2,1,70,0,0
6600,-66.6666666666667,4,2,1,70,0,0
6910,-83.3333333333333,4,2,1,70,0,0
7324,-125,4,2,1,70,0,0
7634,-83.3333333333333,4,2,1,70,0,0
8255,-66.6666666666667,4,2,1,70,0,0
8565,-83.3333333333333,4,2,1,70,0,0
8979,-58.8235294117647,4,2,1,70,0,0
9289,-83.3333333333333,4,2,1,70,0,0
10634,-62.5,4,2,1,70,0,0
10945,-83.3333333333333,4,2,1,70,0,0
12807,-90.9090909090909,4,2,10,40,0,0
12910,-90.9090909090909,4,2,1,5,0,0
13014,-100,4,2,1,70,0,0
13220,-71.4285714285714,4,2,1,70,0,0
14462,-90.9090909090909,4,2,1,70,0,0
15703,-76.9230769230769,4,2,1,60,0,0
16324,-90.9090909090909,4,2,1,60,0,0
17152,-83.3333333333333,4,2,1,60,0,0
17565,-90.9090909090909,4,2,1,60,0,0
19014,-76.9230769230769,4,2,1,60,0,0
19634,-90.9090909090909,4,2,1,60,0,0
20462,-83.3333333333333,4,2,1,60,0,0
20876,-90.9090909090909,4,2,1,60,0,0
22324,-83.3333333333333,4,2,1,60,0,0
22738,-90.9090909090909,4,2,1,60,0,0
23152,-76.9230769230769,4,2,1,60,0,0
23565,-90.9090909090909,4,2,1,60,0,0
23772,-71.4285714285714,4,2,1,60,0,0
24600,-90.9090909090909,4,2,1,60,0,0
25220,-83.3333333333333,4,2,1,60,0,0
25634,-66.6666666666667,4,2,1,60,0,0
26048,-83.3333333333333,4,2,1,60,0,0
27083,-76.9230769230769,4,2,1,60,0,0
27704,-90.9090909090909,4,2,1,60,0,0
28117,-76.9230769230769,4,2,1,60,0,0
28531,-90.9090909090909,4,2,1,60,0,0
30393,-76.9230769230769,4,2,1,60,0,0
30807,-90.9090909090909,4,2,1,60,0,0
32255,-66.6666666666667,4,2,1,60,0,0
33393,-83.3333333333333,4,2,1,60,0,0
33703,-76.9230769230769,4,2,1,60,0,0
34324,-90.9090909090909,4,2,1,60,0,0
35565,-71.4285714285714,4,2,1,60,0,0
35979,-100,4,2,1,60,0,0
36703,-90.9090909090909,4,2,1,60,0,0
36807,-90.9090909090909,4,2,1,5,0,0
37014,-71.4285714285714,4,2,1,60,0,0
37427,-100,4,2,1,60,0,0
37841,-100,4,2,1,60,0,0
38255,-71.4285714285714,4,2,1,60,0,0
38669,-90.9090909090909,4,2,1,60,0,0
38876,-71.4285714285714,4,2,1,60,0,0
39083,-71.4285714285714,4,2,1,50,0,0
39289,-90.9090909090909,4,2,1,50,0,0
39496,-90.9090909090909,4,2,1,55,0,0
39910,-90.9090909090909,4,2,1,60,0,0
41358,-90.9090909090909,4,2,1,70,0,0
41772,-90.9090909090909,4,2,1,80,0,0
42186,-83.3333333333333,4,2,1,80,0,0
42807,-76.9230769230769,4,2,1,80,0,0
43014,-83.3333333333333,4,2,1,80,0,0
43427,-90.9090909090909,4,2,1,80,0,0
44048,-90.9090909090909,4,2,1,20,0,0
44669,-125,4,2,1,20,0,0
44772,-125,4,2,1,5,0,0
45083,-166.666666666667,4,2,1,60,0,0
45393,-166.666666666667,4,2,1,5,0,0
45496,-66.6666666666667,4,2,1,80,0,1
46324,-71.4285714285714,4,2,1,80,0,1
46738,-83.3333333333333,4,2,1,80,0,1
47152,-71.4285714285714,4,2,1,80,0,1
48289,-90.9090909090909,4,2,1,80,0,1
48807,-66.6666666666667,4,2,1,80,0,1
49634,-71.4285714285714,4,2,1,80,0,1
50048,-83.3333333333333,4,2,1,80,0,1
50462,-71.4285714285714,4,2,1,80,0,1
51083,-83.3333333333333,4,2,1,80,0,1
51289,-71.4285714285714,4,2,1,80,0,1
51600,-90.9090909090909,4,2,1,80,0,1
52117,-71.4285714285714,4,2,1,80,0,1
52738,-83.3333333333333,4,2,1,80,0,1
52945,-66.6666666666667,4,2,1,80,0,1
53358,-83.3333333333333,4,2,1,80,0,1
53772,-71.4285714285714,4,2,1,80,0,1
54393,-83.3333333333333,4,2,1,80,0,1
54600,-66.6666666666667,4,2,1,80,0,1
55014,-83.3333333333333,4,2,1,80,0,1
55220,-90.9090909090909,4,2,1,80,0,1
55634,-83.3333333333333,4,2,1,80,0,1
56255,-83.3333333333333,4,2,1,80,0,1
57083,-71.4285714285714,4,2,1,80,0,1
57393,-83.3333333333333,4,2,1,80,0,1
58738,-62.5,4,2,1,85,0,1
59565,-76.9230769230769,4,2,1,85,0,1
60393,-66.6666666666667,4,2,1,85,0,1
61014,-76.9230769230769,4,2,1,85,0,1
62048,-62.5,4,2,1,85,0,1
62876,-76.9230769230769,4,2,1,85,0,1
63703,-66.6666666666667,4,2,1,85,0,1
64324,-76.9230769230769,4,2,1,85,0,1
64841,-71.4285714285714,4,2,1,85,0,1
65669,-76.9230769230769,4,2,1,85,0,1
67014,-71.4285714285714,4,2,1,85,0,1
67634,-66.6666666666667,4,2,1,90,0,1
67841,-66.6666666666667,4,2,1,85,0,1
68048,-83.3333333333333,4,2,1,85,0,1
68669,-76.9230769230769,4,2,1,80,0,1
68876,-76.9230769230769,4,2,1,65,0,1
69083,-83.3333333333333,4,2,1,65,0,1
70324,-83.3333333333333,4,2,1,70,0,1
71152,-83.3333333333333,4,2,1,75,0,1
71565,-83.3333333333333,4,2,1,80,0,1
71979,-1000,4,2,1,80,0,1
72393,-1000,4,2,1,40,0,1
73427,-1000,4,2,1,70,0,1
73634,-76.9230769230769,4,2,1,70,0,1
73738,-76.9230769230769,4,2,1,70,0,1
74048,-76.9230769230769,4,2,1,70,0,1
74152,-76.9230769230769,4,2,1,70,0,1
74462,-76.9230769230769,4,2,1,70,0,1
74876,-100,4,2,1,40,0,0
75186,-100,4,2,1,5,0,0
75289,-83.3333333333333,4,2,1,70,0,0
76220,-71.4285714285714,4,2,1,70,0,0
76531,-83.3333333333333,4,2,1,70,0,0
77876,-71.4285714285714,4,2,1,70,0,0
78186,-83.3333333333333,4,2,1,70,0,0
78600,-66.6666666666667,4,2,1,70,0,0
79014,-100,4,2,1,70,0,0
80048,-500,4,2,1,60,0,0
82634,-500,4,2,1,5,0,0
82686,-100,4,2,1,60,0,0

[Colours]
Combo1 : 128,255,128
Combo2 : 239,99,120
Combo3 : 162,255,255
Combo4 : 255,255,128

[HitObjects]
99,146,186,6,0,B|81:116|83:80|83:80|69:110|32:130,1,134.999999999999,0|0,3:2|3:2,0:0:0:0:
31,233,600,5,0,3:2:0:0:
45,224,703,1,0,3:2:0:0:
116,265,807,2,0,L|139:391,1,80.9999975280759,4|0,0:0|0:0,0:0:0:0:
252,316,1014,2,0,B|286:291|286:291|271:233,1,80.9999975280759,4|0,0:0|0:0,0:0:0:0:
223,121,1220,5,8,0:0:0:0:
220,102,1324,1,8,0:0:0:0:
216,83,1427,1,0,3:2:0:0:
252,11,1531,6,0,B|291:17|291:17|293:87,1,80.9999975280759,4|0,3:2|0:0,0:0:0:0:
382,102,1738,2,0,B|497:58|497:58|456:142,1,188.999994232177,4|0,0:0|3:2,0:0:0:0:
511,215,2048,2,0,B|536:238|536:238|493:222,1,80.9999975280759,12|0,0:0|0:0,0:0:0:0:
356,253,2255,5,0,3:2:0:0:
370,244,2358,1,0,3:2:0:0:
432,295,2462,2,0,L|409:421,1,80.9999975280759,4|0,3:2|0:0,0:0:0:0:
289,374,2669,2,0,B|251:356|251:356|255:273,1,80.9999975280759,12|0,3:2|0:0,0:0:0:0:
310,174,2876,5,8,0:0:0:0:
313,155,2979,1,8,0:0:0:0:
316,136,3083,1,8,0:0:0:0:
291,59,3186,6,0,B|252:43|252:43|225:83,1,80.9999975280759,4|0,3:2|0:0,0:0:0:0:
117,29,3393,2,0,P|136:123|147:242,1,188.999994232177,12|8,0:0|0:0,0:0:0:0:
50,297,3703,5,8,0:0:0:0:
53,278,3807,1,8,0:0:0:0:
3,215,3910,5,8,3:2:0:0:
0,196,4014,1,0,3:2:0:0:
36,125,4117,6,0,P|130:125|116:245,1,202.500007724761,0|0,3:2|0:0,0:0:0:0:
132,238,5358,6,0,P|128:305|190:316,1,134.999999999999,0|0,3:2|0:0,0:0:0:0:
271,377,5669,6,0,P|283:268|308:161,1,215.999999999999,4|0,3:2|0:0,0:0:0:0:
369,27,5979,6,0,B|409:31|409:31|421:80,1,80.9999975280759,8|0,0:0|0:0,0:0:0:0:
391,195,6186,1,0,3:2:0:0:
393,210,6289,1,0,0:0:0:0:
467,239,6393,2,0,B|504:224|504:224|501:160,1,80.9999975280759,8|0,0:0|0:0,0:0:0:0:
329,128,6600,6,0,B|204:168|204:168|240:147|241:86,1,202.500007724761,0|8,3:2|0:0,0:0:0:0:
137,13,6910,2,0,L|146:93,1,80.9999975280759,0|0,3:2|0:0,0:0:0:0:
56,103,7117,2,0,L|45:14,1,80.9999975280759,0|8,3:2|0:0,0:0:0:0:
18,266,7324,6,0,B|-15:227|-15:227|44:244,1,108,0|0,3:2|3:2,0:0:0:0:
175,297,7634,6,0,L|164:386,1,80.9999975280759,8|0,0:0|0:0,0:0:0:0:
120,201,7841,1,0,3:2:0:0:
117,185,7945,1,0,3:2:0:0:
172,128,8048,2,0,B|214:139|214:139|227:205,1,80.9999975280759,8|0,0:0|0:0,0:0:0:0:
292,307,8255,6,0,B|356:315|367:257|380:191|447:196,1,202.500007724761,0|8,3:2|3:2,0:0:0:0:
509,293,8565,2,0,P|488:327|448:324,1,80.9999975280759,0|0,3:2|0:0,0:0:0:0:
221,175,8772,2,0,P|259:174|279:207,1,80.9999975280759,0|8,3:2|0:0,0:0:0:0:
350,378,8979,6,0,P|360:266|381:114,1,229.500004377364,4|0,3:2|3:2,0:0:0:0:
498,42,9289,6,0,B|515:80|515:80|489:109,1,80.9999975280759,8|0,0:0|0:0,0:0:0:0:
284,84,9496,1,0,3:2:0:0:
276,69,9600,1,0,3:2:0:0:
332,11,9703,2,0,B|374:8|374:8|394:62,1,80.9999975280759,8|0,0:0|0:0,0:0:0:0:
450,178,9910,6,0,L|433:272,1,80.9999975280759,0|0,3:2|0:0,0:0:0:0:
387,380,10117,2,0,B|347:384|347:384|325:323,1,80.9999975280759,8|0,3:2|0:0,0:0:0:0:
257,218,10324,1,0,3:2:0:0:
279,207,10427,1,0,3:2:0:0:
278,231,10531,1,0,3:2:0:0:
224,293,10634,6,0,P|122:270|-16:244,1,215.999999999999,12|0,0:0|3:2,0:0:0:0:
106,384,10945,2,0,B|134:357|134:357|119:302,1,80.9999975280759,12|0,0:0|0:0,0:0:0:0:
83,123,11152,1,0,3:2:0:0:
70,112,11255,1,0,3:2:0:0:
0,148,11358,2,0,B|-10:188|-10:188|17:214,1,80.9999975280759,12|0,3:2|0:0,0:0:0:0:
161,239,11565,6,0,L|177:144,1,80.9999975280759,0|0,3:2|0:0,0:0:0:0:
220,16,11772,1,10,3:2:0:0:
275,21,11876,1,8,0:0:0:0:
323,51,11979,1,10,0:0:0:0:
355,96,12083,1,8,0:0:0:0:
365,151,12186,1,2,3:2:0:0:
350,206,12289,1,0,3:2:0:0:
345,211,12393,5,2,3:2:0:0:
491,53,12807,6,0,B|499:35|515:26|515:26|491:26|483:53,1,74.25000226593,4|0,0:0|0:0,0:0:0:0:
429,174,13014,6,0,P|408:147|400:114,1,67.4999999999997,2|0,0:0|0:0,0:0:0:0:
265,205,13220,6,0,B|236:240|242:297|287:324|287:324|298:294|343:273,1,188.999994232177,2|0,0:0|0:0,0:0:0:0:
463,256,13531,2,0,B|488:250|500:229|500:229|500:257|527:300,2,94.4999971160886,10|0|0,0:0|0:0|0:0,0:0:0:0:
381,376,13841,6,0,P|283:268|144:223,1,283.499991348266,6|0,0:0|0:0,0:0:0:0:
24,315,14255,6,0,B|11:360|11:360|58:301,1,94.4999971160886,12|0,0:0|0:0,0:0:0:0:
8,130,14462,5,0,3:2:0:0:
2,143,14565,1,8,3:2:0:0:
0,157,14669,2,0,P|14:192|50:206,1,74.25000226593,2|0,3:2|3:2,0:0:0:0:
147,297,14876,6,0,L|160:187,1,74.25000226593,10|0,0:0|3:2,0:0:0:0:
328,186,15083,2,0,P|299:180|260:215,1,74.25000226593,2|0,3:2|3:2,0:0:0:0:
158,209,15289,6,0,L|171:106,1,74.25000226593,10|0,0:0|3:2,0:0:0:0:
67,5,15496,2,0,P|112:20|123:74,1,74.25000226593,2|0,3:2|3:2,0:0:0:0:
0,157,15703,6,0,P|120:100|253:65,1,263.249987949371,6|0,0:0|3:2,0:0:0:0:
264,74,16117,1,8,0:0:0:0:
315,247,16324,6,0,P|280:235|271:172,1,74.25000226593,2|0,3:2|0:0,0:0:0:0:
390,119,16531,2,0,P|459:128|492:213,1,148.50000453186,2|0,3:2|0:0,0:0:0:0:
357,31,16841,1,2,3:2:0:0:
357,31,16945,2,0,P|386:1|434:7,1,74.25000226593,8|0,0:0|0:0,0:0:0:0:
512,81,17152,6,0,P|435:154|391:296,1,242.999992584228,2|0,3:2|0:0,0:0:0:0:
500,373,17565,6,0,B|535:384|535:384|495:329,1,74.25000226593,0|0,3:2|0:0,0:0:0:0:
399,300,17772,2,0,P|361:313|315:333,1,74.25000226593,8|0,0:0|0:0,0:0:0:0:
244,232,17979,1,0,3:2:0:0:
263,203,18083,1,0,3:2:0:0:
299,197,18186,1,0,3:2:0:0:
115,114,18393,6,0,P|85:132|80:168,1,74.25000226593,2|0,3:2|0:0,0:0:0:0:
0,265,18600,2,0,P|18:294|54:299,1,74.25000226593,10|0,0:0|0:0,0:0:0:0:
148,384,18807,2,0,P|177:365|182:329,1,74.25000226593,2|0,3:2|0:0,0:0:0:0:
244,232,19014,6,0,P|171:196|46:164,1,175.499991966247,2|0,3:2|3:2,0:0:0:0:
66,182,19427,1,8,0:0:0:0:
272,131,19634,6,0,P|307:121|321:86,1,74.25000226593,2|0,3:2|3:2,0:0:0:0:
201,11,19841,2,0,P|129:13|125:102,1,148.50000453186,2|0,3:2|0:0,0:0:0:0:
48,260,20152,1,2,3:2:0:0:
48,260,20255,2,0,P|13:250|-1:215,1,74.25000226593,8|0,0:0|0:0,0:0:0:0:
120,95,20462,6,0,P|166:208|181:350,1,242.999992584228,2|0,3:2|3:2,0:0:0:0:
300,265,20876,6,0,B|320:232|320:232|316:267,1,74.25000226593,0|0,3:2|0:0,0:0:0:0:
346,382,21083,2,0,P|378:364|413:354,1,74.25000226593,8|0,0:0|0:0,0:0:0:0:
512,229,21289,5,2,3:2:0:0:
504,241,21393,1,0,3:2:0:0:
491,249,21496,2,0,P|455:239|423:220,1,74.25000226593,2|0,3:2|0:0,0:0:0:0:
368,77,21703,1,2,3:2:0:0:
368,77,21807,1,0,3:2:0:0:
368,77,21910,2,0,P|371:38|393:-18,2,74.25000226593,8|0|2,0:0|0:0|3:2,0:0:0:0:
317,267,22324,6,0,B|271:273|255:228|236:180|182:190,1,161.999995056152,2|2,3:2|3:2,0:0:0:0:
70,295,22634,1,0,0:0:0:0:
70,295,22738,2,0,P|34:291|16:259,1,74.25000226593,10|0,0:0|0:0,0:0:0:0:
118,107,22945,2,0,P|86:124|82:160,1,74.25000226593,2|0,3:2|0:0,0:0:0:0:
185,270,23152,6,0,B|234:276|253:226|273:174|332:186,1,175.499991966247,2|0,3:2|0:0,0:0:0:0:
449,253,23462,1,2,3:2:0:0:
449,253,23565,2,0,P|445:288|413:306,1,74.25000226593,8|0,0:0|0:0,0:0:0:0:
250,351,23772,6,0,P|250:252|259:134,1,188.999994232177,14|0,0:0|3:2,0:0:0:0:
260,117,24083,1,8,3:2:0:0:
260,117,24186,1,0,3:2:0:0:
185,270,24393,1,8,0:0:0:0:
368,77,24600,2,0,P|401:83|418:119,1,74.25000226593,0|0,3:2|3:2,0:0:0:0:
426,228,24807,5,2,3:2:0:0:
421,250,24910,1,0,3:2:0:0:
417,275,25014,1,2,3:2:0:0:
414,299,25117,1,0,3:2:0:0:
470,367,25220,6,0,B|509:354|509:354|512:302,1,80.9999975280759,10|8,0:0|0:0,0:0:0:0:
308,211,25427,2,0,B|275:185|275:185|290:135,1,80.9999975280759,10|8,0:0|0:0,0:0:0:0:
426,228,25634,6,0,P|340:287|283:368,1,202.500007724761,14|0,0:0|0:0,0:0:0:0:
115,245,26048,6,0,B|140:275|140:275|132:202,1,80.9999975280759,10|0,0:0|0:0,0:0:0:0:
144,67,26255,5,2,3:2:0:0:
138,82,26358,1,0,3:2:0:0:
180,149,26462,2,0,P|250:138|247:50,1,161.999995056152,6|0,0:0|0:0,0:0:0:0:
74,10,26772,2,0,B|42:35|42:35|51:74,1,80.9999975280759,6|0,0:0|0:0,0:0:0:0:
0,255,27083,6,0,P|101:226|115:361,1,263.249987949371,6|0,0:0|0:0,0:0:0:0:
104,369,27496,1,2,3:2:0:0:
224,275,27703,5,10,0:0:0:0:
244,278,27807,1,8,0:0:0:0:
248,193,27910,5,2,3:2:0:0:
268,190,28014,1,8,3:2:0:0:
328,251,28117,6,0,B|347:272|347:272|451:213|451:213|485:252,1,175.499991966247,0|2,3:2|3:2,0:0:0:0:
503,351,28427,1,0,3:2:0:0:
503,351,28531,2,0,B|468:356|468:356|435:288,1,74.25000226593,10|0,0:0|3:2,0:0:0:0:
315,144,28738,6,0,P|281:156|268:189,1,74.25000226593,2|8,3:2|0:0,0:0:0:0:
270,384,28945,2,0,P|304:372|317:339,1,74.25000226593,6|0,0:0|0:0,0:0:0:0:
192,270,29152,2,0,P|153:279|107:292,1,74.25000226593,2|0,3:2|0:0,0:0:0:0:
10,192,29358,5,10,0:0:0:0:
3,176,29462,1,0,3:2:0:0:
3,161,29565,2,0,P|17:127|52:115,1,74.25000226593,2|8,3:2|3:2,0:0:0:0:
114,6,29772,2,0,P|146:20|158:55,1,74.25000226593,10|0,0:0|3:2,0:0:0:0:
248,193,29979,2,0,P|281:181|297:147,1,74.25000226593,2|0,3:2|3:2,0:0:0:0:
276,6,30186,5,10,0:0:0:0:
276,6,30393,2,0,P|219:116|190:260,1,263.249987949371,6|0,0:0|0:0,0:0:0:0:
252,375,30807,6,0,P|287:363|300:330,1,74.25000226593,0|0,3:2|0:0,0:0:0:0:
422,322,31014,1,8,0:0:0:0:
427,308,31117,1,0,0:0:0:0:
426,294,31220,2,0,P|414:259|381:246,1,74.25000226593,0|0,3:2|3:2,0:0:0:0:
299,167,31427,5,10,0:0:0:0:
296,147,31531,1,0,3:2:0:0:
363,102,31634,5,2,3:2:0:0:
366,82,31738,1,0,3:2:0:0:
376,3,31841,6,0,B|413:0|413:0|430:35,1,74.25000226593,10|0,3:2|3:2,0:0:0:0:
483,166,32048,2,0,B|516:149|516:149|512:112,1,74.25000226593,2|0,3:2|3:2,0:0:0:0:
381,246,32255,6,0,P|295:202|193:175,1,202.500007724761,6|0,0:0|3:2,0:0:0:0:
15,216,32565,1,0,3:2:0:0:
15,216,32669,2,0,B|-1:260|-1:260|48:232,1,101.250003862381,8|0,0:0|3:2,0:0:0:0:
183,281,32876,5,2,3:2:0:0:
186,300,32979,1,0,3:2:0:0:
129,357,33083,2,0,P|44:332|82:208,1,202.500007724761,6|0,0:0|0:0,0:0:0:0:
152,125,33393,2,0,B|192:135|192:135|194:186,1,80.9999975280759,2|0,3:2|0:0,0:0:0:0:
257,353,33703,6,0,B|313:369|351:305|346:279|340:251|373:191|452:204,1,263.249987949371,6|0,0:0|0:0,0:0:0:0:
512,265,34117,1,2,3:2:0:0:
512,281,34220,1,0,3:2:0:0:
509,295,34324,2,0,P|486:326|445:323,1,74.25000226593,10|0,0:0|3:2,0:0:0:0:
418,121,34531,1,2,3:2:0:0:
431,129,34634,1,0,3:2:0:0:
442,138,34738,2,0,P|457:173|434:207,1,74.25000226593,4|0,0:0|0:0,0:0:0:0:
305,278,34945,6,0,B|269:278|269:278|247:227,1,74.25000226593,0|0,3:2|3:2,0:0:0:0:
224,124,35152,1,8,0:0:0:0:
227,109,35255,1,0,3:2:0:0:
230,93,35358,1,2,3:2:0:0:
233,77,35462,1,0,3:2:0:0:
174,17,35565,6,0,P|86:27|99:125,1,188.999994232177,2|0,3:2|0:0,0:0:0:0:
322,194,35979,6,0,P|348:169|345:130,1,67.4999999999997,2|0,3:2|0:0,0:0:0:0:
328,51,36186,1,2,3:2:0:0:
328,51,36289,1,0,3:2:0:0:
328,51,36393,1,8,0:0:0:0:
111,132,36600,1,2,3:2:0:0:
111,132,36703,2,0,P|119:171|123:223,1,74.25000226593,8|0,0:0|0:0,0:0:0:0:
0,353,37014,6,0,B|33:377|33:377|121:283|261:267,1,283.499991348266,2|0,3:2|0:0,0:0:0:0:
205,380,37427,6,0,P|171:365|160:332,1,67.4999999999997,2|0,3:2|0:0,0:0:0:0:
264,211,37634,2,0,P|243:237|247:273,1,67.4999999999997,2|0,3:2|0:0,0:0:0:0:
323,354,37841,2,0,P|355:362|400:390,2,67.4999999999997,2|0|0,3:2|0:0|3:0,0:0:0:0:
221,137,38255,6,0,P|262:64|348:98,1,188.999994232177,6|2,0:0|2:3,0:0:0:0:
453,183,38565,1,8,0:0:0:0:
468,180,38669,2,0,P|497:160|501:121,1,74.25000226593,2|0,3:2|3:2,0:0:0:0:
422,0,38876,6,0,P|401:88|394:193,1,188.999994232177,6|2,3:2|3:2,0:0:0:0:
312,270,39186,1,0,3:2:0:0:
297,267,39289,2,0,P|268:247|264:208,1,74.25000226593,10|0,3:2|3:0,0:0:0:0:
413,347,39496,5,2,3:2:0:0:
426,341,39600,1,0,3:2:0:0:
441,337,39703,2,0,P|479:324|533:315,1,74.25000226593,10|0,0:0|3:0,0:0:0:0:
393,186,39910,1,2,3:2:0:0:
378,185,40014,1,0,3:2:0:0:
363,181,40117,2,0,P|323:174|271:156,1,74.25000226593,10|0,0:0|3:0,0:0:0:0:
181,235,40324,5,2,3:2:0:0:
168,243,40427,1,0,3:2:0:0:
94,217,40531,2,0,P|67:191|69:156,1,74.25000226593,8|0,0:0|3:2,0:0:0:0:
217,114,40738,2,0,P|242:88|240:53,1,74.25000226593,2|0,3:2|3:2,0:0:0:0:
58,16,40945,2,0,P|93:12|120:36,1,74.25000226593,10|0,3:2|3:2,0:0:0:0:
191,145,41152,5,2,3:2:0:0:
186,159,41255,1,0,3:2:0:0:
182,171,41358,2,0,P|174:206|169:243,1,74.25000226593,8|0,0:0|3:2,0:0:0:0:
78,364,41565,1,0,3:2:0:0:
78,364,41669,1,0,3:2:0:0:
78,364,41772,5,8,0:0:0:0:
22,344,41876,1,8,0:0:0:0:
0,288,41979,1,8,0:0:0:0:
21,232,42083,1,8,0:0:0:0:
73,198,42186,6,0,P|112:200|136:230,1,80.9999975280759,14|0,0:0|0:0,0:0:0:0:
185,330,42393,1,10,0:0:0:0:
182,345,42496,1,4,0:0:0:0:
250,384,42600,2,0,P|287:373|303:337,1,80.9999975280759,2|0,3:2|3:2,0:0:0:0:
458,314,42807,6,0,B|474:328|481:349|481:349|462:332|431:322,1,87.7499959831236,2|0,3:2|0:0,0:0:0:0:
339,243,43014,6,0,P|334:205|322:144,1,80.9999975280759,6|0,3:2|3:2,0:0:0:0:
442,104,43220,1,2,3:2:0:0:
443,88,43324,1,0,3:2:0:0:
445,73,43427,2,0,P|450:35|461:-22,3,74.25000226593,10|8|8|8,0:0|0:0|0:0|0:0,0:0:0:0:
429,207,43841,1,0,0:0:0:0:
512,163,44048,5,2,0:0:0:0:
356,136,44255,5,2,0:0:0:0:
426,229,44462,5,2,0:0:0:0:
407,344,44669,6,0,B|401:355|401:355|402:371|402:371|408:357|408:357|408:342,1,53.9999999999998,2|0,0:0|0:0,0:0:0:0:
199,235,45083,6,0,B|223:224|240:191|240:191|237:225|257:269,1,121.499996292114,0|0,3:2|0:0,0:0:0:0:
95,130,45496,6,0,P|92:38|184:31,1,202.500007724761,14|0,0:1|3:2,0:0:0:0:
99,235,45807,2,0,P|7:237|0:145,1,202.500007724761,2|0,3:2|0:0,0:0:0:0:
235,119,46117,5,2,3:2:0:0:
235,119,46220,1,2,3:2:0:0:
187,47,46324,2,0,P|196:135|199:243,1,188.999994232177,2|0,3:2|3:2,0:0:0:0:
273,356,46634,1,2,3:2:0:0:
294,367,46738,2,0,P|335:357|346:299,1,80.9999975280759,8|0,0:0|0:0,0:0:0:0:
415,159,46945,2,0,P|454:177|452:230,1,80.9999975280759,2|0,3:2|0:0,0:0:0:0:
499,309,47152,6,0,P|407:271|290:240,1,188.999994232177,2|0,3:2|3:2,0:0:0:0:
205,317,47462,2,0,P|122:298|151:197,1,188.999994232177,2|0,3:2|3:2,0:0:0:0:
289,170,47772,5,2,3:2:0:0:
289,170,47876,1,0,0:0:0:0:
321,246,47979,2,0,P|326:140|337:39,1,188.999994232177,2|0,3:2|3:2,0:0:0:0:
192,79,48289,2,0,P|188:43|178:-14,2,74.25000226593,0|8|0,3:2|0:0|0:0,0:0:0:0:
323,44,48600,5,2,3:2:0:0:
439,150,48807,2,0,P|442:58|351:50,1,202.500007724761,2|2,3:2|3:2,0:0:0:0:
413,288,49117,2,0,P|505:291|512:199,1,202.500007724761,2|0,3:2|0:0,0:0:0:0:
303,209,49427,5,2,3:2:0:0:
303,209,49531,1,2,3:2:0:0:
253,278,49634,2,0,B|187:287|177:228|169:162|93:171,1,188.999994232177,2|0,3:2|3:2,0:0:0:0:
3,255,49945,1,2,3:2:0:0:
17,277,50048,2,0,P|52:300|95:279,1,80.9999975280759,8|0,0:0|0:0,0:0:0:0:
154,111,50255,2,0,P|123:129|116:180,1,80.9999975280759,2|0,3:2|0:0,0:0:0:0:
177,383,50462,6,0,P|190:282|217:182,1,188.999994232177,2|0,3:2|3:2,0:0:0:0:
67,207,50772,2,0,P|54:106|27:6,1,188.999994232177,2|0,3:2|0:0,0:0:0:0:
203,15,51083,6,0,P|239:34|245:88,1,80.9999975280759,2|0,3:2|0:0,0:0:0:0:
211,197,51289,2,0,P|316:188|329:96,1,188.999994232177,2|0,3:2|3:2,0:0:0:0:
459,81,51600,2,0,P|465:44|475:5,2,74.25000226593,0|8|0,3:2|0:0|0:0,0:0:0:0:
347,105,51910,5,2,3:2:0:0:
510,275,52117,2,0,P|491:218|382:256,1,188.999994232177,6|2,0:0|3:2,0:0:0:0:
340,383,52427,2,0,P|329:297|295:168,1,188.999994232177,2|2,3:2|3:2,0:0:0:0:
176,248,52738,2,0,P|185:285|222:298,1,80.9999975280759,2|2,3:2|3:2,0:0:0:0:
232,97,52945,6,0,B|207:87|197:63|197:63|203:89|185:114,1,101.250003862381,2|0,3:2|0:0,0:0:0:0:
50,34,53152,2,0,B|75:24|84:0|84:0|79:26|94:49,1,101.250003862381,2|0,3:2|0:0,0:0:0:0:
109,185,53358,2,0,P|68:194|22:206,1,80.9999975280759,10|0,0:0|0:0,0:0:0:0:
4,199,53565,5,2,3:2:0:0:
83,367,53772,2,0,B|140:378|157:324|172:268|241:281,1,188.999994232177,2|2,3:2|3:2,0:0:0:0:
340,383,54083,2,0,P|408:364|404:249,1,188.999994232177,2|2,3:2|3:2,0:0:0:0:
382,132,54393,2,0,P|346:151|341:189,1,80.9999975280759,2|2,3:2|3:2,0:0:0:0:
185,155,54600,6,0,B|159:147|177:114|177:114|216:122|203:148,1,101.250003862381,2|0,3:2|0:0,0:0:0:0:
254,287,54807,2,0,B|268:307|231:322|231:322|210:290|236:280,1,101.250003862381,2|0,3:2|0:0,0:0:0:0:
340,188,55014,2,0,P|380:197|426:209,1,80.9999975280759,10|0,3:2|0:0,0:0:0:0:
496,105,55220,6,0,P|517:75|512:39,1,74.25000226593,2|0,3:2|3:2,0:0:0:0:
429,17,55427,2,0,P|407:46|412:82,1,74.25000226593,4|0,0:0|0:0,0:0:0:0:
204,130,55634,6,0,P|180:98|184:59,1,80.9999975280759,2|0,3:2|0:0,0:0:0:0:
267,38,55841,2,0,P|290:69|285:109,1,80.9999975280759,8|0,3:2|0:0,0:0:0:0:
260,246,56048,5,10,0:0:0:0:
235,240,56152,1,8,0:0:0:0:
181,302,56255,2,0,L|169:385,1,80.9999975280759,2|0,3:2|0:0,0:0:0:0:
62,279,56462,2,0,B|30:252|30:252|52:189,1,80.9999975280759,10|8,0:0|0:0,0:0:0:0:
5,86,56669,5,2,3:2:0:0:
26,75,56772,1,0,3:2:0:0:
105,98,56876,5,2,3:2:0:0:
129,94,56979,1,0,3:2:0:0:
174,24,57083,6,0,P|124:108|151:209,1,188.999994232177,6|8,0:0|0:0,0:0:0:0:
62,279,57393,6,0,B|21:289|21:289|-7:248,2,80.9999975280759,0|0|0,3:2|0:0|3:2,0:0:0:0:
135,384,57703,2,0,L|228:364,1,80.9999975280759,14|0,0:0|0:0,0:0:0:0:
297,277,57910,5,10,0:0:0:0:
260,246,58014,1,8,0:0:0:0:
290,210,58117,1,8,0:0:0:0:
326,239,58220,1,8,0:0:0:0:
406,272,58324,5,8,0:0:0:0:
443,208,58427,1,8,0:0:0:0:
379,171,58531,1,8,0:0:0:0:
342,234,58634,1,8,0:0:0:0:
411,287,58738,6,0,P|511:269|520:167,1,215.999999999999,14|10,0:0|0:0,0:0:0:0:
305,375,59048,2,0,P|262:274|185:192,1,215.999999999999,10|0,3:2|3:2,0:0:0:0:
64,97,59358,5,10,3:2:0:0:
35,111,59462,1,2,3:2:0:0:
7,184,59565,2,0,P|16:228|57:245,1,87.7499959831236,2|0,3:2|3:2,0:0:0:0:
234,102,59772,1,10,0:0:0:0:
208,100,59876,2,0,P|172:121|166:171,1,87.7499959831236,2|0,3:2|0:0,0:0:0:0:
167,315,60083,1,0,3:2:0:0:
191,325,60186,2,0,P|232:315|253:268,1,87.7499959831236,10|0,0:0|0:0,0:0:0:0:
298,138,60393,6,0,P|199:124|61:92,1,202.500007724761,2|8,3:2|0:0,0:0:0:0:
243,260,60703,2,0,P|343:277|460:307,1,202.500007724761,2|0,3:2|3:2,0:0:0:0:
345,383,61014,6,0,B|319:350|319:350|337:297,1,87.7499959831236,10|0,0:0|0:0,0:0:0:0:
483,279,61220,2,0,B|509:246|509:246|491:193,1,87.7499959831236,2|0,3:2|0:0,0:0:0:0:
298,138,61427,5,8,0:0:0:0:
347,203,61531,2,0,L|330:108,1,87.7499959831236,0|0,3:2|3:2,0:0:0:0:
493,45,61738,5,0,3:2:0:0:
444,110,61841,2,0,L|461:15,1,87.7499959831236,10|0,0:0|0:0,0:0:0:0:
332,117,62048,6,0,P|234:88|182:174,1,215.999999999999,2|8,3:2|0:0,0:0:0:0:
124,350,62358,2,0,P|196:281|148:193,1,215.999999999999,2|0,3:2|3:2,0:0:0:0:
16,119,62669,5,10,0:0:0:0:
2,90,62772,1,2,3:2:0:0:
49,28,62876,2,0,B|91:24|91:24|116:76,1,87.7499959831236,2|0,3:2|3:2,0:0:0:0:
237,92,63083,1,8,0:0:0:0:
254,112,63186,2,0,B|255:156|255:156|188:185,1,87.7499959831236,2|0,3:2|0:0,0:0:0:0:
99,254,63393,1,0,3:2:0:0:
73,259,63496,2,0,B|36:234|36:234|46:179,1,87.7499959831236,10|0,0:0|0:0,0:0:0:0:
182,173,63703,6,0,P|191:273|198:374,1,202.500007724761,0|8,3:2|0:0,0:0:0:0:
332,210,64014,2,0,P|322:107|311:-21,1,202.500007724761,2|0,3:2|3:2,0:0:0:0:
478,76,64324,6,0,B|511:102|511:102|500:150,1,87.7499959831236,10|0,0:0|0:0,0:0:0:0:
355,279,64531,2,0,B|321:253|321:253|332:210,1,87.7499959831236,6|0,0:0|0:0,0:0:0:0:
360,77,64738,5,8,0:0:0:0:
418,137,64841,2,0,B|328:115|328:115|314:120|314:120|207:94,1,188.999994232177,0|0,3:2|3:2,0:0:0:0:
72,80,65152,5,10,0:0:0:0:
62,57,65255,1,8,0:0:0:0:
117,0,65358,2,0,B|163:19|163:19|126:222,1,188.999994232177,6|8,0:0|0:0,0:0:0:0:
21,224,65669,2,0,B|-7:207|-7:207|11:126,2,87.7499959831236,2|0|0,3:2|0:0|3:2,0:0:0:0:
57,350,65979,6,0,L|168:323,1,87.7499959831236,10|0,0:0|0:0,0:0:0:0:
269,382,66186,5,14,0:0:0:0:
277,363,66289,1,8,0:0:0:0:
357,351,66393,5,8,0:0:0:0:
350,329,66496,1,10,0:0:0:0:
338,250,66600,5,8,0:0:0:0:
318,232,66703,1,8,0:0:0:0:
369,170,66807,2,0,P|412:187|403:250,1,87.7499959831236,10|8,0:0|0:0,0:0:0:0:
232,294,67014,6,0,P|140:242|178:118,1,188.999994232177,14|0,0:0|0:0,0:0:0:0:
161,127,67324,1,6,0:0:0:0:
419,224,67634,6,0,P|498:189|474:69,1,202.500007724761,6|0,0:0|3:2,0:0:0:0:
373,0,67945,5,8,0:0:0:0:
366,23,68048,2,0,P|365:61|376:111,1,80.9999975280759,0|0,3:2|3:2,0:0:0:0:
257,32,68255,2,0,P|266:68|269:119,1,80.9999975280759,8|8,0:0|3:2,0:0:0:0:
326,262,68462,5,10,3:2:0:0:
316,284,68565,1,8,3:2:0:0:
249,326,68669,2,0,B|195:337|183:284|171:227|105:238,1,175.499991966247,14|0,0:0|3:2,0:0:0:0:
38,154,68979,5,2,3:2:0:0:
15,167,69083,2,0,P|-5:203|13:252,1,80.9999975280759,8|0,0:0|3:2,0:0:0:0:
25,371,69289,2,0,P|66:366|92:324,1,80.9999975280759,10|8,0:0|0:0,0:0:0:0:
199,237,69496,5,2,3:2:0:0:
195,212,69600,1,0,3:2:0:0:
191,187,69703,1,0,3:2:0:0:
186,163,69807,1,0,3:2:0:0:
236,97,69910,2,0,B|277:104|277:104|287:152,1,80.9999975280759,8|0,0:0|3:2,0:0:0:0:
400,215,70117,5,2,0:0:0:0:
390,237,70220,1,0,3:2:0:0:
418,311,70324,2,0,P|461:319|501:328,1,80.9999975280759,14|8,0:0|0:0,0:0:0:0:
345,377,70531,2,0,B|317:348|317:348|331:277,1,80.9999975280759,10|8,0:0|0:0,0:0:0:0:
285,142,70738,5,10,0:0:0:0:
295,164,70841,1,8,0:0:0:0:
269,240,70945,2,0,P|225:248|186:257,1,80.9999975280759,10|8,0:0|0:0,0:0:0:0:
31,228,71152,5,4,3:2:0:0:
25,193,71255,1,0,3:2:0:0:
55,163,71358,1,0,3:2:0:0:
106,160,71462,1,0,3:2:0:0:
151,123,71565,1,2,3:2:0:0:
165,56,71669,1,0,3:2:0:0:
129,5,71772,1,2,3:2:0:0:
78,0,71876,1,0,3:2:0:0:
38,29,71979,6,0,P|46:68|51:108,1,80.9999999999997,14|2,0:0|0:0,0:0:0:0:
55,163,73427,5,2,3:2:0:0:
222,182,73634,2,0,B|238:142|238:142|181:179,2,87.7499959831236,10|0|0,3:2|0:0|0:0,0:0:0:0:
20,267,74048,2,0,B|-4:231|-4:231|59:256,2,87.7499959831236,10|0|0,0:0|0:0|0:0,0:0:0:0:
183,381,74462,2,0,B|155:364|155:364|170:288,1,87.7499959831236,10|0,0:0|0:0,0:0:0:0:
253,183,74876,6,0,B|308:196|338:140|323:132|351:79|418:93,1,202.499999999999,2|0,3:2|0:0,0:0:0:0:
506,57,75289,6,0,B|495:171,1,80.9999975280759,6|0,0:0|0:0,0:0:0:0:
445,247,75496,2,0,B|409:233|409:233|412:190,1,80.9999975280759,4|0,0:0|0:0,0:0:0:0:
315,100,75703,5,8,0:0:0:0:
312,81,75807,1,8,0:0:0:0:
309,62,75910,1,0,3:2:0:0:
256,0,76014,6,0,B|219:16|219:16|224:56,1,80.9999975280759,4|0,3:2|0:0,0:0:0:0:
154,149,76220,2,0,B|33:106|33:106|70:182,1,188.999994232177,4|0,3:2|3:2,0:0:0:0:
72,282,76531,2,0,B|49:308|49:308|95:292,1,80.9999975280759,12|0,0:0|0:0,0:0:0:0:
205,236,76738,5,8,0:0:0:0:
220,240,76841,1,8,0:0:0:0:
270,303,76945,2,0,L|254:395,1,80.9999975280759,4|8,3:2|0:0,0:0:0:0:
380,370,77152,2,0,B|410:346|410:346|393:273,1,80.9999975280759,4|0,3:2|0:0,0:0:0:0:
384,180,77358,5,0,3:2:0:0:
387,161,77462,1,8,0:0:0:0:
390,142,77565,1,0,3:2:0:0:
455,96,77669,6,0,B|494:109|494:109|491:155,1,80.9999975280759,4|0,3:2|0:0,0:0:0:0:
512,295,77876,2,0,P|432:264|326:236,1,188.999994232177,12|0,0:0|3:2,0:0:0:0:
206,192,78186,5,8,0:0:0:0:
203,173,78289,1,8,0:0:0:0:
253,110,78393,5,8,0:0:0:0:
255,94,78496,1,8,0:0:0:0:
202,30,78600,6,0,P|130:17|104:131,1,202.500007724761,12|8,0:0|0:0,0:0:0:0:
47,224,78910,5,8,0:0:0:0:
47,224,79014,2,0,B|22:234|22:234|-6:212,4,53.9999999999998,8|8|8|8|8,3:2|0:3|0:3|0:3|0:3,0:0:0:0:
147,291,79427,6,0,B|181:264|181:264|231:292,2,89.9999999999997,8|0|0,3:2|3:2|3:2,0:0:0:0:
75,367,79841,1,8,0:0:0:0:
352,384,80048,6,0,P|226:319|225:153,1,323.999999999999,4|0,0:0|0:0,0:0:0:0:
307,89,82686,6,0,P|320:105|327:129,4,33.7499999999999,0|0|0|0|0,3:2|3:2|3:2|3:2|3:2,0:0:0:0:
