osu file format v14

[General]
AudioFilename: audio.mp3
AudioLeadIn: 0
PreviewTime: 128653
Countdown: 0
SampleSet: Soft
StackLeniency: 0.4
Mode: 0
LetterboxInBreaks: 0
WidescreenStoryboard: 0

[Editor]
DistanceSpacing: 2.8
BeatDivisor: 4
GridSize: 32
TimelineZoom: 1.6

[Metadata]
Title:my little wish
TitleUnicode:my little wish
Artist:Matsushita
ArtistUnicode:松下
Creator:gazimal
Version:Over Clocking!
Source:ワガママハイスペックOC
Tags:Wagamama High Spec OC Wagahigh 2 japanese j-pop KuBsNia_ZhoYL_ pop jpop Kuse Shizuku- Kazato Asa Shikibe Mayu Over Clocking まどそふと madosoft 田中俊裕 中森優紀 Sound Drive Nakamori yuuki Tanaka Toshihiro ED ending visual novel galgame vn eroge video game
BeatmapID:2991861
BeatmapSetID:1455505

[Difficulty]
HPDrainRate:6
CircleSize:4
OverallDifficulty:8.6
ApproachRate:9.2
SliderMultiplier:1.6
SliderTickRate:1

[Events]
//Background and Video events
0,0,"d9ad1de2dfaa55abb793dcb30b06589c.jpg",0,0
//Break Periods
2,204552,211284
//Storyboard Layer 0 (Background)
//Storyboard Layer 1 (Fail)
//Storyboard Layer 2 (Pass)
//Storyboard Layer 3 (Foreground)
//Storyboard Layer 4 (Overlay)
//Storyboard Sound Samples

[TimingPoints]
422,346.820809248555,4,2,1,50,1,0
508,-100,4,2,2,50,0,0
768,-100,4,2,1,50,0,0
1028,-100,4,2,2,50,0,0
1462,-100,4,2,1,50,0,0
1635,-100,4,2,1,70,0,0
2416,-100,4,2,2,70,0,0
2849,-100,4,2,1,70,0,0
3803,-100,4,2,2,70,0,0
3890,-100,4,2,2,70,0,0
4237,-100,4,2,1,70,0,0
4843,-100,4,2,1,5,0,0
4930,-100,4,2,1,70,0,0
5190,-100,4,2,2,70,0,0
5624,-100,4,2,1,70,0,0
6578,-100,4,2,2,70,0,0
7011,-83.3333333333333,4,2,1,70,0,0
7271,-100,4,2,1,5,0,0
7358,-100,4,2,1,70,0,0
7965,-100,4,2,2,70,0,0
8398,-100,4,2,1,70,0,0
9352,-100,4,2,2,70,0,0
9786,-83.3333333333333,4,2,1,70,0,0
10046,-100,4,2,1,5,0,0
10132,-100,4,2,1,70,0,0
10739,-100,4,2,2,70,0,0
10826,-100,4,2,1,70,0,0
11693,-100,4,2,2,70,0,0
12907,-100,4,2,1,70,0,0
12994,-100,4,2,1,60,0,0
14554,-100,4,2,1,5,0,0
14641,-100,4,2,1,60,0,0
17329,-100,4,2,1,5,0,0
17416,-100,4,2,1,60,0,0
18716,-100,4,2,1,5,0,0
18803,-100,4,2,1,60,0,0
19757,-100,4,2,2,60,0,0
20190,-100,4,2,1,60,0,0
20450,-100,4,2,2,60,0,0
20537,-100,4,2,1,60,0,0
21491,-100,4,2,1,5,0,0
21578,-100,4,2,1,60,0,0
22531,-100,4,2,1,5,0,0
22791,-100,4,2,1,60,0,0
22878,-100,4,2,1,5,0,0
23138,-100,4,2,1,60,0,0
23225,-100,4,2,1,5,0,0
23485,-100,4,2,1,60,0,0
23919,-100,4,2,2,60,0,0
24352,-100,4,2,1,60,0,0
25653,-100,4,2,1,5,0,0
25739,-100,4,2,1,60,0,0
28427,-100,4,2,1,5,0,0
28514,-100,4,2,1,60,0,0
30855,-100,4,2,2,60,0,0
30942,-100,4,2,1,60,0,0
31549,-100,4,2,2,60,0,0
31982,-100,4,2,1,60,0,0
33803,-100,4,2,1,5,0,0
33890,-100,4,2,1,60,0,0
34757,-100,4,2,2,60,0,0
35104,-100,4,2,1,65,0,0
37791,-100,4,2,1,5,0,0
37878,-100,4,2,1,65,0,0
43080,-83.3333333333333,4,2,1,65,0,0
43341,-100,4,2,1,5,0,0
43427,-83.3333333333333,4,2,1,70,0,0
46028,-83.3333333333333,4,2,2,70,0,0
46202,-83.3333333333333,4,2,1,70,0,0
46549,-83.3333333333333,4,2,2,70,0,0
47069,-83.3333333333333,4,2,1,70,0,0
47156,-83.3333333333333,4,2,2,70,0,0
47242,-83.3333333333333,4,2,1,70,0,0
47763,-83.3333333333333,4,2,2,70,0,0
48283,-83.3333333333333,4,2,1,70,0,0
48803,-83.3333333333333,4,2,2,70,0,0
48976,-71.4285714285714,4,2,1,80,0,1
49237,-100,4,2,1,5,0,1
49323,-71.4285714285714,4,2,1,80,0,1
49583,-71.4285714285714,4,2,2,80,0,1
49670,-71.4285714285714,4,2,1,80,0,1
51144,-71.4285714285714,4,2,2,80,0,1
51404,-71.4285714285714,4,2,1,80,0,1
51664,-100,4,2,1,5,0,1
51751,-71.4285714285714,4,2,1,80,0,1
52011,-100,4,2,1,5,0,1
52098,-71.4285714285714,4,2,1,80,0,1
52358,-71.4285714285714,4,2,2,80,0,1
52791,-71.4285714285714,4,2,1,80,0,1
53919,-71.4285714285714,4,2,2,80,0,1
54179,-71.4285714285714,4,2,1,80,0,1
54439,-100,4,2,1,5,0,1
54526,-71.4285714285714,4,2,1,80,0,1
55132,-71.4285714285714,4,2,2,80,0,1
55566,-71.4285714285714,4,2,1,80,0,1
56693,-71.4285714285714,4,2,2,80,0,1
56953,-71.4285714285714,4,2,1,80,0,1
57213,-100,4,2,1,5,0,1
57300,-71.4285714285714,4,2,1,80,0,1
59554,-71.4285714285714,4,2,2,80,0,1
59728,-71.4285714285714,4,2,1,80,0,1
59901,-71.4285714285714,4,2,2,80,0,1
60075,-71.4285714285714,4,2,1,80,0,1
60335,-100,4,2,1,5,0,1
60422,-71.4285714285714,4,2,1,80,0,1
60682,-71.4285714285714,4,2,2,80,0,1
61115,-71.4285714285714,4,2,1,80,0,1
61375,-71.4285714285714,4,2,2,80,0,1
61809,-71.4285714285714,4,2,1,80,0,1
62242,-71.4285714285714,4,2,2,80,0,1
62502,-71.4285714285714,4,2,1,80,0,1
62763,-100,4,2,1,5,0,1
62849,-71.4285714285714,4,2,1,80,0,1
63456,-71.4285714285714,4,2,2,80,0,1
63890,-71.4285714285714,4,2,1,80,0,1
65017,-71.4285714285714,4,2,2,80,0,1
65104,-71.4285714285714,4,2,1,80,0,1
65537,-100,4,2,1,5,0,1
65624,-71.4285714285714,4,2,1,80,0,1
66231,-71.4285714285714,4,2,2,80,0,1
66664,-71.4285714285714,4,2,1,80,0,1
66924,-71.4285714285714,4,2,2,80,0,1
67011,-71.4285714285714,4,2,1,80,0,1
67791,-71.4285714285714,4,2,2,80,0,1
68052,-71.4285714285714,4,2,1,80,0,1
68312,-100,4,2,1,5,0,1
68398,-71.4285714285714,4,2,1,80,0,1
70566,-71.4285714285714,4,2,2,80,0,1
71173,-71.4285714285714,4,2,1,80,0,1
71780,-71.4285714285714,4,2,2,80,0,1
71867,-71.4285714285714,4,2,1,80,0,1
72647,-71.4285714285714,4,2,2,80,0,1
72907,-71.4285714285714,4,2,1,80,0,1
73341,-71.4285714285714,4,2,2,80,0,1
73601,-71.4285714285714,4,2,1,80,0,1
73861,-100,4,2,1,5,0,1
73948,-71.4285714285714,4,2,1,80,0,1
74554,-71.4285714285714,4,2,2,80,0,1
74641,-71.4285714285714,4,2,1,80,0,1
76202,-71.4285714285714,4,2,2,80,0,1
76375,-62.5,4,2,1,80,0,1
76635,-100,4,2,1,5,0,1
76722,-71.4285714285714,4,2,1,80,0,1
77329,-71.4285714285714,4,2,2,80,0,1
77416,-71.4285714285714,4,2,1,80,0,1
78196,-71.4285714285714,4,2,2,80,0,1
78283,-71.4285714285714,4,2,1,80,0,1
78890,-71.4285714285714,4,2,2,80,0,1
79150,-62.5,4,2,2,80,0,1
79410,-100,4,2,2,5,0,1
79497,-71.4285714285714,4,2,2,80,0,1
79757,-71.4285714285714,4,2,1,80,0,1
79930,-71.4285714285714,4,2,2,80,0,1
80017,-71.4285714285714,4,2,1,80,0,1
80190,-71.4285714285714,4,2,2,80,0,1
80364,-71.4285714285714,4,2,1,80,0,1
80450,-71.4285714285714,4,2,2,80,0,1
80711,-71.4285714285714,4,2,2,80,0,0
81231,-333.333333333333,4,2,3,60,0,1
81491,-100,4,2,3,5,0,0
81578,-71.4285714285714,4,2,1,80,0,1
81838,-71.4285714285714,4,2,2,80,0,1
81924,-71.4285714285714,4,2,1,80,0,1
82011,-71.4285714285714,4,2,2,80,0,1
82098,-83.3333333333333,4,2,2,70,0,0
82445,-83.3333333333333,4,2,2,70,0,0
82618,-100,4,2,2,70,0,0
82878,-100,4,2,2,70,0,0
83311,-100,4,2,1,70,0,0
84265,-100,4,2,2,70,0,0
84352,-100,4,2,2,70,0,0
84699,-100,4,2,1,70,0,0
85306,-100,4,2,1,5,0,0
85393,-100,4,2,1,70,0,0
85652,-100,4,2,2,70,0,0
86086,-100,4,2,1,70,0,0
87040,-100,4,2,2,70,0,0
87474,-83.3333333333333,4,2,1,70,0,0
87734,-100,4,2,1,5,0,0
87820,-100,4,2,1,70,0,0
88427,-100,4,2,2,70,0,0
88860,-100,4,2,1,70,0,0
89814,-100,4,2,2,70,0,0
90248,-83.3333333333333,4,2,1,70,0,0
90508,-100,4,2,1,5,0,0
90595,-100,4,2,1,70,0,0
91201,-100,4,2,2,70,0,0
91288,-100,4,2,1,70,0,0
92155,-100,4,2,2,70,0,0
93369,-100,4,2,1,70,0,0
93456,-100,4,2,1,60,0,0
95017,-100,4,2,1,5,0,0
95104,-100,4,2,1,60,0,0
97791,-100,4,2,1,5,0,0
97878,-100,4,2,1,60,0,0
99179,-100,4,2,1,5,0,0
99265,-100,4,2,1,60,0,0
100219,-100,4,2,2,60,0,0
100652,-100,4,2,1,60,0,0
100912,-100,4,2,2,60,0,0
100999,-100,4,2,1,60,0,0
101953,-100,4,2,1,5,0,0
102040,-100,4,2,1,60,0,0
102994,-100,4,2,1,5,0,0
103254,-100,4,2,1,60,0,0
103341,-100,4,2,1,5,0,0
103601,-100,4,2,1,60,0,0
103687,-100,4,2,1,5,0,0
103948,-100,4,2,1,60,0,0
104381,-100,4,2,2,60,0,0
104814,-100,4,2,1,60,0,0
106115,-100,4,2,1,5,0,0
106202,-100,4,2,1,60,0,0
108890,-100,4,2,1,5,0,0
108976,-100,4,2,1,60,0,0
111317,-100,4,2,2,60,0,0
111404,-100,4,2,1,60,0,0
112011,-100,4,2,2,60,0,0
112444,-100,4,2,1,60,0,0
114265,-100,4,2,1,5,0,0
114352,-100,4,2,1,60,0,0
115219,-100,4,2,2,60,0,0
115566,-100,4,2,1,60,0,0
118254,-100,4,2,1,5,0,0
118341,-100,4,2,1,60,0,0
118601,-100,4,2,1,5,0,0
118687,-100,4,2,1,60,0,0
123543,-83.3333333333333,4,2,1,60,0,0
123803,-100,4,2,1,5,0,0
123890,-83.3333333333333,4,2,1,70,0,0
126490,-83.3333333333333,4,2,2,70,0,0
126664,-83.3333333333333,4,2,1,70,0,0
127011,-83.3333333333333,4,2,2,70,0,0
127531,-83.3333333333333,4,2,1,70,0,0
127618,-83.3333333333333,4,2,2,70,0,0
127704,-83.3333333333333,4,2,1,70,0,0
128225,-83.3333333333333,4,2,2,70,0,0
128745,-83.3333333333333,4,2,1,70,0,0
129265,-83.3333333333333,4,2,2,70,0,0
129439,-71.4285714285714,4,2,1,80,0,1
129699,-100,4,2,1,5,0,1
129786,-71.4285714285714,4,2,1,80,0,1
130046,-71.4285714285714,4,2,2,80,0,1
130133,-71.4285714285714,4,2,1,80,0,1
131607,-71.4285714285714,4,2,2,80,0,1
131867,-71.4285714285714,4,2,1,80,0,1
132127,-100,4,2,1,5,0,1
132213,-71.4285714285714,4,2,1,80,0,1
132474,-100,4,2,1,5,0,1
132560,-71.4285714285714,4,2,1,80,0,1
132821,-71.4285714285714,4,2,2,80,0,1
133254,-71.4285714285714,4,2,1,80,0,1
134382,-71.4285714285714,4,2,2,80,0,1
134642,-71.4285714285714,4,2,1,80,0,1
134901,-100,4,2,1,5,0,1
134988,-71.4285714285714,4,2,1,80,0,1
135595,-71.4285714285714,4,2,2,80,0,1
136029,-71.4285714285714,4,2,1,80,0,1
137156,-71.4285714285714,4,2,2,80,0,1
137416,-71.4285714285714,4,2,1,80,0,1
137676,-100,4,2,1,5,0,1
137763,-71.4285714285714,4,2,1,80,0,1
140017,-71.4285714285714,4,2,2,80,0,1
140191,-71.4285714285714,4,2,1,80,0,1
140364,-71.4285714285714,4,2,2,80,0,1
140538,-71.4285714285714,4,2,1,80,0,1
140797,-100,4,2,1,5,0,1
140884,-71.4285714285714,4,2,1,80,0,1
141145,-71.4285714285714,4,2,2,80,0,1
141578,-71.4285714285714,4,2,1,80,0,1
141838,-71.4285714285714,4,2,2,80,0,1
142272,-71.4285714285714,4,2,1,80,0,1
142705,-71.4285714285714,4,2,2,80,0,1
142965,-71.4285714285714,4,2,1,80,0,1
143225,-100,4,2,1,5,0,1
143312,-71.4285714285714,4,2,1,80,0,1
143919,-71.4285714285714,4,2,2,80,0,1
144353,-71.4285714285714,4,2,1,80,0,1
145480,-71.4285714285714,4,2,2,80,0,1
145567,-71.4285714285714,4,2,1,80,0,1
146000,-100,4,2,1,5,0,1
146086,-71.4285714285714,4,2,1,80,0,1
146694,-71.4285714285714,4,2,2,80,0,1
147127,-71.4285714285714,4,2,1,80,0,1
147387,-71.4285714285714,4,2,2,80,0,1
147474,-71.4285714285714,4,2,1,80,0,1
148254,-71.4285714285714,4,2,2,80,0,1
148515,-71.4285714285714,4,2,1,80,0,1
148774,-100,4,2,1,5,0,1
148861,-71.4285714285714,4,2,1,80,0,1
151029,-71.4285714285714,4,2,2,80,0,1
151636,-71.4285714285714,4,2,1,80,0,1
152243,-71.4285714285714,4,2,2,80,0,1
152330,-71.4285714285714,4,2,1,80,0,1
153110,-71.4285714285714,4,2,2,80,0,1
153370,-71.4285714285714,4,2,1,80,0,1
153804,-71.4285714285714,4,2,2,80,0,1
154064,-71.4285714285714,4,2,1,80,0,1
154323,-100,4,2,1,5,0,1
154410,-71.4285714285714,4,2,1,80,0,1
155017,-71.4285714285714,4,2,2,80,0,1
155104,-71.4285714285714,4,2,1,80,0,1
156665,-71.4285714285714,4,2,2,80,0,1
156838,-62.5,4,2,1,80,0,1
157098,-100,4,2,1,5,0,1
157185,-71.4285714285714,4,2,1,80,0,1
157792,-71.4285714285714,4,2,2,80,0,1
157879,-71.4285714285714,4,2,1,80,0,1
158659,-71.4285714285714,4,2,2,80,0,1
158746,-71.4285714285714,4,2,1,80,0,1
159353,-71.4285714285714,4,2,2,80,0,1
159612,-62.5,4,2,2,80,0,1
159872,-100,4,2,2,5,0,1
159959,-71.4285714285714,4,2,2,80,0,1
160220,-71.4285714285714,4,2,1,80,0,1
160393,-71.4285714285714,4,2,2,80,0,1
160480,-71.4285714285714,4,2,1,80,0,1
160653,-71.4285714285714,4,2,2,80,0,1
160827,-71.4285714285714,4,2,1,80,0,1
160913,-71.4285714285714,4,2,2,80,0,1
161173,-333.333333333333,4,2,2,80,0,0
161693,-333.333333333333,4,2,3,60,0,1
161953,-100,4,2,3,5,0,0
162040,-71.4285714285714,4,2,1,80,0,1
162301,-71.4285714285714,4,2,2,80,0,1
162387,-71.4285714285714,4,2,1,80,0,1
162474,-71.4285714285714,4,2,2,80,0,1
162560,-71.4285714285714,4,2,2,80,0,0
162647,-71.4285714285714,4,2,2,65,0,0
162907,-71.4285714285714,4,2,2,65,0,0
163254,-71.4285714285714,4,2,1,65,0,0
163514,-71.4285714285714,4,2,2,65,0,0
163948,-71.4285714285714,4,2,1,65,0,0
164034,-71.4285714285714,4,2,2,65,0,0
164294,-71.4285714285714,4,2,1,65,0,0
164815,-71.4285714285714,4,2,2,75,0,0
165508,-71.4285714285714,4,2,2,75,0,0
165855,-71.4285714285714,4,2,1,75,0,0
166115,-71.4285714285714,4,2,2,75,0,0
166549,-71.4285714285714,4,2,1,75,0,0
166809,-71.4285714285714,4,2,2,75,0,0
167242,-71.4285714285714,4,2,1,75,0,0
167676,-71.4285714285714,4,2,2,75,0,0
167936,-71.4285714285714,4,2,1,75,0,0
168196,-100,4,2,1,5,0,0
168283,-71.4285714285714,4,2,1,75,0,0
168543,-100,4,2,1,5,0,0
168630,-71.4285714285714,4,2,1,75,0,0
168890,-71.4285714285714,4,2,2,75,0,0
168976,-71.4285714285714,4,2,1,75,0,0
169757,-100,4,2,1,5,0,0
169843,-71.4285714285714,4,2,1,75,0,0
170277,-71.4285714285714,4,2,2,75,0,0
170971,-100,4,2,2,5,0,0
171057,-71.4285714285714,4,2,2,75,0,0
171317,-100,4,2,2,5,0,0
171404,-71.4285714285714,4,2,1,75,0,0
171664,-71.4285714285714,4,2,2,75,0,0
172098,-71.4285714285714,4,2,1,75,0,0
172358,-71.4285714285714,4,2,2,75,0,0
172791,-71.4285714285714,4,2,1,75,0,0
173225,-71.4285714285714,4,2,2,75,0,0
173485,-71.4285714285714,4,2,1,75,0,0
174439,-71.4285714285714,4,2,2,75,0,0
174526,-71.4285714285714,4,2,1,75,0,0
176000,-71.4285714285714,4,2,2,75,0,0
176260,-71.4285714285714,4,2,1,75,0,0
176346,-71.4285714285714,4,2,2,75,0,0
176433,-71.4285714285714,4,2,1,75,0,0
176520,-71.4285714285714,4,2,2,75,0,0
176606,-71.4285714285714,4,2,2,80,0,0
177127,-71.4285714285714,4,2,1,80,0,0
177907,-71.4285714285714,4,2,2,80,0,0
178167,-71.4285714285714,4,2,1,80,0,0
178427,-71.4285714285714,4,2,2,80,0,0
178687,-71.4285714285714,4,2,1,80,0,0
179208,-71.4285714285714,4,2,2,80,0,0
179901,-71.4285714285714,4,2,1,80,0,0
180595,-71.4285714285714,4,2,2,80,0,0
181635,-71.4285714285714,4,2,1,80,0,0
181809,-71.4285714285714,4,2,2,80,0,0
182156,-71.4285714285714,4,2,1,80,0,0
182502,-125,4,2,1,80,0,0
184237,-71.4285714285714,4,2,1,80,0,0
184757,-71.4285714285714,4,2,2,80,0,0
184843,-71.4285714285714,4,2,1,80,0,0
184930,-83.3333333333333,4,2,1,70,0,0
186144,-83.3333333333333,4,2,2,70,0,0
186317,-100,4,2,2,70,0,0
187011,-100,4,2,1,70,0,0
187127,-100,4,2,2,70,0,0
187358,-100,4,2,1,70,0,0
187474,-100,4,2,2,70,0,0
187705,-100,4,2,2,70,0,0
188398,-100,4,2,3,50,0,0
190132,-100,4,2,1,50,0,0
191173,-100,4,2,3,50,0,0
192560,-100,4,2,2,60,0,0
192820,-100,4,2,2,5,0,0
192907,-100,4,2,2,60,0,0
193167,-100,4,2,2,5,0,0
193254,-76.9230769230769,4,2,2,65,0,0
193514,-100,4,2,2,5,0,0
193601,-83.3333333333333,4,2,1,65,0,0
195855,-83.3333333333333,4,2,2,65,0,0
196028,-83.3333333333333,4,2,1,70,0,0
197416,-83.3333333333333,4,2,2,70,0,0
201578,-125,4,2,2,45,0,0
201838,-100,4,2,2,5,0,0
201924,-83.3333333333333,4,2,1,50,0,0
202040,-83.3333333333333,4,2,2,50,0,0
202271,-100,4,2,2,50,0,0
202618,-125,4,2,1,50,0,0
202734,-125,4,2,2,50,0,0
202965,-125,4,2,1,45,0,0
203080,-125,4,2,2,45,0,0
204352,-125,4,2,2,55,0,0
212156,-125,4,2,2,60,0,0
212329,-66.6666666666667,4,2,1,60,0,0
212589,-100,4,2,1,5,0,0
212676,-66.6666666666667,4,2,1,70,0,0
213716,-76.9230769230769,4,2,2,70,0,0
214150,-100,4,2,2,5,0,0
214237,-76.9230769230769,4,2,2,70,0,0
214583,-76.9230769230769,4,2,1,70,0,0
214670,-76.9230769230769,4,2,2,70,0,0
214930,-76.9230769230769,4,2,1,70,0,0
215017,-76.9230769230769,4,2,2,70,0,0
215450,-62.5,4,2,1,80,0,1
215711,-100,4,2,1,5,0,1
215797,-62.5,4,2,1,80,0,1
216057,-62.5,4,2,2,80,0,1
216490,-62.5,4,2,1,80,0,1
216750,-62.5,4,2,2,80,0,1
217184,-62.5,4,2,1,80,0,1
217617,-62.5,4,2,2,80,0,1
217877,-62.5,4,2,1,80,0,1
218138,-100,4,2,1,5,0,1
218225,-62.5,4,2,1,80,0,1
218831,-62.5,4,2,2,80,0,1
219265,-62.5,4,2,1,80,0,1
220392,-62.5,4,2,2,80,0,1
220479,-62.5,4,2,1,80,0,1
220913,-100,4,2,1,5,0,1
221000,-62.5,4,2,1,80,0,1
221606,-62.5,4,2,2,80,0,1
222039,-62.5,4,2,1,80,0,1
222299,-62.5,4,2,2,80,0,1
222386,-62.5,4,2,1,80,0,1
223166,-62.5,4,2,2,80,0,1
223427,-62.5,4,2,1,80,0,1
223687,-100,4,2,1,5,0,1
223774,-62.5,4,2,1,80,0,1
225941,-62.5,4,2,2,80,0,1
226548,-62.5,4,2,1,80,0,1
227155,-62.5,4,2,2,80,0,1
227242,-62.5,4,2,1,80,0,1
228022,-62.5,4,2,2,80,0,1
228282,-62.5,4,2,1,80,0,1
228716,-62.5,4,2,2,80,0,1
228976,-62.5,4,2,1,80,0,1
229237,-100,4,2,1,5,0,1
229323,-62.5,4,2,1,80,0,1
229929,-62.5,4,2,2,80,0,1
230016,-62.5,4,2,1,80,0,1
230537,-58.8235294117647,4,2,1,80,0,1
230797,-100,4,2,1,5,0,1
230884,-58.8235294117647,4,2,1,80,0,1
231404,-52.6315789473684,4,2,1,80,0,1
231577,-52.6315789473684,4,2,2,80,0,1
231751,-52.6315789473684,4,2,1,80,0,1
232011,-100,4,2,1,5,0,1
232098,-62.5,4,2,1,80,0,1
232704,-62.5,4,2,2,80,0,1
232791,-62.5,4,2,1,80,0,1
233571,-62.5,4,2,2,80,0,1
233658,-62.5,4,2,1,80,0,1
234265,-62.5,4,2,2,80,0,1
234526,-52.6315789473684,4,2,2,80,0,1
234786,-100,4,2,2,5,0,1
234872,-66.6666666666667,4,2,2,80,0,1
235132,-66.6666666666667,4,2,1,80,0,1
235305,-66.6666666666667,4,2,2,80,0,1
235392,-66.6666666666667,4,2,1,80,0,1
235565,-66.6666666666667,4,2,2,80,0,1
235739,-66.6666666666667,4,2,1,80,0,1
235825,-66.6666666666667,4,2,2,80,0,1
236086,-333.333333333333,4,2,2,80,0,0
236606,-333.333333333333,4,2,3,60,0,0
236867,-100,4,2,3,5,0,0
236953,-66.6666666666667,4,2,1,80,0,1
237213,-66.6666666666667,4,2,2,80,0,1
237299,-66.6666666666667,4,2,1,80,0,1
237386,-66.6666666666667,4,2,2,80,0,1
237474,-83.3333333333333,4,2,2,80,0,0
237560,-83.3333333333333,4,2,2,70,0,0
238254,-83.3333333333333,4,2,2,70,0,0
238687,-83.3333333333333,4,2,1,70,0,0
239641,-100,4,2,2,70,0,0
239728,-83.3333333333333,4,2,2,70,0,0
240075,-83.3333333333333,4,2,1,70,0,0
240682,-100,4,2,1,5,0,0
240768,-83.3333333333333,4,2,1,70,0,0
241028,-83.3333333333333,4,2,2,70,0,0
241462,-83.3333333333333,4,2,1,70,0,0
242416,-83.3333333333333,4,2,2,70,0,0
242849,-71.4285714285714,4,2,1,70,0,0
243109,-100,4,2,1,5,0,0
243196,-83.3333333333333,4,2,1,70,0,0
243803,-83.3333333333333,4,2,2,70,0,0
244236,-83.3333333333333,4,2,1,70,0,0
245190,-83.3333333333333,4,2,2,70,0,0
245624,-71.4285714285714,4,2,1,70,0,0
245884,-100,4,2,1,5,0,0
245971,-83.3333333333333,4,2,1,70,0,0
246577,-83.3333333333333,4,2,2,70,0,0
246664,-83.3333333333333,4,2,1,70,0,0
247531,-83.3333333333333,4,2,2,70,0,0
247878,-71.4285714285714,4,2,2,70,0,0
248745,-100,4,2,1,70,0,0
248832,-100,4,2,1,60,0,0
249005,-100,4,2,3,55,0,0
250566,-100,4,2,3,5,0,0
250653,-100,4,2,3,55,0,0
254121,-100,4,2,1,55,0,0
254381,-100,4,2,1,5,0,0

[Colours]
Combo1 : 255,255,17
Combo2 : 150,125,255
Combo3 : 245,60,60
Combo4 : 106,255,106

[HitObjects]
133,231,422,5,8,0:3:0:0:
125,214,508,1,0,0:3:0:0:
117,198,595,1,0,3:3:0:0:
186,329,768,1,0,3:0:0:0:
244,234,942,5,8,0:3:0:0:
237,246,1028,1,0,0:3:0:0:
231,259,1115,1,0,3:3:0:0:
284,162,1289,1,0,3:0:0:0:
186,329,1462,1,8,0:0:0:0:
342,321,1635,6,0,P|298:250|217:272,1,160,6|2,3:2|3:2,0:0:0:0:
43,365,2156,2,0,L|55:285,1,80,10|0,0:2|0:0,0:0:0:0:
54,285,2416,1,8,0:0:0:0:
54,285,2502,1,2,3:2:0:0:
161,358,2676,1,0,3:0:0:0:
87,188,2849,5,10,0:0:0:0:
87,188,2936,1,2,0:3:0:0:
87,188,3023,1,2,0:0:0:0:
135,277,3196,1,0,3:2:0:0:
221,157,3369,1,2,3:2:0:0:
288,311,3543,2,0,P|239:297|223:224,1,120,10|8,0:0|0:0,0:0:0:0:
242,232,3890,2,0,L|334:222,1,80,2|0,3:2|3:2,0:0:0:0:
413,111,4237,2,0,L|320:101,1,80,10|0,0:0|0:0,0:0:0:0:
155,28,4583,6,0,P|213:32|229:99,1,120,2|0,3:2|0:0,0:0:0:0:
228,110,4930,2,0,L|135:100,1,80,10|0,0:0|0:0,0:0:0:0:
148,101,5190,1,8,0:0:0:0:
148,101,5277,1,2,3:2:0:0:
217,235,5450,1,2,3:2:0:0:
31,214,5624,1,8,0:0:0:0:
97,321,5797,1,2,0:0:0:0:
124,229,5971,5,0,3:2:0:0:
208,355,6144,1,2,3:2:0:0:
393,319,6317,2,0,P|366:289|307:303,1,80,10|0,0:0|0:0,0:0:0:0:
292,282,6578,1,8,0:0:0:0:
292,282,6664,2,0,L|300:228,1,40,2|0,3:2|0:0,0:0:0:0:
318,128,6838,1,2,3:2:0:0:
483,238,7011,2,0,P|418:220|414:144,1,143.999995605469,14|0,0:0|0:0,0:0:0:0:
396,112,7358,6,0,L|292:133,1,80,6|2,3:2|0:0,0:0:0:0:
167,159,7705,1,10,0:0:0:0:
247,9,7878,1,2,0:0:0:0:
247,9,7965,1,8,0:0:0:0:
247,9,8052,1,2,3:2:0:0:
317,127,8225,6,0,L|213:106,1,80,2|8,3:2|0:0,0:0:0:0:
42,28,8572,2,0,P|49:68|54:107,1,80,2|0,0:0|3:2,0:0:0:0:
154,238,8919,2,0,P|160:197|167:159,1,80,2|8,3:2|0:0,0:0:0:0:
25,275,9265,1,2,0:0:0:0:
25,275,9352,1,8,0:0:0:0:
25,275,9439,1,0,3:0:0:0:
54,107,9612,1,0,3:0:0:0:
131,321,9786,2,0,P|182:268|270:272,1,143.999995605469,14|0,0:0|0:0,0:0:0:0:
302,311,10132,6,0,P|267:299|248:257,1,80,6|0,3:2|0:0,0:0:0:0:
293,137,10479,1,8,0:0:0:0:
397,271,10653,1,2,0:0:0:0:
397,271,10739,1,8,0:0:0:0:
397,271,10826,2,0,L|487:256,1,80,0|2,3:0|3:2,0:0:0:0:
369,99,11173,2,0,P|338:62|282:58,1,80,10|0,0:0|3:0,0:0:0:0:
178,162,11520,5,4,3:2:0:0:
96,28,11693,1,10,0:0:0:0:
124,14,11779,1,8,0:0:0:0:
155,19,11866,1,10,0:0:0:0:
177,41,11953,1,8,0:0:0:0:
183,72,12040,2,0,B|132:56|105:92|122:94|85:137|13:117,1,160,14|0,3:2|3:0,0:0:0:0:
178,162,12560,5,8,0:3:0:0:
181,181,12646,1,8,0:3:0:0:
184,201,12734,1,8,0:3:0:0:
187,221,12820,1,8,0:3:0:0:
190,241,12907,6,0,P|211:211|276:218,1,80,4|2,3:2|0:0,0:0:0:0:
362,312,13254,2,0,P|325:308|299:249,1,80,10|0,0:0|0:0,0:0:0:0:
338,128,13601,1,2,3:2:0:0:
437,238,13774,2,0,P|393:223|352:244,1,80,2|8,3:2|0:0,0:0:0:0:
234,327,14121,1,2,0:0:0:0:
95,209,14294,6,0,P|151:198|191:259,1,120,2|0,3:2|0:0,0:0:0:0:
189,240,14641,1,10,0:0:0:0:
9,318,14815,2,0,P|16:279|23:228,1,80,2|0,0:0|3:2,0:0:0:0:
47,81,15161,1,2,3:2:0:0:
181,162,15335,2,0,P|172:118|166:72,1,80,8|0,0:0|0:0,0:0:0:0:
333,34,15682,6,0,P|294:41|271:72,1,80,0|2,3:0|0:2,0:0:0:0:
340,186,16028,2,0,P|378:178|401:147,1,80,10|2,0:2|0:2,0:0:0:0:
498,27,16375,1,2,3:2:0:0:
462,219,16549,2,0,P|455:262|448:304,1,80,2|8,3:2|0:0,0:0:0:0:
478,125,16895,1,2,0:0:0:0:
330,297,17069,6,0,P|295:249|238:241,1,120,2|0,3:2|0:0,0:0:0:0:
238,240,17416,1,10,0:0:0:0:
43,289,17589,2,0,P|84:302|101:339,1,80,2|0,3:2|0:0,0:0:0:0:
220,162,17936,2,0,P|179:175|162:212,1,80,2|8,3:2|0:0,0:0:0:0:
246,329,18283,1,2,0:0:0:0:
355,213,18456,6,0,P|343:152|336:93,1,120,6|0,3:2|0:0,0:0:0:0:
336,94,18803,1,8,0:0:0:0:
242,246,18976,1,2,0:0:0:0:
145,123,19150,2,0,P|117:92|70:88,1,80,2|0,3:2|3:2,0:0:0:0:
267,45,19497,2,0,P|295:17|349:11,1,80,8|0,0:0|0:0,0:0:0:0:
333,8,19757,1,8,0:0:0:0:
333,8,19843,5,0,3:0:0:0:
355,213,20017,1,0,3:0:0:0:
512,88,20190,2,0,L|401:105,1,80,8|0,0:0|0:0,0:0:0:0:
255,125,20537,1,2,3:2:0:0:
341,15,20711,1,2,3:2:0:0:
432,100,20884,1,10,0:0:0:0:
355,213,21057,1,2,0:0:0:0:
238,42,21231,6,0,P|169:43|128:108,1,120,2|0,3:2|0:0,0:0:0:0:
135,77,21578,2,0,P|168:55|158:12,1,80,8|0,0:0|0:0,0:0:0:0:
10,10,21924,2,0,L|25:110,1,80,0|0,3:0|3:0,0:0:0:0:
51,228,22271,1,10,0:0:0:0:
215,131,22445,6,0,L|276:121,1,40,6|0,3:2|0:0,0:0:0:0:
47,120,22791,6,0,L|7:71,1,40,6|0,3:2|0:0,0:0:0:0:
122,271,23138,6,0,L|99:328,1,40,6|0,3:2|0:0,0:0:0:0:
215,131,23485,5,2,3:2:0:0:
234,127,23571,1,0,3:0:0:0:
254,124,23658,1,12,0:0:0:0:
374,233,23832,5,8,3:3:0:0:
358,230,23918,1,8,3:3:0:0:
342,227,24005,1,4,3:2:0:0:
494,250,24179,5,2,0:0:0:0:
494,250,24352,1,10,0:0:0:0:
365,150,24526,1,2,0:0:0:0:
384,313,24699,1,2,3:2:0:0:
239,276,24872,2,0,L|252:179,1,80,2|8,3:2|0:0,0:0:0:0:
272,44,25219,1,2,0:0:0:0:
115,149,25393,6,0,P|85:99|27:95,1,120,2|0,3:2|0:0,0:0:0:0:
27,94,25739,1,10,0:0:0:0:
178,223,25913,2,0,P|209:199|249:196,1,80,2|0,0:0|3:2,0:0:0:0:
85,297,26260,2,0,P|53:273|14:269,1,80,2|8,3:2|0:0,0:0:0:0:
162,384,26606,1,2,0:0:0:0:
239,276,26780,5,0,3:0:0:0:
319,384,26953,2,0,P|356:377|397:371,1,80,2|10,0:0|0:0,0:0:0:0:
512,357,27300,1,2,0:0:0:0:
386,285,27474,1,2,3:2:0:0:
512,208,27647,2,0,P|476:194|457:134,1,80,2|8,3:2|0:0,0:0:0:0:
473,42,27994,1,2,0:0:0:0:
361,113,28167,6,0,B|334:98|325:67|325:67|304:92|258:92,1,120,2|0,3:2|0:0,0:0:0:0:
271,91,28514,1,10,0:0:0:0:
164,243,28687,1,2,3:2:0:0:
164,243,29034,2,0,L|150:155,1,80,2|8,3:2|0:2,0:0:0:0:
10,98,29381,6,0,B|45:125|94:87|76:84|119:38|181:63,1,160,6|0,3:2|3:0,0:0:0:0:
333,58,29901,2,0,P|288:64|270:106,1,80,8|0,0:0|0:0,0:0:0:0:
273,223,30248,2,0,P|313:218|364:209,1,80,2|0,3:2|3:2,0:0:0:0:
241,333,30595,2,0,P|203:326|149:319,1,80,8|0,0:0|0:0,0:0:0:0:
162,320,30855,5,8,0:0:0:0:
162,320,30942,1,0,3:0:0:0:
228,155,31115,1,0,3:0:0:0:
71,169,31289,2,0,L|84:251,1,80,8|0,0:0|0:0,0:0:0:0:
108,378,31635,1,2,3:2:0:0:
10,290,31809,1,2,3:2:0:0:
158,206,31982,1,10,0:0:0:0:
0,137,32156,2,0,P|25:102|71:90,1,80,2|4,0:0|3:2,0:0:0:0:
233,154,32502,5,2,0:0:0:0:
128,48,32676,1,10,0:0:0:0:
158,206,32849,1,2,0:0:0:0:
295,97,33023,1,2,3:2:0:0:
143,127,33196,2,0,L|161:222,1,80,2|8,3:2|0:0,0:0:0:0:
340,188,33543,22,0,P|398:186|433:252,1,120,6|0,3:2|0:0,0:0:0:0:
258,217,33890,1,2,3:2:0:0:
382,329,34064,2,0,P|393:291|425:269,1,80,2|10,3:2|0:2,0:0:0:0:
316,355,34410,1,10,0:2:0:0:
258,217,34583,21,8,0:3:0:0:
221,238,34670,1,8,0:3:0:0:
215,277,34757,1,8,3:3:0:0:
231,311,34843,1,8,0:3:0:0:
264,323,34930,1,8,0:3:0:0:
298,338,35017,1,8,0:3:0:0:
316,355,35104,22,0,B|339:349|360:356|360:356|367:342|387:324,1,80,6|0,3:2|0:0,0:0:0:0:
494,202,35450,2,0,P|450:204|435:255,1,80,10|0,3:2|0:0,0:0:0:0:
427,76,35797,1,2,3:2:0:0:
340,188,35971,1,2,0:2:0:0:
299,43,36144,1,10,3:2:0:0:
248,220,36317,6,0,P|209:214|175:233,1,80,2|0,0:0|3:0,0:0:0:0:
217,65,36664,2,0,P|231:101|264:122,1,80,2|8,0:0|3:2,0:0:0:0:
99,171,37011,2,0,P|123:140|125:101,1,80,2|0,0:0|3:0,0:0:0:0:
20,10,37358,1,0,0:0:0:0:
33,123,37531,2,0,L|55:265,1,120,8|0,3:2|0:0,0:0:0:0:
27,316,37878,6,0,P|65:274|150:289,1,120,6|0,3:2|0:0,0:0:0:0:
125,272,38225,1,10,3:2:0:0:
232,384,38398,2,0,P|196:374|179:333,1,80,2|0,0:0|3:2,0:0:0:0:
253,247,38745,2,0,P|289:257|306:298,1,80,2|8,0:0|3:2,0:0:0:0:
422,237,39092,6,0,P|339:233|311:322,1,160,4|2,3:2|3:2,0:0:0:0:
462,344,39612,1,10,0:0:0:0:
512,165,39786,1,2,3:2:0:0:
381,302,39959,1,10,0:0:0:0:
321,153,40132,1,0,3:2:0:0:
491,252,40306,1,8,0:0:0:0:
488,67,40479,5,8,0:0:0:0:
488,67,40566,1,8,0:0:0:0:
488,67,40653,2,0,P|443:79|425:126,1,80,6|0,3:2|0:0,0:0:0:0:
381,302,41000,2,0,P|357:270|319:263,1,80,10|0,3:2|0:0,0:0:0:0:
219,383,41346,1,2,3:2:0:0:
101,285,41520,1,2,0:0:0:0:
231,246,41693,1,10,3:2:0:0:
114,363,41867,6,0,L|99:277,1,80,2|0,0:0|3:2,0:0:0:0:
244,167,42213,2,0,L|229:252,1,80,2|8,0:0|3:2,0:0:0:0:
66,105,42560,2,0,B|108:108|134:141|134:141|140:102|181:80,1,160,2|0,0:0|0:0,0:0:0:0:
414,115,43080,2,0,P|334:116|271:151,1,143.999995605469,14|0,3:2|0:0,0:0:0:0:
244,167,43427,6,0,P|297:130|288:74,1,95.9999970703126,6|0,3:2|0:0,0:0:0:0:
110,33,43774,1,8,0:0:0:0:
153,218,43948,1,2,0:0:0:0:
258,36,44121,1,10,0:0:0:0:
66,105,44294,1,0,3:2:0:0:
244,167,44468,1,8,0:0:0:0:
188,0,44641,1,0,3:0:0:0:
65,200,44815,5,8,0:0:0:0:
189,88,44988,1,0,3:2:0:0:
187,289,45161,1,8,0:0:0:0:
66,105,45335,1,0,3:2:0:0:
0,318,45508,2,0,L|96:302,1,95.9999970703126,10|2,0:0|3:2,0:0:0:0:
300,273,45855,1,10,0:0:0:0:
197,95,46028,5,10,0:0:0:0:
197,95,46115,1,8,0:0:0:0:
197,95,46202,1,8,0:3:0:0:
187,289,46375,1,8,0:3:0:0:
349,135,46549,1,8,0:3:0:0:
360,341,46722,1,12,0:3:0:0:
368,348,47069,5,8,0:3:0:0:
368,348,47156,1,8,0:3:0:0:
368,348,47242,1,8,0:0:0:0:
191,188,47416,1,4,3:2:0:0:
199,196,47763,5,8,0:0:0:0:
199,196,47849,1,8,0:0:0:0:
199,196,47936,1,0,3:2:0:0:
407,173,48109,1,8,3:3:0:0:
187,289,48283,1,10,0:2:0:0:
322,109,48456,1,2,3:2:0:0:
368,348,48630,1,10,0:2:0:0:
199,196,48803,5,2,0:0:0:0:
199,196,48890,1,2,0:3:0:0:
199,196,48976,2,0,B|155:147|84:167|84:167|110:176|117:201,1,167.999994873047,6|0,3:2|0:0,0:0:0:0:
187,289,49323,2,0,P|234:288|282:229,1,111.999996582031,8|0,0:0|0:0,0:0:0:0:
354,180,49583,1,8,0:0:0:0:
354,180,49670,2,0,P|307:179|259:120,1,111.999996582031,0|0,3:0|3:0,0:0:0:0:
373,30,50017,1,10,0:0:0:0:
462,236,50190,6,0,B|516:216|550:116|450:71|425:113|429:150,1,223.999993164063,2|0,0:0|3:0,0:0:0:0:
420,360,50711,2,0,P|381:322|328:328,1,111.999996582031,10|0,0:0|0:0,0:0:0:0:
260,384,50971,1,0,3:0:0:0:
260,384,51057,2,0,L|249:317,1,55.9999982910157,2|8,0:0|0:0,0:0:0:0:
232,184,51231,1,0,3:0:0:0:
150,333,51404,2,0,B|110:359|63:318|83:312|38:272|0:296,1,167.999994873047,10|0,0:0|0:0,0:0:0:0:
0,370,51751,6,0,B|38:394|83:354|63:348|110:307|150:333,1,167.999994873047,2|0,3:2|0:0,0:0:0:0:
251,328,52098,2,0,L|234:206,1,111.999996582031,10|2,0:0|0:0,0:0:0:0:
236,188,52358,1,8,0:0:0:0:
236,188,52445,1,0,3:0:0:0:
390,324,52618,2,0,P|420:278|474:272,1,111.999996582031,2|8,3:2|0:0,0:0:0:0:
326,171,52965,6,0,P|262:88|163:124,1,223.999993164063,2|0,0:0|3:0,0:0:0:0:
0,296,53485,2,0,L|20:166,1,111.999996582031,8|0,0:0|0:0,0:0:0:0:
79,94,53745,1,0,3:0:0:0:
79,94,53832,2,0,L|89:158,1,55.9999982910157,0|8,0:0|0:0,0:0:0:0:
119,291,54005,1,0,3:0:0:0:
238,161,54179,2,0,B|265:126|315:145|315:145|350:189|408:168,1,167.999994873047,8|0,0:0|0:0,0:0:0:0:
451,125,54526,5,6,3:2:0:0:
489,335,54699,2,0,P|444:299|373:309,1,111.999996582031,2|8,0:0|0:0,0:0:0:0:
232,384,55046,1,2,0:0:0:0:
232,384,55132,1,8,0:0:0:0:
232,384,55219,1,0,3:0:0:0:
282,220,55393,1,2,3:2:0:0:
119,291,55566,2,0,P|112:239|98:170,1,111.999996582031,10|0,0:0|0:0,0:0:0:0:
99,151,55826,5,2,0:3:0:0:
99,151,55913,1,2,3:2:0:0:
263,300,56086,2,0,P|317:298|358:239,1,111.999996582031,2|8,3:2|0:0,0:0:0:0:
508,173,56433,1,2,0:0:0:0:
508,173,56520,2,0,P|454:171|413:112,1,111.999996582031,0|8,3:0|0:0,0:0:0:0:
385,64,56780,1,2,3:2:0:0:
282,220,56953,2,0,B|245:211|236:157|236:157|205:199|148:189,1,167.999994873047,10|0,0:0|0:0,0:0:0:0:
167,112,57300,5,6,3:2:0:0:
204,274,57474,1,2,0:0:0:0:
322,147,57647,1,10,0:0:0:0:
118,264,57820,1,2,3:2:0:0:
358,226,57994,1,10,0:0:0:0:
96,151,58167,1,2,3:2:0:0:
276,32,58341,1,10,0:0:0:0:
279,311,58514,6,0,P|265:207|162:190,1,223.999993164063,6|0,3:2|3:0,0:0:0:0:
19,359,59034,1,12,0:0:0:0:
96,151,59208,1,8,0:0:0:0:
167,375,59381,1,2,3:2:0:0:
256,199,59554,5,10,0:0:0:0:
280,168,59641,1,8,0:0:0:0:
314,152,59729,1,10,3:3:0:0:
356,155,59815,1,8,0:3:0:0:
395,172,59902,1,2,0:3:0:0:
417,205,59989,1,0,0:3:0:0:
425,245,60075,6,0,P|365:205|383:106,1,167.999994873047,6|0,3:2|0:0,0:0:0:0:
512,56,60422,2,0,P|502:111|493:172,1,111.999996582031,8|0,0:0|0:0,0:0:0:0:
492,198,60682,1,8,0:0:0:0:
492,198,60768,1,0,3:0:0:0:
413,49,60942,1,0,3:0:0:0:
336,228,61115,1,10,0:0:0:0:
208,70,61289,5,2,0:0:0:0:
208,70,61375,1,8,0:0:0:0:
208,70,61462,2,0,P|151:81|97:87,1,111.999996582031,0|0,3:0|3:0,0:0:0:0:
21,325,61809,2,0,P|53:283|121:287,1,111.999996582031,10|0,0:0|0:0,0:0:0:0:
178,350,62069,1,0,3:0:0:0:
178,350,62156,2,0,L|187:287,1,55.9999982910157,2|8,0:0|0:0,0:0:0:0:
211,154,62329,1,0,3:2:0:0:
323,307,62502,2,0,P|397:286|414:205,1,167.999994873047,10|0,0:0|0:0,0:0:0:0:
317,117,62849,6,0,P|328:173|336:242,1,111.999996582031,6|0,3:2|3:0,0:0:0:0:
410,117,63196,1,10,0:0:0:0:
211,234,63369,2,0,P|156:217|137:137,1,111.999996582031,2|0,0:0|3:2,0:0:0:0:
43,32,63716,2,0,P|31:88|23:157,1,111.999996582031,2|8,3:2|0:0,0:0:0:0:
63,356,64063,6,0,P|105:257|211:234,1,223.999993164063,2|0,0:0|3:0,0:0:0:0:
325,353,64583,2,0,P|266:343|200:333,1,111.999996582031,8|0,0:0|0:0,0:0:0:0:
214,238,64843,1,0,3:0:0:0:
214,238,64930,2,0,P|247:233|290:225,1,55.9999982910157,0|8,0:0|0:0,0:0:0:0:
435,198,65104,1,0,3:0:0:0:
340,56,65277,2,0,B|301:29|243:46|226:105|250:129|277:130,1,167.999994873047,8|0,0:0|0:0,0:0:0:0:
344,153,65624,5,6,3:2:0:0:
180,52,65797,2,0,P|133:25|80:40,1,111.999996582031,2|8,0:0|0:0,0:0:0:0:
105,219,66144,1,2,0:0:0:0:
105,219,66231,1,8,0:0:0:0:
105,219,66317,2,0,P|114:162|123:103,1,111.999996582031,0|2,3:0|3:0,0:0:0:0:
229,331,66664,2,0,P|191:289|134:301,1,111.999996582031,10|0,0:0|0:0,0:0:0:0:
118,323,66924,5,8,0:0:0:0:
118,323,67011,1,2,3:2:0:0:
255,188,67185,2,0,P|293:146|350:158,1,111.999996582031,2|8,3:2|0:0,0:0:0:0:
428,298,67531,1,2,0:0:0:0:
428,298,67618,2,0,L|446:179,1,111.999996582031,0|8,3:2|0:0,0:0:0:0:
460,114,67878,1,2,3:2:0:0:
340,308,68052,2,0,B|300:340|264:319|264:319|238:271|176:279,1,167.999994873047,8|0,0:0|0:0,0:0:0:0:
118,323,68398,5,6,3:2:0:0:
221,135,68572,1,2,3:2:0:0:
42,244,68745,1,10,0:2:0:0:
259,211,68919,1,2,3:2:0:0:
37,157,69092,1,10,0:2:0:0:
266,65,69265,1,2,3:2:0:0:
122,245,69439,1,8,0:0:0:0:
130,45,69612,6,0,P|43:43|43:162,1,223.999993164063,6|2,3:2|3:2,0:0:0:0:
259,211,70132,2,0,L|381:191,1,111.999996582031,14|2,0:0|3:2,0:0:0:0:
482,61,70479,1,0,3:0:0:0:
482,61,70566,1,8,0:2:0:0:
482,61,70653,2,0,L|403:74,1,55.9999982910157,8|8,0:2|0:2,0:0:0:0:
260,112,70826,1,10,3:2:0:0:
234,80,70912,1,8,0:2:0:0:
240,40,70999,1,10,0:2:0:0:
275,18,71086,1,8,0:2:0:0:
314,30,71173,6,0,L|324:99,1,55.9999982910157,6|0,3:1|0:0,0:0:0:0:
343,246,71346,1,2,0:0:0:0:
164,100,71520,6,0,L|154:169,1,55.9999982910157,10|0,0:1|0:0,0:0:0:0:
145,342,71693,1,2,0:0:0:0:
145,342,71780,1,8,0:0:0:0:
145,342,71867,2,0,L|214:331,1,55.9999982910157,2|0,3:1|0:0,0:0:0:0:
407,305,72040,1,2,3:2:0:0:
322,117,72213,1,8,0:0:0:0:
471,254,72387,6,0,P|428:220|374:228,1,111.999996582031,6|0,3:2|0:0,0:0:0:0:
347,250,72647,1,8,0:0:0:0:
347,250,72734,1,2,3:2:0:0:
431,122,72907,1,10,0:0:0:0:
407,305,73080,1,2,3:2:0:0:
322,117,73254,1,2,3:2:0:0:
322,117,73341,1,8,0:0:0:0:
322,117,73427,1,2,3:2:0:0:
212,282,73601,2,0,B|171:258|166:214|166:214|137:250|82:252,1,167.999994873047,10|0,0:0|0:0,0:0:0:0:
15,265,73948,6,0,L|25:196,1,55.9999982910157,6|0,3:1|0:0,0:0:0:0:
43,34,74121,1,2,0:0:0:0:
241,39,74294,6,0,L|176:64,1,55.9999982910157,10|0,0:1|0:0,0:0:0:0:
8,116,74467,1,2,0:0:0:0:
8,116,74554,1,8,0:0:0:0:
8,116,74641,2,0,L|79:127,1,55.9999982910157,2|0,3:1|0:0,0:0:0:0:
235,145,74815,1,2,3:0:0:0:
117,2,74988,1,8,0:0:0:0:
94,251,75161,6,0,L|219:231,1,111.999996582031,6|0,3:2|0:0,0:0:0:0:
345,162,75422,1,0,3:2:0:0:
345,162,75508,2,0,L|219:142,1,111.999996582031,2|8,3:2|0:0,0:0:0:0:
315,281,75855,1,2,3:2:0:0:
427,87,76028,5,0,3:0:0:0:
388,71,76114,1,8,0:3:0:0:
350,86,76201,1,8,0:3:0:0:
332,123,76288,1,8,0:3:0:0:
345,162,76375,2,0,B|380:195|391:247|391:247|432:209|483:214,1,192,4|0,3:2|0:0,0:0:0:0:
473,98,76722,22,0,P|498:108|512:133,1,55.9999982910157,6|0,3:1|0:0,0:0:0:0:
457,294,76895,1,2,0:0:0:0:
345,162,77069,6,0,P|319:172|306:196,1,55.9999982910157,2|0,3:1|0:0,0:0:0:0:
361,357,77242,1,2,0:0:0:0:
361,357,77329,1,8,0:0:0:0:
361,357,77416,2,0,P|335:347|322:323,1,55.9999982910157,2|0,3:1|0:0,0:0:0:0:
226,200,77589,1,2,3:2:0:0:
179,384,77763,1,8,0:0:0:0:
29,211,77936,6,0,P|85:215|112:273,1,111.999996582031,6|0,3:2|0:0,0:0:0:0:
110,293,78196,1,8,0:0:0:0:
110,293,78283,1,2,3:2:0:0:
157,109,78456,1,10,0:2:0:0:
204,300,78630,1,2,3:2:0:0:
60,131,78803,1,2,3:2:0:0:
60,131,78890,1,8,0:0:0:0:
60,131,78976,1,10,3:2:0:0:
0,383,79150,2,0,P|20:296|110:293,1,192,14|0,0:0|0:0,0:0:0:0:
179,384,79497,6,0,L|237:374,1,55.9999982910157,6|0,3:2|0:0,0:0:0:0:
390,291,79670,1,10,0:0:0:0:
407,332,79756,1,8,0:0:0:0:
390,371,79843,1,10,3:3:0:0:
348,384,79930,1,8,0:3:0:0:
311,362,80017,2,0,L|302:306,1,55.9999982910157,6|0,3:2|0:0,0:0:0:0:
296,125,80190,5,8,0:0:0:0:
305,167,80276,1,8,0:0:0:0:
341,193,80363,1,10,0:3:0:0:
384,189,80450,1,8,0:3:0:0:
417,158,80536,1,10,3:0:0:0:
420,114,80623,1,8,0:0:0:0:
396,79,80710,1,6,3:2:0:0:
396,79,81231,6,0,L|441:71,1,35.9999989013672,2|0,0:0|0:0,0:0:0:0:
436,51,81578,6,0,L|379:60,1,55.9999982910157,10|0,0:0|0:0,0:0:0:0:
206,96,81751,1,2,3:0:0:0:
199,59,81838,1,8,0:3:0:0:
217,29,81924,1,8,0:3:0:0:
255,24,82011,1,8,0:3:0:0:
279,43,82098,6,0,B|228:19|190:75|212:76|170:134|93:106,1,191.999994140625,6|2,3:2|3:2,0:0:0:0:
0,16,82618,2,0,P|8:66|16:121,1,80,10|0,0:2|0:0,0:0:0:0:
12,95,82878,1,8,0:0:0:0:
12,95,82965,1,2,3:2:0:0:
118,0,83138,1,0,3:0:0:0:
200,183,83312,5,10,0:0:0:0:
200,183,83398,1,0,0:0:0:0:
200,183,83485,1,2,0:0:0:0:
32,213,83658,1,0,3:2:0:0:
115,112,83832,1,2,3:2:0:0:
41,335,84005,2,0,P|71:283|146:307,1,120,10|8,0:0|0:0,0:0:0:0:
137,314,84352,2,0,P|177:305|226:299,1,80,2|0,3:2|3:2,0:0:0:0:
279,195,84699,2,0,P|236:189|189:180,1,80,10|0,0:0|0:0,0:0:0:0:
292,287,85046,6,0,P|349:264|363:186,1,120,2|0,3:2|0:0,0:0:0:0:
402,189,85393,2,0,P|409:231|417:284,1,80,10|0,0:0|0:0,0:0:0:0:
414,267,85653,1,8,0:0:0:0:
414,267,85740,1,2,3:2:0:0:
279,195,85913,1,2,3:2:0:0:
250,356,86086,1,8,0:0:0:0:
402,189,86260,1,2,0:2:0:0:
387,384,86433,5,0,3:2:0:0:
267,274,86606,1,2,3:2:0:0:
170,384,86780,2,0,P|164:345|155:289,1,80,10|0,0:0|0:0,0:0:0:0:
153,266,87040,1,8,0:0:0:0:
153,266,87127,2,0,L|113:272,1,40,2|0,3:2|0:0,0:0:0:0:
0,291,87300,1,2,3:2:0:0:
81,82,87474,2,0,P|147:79|176:153,1,143.999995605469,14|0,0:0|0:0,0:0:0:0:
178,170,87820,6,0,P|218:161|290:153,1,80,6|0,3:2|0:0,0:0:0:0:
390,122,88167,1,10,0:0:0:0:
313,278,88341,1,2,0:0:0:0:
313,278,88427,1,8,0:0:0:0:
313,278,88514,1,2,3:2:0:0:
256,155,88687,2,0,P|296:163|368:171,1,80,2|8,3:2|0:0,0:0:0:0:
512,268,89034,6,0,P|480:261|457:206,1,80,2|0,0:0|3:2,0:0:0:0:
334,168,89381,2,0,P|366:161|389:106,1,80,2|8,3:2|0:0,0:0:0:0:
503,42,89728,1,2,0:0:0:0:
503,42,89815,1,8,0:0:0:0:
503,42,89901,1,0,3:0:0:0:
455,222,90075,1,0,3:0:0:0:
307,81,90248,2,0,B|271:66|240:81|240:81|211:121|152:112,1,143.999995605469,14|0,0:0|0:0,0:0:0:0:
120,71,90595,6,0,P|163:84|175:126,1,80,6|0,3:2|0:0,0:0:0:0:
81,244,90942,1,8,0:0:0:0:
4,112,91115,1,2,0:0:0:0:
4,112,91202,1,8,0:0:0:0:
4,112,91289,2,0,L|17:25,1,80,2|0,3:0|3:2,0:0:0:0:
157,218,91635,2,0,P|133:182|77:170,1,80,10|0,0:0|3:0,0:0:0:0:
4,311,91982,5,4,3:2:0:0:
161,384,92156,1,10,0:0:0:0:
190,383,92242,1,8,0:0:0:0:
215,369,92329,1,10,0:0:0:0:
230,343,92416,1,8,0:0:0:0:
230,314,92502,2,0,P|301:282|356:355,1,160,14|0,3:2|3:0,0:0:0:0:
510,384,93023,5,8,0:3:0:0:
506,364,93109,1,8,0:3:0:0:
503,344,93196,1,8,0:3:0:0:
500,324,93283,1,8,0:3:0:0:
497,304,93369,6,0,P|490:262|481:205,1,80,4|2,3:2|0:0,0:0:0:0:
380,121,93716,2,0,P|373:167|364:219,1,80,10|2,0:0|0:0,0:0:0:0:
354,332,94063,1,2,3:2:0:0:
269,221,94237,2,0,P|239:195|189:200,1,80,2|8,3:2|0:0,0:0:0:0:
95,292,94583,1,2,0:0:0:0:
228,384,94757,6,0,B|239:355|228:322|221:335|191:301|218:247,1,120,2|0,3:2|0:0,0:0:0:0:
209,269,95104,1,10,0:0:0:0:
84,375,95277,2,0,P|46:364|23:332,1,80,2|0,0:0|3:2,0:0:0:0:
28,162,95624,1,2,3:2:0:0:
139,237,95797,2,0,P|176:226|199:194,1,80,10|0,0:0|0:0,0:0:0:0:
147,28,96144,6,0,P|192:35|246:43,1,80,0|2,3:0|0:2,0:0:0:0:
108,150,96491,2,0,P|65:155|8:165,1,80,10|2,0:2|0:2,0:0:0:0:
66,12,96838,1,2,3:2:0:0:
226,40,97011,2,0,L|210:137,1,80,2|8,3:2|0:0,0:0:0:0:
190,267,97358,1,2,0:0:0:0:
409,205,97531,6,0,P|367:170|290:196,1,120,2|0,3:2|0:0,0:0:0:0:
306,180,97878,1,10,0:0:0:0:
341,362,98052,1,2,3:2:0:0:
341,362,98398,6,0,L|433:347,1,80,2|8,3:2|0:0,0:0:0:0:
343,251,98745,1,2,0:0:0:0:
244,375,98919,6,0,B|210:389|178:364|191:362|171:324|111:356,1,120,6|0,3:2|0:0,0:0:0:0:
134,346,99265,1,8,0:0:0:0:
191,213,99439,1,2,0:0:0:0:
22,203,99612,2,0,L|36:292,1,80,2|0,3:2|3:2,0:0:0:0:
120,157,99959,2,0,P|148:128|207:123,1,80,8|0,0:0|0:0,0:0:0:0:
185,118,100219,5,8,0:0:0:0:
185,118,100306,1,0,3:0:0:0:
250,300,100479,1,0,3:0:0:0:
383,220,100653,2,0,P|376:183|367:119,1,80,8|0,0:0|0:0,0:0:0:0:
356,42,101000,1,2,3:2:0:0:
470,116,101173,1,2,3:2:0:0:
383,220,101346,1,10,0:0:0:0:
272,141,101520,1,2,0:0:0:0:
501,241,101693,6,0,P|489:303|480:373,1,120,2|0,3:2|0:0,0:0:0:0:
482,360,102040,2,0,P|456:328|407:327,1,80,8|0,0:0|0:0,0:0:0:0:
257,381,102387,2,0,P|297:374|323:332,1,80,0|0,3:0|3:0,0:0:0:0:
216,212,102734,1,10,0:0:0:0:
65,359,102907,6,0,L|26:352,1,40,6|0,3:2|0:0,0:0:0:0:
216,212,103254,6,0,L|254:205,1,40,6|0,3:2|0:0,0:0:0:0:
65,77,103601,6,0,L|26:70,1,40,6|0,3:2|0:0,0:0:0:0:
59,265,103948,5,2,3:2:0:0:
55,246,104034,1,0,3:0:0:0:
52,226,104121,1,12,0:0:0:0:
161,106,104295,5,8,3:3:0:0:
158,122,104381,1,8,3:3:0:0:
155,138,104468,1,4,3:2:0:0:
180,0,104641,5,2,0:0:0:0:
180,0,104815,1,10,0:0:0:0:
242,147,104988,1,2,0:0:0:0:
89,70,105161,1,2,3:2:0:0:
52,226,105335,2,0,P|94:204|126:211,1,80,2|8,3:2|0:0,0:0:0:0:
196,333,105682,1,2,0:0:0:0:
406,304,105855,6,0,P|369:259|312:262,1,120,2|0,3:2|0:0,0:0:0:0:
311,262,106202,1,10,0:0:0:0:
469,153,106375,2,0,P|474:192|482:232,1,80,2|0,0:0|3:2,0:0:0:0:
449,50,106722,1,2,3:2:0:0:
315,185,106896,2,0,P|321:145|327:105,1,80,10|0,0:2|0:0,0:0:0:0:
469,153,107242,5,0,3:0:0:0:
333,22,107416,2,0,P|289:27|258:65,1,80,2|10,0:0|0:0,0:0:0:0:
228,177,107763,1,2,0:0:0:0:
158,34,107936,1,2,3:2:0:0:
58,166,108109,2,0,P|97:158|143:152,1,80,2|8,3:2|0:0,0:0:0:0:
0,81,108456,1,2,0:0:0:0:
18,244,108630,6,0,P|29:304|37:368,1,120,2|0,3:2|0:0,0:0:0:0:
37,362,108976,1,10,0:0:0:0:
159,236,109150,1,2,3:2:0:0:
159,236,109497,2,0,P|150:284|143:336,1,80,2|8,3:2|0:2,0:0:0:0:
301,384,109843,2,0,P|347:320|439:333,1,160,6|0,3:2|3:0,0:0:0:0:
235,208,110364,2,0,P|218:174|169:156,1,80,8|2,0:0|0:0,0:0:0:0:
332,50,110711,2,0,L|316:141,1,80,2|0,3:2|3:2,0:0:0:0:
437,241,111057,2,0,L|421:149,1,80,8|0,0:0|0:0,0:0:0:0:
423,162,111317,5,8,0:0:0:0:
423,162,111404,1,0,3:0:0:0:
294,268,111578,1,0,3:0:0:0:
450,319,111751,2,0,L|434:227,1,80,8|0,0:0|0:0,0:0:0:0:
328,350,112098,1,2,3:2:0:0:
253,188,112271,1,2,3:2:0:0:
184,344,112445,1,10,0:0:0:0:
96,215,112618,2,0,P|139:209|175:203,1,80,2|4,0:0|3:2,0:0:0:0:
46,312,112965,5,2,0:0:0:0:
90,123,113138,1,10,0:0:0:0:
186,281,113312,1,2,0:0:0:0:
15,228,113485,1,2,3:2:0:0:
175,202,113658,2,0,L|259:188,1,80,2|8,3:2|3:2,3:2:0:0:
290,33,114005,6,0,P|225:38|203:97,1,120,6|0,3:2|0:0,0:0:0:0:
373,55,114352,1,2,3:2:0:0:
255,189,114526,2,0,P|244:150|216:124,1,80,10|2,0:2|3:2,3:0:0:0:
323,283,114872,1,10,0:2:0:0:
373,55,115046,5,8,0:3:0:0:
410,78,115132,1,8,0:3:0:0:
412,122,115219,1,8,3:3:0:0:
384,152,115306,1,8,0:3:0:0:
354,163,115393,1,8,0:3:0:0:
332,181,115479,1,8,0:3:0:0:
317,206,115566,6,0,B|294:206|278:218|278:218|268:197|251:187,1,80,6|0,3:2|0:0,0:0:0:0:
132,273,115913,2,0,P|168:277|205:251,1,80,10|0,3:2|0:0,0:0:0:0:
94,129,116260,1,2,3:2:0:0:
34,301,116433,1,2,0:2:0:0:
150,199,116606,1,10,3:2:0:0:
6,124,116780,6,0,P|15:168|22:229,1,80,2|0,0:0|3:0,0:0:0:0:
187,39,117127,2,0,P|178:83|170:144,1,80,2|8,0:0|3:2,0:0:0:0:
214,302,117474,2,0,P|247:281|285:289,1,80,2|0,0:0|3:0,0:0:0:0:
420,364,117820,1,0,0:0:0:0:
450,213,117994,2,0,P|458:150|469:88,1,120,8|0,3:2|0:0,0:0:0:0:
503,31,118341,6,0,P|462:67|389:48,1,120,6|0,3:2|0:0,0:0:0:0:
400,58,118687,1,10,3:2:0:0:
197,82,118861,2,0,P|234:71|256:38,1,80,2|0,0:0|3:2,0:0:0:0:
361,183,119208,2,0,P|317:167|303:109,1,80,2|8,0:0|3:2,0:0:0:0:
131,28,119554,6,0,P|55:39|23:109,1,160,4|2,3:2|3:2,0:0:0:0:
190,236,120075,1,10,0:0:0:0:
104,106,120248,1,2,3:2:0:0:
18,285,120422,1,10,0:0:0:0:
99,191,120595,1,0,3:2:0:0:
184,348,120768,1,8,0:0:0:0:
281,171,120942,5,8,0:0:0:0:
281,171,121028,1,8,0:0:0:0:
281,171,121115,2,0,L|387:186,1,80,6|0,3:2|0:0,0:0:0:0:
459,50,121462,2,0,P|418:55|396:84,1,80,10|0,3:2|0:0,0:0:0:0:
496,272,121809,1,2,3:2:0:0:
465,130,121982,1,2,0:0:0:0:
359,265,122156,1,10,3:2:0:0:
310,97,122329,6,0,P|304:56|296:8,1,80,2|0,0:0|3:2,0:0:0:0:
157,196,122676,2,0,P|163:155|171:107,1,80,2|8,0:0|3:2,0:0:0:0:
359,265,123023,2,0,P|302:231|287:309,1,160,2|0,0:0|0:0,0:0:0:0:
495,370,123543,2,0,P|486:306|475:209,1,143.999995605469,14|0,3:2|0:0,0:0:0:0:
472,192,123890,6,0,P|433:153|384:162,1,95.9999970703126,6|0,3:2|0:0,0:0:0:0:
278,300,124237,1,8,0:0:0:0:
211,152,124410,1,2,0:0:0:0:
359,265,124583,1,10,0:0:0:0:
149,233,124757,1,0,3:2:0:0:
269,77,124930,1,8,0:0:0:0:
278,300,125104,1,0,3:0:0:0:
134,155,125277,5,8,0:0:0:0:
338,175,125450,1,0,3:2:0:0:
209,13,125624,1,8,0:0:0:0:
149,233,125797,1,0,3:2:0:0:
353,269,125971,2,0,L|337:168,1,95.9999970703126,10|2,0:0|3:2,0:0:0:0:
321,33,126317,1,10,0:0:0:0:
251,209,126491,5,10,0:0:0:0:
251,209,126578,1,8,0:0:0:0:
251,209,126664,1,8,0:3:0:0:
118,75,126838,1,8,0:3:0:0:
321,33,127011,1,8,0:3:0:0:
134,155,127185,1,12,0:3:0:0:
142,163,127531,5,8,0:3:0:0:
142,163,127618,1,8,0:3:0:0:
142,163,127705,1,8,0:0:0:0:
99,363,127878,1,4,3:2:0:0:
107,371,128225,5,8,0:0:0:0:
107,371,128312,1,8,0:0:0:0:
107,371,128398,1,0,3:2:0:0:
251,209,128572,1,8,3:3:0:0:
39,288,128745,1,10,0:2:0:0:
213,333,128919,1,2,3:2:0:0:
66,178,129092,1,10,0:2:0:0:
221,343,129265,5,10,0:0:0:0:
221,343,129352,1,8,0:0:0:0:
221,343,129439,2,0,B|259:370|299:356|299:356|335:313|402:334,1,167.999994873047,6|0,3:2|0:0,0:0:0:0:
482,374,129786,2,0,B|472:319|463:257,1,111.999996582031,8|0,0:0|0:0,0:0:0:0:
474,111,130046,1,8,0:0:0:0:
474,111,130132,2,0,P|445:157|391:168,1,111.999996582031,0|0,3:0|3:0,0:0:0:0:
309,5,130479,1,10,0:0:0:0:
217,205,130653,6,0,B|232:125|332:111|332:111|297:138|308:202,1,223.999993164063,2|0,0:0|3:0,0:0:0:0:
176,47,131173,2,0,P|139:9|81:25,1,111.999996582031,10|0,0:0|0:0,0:0:0:0:
13,9,131433,1,0,3:0:0:0:
13,9,131520,2,0,L|22:67,1,55.9999982910157,2|8,0:0|0:0,0:0:0:0:
64,228,131693,1,0,3:0:0:0:
217,205,131867,2,0,B|177:221|130:178|162:175|114:123|56:139,1,167.999994873047,10|0,0:0|0:0,0:0:0:0:
176,47,132213,6,0,B|172:20|226:11|255:45|256:102|208:127,1,167.999994873047,2|0,3:2|0:0,0:0:0:0:
217,205,132560,2,0,P|277:192|339:185,1,111.999996582031,10|2,0:0|0:0,0:0:0:0:
358,185,132820,1,8,0:0:0:0:
358,185,132907,1,0,3:0:0:0:
410,346,133080,2,0,P|350:332|328:276,1,111.999996582031,2|8,3:2|0:0,0:0:0:0:
85,303,133427,6,0,P|188:306|210:193,1,223.999993164063,2|0,0:0|3:0,0:0:0:0:
56,25,133948,2,0,P|66:81|76:153,1,111.999996582031,8|0,0:0|0:0,0:0:0:0:
85,221,134208,1,0,3:0:0:0:
85,221,134294,2,0,P|117:215|146:211,1,55.9999982910157,0|8,0:0|0:0,0:0:0:0:
291,193,134468,1,0,3:0:0:0:
175,72,134641,2,0,P|254:62|357:44,1,167.999994873047,8|0,0:0|0:0,0:0:0:0:
412,35,134988,5,6,3:2:0:0:
477,200,135161,2,0,P|447:153|388:149,1,111.999996582031,2|8,0:0|0:0,0:0:0:0:
303,283,135508,1,2,0:0:0:0:
303,283,135595,1,8,0:0:0:0:
303,283,135682,1,0,3:0:0:0:
219,141,135855,1,2,3:2:0:0:
412,35,136028,2,0,P|402:94|393:151,1,111.999996582031,10|0,0:0|0:0,0:0:0:0:
392,179,136289,5,2,0:3:0:0:
392,179,136375,1,2,3:2:0:0:
198,62,136549,2,0,P|257:60|293:112,1,111.999996582031,2|8,3:2|0:0,0:0:0:0:
68,207,136895,1,2,0:0:0:0:
68,207,136982,2,0,L|48:83,1,111.999996582031,0|8,3:0|0:0,0:0:0:0:
38,24,137242,1,2,3:2:0:0:
219,141,137416,2,0,P|201:227|185:326,1,167.999994873047,8|0,0:0|0:0,0:0:0:0:
174,382,137763,5,6,3:2:0:0:
335,215,137936,1,2,0:0:0:0:
330,384,138109,1,10,0:0:0:0:
188,306,138283,1,2,3:2:0:0:
406,263,138456,1,10,0:0:0:0:
219,141,138630,1,2,3:2:0:0:
296,312,138803,1,10,0:0:0:0:
348,57,138976,6,0,B|409:4|476:61|476:61|466:118|414:109,1,223.999993164063,6|0,3:2|3:0,0:0:0:0:
230,29,139497,1,12,0:0:0:0:
123,205,139670,1,8,0:0:0:0:
28,26,139843,1,2,3:2:0:0:
214,208,140017,5,10,0:0:0:0:
208,171,140103,1,8,0:0:0:0:
189,139,140190,1,10,3:3:0:0:
158,119,140277,1,8,0:3:0:0:
121,112,140363,1,2,0:3:0:0:
85,122,140450,1,8,3:3:0:0:
56,145,140537,6,0,P|70:225|82:312,1,167.999994873047,4|0,3:2|0:0,0:0:0:0:
212,384,140884,2,0,P|246:339|313:344,1,111.999996582031,8|0,0:0|0:0,0:0:0:0:
319,356,141144,1,8,0:0:0:0:
319,356,141231,1,0,3:0:0:0:
382,179,141404,1,0,3:0:0:0:
214,208,141578,1,10,0:0:0:0:
414,371,141751,5,2,0:0:0:0:
414,371,141838,1,8,0:0:0:0:
414,371,141924,2,0,L|396:258,1,111.999996582031,0|0,3:0|3:0,0:0:0:0:
367,64,142271,2,0,P|403:110|470:116,1,111.999996582031,10|0,0:0|0:0,0:0:0:0:
498,33,142531,1,0,3:0:0:0:
498,33,142618,2,0,L|442:41,1,55.9999982910157,2|8,0:0|0:0,0:0:0:0:
285,83,142791,1,0,3:2:0:0:
396,260,142965,2,0,P|341:198|253:235,1,167.999994873047,10|0,0:0|0:0,0:0:0:0:
199,316,143312,6,0,P|150:341|80:305,1,111.999996582031,6|0,3:2|3:0,0:0:0:0:
20,189,143658,1,10,0:0:0:0:
226,119,143832,1,2,0:0:0:0:
226,119,143919,1,8,0:0:0:0:
226,119,144005,1,0,3:2:0:0:
140,254,144179,2,0,P|130:198|122:139,1,111.999996582031,2|8,3:2|0:0,0:0:0:0:
0,9,144526,6,0,P|45:88|167:37,1,223.999993164063,2|0,0:0|3:0,0:0:0:0:
310,159,145046,2,0,P|256:162|225:118,1,111.999996582031,8|0,0:0|0:0,0:0:0:0:
242,34,145306,1,0,3:0:0:0:
242,34,145393,2,0,L|306:23,1,55.9999982910157,0|8,0:0|0:0,0:0:0:0:
459,3,145566,1,0,3:0:0:0:
460,221,145739,2,0,B|416:221|393:174|393:174|380:226|326:241,1,167.999994873047,8|0,0:0|0:0,0:0:0:0:
310,159,146086,5,6,3:2:0:0:
370,384,146260,2,0,P|404:344|398:269,1,111.999996582031,2|8,0:0|0:0,0:0:0:0:
222,164,146606,1,2,0:0:0:0:
222,164,146693,1,8,0:0:0:0:
222,164,146780,2,0,L|241:284,1,111.999996582031,0|2,3:0|3:0,0:0:0:0:
69,360,147127,2,0,P|98:316|161:322,1,111.999996582031,10|0,0:0|0:0,0:0:0:0:
180,341,147387,5,8,0:0:0:0:
180,341,147474,1,2,3:2:0:0:
306,206,147647,2,0,P|276:162|214:168,1,111.999996582031,2|8,3:2|0:0,0:0:0:0:
61,228,147994,1,2,0:0:0:0:
61,228,148080,2,0,L|80:108,1,111.999996582031,0|8,3:2|0:0,0:0:0:0:
92,43,148341,1,2,3:2:0:0:
150,229,148514,2,0,B|193:260|239:224|218:216|268:183|322:213,1,167.999994873047,8|0,0:0|0:0,0:0:0:0:
367,256,148861,5,6,3:2:0:0:
269,117,149034,1,2,3:2:0:0:
467,98,149208,1,10,0:2:0:0:
306,206,149381,1,2,3:2:0:0:
495,169,149554,1,10,0:2:0:0:
356,32,149728,1,2,3:2:0:0:
294,279,149901,1,8,0:0:0:0:
165,84,150075,6,0,B|152:35|106:3|47:1|13:57|28:98|60:103,1,223.999993164063,6|2,3:2|3:2,0:0:0:0:
306,206,150595,2,0,P|344:166|407:181,1,111.999996582031,14|0,0:0|3:0,0:0:0:0:
468,327,150942,1,0,3:0:0:0:
468,327,151028,1,8,0:2:0:0:
468,327,151115,2,0,L|391:340,1,55.9999982910157,8|8,0:2|0:2,0:0:0:0:
240,361,151289,1,10,3:2:0:0:
214,329,151375,1,8,0:2:0:0:
220,289,151462,1,10,0:2:0:0:
255,267,151549,1,8,0:2:0:0:
294,279,151635,6,0,L|217:292,1,55.9999982910157,6|0,3:1|0:0,0:0:0:0:
61,314,151809,1,2,0:0:0:0:
232,175,151982,6,0,L|155:162,1,55.9999982910157,10|0,0:1|0:0,0:0:0:0:
2,97,152156,1,2,0:0:0:0:
2,97,152242,1,8,0:0:0:0:
2,97,152329,2,0,L|79:84,1,55.9999982910157,10|0,0:1|0:0,0:0:0:0:
242,22,152502,1,2,3:2:0:0:
146,240,152676,1,8,0:0:0:0:
319,170,152849,6,0,P|299:119|249:95,1,111.999996582031,6|0,3:2|0:0,0:0:0:0:
226,99,153109,1,8,0:0:0:0:
226,99,153196,1,2,3:2:0:0:
262,289,153369,1,10,0:0:0:0:
411,122,153543,1,2,3:2:0:0:
239,183,153716,1,2,3:2:0:0:
239,183,153803,1,8,0:0:0:0:
239,183,153890,1,2,3:2:0:0:
288,384,154063,2,0,P|355:333|432:363,1,167.999994873047,10|0,0:0|0:0,0:0:0:0:
512,384,154410,6,0,L|499:305,1,55.9999982910157,6|0,3:1|0:0,0:0:0:0:
483,167,154583,1,2,0:0:0:0:
326,262,154757,6,0,L|338:183,1,55.9999982910157,10|0,0:1|0:0,0:0:0:0:
366,27,154931,1,2,0:0:0:0:
366,27,155018,1,8,0:0:0:0:
366,27,155104,2,0,L|381:88,1,55.9999982910157,2|0,3:1|0:0,0:0:0:0:
420,253,155277,1,2,3:2:0:0:
483,41,155450,1,8,0:0:0:0:
286,121,155624,6,0,P|234:111|202:54,1,111.999996582031,6|0,3:2|0:0,0:0:0:0:
98,0,155884,1,0,3:0:0:0:
98,0,155971,2,0,L|118:126,1,111.999996582031,2|8,3:2|0:0,0:0:0:0:
149,298,156317,1,2,3:2:0:0:
298,129,156491,1,0,3:0:0:0:
257,121,156577,1,8,0:3:0:0:
218,135,156664,1,8,0:3:0:0:
192,168,156751,1,8,0:3:0:0:
187,209,156838,6,0,B|229:203|261:233|261:233|286:302|357:303,1,192,4|0,3:2|0:0,0:0:0:0:
392,199,157185,6,0,L|331:226,1,55.9999982910157,6|0,3:1|0:0,0:0:0:0:
149,298,157358,1,2,0:0:0:0:
57,167,157531,6,0,L|118:187,1,55.9999982910157,10|0,0:1|0:0,0:0:0:0:
270,250,157705,1,2,0:0:0:0:
270,250,157791,1,8,0:0:0:0:
270,250,157878,2,0,L|209:277,1,55.9999982910157,2|0,3:1|0:0,0:0:0:0:
78,330,158052,1,2,3:2:0:0:
112,90,158225,1,8,0:0:0:0:
293,158,158398,6,0,L|272:28,1,111.999996582031,6|0,3:2|0:0,0:0:0:0:
273,19,158658,1,8,0:0:0:0:
273,19,158745,1,2,3:2:0:0:
430,156,158919,1,10,0:2:0:0:
404,0,159092,1,2,3:2:0:0:
299,163,159265,1,2,3:2:0:0:
299,163,159352,1,8,0:0:0:0:
299,163,159439,1,10,3:2:0:0:
510,173,159612,2,0,P|493:104|381:95,1,192,14|0,0:0|0:0,0:0:0:0:
299,163,159959,6,0,L|310:236,1,55.9999982910157,6|0,3:2|0:0,0:0:0:0:
275,384,160132,1,10,0:0:0:0:
233,382,160218,1,8,0:0:0:0:
201,356,160305,1,10,3:3:0:0:
192,316,160392,1,8,0:3:0:0:
209,278,160479,2,0,P|236:298|276:298,1,55.9999982910157,6|0,3:2|0:0,0:0:0:0:
445,270,160653,5,8,0:0:0:0:
409,244,160739,1,8,0:0:0:0:
365,248,160826,1,10,0:3:0:0:
333,278,160913,1,8,0:3:0:0:
328,322,160999,1,10,3:0:0:0:
352,359,161086,1,8,0:0:0:0:
393,372,161173,1,6,3:2:0:0:
393,372,161693,6,0,L|428:368,1,35.9999989013672,2|0,0:0|0:0,0:0:0:0:
435,348,162040,6,0,L|370:356,1,55.9999982910157,10|0,0:0|0:0,0:0:0:0:
197,384,162213,1,2,3:0:0:0:
191,343,162299,1,8,0:3:0:0:
211,306,162386,1,8,0:3:0:0:
248,289,162473,1,8,0:3:0:0:
289,298,162560,6,0,P|213:272|208:186,1,167.999994873047,6|0,3:2|0:0,0:0:0:0:
227,123,162907,1,8,3:3:0:0:
337,248,163080,1,0,3:0:0:0:
403,96,163254,1,8,0:3:0:0:
382,99,163340,1,8,0:3:0:0:
359,102,163427,1,0,3:0:0:0:
338,106,163514,1,8,0:3:0:0:
315,109,163600,1,8,0:3:0:0:
381,10,163774,1,0,3:0:0:0:
436,198,163948,5,8,0:3:0:0:
436,198,164034,1,8,0:3:0:0:
436,198,164121,1,0,3:2:0:0:
492,22,164294,1,8,0:0:0:0:
315,109,164468,1,8,0:0:0:0:
502,249,164641,1,8,0:0:0:0:
336,346,164815,5,8,0:0:0:0:
301,368,164901,1,8,0:0:0:0:
261,367,164988,1,8,0:0:0:0:
223,351,165075,1,8,0:0:0:0:
198,317,165161,1,8,0:0:0:0:
168,286,165248,1,8,0:0:0:0:
130,276,165335,1,8,0:0:0:0:
90,292,165422,1,8,0:0:0:0:
67,321,165508,6,0,B|49:278|49:278|56:253|56:253|36:191,1,111.999996582031,4|2,3:2|0:0,0:0:0:0:
37,186,165768,1,2,0:0:0:0:
37,186,165855,1,10,0:0:0:0:
101,33,166028,1,2,0:0:0:0:
101,33,166115,1,8,0:0:0:0:
101,33,166202,1,2,3:2:0:0:
161,206,166375,1,2,3:2:0:0:
28,93,166549,1,8,0:0:0:0:
231,150,166722,6,0,B|188:113|188:113|129:120,1,111.999996582031,2|0,0:0|3:0,0:0:0:0:
246,51,166982,1,8,0:0:0:0:
246,51,167069,2,0,B|289:14|289:14|343:20,1,111.999996582031,2|8,3:2|0:0,0:0:0:0:
422,162,167415,1,2,0:0:0:0:
422,162,167502,2,0,L|442:38,1,111.999996582031,2|8,3:2|0:0,0:0:0:0:
316,97,167763,2,0,L|327:166,1,55.9999982910157,2|0,3:2|0:0,0:0:0:0:
353,297,167936,2,0,B|422:269|422:269|474:291|474:291|437:316,1,167.999994873047,10|0,0:0|0:0,0:0:0:0:
326,380,168283,6,0,B|255:351|255:351|247:325|247:325|180:301,1,167.999994873047,6|0,3:2|0:0,0:0:0:0:
85,256,168630,2,0,L|195:214,1,111.999996582031,8|0,0:0|0:0,0:0:0:0:
224,207,168890,1,8,0:0:0:0:
224,207,168976,1,2,3:2:0:0:
115,334,169150,1,2,3:2:0:0:
113,136,169323,1,10,0:2:0:0:
297,261,169497,6,0,B|366:232|366:232|374:206|374:206|441:182,1,167.999994873047,6|0,3:2|0:0,0:0:0:0:
506,151,169843,1,2,3:2:0:0:
304,175,170017,2,0,L|199:135,1,111.999996582031,8|0,0:0|0:0,0:0:0:0:
355,91,170364,1,0,3:2:0:0:
381,81,170450,1,8,0:0:0:0:
407,71,170537,1,0,3:2:0:0:
433,61,170624,1,2,0:3:0:0:
459,51,170711,2,0,B|415:7|415:7|306:48,1,167.999994873047,14|0,3:2|0:0,0:0:0:0:
226,53,171057,6,0,B|121:13|121:13|148:69,1,167.999994873047,6|0,3:2|0:0,0:0:0:0:
199,135,171404,2,0,B|226:181|226:181|194:237,1,111.999996582031,8|0,0:0|0:0,0:0:0:0:
183,255,171664,1,8,0:0:0:0:
183,255,171751,1,2,3:2:0:0:
76,96,171924,1,0,3:0:0:0:
0,204,172098,2,0,L|118:185,1,111.999996582031,10|0,0:0|0:0,0:0:0:0:
140,185,172358,5,8,0:0:0:0:
140,185,172445,1,0,3:2:0:0:
63,318,172618,1,0,3:2:0:0:
185,351,172791,2,0,B|212:305|212:305|180:249,1,111.999996582031,8|0,0:0|0:0,0:0:0:0:
265,219,173052,1,0,3:0:0:0:
265,219,173138,2,0,L|324:209,1,55.9999982910157,2|8,0:0|0:0,0:0:0:0:
469,184,173312,1,2,3:2:0:0:
303,99,173485,1,10,0:0:0:0:
489,56,173658,1,2,0:0:0:0:
455,274,173832,6,0,L|433:408,1,111.999996582031,6|0,3:2|3:0,0:0:0:0:
321,210,174179,2,0,L|299:75,1,111.999996582031,8|0,0:0|0:0,0:0:0:0:
302,71,174439,1,8,0:0:0:0:
302,71,174526,1,2,3:2:0:0:
168,183,174699,1,2,3:2:0:0:
141,0,174872,1,10,0:2:0:0:
82,225,175046,6,0,B|111:179|111:179|168:183,1,111.999996582031,6|0,3:2|0:0,0:0:0:0:
121,317,175393,2,0,B|178:321|178:321|207:275,1,111.999996582031,2|8,3:2|0:0,0:0:0:0:
303,99,175739,1,2,0:2:0:0:
303,99,175826,2,0,L|314:172,1,55.9999982910157,2|2,3:2|0:2,0:0:0:0:
410,214,176000,1,8,0:0:0:0:
410,214,176087,2,0,L|421:141,1,55.9999982910157,0|0,3:0|0:0,0:0:0:0:
456,0,176260,1,8,0:0:0:0:
428,4,176346,1,8,0:0:0:0:
400,8,176433,1,8,0:3:0:0:
373,13,176520,1,8,0:3:0:0:
345,17,176606,6,0,L|273:28,1,55.9999982910157,4|0,3:2|0:0,0:0:0:0:
118,61,176780,1,10,0:0:0:0:
118,61,176867,1,8,0:0:0:0:
118,61,176953,1,0,3:0:0:0:
240,175,177127,5,14,0:0:0:0:
141,147,177300,1,2,3:2:0:0:
70,222,177474,1,2,0:0:0:0:
118,61,177647,5,14,0:0:0:0:
175,258,177820,1,2,0:0:0:0:
175,258,177907,1,8,0:0:0:0:
175,258,177994,1,2,3:2:0:0:
310,123,178167,5,14,0:0:0:0:
262,299,178340,1,2,3:2:0:0:
262,299,178427,1,8,0:0:0:0:
262,299,178514,1,10,0:0:0:0:
378,228,178687,5,14,0:0:0:0:
409,368,178860,1,10,0:3:0:0:
425,380,178948,1,8,0:3:0:0:
445,384,179034,1,10,3:3:0:0:
470,381,179121,1,8,0:3:0:0:
498,365,179208,1,10,0:3:0:0:
512,338,179294,1,8,0:3:0:0:
503,293,179381,6,0,L|437:314,1,55.9999982910157,6|0,3:2|0:0,0:0:0:0:
250,347,179554,1,10,0:0:0:0:
256,322,179641,1,8,0:0:0:0:
262,299,179728,1,0,3:2:0:0:
62,356,179901,5,14,0:0:0:0:
142,254,180075,1,2,3:2:0:0:
262,299,180248,1,2,0:0:0:0:
12,247,180422,5,14,0:0:0:0:
65,41,180595,1,10,0:0:0:0:
65,41,180682,1,8,0:0:0:0:
65,41,180768,1,2,3:2:0:0:
221,225,180942,5,6,3:2:0:0:
170,65,181115,1,2,3:2:0:0:
170,65,181202,1,8,0:0:0:0:
170,65,181288,1,10,0:0:0:0:
340,108,181462,5,6,3:2:0:0:
251,15,181635,1,8,0:3:0:0:
390,9,181809,1,8,0:3:0:0:
458,130,181982,1,8,0:3:0:0:
333,261,182156,5,14,3:2:0:0:
315,266,182242,1,2,0:2:0:0:
297,267,182329,1,2,3:2:0:0:
280,261,182416,1,2,0:2:0:0:
266,250,182502,2,0,P|251:232|245:206,1,32,2|0,3:2|0:0,0:0:0:0:
293,20,182676,5,14,0:2:0:0:
318,31,182762,1,2,0:2:0:0:
331,55,182849,1,2,3:2:0:0:
332,83,182936,1,2,0:2:0:0:
318,107,183023,2,0,P|306:127|284:142,1,32,2|0,3:2|0:0,0:0:0:0:
165,247,183197,5,14,0:2:0:0:
148,217,183283,1,2,0:2:0:0:
152,185,183370,1,2,3:2:0:0:
171,157,183457,1,2,0:2:0:0:
202,143,183543,2,0,P|224:148|244:166,1,32,2|0,3:2|0:0,0:0:0:0:
453,120,183717,5,14,0:2:0:0:
449,160,183803,1,2,0:2:0:0:
420,189,183890,1,2,3:2:0:0:
382,209,183977,1,2,0:2:0:0:
343,213,184063,2,0,P|320:207|300:189,1,32,2|0,3:2|0:0,0:0:0:0:
119,96,184237,6,0,P|178:95|216:133,1,111.999996582031,14|0,0:2|3:0,0:0:0:0:
236,157,184497,1,0,3:0:0:0:
236,157,184583,1,8,0:0:0:0:
148,351,184757,5,8,0:3:0:0:
148,351,184843,1,8,0:3:0:0:
148,351,184930,2,0,B|92:337|94:275|94:275|73:215|21:221|21:221|3:285|75:298,1,287.999991210938,6|0,3:2|3:0,0:0:0:0:
186,278,185624,2,0,B|254:268|299:350|299:350|326:257|404:243,1,287.999991210938,14|8,0:0|0:0,0:0:0:0:
284,218,186317,6,0,L|277:152,2,53.3333333333333,4|8|8,3:2|0:0|0:0,0:0:0:0:
390,246,186664,5,8,0:0:0:0:
408,191,186780,1,8,0:0:0:0:
380,138,186895,1,8,0:0:0:0:
322,130,187011,5,8,0:3:0:0:
278,164,187127,1,8,0:3:0:0:
231,147,187242,1,8,0:3:0:0:
181,156,187358,5,8,0:3:0:0:
154,190,187474,1,8,0:3:0:0:
155,239,187589,1,8,0:3:0:0:
186,278,187705,5,4,3:2:0:0:
186,278,188398,5,2,0:0:0:0:
186,278,189786,5,2,0:0:0:0:
28,176,190132,1,0,3:0:0:0:
264,102,190479,1,0,3:0:0:0:
264,102,191173,5,2,0:0:0:0:
28,176,192560,6,0,P|34:119|87:97,1,120,4|0,3:0|0:0,0:0:0:0:
264,102,192907,2,0,P|221:62|165:74,1,120,4|0,3:0|0:0,0:0:0:0:
117,251,193254,2,0,B|158:249|187:278|187:278|194:236|238:202,1,155.999992858887,6|0,3:2|0:0,0:0:0:0:
295,178,193601,2,0,L|408:195,1,95.9999970703126,10|0,0:0|0:0,0:0:0:0:
512,210,193948,1,2,3:2:0:0:
374,98,194121,1,2,0:2:0:0:
505,24,194294,1,10,0:2:0:0:
389,193,194468,6,0,L|372:90,1,95.9999970703126,2|0,3:2|0:0,0:0:0:0:
211,306,194815,2,0,L|227:203,1,95.9999970703126,2|8,3:2|0:0,0:0:0:0:
438,316,195161,2,0,B|387:292|346:345|364:348|336:417|243:373,1,191.999994140625,2|0,0:0|0:0,0:0:0:0:
155,182,195682,2,0,P|181:143|234:130,1,95.9999970703126,10|8,0:0|0:3,0:0:0:0:
211,306,196028,5,6,3:0:0:0:
47,199,196201,1,8,0:0:0:0:
153,36,196375,1,0,3:0:0:0:
317,142,196548,1,10,0:0:0:0:
107,286,196721,5,2,3:2:0:0:
66,95,196895,1,8,0:0:0:0:
298,246,197068,1,8,3:2:0:0:
257,55,197242,1,8,0:0:0:0:
107,286,197416,5,0,3:2:0:0:
115,261,197502,1,8,0:0:0:0:
137,247,197589,1,8,0:0:0:0:
176,244,197676,1,8,0:0:0:0:
214,269,197763,1,8,3:2:0:0:
233,314,197849,1,8,0:0:0:0:
269,348,197936,1,8,0:0:0:0:
318,353,198023,1,8,0:0:0:0:
363,335,198109,5,10,3:2:0:0:
320,313,198195,1,8,0:0:0:0:
297,272,198282,1,8,3:2:0:0:
299,225,198369,1,8,0:0:0:0:
327,187,198456,1,10,3:2:0:0:
371,170,198542,1,8,0:0:0:0:
418,180,198629,1,8,3:2:0:0:
451,214,198715,1,8,0:0:0:0:
460,261,198802,1,14,3:2:0:0:
256,192,198890,12,0,200017,0:0:0:0:
256,192,200190,12,0,201404,0:0:0:0:
460,261,201578,6,0,P|412:253|358:247,1,96,2|0,3:2|0:0,0:0:0:0:
298,291,201924,6,0,P|284:262|288:231,2,63.9999980468751,8|8|8,0:3|0:3|0:3,0:0:0:0:
181,230,202271,6,0,P|193:206|215:190,2,53.3333333333333,8|8|8,0:0|0:3|0:3,0:0:0:0:
152,113,202618,6,0,P|173:109|194:114,2,42.6666666666667,8|8|8,0:3|0:3|0:3,0:0:0:0:
213,23,202965,5,8,0:3:0:0:
224,31,203080,1,8,0:3:0:0:
235,40,203196,1,8,0:3:0:0:
243,53,203312,2,0,P|260:30|291:15,1,64,8|0,0:3|3:0,0:0:0:0:
429,63,203658,5,2,3:2:0:0:
312,92,203832,1,2,3:2:0:0:
341,209,204005,1,2,3:2:0:0:
458,180,204179,1,2,3:2:0:0:
384,135,204352,5,4,3:2:0:0:
392,142,212156,5,8,3:2:0:0:
392,142,212242,1,8,3:2:0:0:
392,142,212329,2,0,P|330:87|224:101,1,180.000006866455,12|0,0:0|0:0,0:0:0:0:
179,139,212676,5,6,3:2:0:0:
269,264,212849,1,10,0:0:0:0:
105,346,213023,1,10,3:2:0:0:
107,176,213196,1,10,0:0:0:0:
207,367,213369,1,10,3:2:0:0:
46,268,213543,1,10,0:0:0:0:
280,173,213716,5,10,3:2:0:0:
280,173,213803,1,8,0:0:0:0:
280,173,213890,2,0,B|316:152|358:186|358:186|373:238|434:243,1,155.999992858887,6|0,3:2|0:0,0:0:0:0:
479,245,214237,1,0,3:0:0:0:
471,37,214410,5,8,0:0:0:0:
471,37,214497,1,8,0:0:0:0:
471,37,214583,2,0,P|436:46|416:80,1,51.999997619629,8|8,0:3|0:3,0:0:0:0:
290,92,214757,1,8,0:0:0:0:
290,92,214844,1,8,0:0:0:0:
290,92,214930,2,0,P|324:101|344:135,1,51.999997619629,8|8,0:3|0:3,0:0:0:0:
404,236,215104,5,8,0:2:0:0:
385,285,215190,1,8,0:2:0:0:
341,314,215277,1,8,0:2:0:0:
290,319,215364,1,8,0:2:0:0:
246,293,215450,6,0,B|187:316|155:268|166:268|132:193|45:242,1,192,6|0,3:2|0:0,0:0:0:0:
24,277,215797,2,0,P|37:207|45:139,1,128,8|0,0:0|0:0,0:0:0:0:
31,18,216057,1,8,0:0:0:0:
31,18,216144,2,0,P|75:78|143:66,1,128,0|0,3:0|3:0,0:0:0:0:
280,0,216491,1,10,0:0:0:0:
327,195,216664,6,0,B|308:100|239:78|181:91|161:146|194:193|235:181,1,256,2|0,0:0|3:0,0:0:0:0:
420,296,217185,2,0,P|454:241|538:248,1,128,10|0,0:0|0:0,0:0:0:0:
444,375,217445,1,0,3:0:0:0:
444,375,217531,2,0,P|408:377|377:364,1,64,2|8,0:0|0:0,0:0:0:0:
251,253,217705,1,0,3:2:0:0:
82,372,217878,2,0,P|44:302|143:314,1,192,10|0,0:0|0:0,0:0:0:0:
222,335,218225,6,0,P|284:335|329:289,1,128,6|0,3:2|3:0,0:0:0:0:
211,113,218572,1,10,0:0:0:0:
136,292,218745,1,2,0:0:0:0:
136,292,218832,1,8,0:0:0:0:
136,292,218919,1,0,3:2:0:0:
0,147,219092,2,0,P|66:138|147:122,1,128,2|8,3:2|0:0,0:0:0:0:
406,147,219439,6,0,B|393:100|340:54|267:50|267:50|301:82|294:136,1,256,2|0,0:0|3:0,0:0:0:0:
442,347,219959,2,0,P|453:280|425:199,1,128,8|0,0:0|0:0,0:0:0:0:
357,218,220219,1,0,3:0:0:0:
357,218,220306,2,0,P|321:221|275:226,1,64,2|8,0:3|0:0,0:0:0:0:
120,237,220479,1,0,3:0:0:0:
273,361,220653,2,0,P|180:349|62:339,1,192,8|0,0:0|0:0,0:0:0:0:
7,335,221000,5,6,3:2:0:0:
116,129,221173,2,0,P|177:135|213:186,1,128,2|8,0:0|0:0,0:0:0:0:
370,303,221520,1,2,0:0:0:0:
370,303,221606,1,8,0:0:0:0:
370,303,221693,2,0,P|308:309|272:360,1,128,0|2,3:0|3:0,0:0:0:0:
512,384,222040,2,0,P|501:319|489:242,1,128,10|0,0:0|0:0,0:0:0:0:
487,215,222300,5,8,0:0:0:0:
487,215,222387,1,2,3:2:0:0:
300,240,222560,2,0,P|311:175|322:98,1,128,2|8,3:2|0:0,0:0:0:0:
496,35,222907,1,2,0:0:0:0:
496,35,222994,2,0,P|447:85|379:69,1,128,0|8,3:2|0:0,0:0:0:0:
327,36,223254,1,2,3:2:0:0:
300,240,223427,2,0,P|247:172|133:199,1,192,8|0,0:0|0:0,0:0:0:0:
96,238,223774,5,6,3:2:0:0:
216,25,223948,1,2,3:2:0:0:
208,254,224121,1,10,0:2:0:0:
46,110,224294,1,2,3:2:0:0:
141,333,224468,1,10,0:2:0:0:
320,113,224641,1,2,3:2:0:0:
102,33,224815,1,8,0:0:0:0:
208,254,224988,6,0,B|148:268|91:213|91:213|87:296|41:324,1,256,6|2,3:2|3:2,0:0:0:0:
356,276,225508,2,0,B|383:282|414:258|414:258|416:295|439:316,1,128,14|2,0:0|3:2,0:0:0:0:
296,384,225855,1,0,3:0:0:0:
296,384,225942,1,8,0:2:0:0:
296,384,226028,2,0,L|285:316,1,64,8|8,0:2|0:2,0:0:0:0:
263,117,226202,1,10,3:2:0:0:
307,105,226288,1,8,0:2:0:0:
344,123,226375,1,10,0:2:0:0:
363,160,226462,1,8,0:2:0:0:
351,198,226549,6,0,L|276:190,1,64,6|0,3:1|0:0,0:0:0:0:
87,175,226722,1,2,0:0:0:0:
186,0,226895,6,0,L|199:83,1,64,10|0,0:1|0:0,0:0:0:0:
237,260,227069,1,2,0:0:0:0:
237,260,227156,1,8,0:0:0:0:
237,260,227242,2,0,L|162:268,1,64,2|0,3:1|0:0,0:0:0:0:
0,284,227416,1,2,3:2:0:0:
160,384,227589,1,8,0:0:0:0:
287,191,227763,6,0,P|326:140|407:153,1,128,6|0,3:2|0:0,0:0:0:0:
421,161,228023,1,8,0:0:0:0:
421,161,228109,1,2,3:2:0:0:
346,370,228283,1,10,0:0:0:0:
503,305,228456,1,2,3:2:0:0:
368,223,228630,1,2,3:2:0:0:
368,223,228716,1,8,0:0:0:0:
368,223,228803,1,2,3:2:0:0:
266,329,228976,2,0,B|211:364|173:305|190:311|156:239|83:278,1,192,10|0,0:0|0:0,0:0:0:0:
12,308,229323,6,0,L|25:225,1,64,6|0,3:1|0:0,0:0:0:0:
49,78,229497,1,2,0:0:0:0:
169,222,229670,6,0,L|183:139,1,64,10|0,0:1|0:0,0:0:0:0:
246,0,229844,1,2,0:0:0:0:
246,0,229930,1,8,0:0:0:0:
246,0,230017,2,0,L|260:83,1,64,10|0,0:1|0:0,0:0:0:0:
291,250,230190,1,2,3:0:0:0:
340,94,230364,1,8,0:0:0:0:
264,352,230537,6,0,B|291:250|291:250|318:319|318:319|282:318,1,204.000003890991,6|0,3:2|0:0,0:0:0:0:
426,319,230884,6,0,B|445:312|455:282|414:265|414:265|427:219|394:200|372:219|372:219|416:327,1,272.000005187988,2|2,3:2|3:2,0:0:0:0:
288,175,231404,5,0,3:0:0:0:
234,186,231490,1,8,0:3:0:0:
195,148,231577,1,8,0:3:0:0:
206,94,231664,1,8,0:3:0:0:
257,74,231751,6,0,P|195:148|287:174,1,227.999993911743,4|0,3:2|0:0,0:0:0:0:
397,131,232098,6,0,L|386:194,1,64,6|0,3:1|0:0,0:0:0:0:
363,384,232271,1,2,0:0:0:0:
209,276,232445,6,0,L|272:286,1,64,10|0,3:1|0:0,0:0:0:0:
477,316,232618,1,2,0:0:0:0:
477,316,232705,1,8,0:0:0:0:
477,316,232791,2,0,L|414:326,1,64,2|0,3:1|0:0,0:0:0:0:
257,384,232965,1,2,3:2:0:0:
287,173,233138,1,8,0:0:0:0:
90,256,233312,6,0,B|99:222|128:204|128:204|171:215|180:234,1,128,6|0,3:2|0:0,0:0:0:0:
209,276,233572,1,8,0:0:0:0:
209,276,233658,1,2,3:2:0:0:
38,374,233832,1,10,0:2:0:0:
12,179,234005,1,2,3:2:0:0:
150,334,234179,1,2,3:2:0:0:
150,334,234265,1,8,0:0:0:0:
150,334,234352,1,10,3:2:0:0:
238,127,234526,2,0,B|223:78|145:74|145:74|90:124|122:189,1,227.999993911743,14|0,0:0|0:0,0:0:0:0:
180,233,234872,6,0,L|257:220,1,60.0000022888184,6|0,3:2|0:0,0:0:0:0:
427,190,235046,1,10,0:0:0:0:
403,153,235132,1,8,0:0:0:0:
360,143,235219,1,10,3:3:0:0:
323,165,235306,1,8,0:3:0:0:
312,208,235393,2,0,L|322:272,1,60.0000022888184,6|0,3:2|0:0,0:0:0:0:
191,361,235566,5,8,0:0:0:0:
141,359,235652,1,8,0:0:0:0:
96,337,235739,1,10,0:3:0:0:
63,300,235826,1,8,0:3:0:0:
48,253,235912,1,10,3:0:0:0:
53,203,235999,1,8,0:0:0:0:
77,160,236086,1,6,3:2:0:0:
77,160,236606,6,0,L|38:153,1,35.9999989013672,2|0,0:0|0:0,0:0:0:0:
33,131,236953,6,0,L|118:146,1,60.0000022888184,10|0,0:0|0:0,0:0:0:0:
276,109,237127,1,2,3:0:0:0:
282,64,237213,1,8,0:3:0:0:
264,24,237300,1,8,0:3:0:0:
227,0,237387,1,8,0:3:0:0:
183,0,237474,6,0,B|141:22|152:78|152:78|197:125|161:193,1,191.999994140625,6|2,3:2|3:2,0:0:0:0:
25,296,237994,2,0,P|49:259|125:262,1,95.9999970703126,10|0,0:2|0:0,0:0:0:0:
97,248,238254,1,8,0:0:0:0:
97,248,238341,1,2,3:2:0:0:
154,384,238514,1,0,3:0:0:0:
242,267,238687,5,10,0:0:0:0:
242,267,238774,1,2,0:3:0:0:
242,267,238861,1,2,0:0:0:0:
311,161,239034,1,0,3:2:0:0:
423,276,239208,1,2,3:2:0:0:
512,94,239381,2,0,P|439:83|418:157,1,143.999995605469,10|8,0:0|0:0,0:0:0:0:
407,172,239728,2,0,P|354:166|302:161,1,95.9999970703126,2|0,3:2|3:2,0:0:0:0:
215,48,240075,2,0,P|267:42|319:37,1,95.9999970703126,10|0,0:0|0:0,0:0:0:0:
167,125,240422,6,0,B|131:112|124:72|124:72|99:109|58:110,1,143.999995605469,2|0,3:2|0:0,0:0:0:0:
31,138,240768,2,0,P|16:185|54:234,1,95.9999970703126,10|0,0:0|0:0,0:0:0:0:
36,223,241028,1,8,0:0:0:0:
36,223,241115,1,2,3:2:0:0:
167,125,241289,1,2,3:2:0:0:
141,330,241462,1,8,0:0:0:0:
285,275,241635,1,2,0:0:0:0:
157,222,241809,5,0,3:2:0:0:
226,384,241982,1,2,3:2:0:0:
388,361,242156,2,0,P|437:351|498:343,1,95.9999970703126,10|0,0:0|0:0,0:0:0:0:
492,305,242416,1,8,0:0:0:0:
492,305,242502,2,0,L|435:296,1,47.9999985351563,2|0,3:2|0:0,0:0:0:0:
285,275,242676,1,2,3:2:0:0:
455,203,242849,2,0,P|426:133|331:153,1,167.999994873047,14|0,0:0|0:0,0:0:0:0:
278,190,243196,6,0,P|231:199|192:174,1,95.9999970703126,6|0,3:2|0:0,0:0:0:0:
157,16,243543,1,10,0:0:0:0:
91,157,243716,1,2,0:0:0:0:
91,157,243803,1,8,0:0:0:0:
91,157,243890,1,2,3:2:0:0:
248,118,244063,2,0,L|230:5,1,95.9999970703126,2|8,3:2|0:0,0:0:0:0:
473,126,244410,6,0,P|417:130|383:177,1,95.9999970703126,2|0,0:0|3:2,0:0:0:0:
254,250,244757,2,0,P|310:254|344:301,1,95.9999970703126,2|8,3:2|0:0,0:0:0:0:
448,384,245104,1,2,0:0:0:0:
448,384,245190,1,8,0:0:0:0:
448,384,245277,1,0,3:0:0:0:
452,206,245450,1,0,3:0:0:0:
268,339,245624,2,0,B|224:357|190:333|190:333|164:281|91:295,1,167.999994873047,14|0,0:0|0:0,0:0:0:0:
60,240,245971,6,0,P|105:248|119:292,1,95.9999970703126,6|0,3:2|0:0,0:0:0:0:
31,357,246317,1,8,0:0:0:0:
0,165,246491,1,2,0:0:0:0:
0,165,246578,1,8,0:0:0:0:
0,165,246664,2,0,P|50:157|104:148,1,95.9999970703126,0|0,3:0|3:2,0:0:0:0:
251,34,247011,2,0,P|203:39|181:86,1,95.9999970703126,10|0,0:0|3:0,0:0:0:0:
172,259,247358,1,4,3:2:0:0:
354,53,247531,21,10,0:0:0:0:
403,74,247617,1,8,0:0:0:0:
418,124,247704,1,10,0:0:0:0:
403,176,247791,1,8,0:0:0:0:
366,208,247878,2,0,B|302:208|259:251|259:251|242:190|183:172,1,223.999993164063,14|2,3:2|3:2,0:0:0:0:
251,34,248398,21,10,0:3:0:0:
202,43,248485,1,8,0:3:0:0:
169,83,248572,1,8,0:3:0:0:
166,132,248658,1,8,0:3:0:0:
191,175,248745,22,0,P|238:202|253:247,1,80,4|0,3:2|0:0,0:0:0:0:
249,223,249005,1,8,0:0:0:0:
249,223,249092,1,2,0:0:0:0:
181,369,249265,1,8,0:0:0:0:
88,269,249439,2,0,L|177:254,1,80,2|8,0:0|0:0,0:0:0:0:
167,256,249699,1,8,0:0:0:0:
167,256,249786,1,2,0:0:0:0:
273,355,249959,1,8,0:0:0:0:
321,200,250132,6,0,P|282:201|257:231,1,80,2|0,0:0|0:0,0:0:0:0:
328,284,250393,1,8,0:0:0:0:
328,284,250479,2,0,L|377:276,1,40,2|0,0:0|0:0,0:0:0:0:
502,259,250653,1,8,0:0:0:0:
411,134,250826,2,0,L|425:226,1,80,2|0,0:0|0:0,0:0:0:0:
485,77,251086,1,8,0:0:0:0:
485,77,251173,2,0,P|458:47|398:44,1,80,2|8,0:0|0:0,0:0:0:0:
338,79,251433,5,2,0:0:0:0:
338,79,251520,2,0,B|311:88|282:82|282:82|261:42|195:45,1,120,2|8,0:0|0:0,0:0:0:0:
157,65,251867,1,2,0:0:0:0:
90,180,252040,1,8,0:0:0:0:
224,202,252213,2,0,P|209:113|209:109,1,80,2|0,0:0|0:0,0:0:0:0:
210,123,252474,1,8,0:0:0:0:
210,123,252560,1,2,0:0:0:0:
105,298,252734,2,0,P|135:276|191:282,1,80,8|2,0:0|0:0,0:0:0:0:
342,365,253080,1,8,0:0:0:0:
419,198,253254,21,0,0:0:0:0:
456,226,253341,1,8,0:0:0:0:
461,277,253427,1,10,0:0:0:0:
428,313,253514,1,2,0:0:0:0:
325,184,253774,21,10,0:0:0:0:
283,196,253860,1,8,0:0:0:0:
256,235,253948,1,8,0:0:0:0:
263,284,254034,1,8,0:0:0:0:
299,320,254121,2,0,B|323:332|342:365|342:365|365:335|392:332,1,120,2|0,0:0|0:0,0:0:0:0:
