osu file format v14

[General]
AudioFilename: audio.mp3
AudioLeadIn: 0
PreviewTime: 128653
Countdown: 0
SampleSet: Soft
StackLeniency: 0.6
Mode: 0
LetterboxInBreaks: 0
WidescreenStoryboard: 1

[Editor]
DistanceSpacing: 2.6
BeatDivisor: 4
GridSize: 8
TimelineZoom: 2.1

[Metadata]
Title:my little wish
TitleUnicode:my little wish
Artist:Matsushita
ArtistUnicode:松下
Creator:gazimal
Version:Mayu's Insane
Source:ワガママハイスペックOC
Tags:Wagamama High Spec OC Wagahigh 2 japanese j-pop KuBsNia_ZhoYL_ pop jpop Kuse Shizuku- Kazato Asa Shikibe Mayu Over Clocking まどそふと madosoft 田中俊裕 中森優紀 Sound Drive Nakamori yuuki Tanaka Toshihiro ED ending visual novel galgame vn eroge video game
BeatmapID:2992233
BeatmapSetID:1455505

[Difficulty]
HPDrainRate:5
CircleSize:4
OverallDifficulty:8
ApproachRate:8.8
SliderMultiplier:1.5
SliderTickRate:1

[Events]
//Background and Video events
0,0,"0367.jpg",0,0
//Break Periods
2,204552,211284
//Storyboard Layer 0 (Background)
//Storyboard Layer 1 (Fail)
//Storyboard Layer 2 (Pass)
//Storyboard Layer 3 (Foreground)
//Storyboard Layer 4 (Overlay)
//Storyboard Sound Samples

[TimingPoints]
422,346.820809248555,4,2,1,50,1,0
508,-100,4,2,2,50,0,0
768,-100,4,2,1,50,0,0
1028,-100,4,2,2,50,0,0
1462,-100,4,2,1,50,0,0
1635,-100,4,2,1,70,0,0
2416,-100,4,2,2,70,0,0
2849,-100,4,2,1,70,0,0
3803,-100,4,2,2,70,0,0
4237,-100,4,2,1,70,0,0
4843,-100,4,2,1,5,0,0
4930,-100,4,2,1,70,0,0
5190,-100,4,2,2,70,0,0
5624,-100,4,2,1,70,0,0
6578,-100,4,2,2,70,0,0
7011,-66.6666666666667,4,2,1,70,0,0
7271,-66.6666666666667,4,2,1,5,0,0
7358,-100,4,2,1,70,0,0
7965,-100,4,2,2,70,0,0
8398,-100,4,2,1,70,0,0
9352,-100,4,2,2,70,0,0
9786,-66.6666666666667,4,2,1,70,0,0
10046,-66.6666666666667,4,2,1,5,0,0
10132,-66.6666666666667,4,2,1,70,0,0
10479,-100,4,2,1,70,0,0
10739,-100,4,2,2,70,0,0
10826,-100,4,2,1,70,0,0
11693,-100,4,2,2,70,0,0
12907,-100,4,2,1,70,0,0
12994,-100,4,2,1,60,0,0
14554,-100,4,2,1,5,0,0
14640,-100,4,2,1,60,0,0
17329,-100,4,2,1,5,0,0
17415,-100,4,2,1,60,0,0
18716,-100,4,2,1,5,0,0
18803,-100,4,2,1,60,0,0
19757,-100,4,2,2,60,0,0
20190,-100,4,2,1,60,0,0
20450,-100,4,2,2,60,0,0
20537,-100,4,2,1,60,0,0
21491,-100,4,2,1,5,0,0
21578,-100,4,2,1,60,0,0
22531,-100,4,2,1,5,0,0
22791,-100,4,2,1,60,0,0
22878,-100,4,2,1,5,0,0
23138,-100,4,2,1,60,0,0
23225,-100,4,2,1,5,0,0
23485,-100,4,2,1,60,0,0
23919,-100,4,2,2,60,0,0
24352,-100,4,2,1,60,0,0
25653,-100,4,2,1,5,0,0
25739,-100,4,2,1,60,0,0
28427,-100,4,2,1,5,0,0
28514,-100,4,2,1,60,0,0
30855,-100,4,2,2,60,0,0
30942,-100,4,2,1,60,0,0
31549,-100,4,2,2,60,0,0
31982,-100,4,2,1,60,0,0
33803,-100,4,2,1,5,0,0
33890,-100,4,2,1,60,0,0
34757,-100,4,2,2,60,0,0
35104,-100,4,2,1,65,0,0
37878,-100,4,2,1,65,0,0
43427,-100,4,2,1,70,0,0
46028,-100,4,2,2,70,0,0
46202,-100,4,2,1,70,0,0
46549,-100,4,2,2,70,0,0
47069,-100,4,2,1,70,0,0
47156,-100,4,2,2,70,0,0
47242,-100,4,2,1,70,0,0
47763,-100,4,2,2,70,0,0
48283,-100,4,2,1,70,0,0
48803,-100,4,2,2,70,0,0
48976,-83.3333333333333,4,2,1,80,0,1
49237,-83.3333333333333,4,2,1,5,0,1
49323,-83.3333333333333,4,2,1,80,0,1
49583,-83.3333333333333,4,2,2,80,0,1
49670,-83.3333333333333,4,2,1,80,0,1
51144,-83.3333333333333,4,2,2,80,0,1
51404,-83.3333333333333,4,2,1,80,0,1
51664,-83.3333333333333,4,2,1,5,0,1
51751,-83.3333333333333,4,2,1,80,0,1
52011,-83.3333333333333,4,2,1,5,0,1
52098,-83.3333333333333,4,2,1,80,0,1
52358,-83.3333333333333,4,2,2,80,0,1
52791,-83.3333333333333,4,2,1,80,0,1
53919,-83.3333333333333,4,2,2,80,0,1
54179,-83.3333333333333,4,2,1,80,0,1
54439,-83.3333333333333,4,2,1,5,0,1
54526,-83.3333333333333,4,2,1,80,0,1
55132,-83.3333333333333,4,2,2,80,0,1
55566,-83.3333333333333,4,2,1,80,0,1
56693,-83.3333333333333,4,2,2,80,0,1
56953,-83.3333333333333,4,2,1,80,0,1
57213,-83.3333333333333,4,2,1,5,0,1
57300,-83.3333333333333,4,2,1,80,0,1
59554,-83.3333333333333,4,2,2,80,0,1
59728,-83.3333333333333,4,2,1,80,0,1
59901,-83.3333333333333,4,2,2,80,0,1
60075,-83.3333333333333,4,2,1,80,0,1
60335,-83.3333333333333,4,2,1,5,0,1
60422,-83.3333333333333,4,2,1,80,0,1
60682,-83.3333333333333,4,2,2,80,0,1
61115,-83.3333333333333,4,2,1,80,0,1
61375,-83.3333333333333,4,2,2,80,0,1
61809,-83.3333333333333,4,2,1,80,0,1
62242,-83.3333333333333,4,2,2,80,0,1
62502,-83.3333333333333,4,2,1,80,0,1
62763,-83.3333333333333,4,2,1,5,0,1
62849,-83.3333333333333,4,2,1,80,0,1
63456,-83.3333333333333,4,2,2,80,0,1
63890,-83.3333333333333,4,2,1,80,0,1
65017,-83.3333333333333,4,2,2,80,0,1
65104,-83.3333333333333,4,2,1,80,0,1
65537,-83.3333333333333,4,2,1,5,0,1
65624,-83.3333333333333,4,2,1,80,0,1
66231,-83.3333333333333,4,2,2,80,0,1
66664,-83.3333333333333,4,2,1,80,0,1
66924,-83.3333333333333,4,2,2,80,0,1
67011,-83.3333333333333,4,2,1,80,0,1
67791,-83.3333333333333,4,2,2,80,0,1
68052,-83.3333333333333,4,2,1,80,0,1
68312,-83.3333333333333,4,2,1,5,0,1
68398,-83.3333333333333,4,2,1,80,0,1
70566,-83.3333333333333,4,2,2,80,0,1
71173,-83.3333333333333,4,2,1,80,0,1
71780,-83.3333333333333,4,2,2,80,0,1
71867,-83.3333333333333,4,2,1,80,0,1
72647,-83.3333333333333,4,2,2,80,0,1
72907,-83.3333333333333,4,2,1,80,0,1
73341,-83.3333333333333,4,2,2,80,0,1
73601,-83.3333333333333,4,2,1,80,0,1
73948,-83.3333333333333,4,2,1,80,0,1
74554,-83.3333333333333,4,2,2,80,0,1
74641,-83.3333333333333,4,2,1,80,0,1
76202,-83.3333333333333,4,2,2,80,0,1
76375,-83.3333333333333,4,2,1,80,0,1
76635,-83.3333333333333,4,2,1,5,0,1
76722,-83.3333333333333,4,2,1,80,0,1
77329,-83.3333333333333,4,2,2,80,0,1
77416,-83.3333333333333,4,2,1,80,0,1
78196,-83.3333333333333,4,2,2,80,0,1
78283,-83.3333333333333,4,2,1,80,0,1
78890,-83.3333333333333,4,2,2,80,0,1
79410,-83.3333333333333,4,2,2,5,0,1
79497,-83.3333333333333,4,2,2,80,0,1
79757,-83.3333333333333,4,2,1,80,0,1
79930,-83.3333333333333,4,2,2,80,0,1
80017,-83.3333333333333,4,2,1,80,0,1
80190,-83.3333333333333,4,2,2,80,0,1
80364,-83.3333333333333,4,2,1,80,0,1
80450,-83.3333333333333,4,2,2,80,0,1
80711,-100,4,2,2,80,0,0
81231,-100,4,2,3,60,0,0
81491,-100,4,2,3,5,0,0
81578,-100,4,2,1,80,0,1
81838,-100,4,2,2,80,0,1
81924,-100,4,2,1,80,0,1
82011,-100,4,2,2,80,0,1
82098,-100,4,2,2,70,0,0
82878,-100,4,2,2,70,0,0
83311,-100,4,2,1,70,0,0
84265,-100,4,2,2,70,0,0
84699,-100,4,2,1,70,0,0
85306,-100,4,2,1,5,0,0
85393,-100,4,2,1,70,0,0
85652,-100,4,2,2,70,0,0
86086,-100,4,2,1,70,0,0
87040,-100,4,2,2,70,0,0
87473,-100,4,2,1,70,0,0
87734,-100,4,2,1,5,0,0
87820,-100,4,2,1,70,0,0
88427,-100,4,2,2,70,0,0
88860,-100,4,2,1,70,0,0
89814,-100,4,2,2,70,0,0
90248,-100,4,2,1,70,0,0
90595,-100,4,2,1,70,0,0
91201,-100,4,2,2,70,0,0
91288,-100,4,2,1,70,0,0
92155,-100,4,2,2,70,0,0
93369,-100,4,2,1,70,0,0
93456,-100,4,2,1,60,0,0
95017,-100,4,2,1,5,0,0
95104,-100,4,2,1,60,0,0
97791,-100,4,2,1,5,0,0
97878,-100,4,2,1,60,0,0
99179,-100,4,2,1,5,0,0
99265,-100,4,2,1,60,0,0
100219,-100,4,2,2,60,0,0
100652,-100,4,2,1,60,0,0
100912,-100,4,2,2,60,0,0
100999,-100,4,2,1,60,0,0
101953,-100,4,2,1,5,0,0
102040,-100,4,2,1,60,0,0
102994,-100,4,2,1,5,0,0
103254,-100,4,2,1,60,0,0
103341,-100,4,2,1,5,0,0
103601,-100,4,2,1,60,0,0
103687,-100,4,2,1,5,0,0
103948,-100,4,2,1,60,0,0
104381,-100,4,2,2,60,0,0
104814,-100,4,2,1,60,0,0
106115,-100,4,2,1,5,0,0
106202,-100,4,2,1,60,0,0
108890,-100,4,2,1,5,0,0
108976,-100,4,2,1,60,0,0
111317,-100,4,2,2,60,0,0
111404,-100,4,2,1,60,0,0
112011,-100,4,2,2,60,0,0
112444,-100,4,2,1,60,0,0
114265,-100,4,2,1,5,0,0
114352,-100,4,2,1,60,0,0
115219,-100,4,2,2,60,0,0
115566,-100,4,2,1,60,0,0
118254,-100,4,2,1,5,0,0
118341,-100,4,2,1,60,0,0
118601,-100,4,2,1,5,0,0
118687,-100,4,2,1,60,0,0
123803,-100,4,2,1,5,0,0
123890,-100,4,2,1,70,0,0
126490,-100,4,2,2,70,0,0
126664,-100,4,2,1,70,0,0
127011,-100,4,2,2,70,0,0
127531,-100,4,2,1,70,0,0
127618,-100,4,2,2,70,0,0
127704,-100,4,2,1,70,0,0
128225,-100,4,2,2,70,0,0
128745,-100,4,2,1,70,0,0
129265,-100,4,2,2,70,0,0
129439,-83.3333333333333,4,2,1,80,0,1
129699,-83.3333333333333,4,2,1,5,0,1
129786,-83.3333333333333,4,2,1,80,0,1
130046,-83.3333333333333,4,2,2,80,0,1
130133,-83.3333333333333,4,2,1,80,0,1
131607,-83.3333333333333,4,2,2,80,0,1
131867,-83.3333333333333,4,2,1,80,0,1
132127,-83.3333333333333,4,2,1,5,0,1
132213,-83.3333333333333,4,2,1,80,0,1
132474,-83.3333333333333,4,2,1,5,0,1
132560,-83.3333333333333,4,2,1,80,0,1
132821,-83.3333333333333,4,2,2,80,0,1
133254,-83.3333333333333,4,2,1,80,0,1
134382,-83.3333333333333,4,2,2,80,0,1
134642,-83.3333333333333,4,2,1,80,0,1
134901,-83.3333333333333,4,2,1,5,0,1
134988,-83.3333333333333,4,2,1,80,0,1
135595,-83.3333333333333,4,2,2,80,0,1
136029,-83.3333333333333,4,2,1,80,0,1
137156,-83.3333333333333,4,2,2,80,0,1
137416,-83.3333333333333,4,2,1,80,0,1
137676,-83.3333333333333,4,2,1,5,0,1
137763,-83.3333333333333,4,2,1,80,0,1
140017,-83.3333333333333,4,2,2,80,0,1
140191,-83.3333333333333,4,2,1,80,0,1
140364,-83.3333333333333,4,2,2,80,0,1
140538,-83.3333333333333,4,2,1,80,0,1
140797,-83.3333333333333,4,2,1,5,0,1
140884,-83.3333333333333,4,2,1,80,0,1
141145,-83.3333333333333,4,2,2,80,0,1
141578,-83.3333333333333,4,2,1,80,0,1
141838,-83.3333333333333,4,2,2,80,0,1
142272,-83.3333333333333,4,2,1,80,0,1
142705,-83.3333333333333,4,2,2,80,0,1
142965,-83.3333333333333,4,2,1,80,0,1
143225,-83.3333333333333,4,2,1,5,0,1
143312,-83.3333333333333,4,2,1,80,0,1
143919,-83.3333333333333,4,2,2,80,0,1
144353,-83.3333333333333,4,2,1,80,0,1
145480,-83.3333333333333,4,2,2,80,0,1
145567,-83.3333333333333,4,2,1,80,0,1
146000,-83.3333333333333,4,2,1,5,0,1
146086,-83.3333333333333,4,2,1,80,0,1
146694,-83.3333333333333,4,2,2,80,0,1
147127,-83.3333333333333,4,2,1,80,0,1
147387,-83.3333333333333,4,2,2,80,0,1
147474,-83.3333333333333,4,2,1,80,0,1
148254,-83.3333333333333,4,2,2,80,0,1
148515,-83.3333333333333,4,2,1,80,0,1
148774,-83.3333333333333,4,2,1,5,0,1
148861,-83.3333333333333,4,2,1,80,0,1
151029,-83.3333333333333,4,2,2,80,0,1
151636,-83.3333333333333,4,2,1,80,0,1
152243,-83.3333333333333,4,2,2,80,0,1
152330,-83.3333333333333,4,2,1,80,0,1
153110,-83.3333333333333,4,2,2,80,0,1
153370,-83.3333333333333,4,2,1,80,0,1
153804,-83.3333333333333,4,2,2,80,0,1
154064,-83.3333333333333,4,2,1,80,0,1
154410,-83.3333333333333,4,2,1,80,0,1
155017,-83.3333333333333,4,2,2,80,0,1
155104,-83.3333333333333,4,2,1,80,0,1
156665,-83.3333333333333,4,2,2,80,0,1
156838,-83.3333333333333,4,2,1,80,0,1
157098,-83.3333333333333,4,2,1,5,0,1
157185,-83.3333333333333,4,2,1,80,0,1
157792,-83.3333333333333,4,2,2,80,0,1
157879,-83.3333333333333,4,2,1,80,0,1
158659,-83.3333333333333,4,2,2,80,0,1
158746,-83.3333333333333,4,2,1,80,0,1
159353,-83.3333333333333,4,2,2,80,0,1
159872,-83.3333333333333,4,2,2,5,0,1
159959,-83.3333333333333,4,2,2,80,0,1
160220,-83.3333333333333,4,2,1,80,0,1
160393,-83.3333333333333,4,2,2,80,0,1
160480,-83.3333333333333,4,2,1,80,0,1
160653,-83.3333333333333,4,2,2,80,0,1
160827,-83.3333333333333,4,2,1,80,0,1
160913,-83.3333333333333,4,2,2,80,0,1
161173,-100,4,2,2,80,0,0
161694,-100,4,2,3,60,0,0
161953,-100,4,2,3,5,0,0
162040,-100,4,2,1,80,0,1
162301,-100,4,2,2,80,0,1
162387,-100,4,2,1,80,0,1
162474,-100,4,2,2,80,0,1
162560,-83.3333333333333,4,2,2,80,0,0
162647,-83.3333333333333,4,2,2,65,0,0
163254,-83.3333333333333,4,2,1,65,0,0
163514,-83.3333333333333,4,2,2,65,0,0
163948,-83.3333333333333,4,2,1,65,0,0
164034,-83.3333333333333,4,2,2,65,0,0
164294,-83.3333333333333,4,2,1,65,0,0
164815,-83.3333333333333,4,2,2,75,0,0
165855,-83.3333333333333,4,2,1,75,0,0
166115,-83.3333333333333,4,2,2,75,0,0
166549,-83.3333333333333,4,2,1,75,0,0
166809,-83.3333333333333,4,2,2,75,0,0
167242,-83.3333333333333,4,2,1,75,0,0
167676,-83.3333333333333,4,2,2,75,0,0
167936,-83.3333333333333,4,2,1,75,0,0
168196,-83.3333333333333,4,2,1,5,0,0
168283,-83.3333333333333,4,2,1,75,0,0
168543,-83.3333333333333,4,2,1,5,0,0
168630,-83.3333333333333,4,2,1,75,0,0
168890,-83.3333333333333,4,2,2,75,0,0
168976,-83.3333333333333,4,2,1,75,0,0
169757,-83.3333333333333,4,2,1,5,0,0
169843,-83.3333333333333,4,2,1,75,0,0
170277,-83.3333333333333,4,2,2,75,0,0
170971,-83.3333333333333,4,2,2,5,0,0
171057,-83.3333333333333,4,2,2,75,0,0
171317,-83.3333333333333,4,2,2,5,0,0
171404,-83.3333333333333,4,2,1,75,0,0
171664,-83.3333333333333,4,2,2,75,0,0
172098,-83.3333333333333,4,2,1,75,0,0
172358,-83.3333333333333,4,2,2,75,0,0
172791,-83.3333333333333,4,2,1,75,0,0
173225,-83.3333333333333,4,2,2,75,0,0
173485,-83.3333333333333,4,2,1,75,0,0
174439,-83.3333333333333,4,2,2,75,0,0
174526,-83.3333333333333,4,2,1,75,0,0
176000,-83.3333333333333,4,2,2,75,0,0
176260,-83.3333333333333,4,2,1,75,0,0
176346,-83.3333333333333,4,2,2,75,0,0
176433,-83.3333333333333,4,2,1,75,0,0
176520,-83.3333333333333,4,2,2,75,0,0
176606,-83.3333333333333,4,2,2,80,0,0
177127,-83.3333333333333,4,2,1,80,0,0
177907,-83.3333333333333,4,2,2,80,0,0
178167,-83.3333333333333,4,2,1,80,0,0
178427,-83.3333333333333,4,2,2,80,0,0
178687,-83.3333333333333,4,2,1,80,0,0
179208,-83.3333333333333,4,2,2,80,0,0
179901,-83.3333333333333,4,2,1,80,0,0
180595,-83.3333333333333,4,2,2,80,0,0
181635,-83.3333333333333,4,2,1,80,0,0
181809,-83.3333333333333,4,2,2,80,0,0
182156,-83.3333333333333,4,2,1,80,0,0
184757,-83.3333333333333,4,2,2,80,0,0
184843,-83.3333333333333,4,2,1,80,0,0
184930,-111.111111111111,4,2,1,70,0,0
186144,-111.111111111111,4,2,2,70,0,0
187011,-111.111111111111,4,2,1,70,0,0
187127,-111.111111111111,4,2,2,70,0,0
187358,-111.111111111111,4,2,1,70,0,0
187474,-111.111111111111,4,2,2,70,0,0
187705,-166.666666666667,4,2,2,70,0,0
188398,-166.666666666667,4,2,3,50,0,0
190132,-166.666666666667,4,2,1,50,0,0
191173,-166.666666666667,4,2,3,50,0,0
192560,-100,4,2,2,60,0,0
192820,-100,4,2,2,5,0,0
192907,-100,4,2,2,60,0,0
193167,-100,4,2,2,5,0,0
193254,-100,4,2,2,65,0,0
193514,-100,4,2,2,5,0,0
193601,-100,4,2,1,65,0,0
195855,-100,4,2,2,65,0,0
196028,-100,4,2,1,70,0,0
197416,-100,4,2,2,70,0,0
201578,-100,4,2,2,45,0,0
201838,-100,4,2,2,5,0,0
201924,-100,4,2,1,50,0,0
202040,-100,4,2,2,50,0,0
202618,-100,4,2,1,50,0,0
202734,-100,4,2,2,50,0,0
202965,-100,4,2,1,45,0,0
203080,-100,4,2,2,45,0,0
204352,-100,4,2,2,55,0,0
212156,-100,4,2,2,60,0,0
212329,-100,4,2,1,60,0,0
212589,-100,4,2,1,5,0,0
212676,-83.3333333333333,4,2,1,70,0,0
213716,-83.3333333333333,4,2,2,70,0,0
214150,-83.3333333333333,4,2,2,5,0,0
214237,-83.3333333333333,4,2,2,70,0,0
214583,-83.3333333333333,4,2,1,70,0,0
214670,-83.3333333333333,4,2,2,70,0,0
214930,-83.3333333333333,4,2,1,70,0,0
215017,-83.3333333333333,4,2,2,70,0,0
215450,-83.3333333333333,4,2,1,80,0,1
215711,-83.3333333333333,4,2,1,5,0,1
215797,-83.3333333333333,4,2,1,80,0,1
216057,-83.3333333333333,4,2,2,80,0,1
216490,-83.3333333333333,4,2,1,80,0,1
216750,-83.3333333333333,4,2,2,80,0,1
217184,-83.3333333333333,4,2,1,80,0,1
217617,-83.3333333333333,4,2,2,80,0,1
217877,-83.3333333333333,4,2,1,80,0,1
218138,-83.3333333333333,4,2,1,5,0,1
218225,-83.3333333333333,4,2,1,80,0,1
218831,-83.3333333333333,4,2,2,80,0,1
219265,-83.3333333333333,4,2,1,80,0,1
220392,-83.3333333333333,4,2,2,80,0,1
220479,-83.3333333333333,4,2,1,80,0,1
220913,-83.3333333333333,4,2,1,5,0,1
221000,-83.3333333333333,4,2,1,80,0,1
221606,-83.3333333333333,4,2,2,80,0,1
222039,-83.3333333333333,4,2,1,80,0,1
222299,-83.3333333333333,4,2,2,80,0,1
222386,-83.3333333333333,4,2,1,80,0,1
223166,-83.3333333333333,4,2,2,80,0,1
223427,-83.3333333333333,4,2,1,80,0,1
223687,-83.3333333333333,4,2,1,5,0,1
223774,-83.3333333333333,4,2,1,80,0,1
225941,-83.3333333333333,4,2,2,80,0,1
226548,-83.3333333333333,4,2,1,80,0,1
227155,-83.3333333333333,4,2,2,80,0,1
227242,-83.3333333333333,4,2,1,80,0,1
228022,-83.3333333333333,4,2,2,80,0,1
228282,-83.3333333333333,4,2,1,80,0,1
228716,-83.3333333333333,4,2,2,80,0,1
228976,-83.3333333333333,4,2,1,80,0,1
229237,-83.3333333333333,4,2,1,5,0,1
229323,-83.3333333333333,4,2,1,80,0,1
229929,-83.3333333333333,4,2,2,80,0,1
230016,-83.3333333333333,4,2,1,80,0,1
230797,-83.3333333333333,4,2,1,5,0,1
230884,-83.3333333333333,4,2,1,80,0,1
231577,-83.3333333333333,4,2,2,80,0,1
231750,-83.3333333333333,4,2,1,80,0,1
232011,-83.3333333333333,4,2,1,5,0,1
232098,-83.3333333333333,4,2,1,80,0,1
232704,-83.3333333333333,4,2,2,80,0,1
232791,-83.3333333333333,4,2,1,80,0,1
233571,-83.3333333333333,4,2,2,80,0,1
233658,-83.3333333333333,4,2,1,80,0,1
234265,-83.3333333333333,4,2,2,80,0,1
234786,-83.3333333333333,4,2,2,5,0,1
234872,-83.3333333333333,4,2,2,80,0,1
235132,-83.3333333333333,4,2,1,80,0,1
235305,-83.3333333333333,4,2,2,80,0,1
235392,-83.3333333333333,4,2,1,80,0,1
235565,-83.3333333333333,4,2,2,80,0,1
235739,-83.3333333333333,4,2,1,80,0,1
235825,-83.3333333333333,4,2,2,80,0,1
236086,-83.3333333333333,4,2,2,80,0,0
236606,-83.3333333333333,4,2,3,60,0,0
236867,-83.3333333333333,4,2,3,5,0,0
236953,-83.3333333333333,4,2,1,80,0,1
237213,-83.3333333333333,4,2,2,80,0,1
237299,-83.3333333333333,4,2,1,80,0,1
237386,-83.3333333333333,4,2,2,80,0,1
237474,-100,4,2,2,80,0,0
237560,-100,4,2,2,70,0,0
238254,-100,4,2,2,70,0,0
238687,-100,4,2,1,70,0,0
239641,-100,4,2,2,70,0,0
240075,-100,4,2,1,70,0,0
240682,-100,4,2,1,5,0,0
240768,-100,4,2,1,70,0,0
241028,-100,4,2,2,70,0,0
241462,-100,4,2,1,70,0,0
242416,-100,4,2,2,70,0,0
242849,-76.9230769230769,4,2,1,70,0,0
243109,-76.9230769230769,4,2,1,5,0,0
243196,-100,4,2,1,70,0,0
243803,-100,4,2,2,70,0,0
244236,-100,4,2,1,70,0,0
245190,-100,4,2,2,70,0,0
245624,-100,4,2,1,70,0,0
245971,-100,4,2,1,70,0,0
246577,-100,4,2,2,70,0,0
246664,-100,4,2,1,70,0,0
247531,-100,4,2,2,70,0,0
248745,-100,4,2,1,70,0,0
248832,-100,4,2,1,60,0,0
249005,-100,4,2,3,55,0,0
250566,-100,4,2,3,5,0,0
250653,-100,4,2,3,55,0,0
254121,-100,4,2,1,55,0,0
254381,-100,4,2,1,5,0,0

[Colours]
Combo1 : 106,255,106
Combo2 : 125,125,255
Combo3 : 245,60,60

[HitObjects]
401,207,422,6,0,L|407:168,2,37.5,8|0|0,0:3|0:3|3:3,0:0:0:0:
377,363,768,1,0,3:0:0:0:
462,256,942,6,0,L|498:241,2,37.5,8|0|0,0:3|0:3|3:3,0:0:0:0:
315,313,1289,1,0,3:0:0:0:
450,334,1462,1,8,0:0:0:0:
327,235,1635,6,0,B|266:274|182:261,1,150,6|2,3:2|3:2,0:0:0:0:
132,337,2156,2,0,B|95:339|60:317,1,75,10|0,0:2|0:0,0:0:0:0:
53,309,2416,1,8,0:0:0:0:
48,302,2502,2,0,B|51:268|34:228,1,75,2|0,3:2|3:0,0:0:0:0:
58,150,2849,1,10,0:0:0:0:
182,261,3023,6,0,B|232:198|315:209,1,150,2|2,0:0|3:2,0:0:0:0:
385,255,3543,2,0,L|458:239,1,75,10|0,0:0|0:0,0:0:0:0:
512,112,3890,2,0,L|438:96,1,75,2|0,3:2|3:2,0:0:0:0:
363,51,4237,1,10,0:0:0:0:
320,128,4410,1,0,0:0:0:0:
459,239,4583,6,0,B|439:287|456:349,1,112.5,2|0,3:2|0:0,0:0:0:0:
456,349,4930,2,0,L|382:363,1,75,10|0,0:0|0:0,0:0:0:0:
375,365,5190,1,8,0:0:0:0:
367,366,5277,1,2,3:2:0:0:
271,311,5450,2,0,B|251:277|262:238,1,75,2|8,3:2|0:0,0:0:0:0:
160,378,5797,6,0,B|81:348|91:260,1,150,2|2,0:0|3:2,0:0:0:0:
167,216,6317,1,10,0:0:0:0:
106,122,6491,1,0,0:0:0:0:
98,124,6578,1,8,0:0:0:0:
91,126,6664,2,0,L|9:151,1,75,2|2,3:2|3:2,0:0:0:0:
196,19,7011,6,0,B|261:92|348:53,1,168.75,14|0,0:0|0:0,0:0:0:0:
368,45,7358,6,0,L|355:119,1,75,6|2,3:2|0:0,0:0:0:0:
414,182,7705,1,10,0:0:0:0:
315,313,7878,2,0,B|259:258|175:286,1,150,2|2,0:0|3:2,0:0:0:0:
259,244,8398,1,8,0:0:0:0:
119,348,8572,6,0,B|92:319|98:278,1,75,2|0,0:0|3:2,0:0:0:0:
164,157,8919,1,2,3:2:0:0:
135,66,9092,2,0,L|61:80,1,75,8|2,0:0|0:0,0:0:0:0:
54,81,9352,1,8,0:0:0:0:
46,82,9439,2,0,B|39:122|66:151,1,75,0|0,3:0|3:0,0:0:0:0:
250,38,9786,6,0,L|415:73,1,168.75,14|0,0:0|0:0,0:0:0:0:
432,80,10132,5,6,3:2:0:0:
489,158,10306,1,0,0:0:0:0:
439,237,10479,2,0,B|401:239|370:265,1,75,8|2,0:0|0:0,0:0:0:0:
370,264,10739,1,8,0:0:0:0:
370,264,10826,1,0,3:0:0:0:
320,201,11000,1,2,3:2:0:0:
292,309,11173,2,0,L|309:387,1,75,10|0,0:0|3:0,0:0:0:0:
370,264,11520,5,4,3:2:0:0:
192,359,11693,1,10,0:0:0:0:
153,369,11780,1,8,0:0:0:0:
113,364,11867,1,10,0:0:0:0:
85,336,11953,1,8,0:0:0:0:
74,296,12040,2,0,L|93:147,1,150,14|0,3:2|3:0,0:0:0:0:
42,0,12560,2,0,L|32:74,1,75,8|8,0:3|0:3,0:0:0:0:
32,74,12820,1,8,0:3:0:0:
32,74,12907,5,4,3:2:0:0:
119,47,13080,1,2,0:0:0:0:
209,69,13254,1,10,0:0:0:0:
247,144,13427,1,0,0:0:0:0:
291,30,13601,5,2,3:2:0:0:
247,144,13774,2,0,L|260:217,1,75,2|8,3:2|0:0,0:0:0:0:
332,167,14121,1,2,0:0:0:0:
312,296,14294,6,0,B|255:240|173:267,1,150,2|10,3:2|0:0,0:0:0:0:
120,192,14815,2,0,B|88:216|83:254,1,75,2|0,0:0|3:2,0:0:0:0:
173,266,15161,1,2,3:2:0:0:
200,144,15335,2,0,L|185:70,1,75,8|0,0:0|0:0,0:0:0:0:
280,8,15682,5,0,3:0:0:0:
328,80,15855,1,2,0:2:0:0:
408,96,16028,1,10,0:2:0:0:
480,56,16202,1,2,0:2:0:0:
432,176,16375,5,2,3:2:0:0:
432,176,16549,2,0,L|444:249,1,75,2|8,3:2|0:0,0:0:0:0:
344,224,16895,1,2,0:0:0:0:
512,302,17069,2,0,B|432:287|380:353,1,150,2|10,3:2|0:0,0:0:0:0:
280,304,17589,2,0,P|224:305|178:274,1,112.5,2|0,3:2|0:0,0:0:0:0:
178,274,17936,2,0,L|165:200,1,75,2|8,3:2|0:0,0:0:0:0:
251,219,18283,1,2,0:0:0:0:
103,325,18456,6,0,L|78:177,1,150,6|8,3:2|0:0,0:0:0:0:
142,50,18976,1,2,0:0:0:0:
69,11,19150,2,0,B|47:48|60:83,1,75,2|0,3:2|3:2,0:0:0:0:
193,183,19497,2,0,B|215:146|202:111,1,75,8|0,0:0|0:0,0:0:0:0:
202,111,19757,1,8,0:0:0:0:
202,111,19843,6,0,L|349:83,1,150,0|8,3:0|0:0,0:0:0:0:
488,200,20364,1,0,0:0:0:0:
488,200,20450,1,0,0:0:0:0:
488,200,20537,1,2,3:2:0:0:
371,180,20711,1,2,3:2:0:0:
351,297,20884,1,10,0:0:0:0:
468,317,21057,1,2,0:0:0:0:
296,225,21231,6,0,B|254:291|165:277,1,150,2|8,3:2|0:0,0:0:0:0:
72,224,21751,1,0,0:0:0:0:
20,308,21924,2,0,L|30:382,1,75,0|0,3:0|3:0,0:0:0:0:
30,382,22185,1,2,0:0:0:0:
30,382,22271,1,10,0:0:0:0:
72,224,22445,6,0,B|84:144|42:80,2,150,6|6|6,3:2|3:2|3:2,0:0:0:0:
208,352,23485,1,2,3:2:0:0:
208,352,23572,1,0,3:0:0:0:
208,352,23658,1,12,0:0:0:0:
316,256,23832,5,8,3:3:0:0:
316,256,23919,1,8,3:3:0:0:
316,256,24005,2,0,B|355:256|386:278,1,75,4|2,3:2|0:0,0:0:0:0:
464,251,24352,1,10,0:0:0:0:
450,327,24526,1,2,0:0:0:0:
405,198,24699,1,2,3:2:0:0:
429,122,24872,2,0,L|502:109,1,75,2|8,3:2|0:0,0:0:0:0:
405,198,25219,5,2,0:0:0:0:
369,69,25393,2,0,B|289:88|232:26,1,150,2|10,3:2|0:0,0:0:0:0:
152,138,25913,2,0,B|115:135|83:164,1,75,2|0,0:0|3:2,0:0:0:0:
83,163,26173,1,2,0:0:0:0:
83,163,26260,1,2,3:2:0:0:
32,88,26433,2,0,L|44:14,1,75,8|2,0:0|0:0,0:0:0:0:
44,14,26693,1,2,0:0:0:0:
44,14,26780,5,0,3:0:0:0:
120,56,26953,2,0,L|196:40,1,75,2|10,0:0|0:0,0:0:0:0:
336,16,27300,5,2,0:0:0:0:
360,96,27474,1,2,3:2:0:0:
288,152,27647,2,0,L|274:78,1,75,2|8,3:2|0:0,0:0:0:0:
360,96,27994,1,2,0:0:0:0:
344,232,28167,6,0,B|282:177|203:206,1,150,2|10,3:2|0:0,0:0:0:0:
148,148,28687,1,2,3:2:0:0:
24,339,29034,6,0,L|97:324,1,75,2|8,3:2|0:2,0:0:0:0:
177,344,29381,2,0,B|232:282|203:203,1,150,6|0,3:2|3:0,0:0:0:0:
263,142,29901,2,0,L|336:156,1,75,8|0,0:0|0:0,0:0:0:0:
343,157,30161,1,2,0:0:0:0:
350,158,30248,1,2,3:2:0:0:
430,127,30422,1,0,3:2:0:0:
369,0,30595,2,0,B|348:38|360:72,1,75,8|0,0:0|0:0,0:0:0:0:
360,72,30855,1,8,0:0:0:0:
360,72,30942,5,0,3:0:0:0:
393,224,31115,1,0,3:0:0:0:
263,142,31289,2,0,L|189:156,1,75,8|0,0:0|0:0,0:0:0:0:
56,73,31635,5,2,3:2:0:0:
136,96,31809,1,2,3:2:0:0:
174,248,31982,5,10,0:0:0:0:
93,270,32156,2,0,B|73:235|82:197,1,75,2|4,0:0|3:2,0:0:0:0:
136,96,32502,5,2,0:0:0:0:
219,123,32676,1,10,0:0:0:0:
346,5,32849,5,2,0:0:0:0:
346,5,32936,1,2,0:0:0:0:
346,5,33023,1,2,3:2:0:0:
245,35,33196,1,2,3:2:0:0:
328,108,33369,1,8,0:0:0:0:
215,238,33543,6,0,B|165:171|81:197,1,150,6|2,3:2|3:2,0:0:0:0:
34,276,34063,1,2,3:2:0:0:
3,153,34237,1,10,0:2:0:0:
34,276,34410,2,0,L|20:349,1,75,10|8,0:2|0:3,0:0:0:0:
31,348,34670,1,8,0:3:0:0:
41,353,34757,1,8,3:3:0:0:
52,351,34843,1,8,0:3:0:0:
62,355,34930,1,8,0:3:0:0:
73,353,35017,1,8,0:3:0:0:
83,357,35104,6,0,L|157:343,1,75,6|0,3:2|0:0,0:0:0:0:
286,218,35450,2,0,L|212:232,1,75,10|0,3:2|0:0,0:0:0:0:
35,199,35797,5,2,3:2:0:0:
53,122,35971,1,2,0:2:0:0:
129,141,36144,1,10,3:2:0:0:
270,95,36317,6,0,B|281:57|262:21,1,75,2|0,0:0|3:0,0:0:0:0:
205,159,36664,2,0,B|194:197|212:232,1,75,2|8,0:0|3:2,0:0:0:0:
336,376,37011,2,0,B|395:319|474:346,1,150,2|0,0:0|0:0,0:0:0:0:
312,280,37531,1,8,3:2:0:0:
240,344,37705,5,0,0:0:0:0:
240,344,37791,1,2,0:0:0:0:
240,344,37878,2,0,L|166:331,1,75,6|0,3:2|0:0,0:0:0:0:
104,376,38225,1,10,3:2:0:0:
24,296,38398,2,0,B|63:258|71:197,1,112.5,2|0,0:0|0:0,0:0:0:0:
71,196,38745,2,0,L|52:123,1,75,2|8,0:0|3:2,0:0:0:0:
112,0,39092,6,0,L|148:145,1,150,4|2,3:2|3:2,0:0:0:0:
245,26,39612,1,10,0:0:0:0:
227,110,39786,1,2,3:2:0:0:
340,10,39959,5,10,0:0:0:0:
365,129,40132,1,0,3:2:0:0:
340,10,40306,1,8,0:0:0:0:
304,192,40479,5,8,0:0:0:0:
304,192,40566,1,8,0:0:0:0:
304,192,40653,2,0,B|342:236|406:213,1,112.5,6|0,3:2|0:0,0:0:0:0:
424,224,41000,2,0,L|442:151,1,75,10|0,3:2|0:0,0:0:0:0:
493,299,41346,5,2,3:2:0:0:
409,317,41520,1,2,0:0:0:0:
360,384,41693,1,10,3:2:0:0:
248,327,41867,6,0,B|220:274|232:217,1,112.5,2|0,0:0|0:0,0:0:0:0:
232,218,42213,2,0,L|158:230,1,75,2|8,0:0|3:2,0:0:0:0:
39,139,42560,2,0,B|66:55|154:67,1,150,2|0,0:0|0:0,0:0:0:0:
220,120,43080,1,14,3:2:0:0:
348,76,43254,5,2,0:0:0:0:
348,76,43341,1,2,0:0:0:0:
348,76,43427,2,0,L|359:1,1,75,6|0,3:2|0:0,0:0:0:0:
416,164,43774,2,0,L|404:238,1,75,8|2,0:0|0:0,0:0:0:0:
440,80,44121,5,10,0:0:0:0:
328,164,44294,1,0,3:2:0:0:
440,80,44468,1,8,0:0:0:0:
328,164,44641,2,0,L|253:152,1,75,0|8,3:0|0:0,0:0:0:0:
88,24,44988,5,0,3:2:0:0:
40,92,45161,2,0,B|72:116|111:105,1,75,8|0,0:0|3:2,0:0:0:0:
110,105,45422,1,2,0:0:0:0:
110,105,45508,1,10,0:0:0:0:
172,48,45682,1,2,3:2:0:0:
240,220,45855,1,10,0:0:0:0:
159,195,46029,5,10,0:0:0:0:
159,195,46115,1,8,0:0:0:0:
159,195,46202,1,8,0:3:0:0:
265,139,46375,1,8,0:3:0:0:
321,245,46549,1,8,0:3:0:0:
215,301,46722,1,12,0:3:0:0:
215,301,47069,5,8,0:3:0:0:
321,245,47242,1,8,0:0:0:0:
396,348,47416,1,4,3:2:0:0:
396,348,47763,2,0,L|432:340,2,37.5,8|8|0,0:0|0:0|3:2,0:0:0:0:
321,245,48109,1,8,3:3:0:0:
268,368,48283,5,10,0:2:0:0:
408,260,48456,1,2,3:2:0:0:
248,200,48630,1,10,0:2:0:0:
144,312,48803,5,2,0:0:0:0:
144,312,48890,1,2,0:3:0:0:
144,312,48976,2,0,B|68:336|28:272,1,134.999995880127,6|0,3:2|0:0,0:0:0:0:
20,256,49323,1,8,0:0:0:0:
92,144,49497,1,0,0:0:0:0:
92,144,49583,1,8,0:0:0:0:
92,144,49670,2,0,B|124:184|103:228,1,89.9999972534181,0|0,3:0|3:0,0:0:0:0:
20,80,50017,5,10,0:0:0:0:
184,120,50190,2,0,B|222:146|270:122|270:122|278:74|237:47,1,179.999994506836,2|0,0:0|3:0,0:0:0:0:
104,228,50711,2,0,B|104:284|136:309,1,89.9999972534181,10|0,0:0|0:0,0:0:0:0:
146,314,50971,1,0,3:0:0:0:
153,318,51057,2,0,L|65:340,1,89.9999972534181,2|0,0:0|3:0,0:0:0:0:
179,199,51404,2,0,L|48:165,1,134.999995880127,10|0,0:0|0:0,0:0:0:0:
48,165,51752,6,0,B|26:125|36:77,1,89.9999972534181,2|0,3:2|0:0,0:0:0:0:
96,21,52098,1,10,0:0:0:0:
179,199,52271,2,0,B|229:238|303:215|315:143,1,179.999994506836,2|2,0:0|3:2,0:0:0:0:
280,78,52791,1,8,0:0:0:0:
437,20,52965,5,2,0:0:0:0:
440,28,53052,1,2,0:0:0:0:
443,36,53138,2,0,L|464:123,1,89.9999972534181,0|0,0:0|3:0,0:0:0:0:
375,162,53485,1,8,0:0:0:0:
464,224,53658,5,0,0:0:0:0:
464,224,53745,1,0,3:0:0:0:
464,224,53832,2,0,L|453:267,2,44.999998626709,0|8|0,0:0|0:0|3:0,0:0:0:0:
296,112,54179,2,0,B|242:156|168:139,1,134.999995880127,8|0,0:0|0:0,0:0:0:0:
169,139,54526,5,6,3:2:0:0:
88,96,54699,2,0,L|73:184,1,89.9999972534181,2|8,0:0|0:0,0:0:0:0:
13,333,55046,2,0,B|63:370|146:339|147:272,1,179.999994506836,2|2,0:0|3:2,0:0:0:0:
106,204,55566,1,10,0:0:0:0:
197,55,55739,5,0,0:0:0:0:
197,55,55826,1,2,0:3:0:0:
197,55,55913,1,2,3:2:0:0:
116,16,56086,2,0,B|97:67|124:102,1,89.9999972534181,2|8,3:2|0:0,0:0:0:0:
269,190,56433,1,2,0:0:0:0:
269,190,56520,2,0,B|314:134|390:150,1,134.999995880127,0|2,3:0|3:2,0:0:0:0:
452,85,56953,2,0,B|486:119|479:167,1,89.9999972534181,10|0,0:0|0:0,0:0:0:0:
440,288,57300,5,6,3:2:0:0:
350,306,57474,1,2,0:0:0:0:
299,382,57647,1,10,0:0:0:0:
215,236,57820,5,2,3:2:0:0:
215,236,57907,1,0,0:0:0:0:
215,236,57994,1,10,0:0:0:0:
116,257,58167,1,2,3:2:0:0:
44,185,58341,1,10,0:0:0:0:
85,26,58514,6,0,B|158:38|181:106|144:161,1,179.999994506836,6|0,3:2|3:0,0:0:0:0:
54,355,59034,2,0,L|142:340,1,89.9999972534181,12|8,0:0|0:0,0:0:0:0:
256,192,59381,5,2,3:2:0:0:
304,336,59554,1,10,0:0:0:0:
324,345,59641,1,8,0:0:0:0:
346,345,59728,1,10,3:3:0:0:
368,340,59815,1,8,0:3:0:0:
386,326,59901,1,2,0:3:0:0:
399,307,59988,1,0,0:3:0:0:
407,285,60075,6,0,B|392:190|477:130,1,179.999994506836,6|8,3:2|0:0,0:0:0:0:
448,48,60595,1,0,0:0:0:0:
448,48,60682,1,8,0:0:0:0:
448,48,60768,2,0,L|358:36,1,89.9999972534181,0|0,3:0|3:0,0:0:0:0:
288,0,61115,1,10,0:0:0:0:
256,128,61289,6,0,B|236:236|291:195|268:303,1,179.999994506836,2|0,0:0|3:0,0:0:0:0:
336,171,61809,1,10,0:0:0:0:
200,259,61982,5,0,0:0:0:0:
179,249,62069,1,0,3:0:0:0:
156,248,62156,1,2,0:0:0:0:
135,256,62242,1,8,0:0:0:0:
119,272,62329,1,0,3:2:0:0:
43,144,62502,2,0,B|87:137|127:115,1,89.9999972534181,10|0,0:0|0:0,0:0:0:0:
256,48,62849,6,0,B|159:82|91:9,1,179.999994506836,6|10,3:2|0:0,0:0:0:0:
217,214,63369,2,0,B|261:152|335:171,1,134.999995880127,2|0,0:0|0:0,0:0:0:0:
335,170,63716,1,2,3:2:0:0:
392,104,63890,2,0,B|439:99|471:137,1,89.9999972534181,8|2,0:0|0:0,0:0:0:0:
475,230,64237,6,0,L|497:51,1,179.999994506836,0|8,3:0|0:0,0:0:0:0:
335,170,64757,2,0,L|323:80,1,89.9999972534181
322,71,65017,1,8,0:0:0:0:
320,62,65104,1,0,3:0:0:0:
404,228,65277,2,0,B|372:262|321:254,1,89.9999972534181,8|0,0:0|0:0,0:0:0:0:
196,128,65624,5,6,3:2:0:0:
76,220,65797,2,0,L|164:204,1,89.9999972534181,2|8,0:0|0:0,0:0:0:0:
256,340,66144,1,2,0:0:0:0:
256,340,66231,1,8,0:0:0:0:
256,340,66317,1,0,3:0:0:0:
164,372,66491,1,2,3:0:0:0:
84,332,66664,2,0,B|96:260|62:200,1,134.999995880127,10|8,0:0|0:0,0:0:0:0:
62,201,67011,5,2,3:2:0:0:
144,72,67185,2,0,B|132:116|155:158,1,89.9999972534181,2|8,3:2|0:0,0:0:0:0:
263,15,67531,6,0,P|325:41|358:99,1,134.999995880127,2|8,0:0|0:0,0:0:0:0:
357,97,67878,2,0,L|445:78,1,89.9999972534181,2|8,3:2|0:0,0:0:0:0:
500,144,68225,1,0,0:0:0:0:
376,192,68398,5,6,3:2:0:0:
416,320,68572,1,2,3:2:0:0:
288,224,68745,5,10,0:2:0:0:
312,376,68919,1,2,3:2:0:0:
199,199,69092,5,10,0:2:0:0:
160,356,69265,2,0,P|116:364|73:351,1,89.9999972534181,2|8,3:2|0:0,0:0:0:0:
199,199,69612,6,0,B|196:136|136:96|68:119,1,179.999994506836,6|2,3:2|3:2,0:0:0:0:
16,176,70132,1,14,0:0:0:0:
144,264,70306,2,0,L|276:238,1,134.999995880127,2|8,3:2|0:2,0:0:0:0:
305,260,70653,1,8,0:2:0:0:
340,266,70739,1,8,0:2:0:0:
375,261,70826,1,10,3:2:0:0:
405,241,70913,1,8,0:2:0:0:
421,208,71000,1,10,0:2:0:0:
428,173,71086,1,8,0:2:0:0:
415,139,71173,5,6,3:1:0:0:
332,176,71346,1,2,0:0:0:0:
260,100,71520,1,10,0:1:0:0:
356,60,71693,1,2,0:0:0:0:
356,60,71780,1,8,0:0:0:0:
356,60,71867,1,2,3:1:0:0:
240,192,72040,2,0,B|200:168|153:175,1,89.9999972534181,2|8,3:2|0:0,0:0:0:0:
54,62,72387,6,0,B|-6:102|8:180,1,134.999995880127,6|8,3:2|0:0,0:0:0:0:
8,180,72734,1,2,3:2:0:0:
24,268,72907,1,10,0:0:0:0:
40,348,73080,1,2,3:2:0:0:
144,296,73254,6,0,L|99:288,2,44.999998626709,2|8|2,3:2|0:0|3:2,0:0:0:0:
216,364,73601,2,0,B|256:340|302:347,1,89.9999972534181,10|0,0:0|0:0,0:0:0:0:
302,347,73861,1,2,0:0:0:0:
302,347,73948,5,6,3:1:0:0:
368,296,74121,1,2,0:0:0:0:
460,312,74294,1,10,0:1:0:0:
400,384,74468,1,2,0:0:0:0:
400,384,74554,1,8,0:0:0:0:
400,384,74641,1,2,3:1:0:0:
424,232,74815,2,0,L|404:144,1,89.9999972534181,2|8,3:0|0:0,0:0:0:0:
302,347,75161,6,0,B|245:298|256:227,1,134.999995880127,6|0,3:2|3:2,0:0:0:0:
256,226,75508,1,2,3:2:0:0:
160,316,75682,2,0,B|125:292|73:304,1,89.9999972534181,8|2,0:0|3:2,0:0:0:0:
22,168,76028,5,0,3:0:0:0:
42,138,76115,1,8,0:3:0:0:
74,121,76202,1,8,0:3:0:0:
110,122,76289,1,8,0:3:0:0:
142,136,76375,1,4,3:2:0:0:
366,12,76722,5,6,3:1:0:0:
437,73,76895,1,2,0:0:0:0:
347,104,77069,1,2,3:1:0:0:
276,42,77242,1,2,0:0:0:0:
276,42,77329,1,8,0:0:0:0:
276,42,77416,1,2,3:1:0:0:
419,167,77589,2,0,B|436:209|421:255,1,89.9999972534181,2|8,3:2|0:0,0:0:0:0:
354,362,77936,6,0,B|412:277|511:306,1,179.999994506836,6|2,3:2|3:2,0:0:0:0:
339,214,78456,2,0,L|251:234,1,89.9999972534181,10|2,0:2|3:2,0:0:0:0:
238,237,78716,1,0,0:0:0:0:
224,240,78803,1,2,3:2:0:0:
210,243,78890,1,8,0:0:0:0:
197,246,78976,1,10,3:2:0:0:
126,196,79150,2,0,B|101:237|117:282,1,89.9999972534181,14|0,0:0|0:0,0:0:0:0:
208,153,79497,5,6,3:2:0:0:
124,30,79670,1,10,0:0:0:0:
110,33,79757,1,8,0:0:0:0:
96,36,79843,1,10,3:3:0:0:
82,39,79930,1,8,0:3:0:0:
68,42,80017,2,0,L|58:86,1,44.999998626709,6|0,3:2|0:0,0:0:0:0:
208,153,80190,1,8,0:0:0:0:
222,150,80277,1,8,0:0:0:0:
236,147,80363,1,10,0:3:0:0:
250,144,80450,1,8,0:3:0:0:
264,141,80537,2,0,L|273:96,1,44.999998626709,10|8,3:0|0:0,0:0:0:0:
287,11,80711,1,6,3:2:0:0:
476,273,81231,6,0,B|418:275|381:327,1,112.5,2|0,0:0|0:0,0:0:0:0:
382,327,81578,1,10,0:0:0:0:
256,368,81751,1,2,3:0:0:0:
226,361,81838,1,8,0:3:0:0:
196,354,81924,1,8,0:3:0:0:
167,346,82011,1,8,0:3:0:0:
137,337,82098,6,0,B|80:278|109:197,1,150,6|2,3:2|3:2,0:0:0:0:
171,141,82618,1,10,0:2:0:0:
126,77,82791,1,0,0:0:0:0:
126,77,82878,1,8,0:0:0:0:
126,77,82965,2,0,L|52:90,1,75,2|0,3:2|3:0,0:0:0:0:
171,141,83312,1,10,0:0:0:0:
224,0,83485,6,0,B|284:58|362:37,1,150,2|2,0:0|3:2,0:0:0:0:
448,80,84005,1,10,0:0:0:0:
380,195,84179,1,0,0:0:0:0:
380,195,84265,1,8,0:0:0:0:
380,195,84352,2,0,L|369:120,1,75,2|0,3:2|3:2,0:0:0:0:
481,266,84699,2,0,L|491:191,1,75,10|0,0:0|0:0,0:0:0:0:
378,356,85046,6,0,B|303:380|237:326,1,150,2|10,3:2|0:0,0:0:0:0:
136,279,85566,1,0,0:0:0:0:
136,279,85653,1,8,0:0:0:0:
136,279,85739,2,0,L|147:353,1,75,2|2,3:2|3:2,0:0:0:0:
211,219,86086,1,8,0:0:0:0:
46,246,86260,6,0,B|-1:178|35:103,1,150,2|2,0:2|3:2,0:0:0:0:
152,22,86780,2,0,L|139:96,1,75,10|0,0:0|0:0,0:0:0:0:
139,96,87040,1,8,0:0:0:0:
139,96,87127,1,2,3:2:0:0:
220,155,87300,1,2,3:2:0:0:
301,49,87474,2,0,B|259:44|231:67,1,75,14|0,0:0|0:0,0:0:0:0:
142,220,87820,6,0,B|215:200|279:261,1,150,6|10,3:2|0:0,0:0:0:0:
349,360,88341,2,0,L|459:337,1,112.5,2|0,0:0|0:0,0:0:0:0:
459,336,88687,2,0,B|476:302|467:263,1,75,2|8,3:2|0:0,0:0:0:0:
439,168,89034,6,0,B|473:185|511:176,1,75,2|0,0:0|3:2,0:0:0:0:
376,232,89381,2,0,B|342:215|303:223,1,75,2|8,3:2|0:0,0:0:0:0:
175,78,89728,6,0,B|217:10|305:28,1,150,2|0,0:0|3:0,0:0:0:0:
194,160,90248,2,0,B|156:172|123:146,1,75,14|0,0:0|0:0,0:0:0:0:
118,140,90508,1,2,0:0:0:0:
112,134,90595,6,0,B|52:180|66:268,1,150,6|8,3:2|0:0,0:0:0:0:
144,364,91115,1,2,0:0:0:0:
144,364,91202,1,8,0:0:0:0:
144,364,91289,2,0,L|158:290,1,75,2|0,3:0|3:2,0:0:0:0:
240,176,91635,2,0,L|254:249,1,75,10|0,0:0|3:0,0:0:0:0:
320,384,91982,5,4,3:2:0:0:
472,308,92156,1,10,0:0:0:0:
492,276,92242,1,8,0:0:0:0:
496,236,92329,1,10,0:0:0:0:
484,200,92416,1,8,0:0:0:0:
444,179,92502,2,0,L|333:197,1,112.5,14|0,3:2|0:0,0:0:0:0:
333,198,92849,1,0,3:0:0:0:
184,84,93023,1,8,0:3:0:0:
180,108,93109,1,8,0:3:0:0:
176,136,93196,1,8,0:3:0:0:
172,164,93283,1,8,0:3:0:0:
168,188,93369,5,4,3:2:0:0:
72,220,93543,1,2,0:0:0:0:
104,316,93716,1,10,0:0:0:0:
200,284,93890,1,2,0:0:0:0:
72,220,94063,5,2,3:2:0:0:
200,284,94237,2,0,B|240:280|269:306,1,75,2|8,3:2|0:0,0:0:0:0:
424,268,94583,1,2,0:0:0:0:
360,384,94757,6,0,L|334:236,1,150,2|10,3:2|0:0,0:0:0:0:
400,116,95277,2,0,B|420:152|405:188,1,75,2|0,0:0|3:2,0:0:0:0:
406,188,95537,1,2,0:0:0:0:
406,188,95624,1,2,3:2:0:0:
492,68,95797,2,0,B|412:88|356:24,1,150,10|0,0:0|3:0,0:0:0:0:
228,92,96317,5,2,0:2:0:0:
136,76,96491,1,10,0:2:0:0:
172,156,96664,1,2,0:2:0:0:
196,12,96838,5,2,3:2:0:0:
80,148,97011,2,0,L|93:221,1,75,2|8,3:2|0:0,0:0:0:0:
172,156,97358,1,2,0:0:0:0:
4,240,97531,6,0,B|76:244|124:320,1,150,2|10,3:2|0:0,0:0:0:0:
219,364,98052,2,0,L|329:341,1,112.5,2|0,3:2|0:0,0:0:0:0:
330,341,98398,1,2,3:2:0:0:
408,296,98572,1,8,0:0:0:0:
412,384,98745,1,2,0:0:0:0:
332,256,98919,6,0,B|308:176|340:109,1,150,6|8,3:2|0:0,0:0:0:0:
420,140,99439,1,2,0:0:0:0:
361,22,99612,2,0,L|287:35,1,75,2|0,3:2|3:2,0:0:0:0:
222,115,99959,2,0,L|148:101,1,75,8|0,0:0|0:0,0:0:0:0:
148,101,100219,1,8,0:0:0:0:
148,101,100306,5,0,3:0:0:0:
138,23,100479,1,0,3:0:0:0:
70,83,100653,1,8,0:0:0:0:
81,162,100826,5,0,0:0:0:0:
83,169,100913,1,2,0:0:0:0:
85,175,101000,1,2,3:2:0:0:
197,201,101173,1,2,3:2:0:0:
171,313,101346,1,10,0:0:0:0:
59,287,101520,1,2,0:0:0:0:
128,244,101693,6,0,B|191:287|271:267,1,150,2|8,3:2|0:0,0:0:0:0:
326,356,102213,1,0,0:0:0:0:
439,286,102387,2,0,L|364:273,1,75,0|0,3:0|3:0,0:0:0:0:
364,273,102647,1,2,0:0:0:0:
364,273,102734,1,10,0:0:0:0:
316,129,102907,6,0,B|398:122|447:64,2,150,6|6|6,3:2|3:2|3:2,0:0:0:0:
316,129,103948,2,0,L|354:135,2,37.5,2|0|12,3:2|3:0|0:0,0:0:0:0:
261,53,104294,5,8,3:3:0:0:
261,53,104381,1,8,3:3:0:0:
261,53,104468,1,4,3:2:0:0:
202,113,104641,1,2,0:0:0:0:
122,132,104815,1,10,0:0:0:0:
41,103,104988,1,2,0:0:0:0:
106,52,105161,5,2,3:2:0:0:
57,186,105335,2,0,L|75:266,1,75,2|8,3:2|0:0,0:0:0:0:
147,204,105682,1,2,0:0:0:0:
16,320,105855,6,0,B|67:388|148:361,1,150,2|10,3:2|0:0,0:0:0:0:
226,310,106375,2,0,L|236:235,1,75,2|0,0:0|3:2,0:0:0:0:
236,235,106635,1,2,0:0:0:0:
236,235,106721,1,2,3:2:0:0:
135,102,106895,6,0,B|185:35|268:57,1,150,10|0,0:2|3:0,0:0:0:0:
369,116,107416,2,0,L|442:103,1,75,2|10,0:0|0:0,0:0:0:0:
423,191,107763,5,2,0:0:0:0:
396,28,107936,1,2,3:2:0:0:
423,191,108109,2,0,L|435:264,1,75,2|8,3:2|0:0,0:0:0:0:
510,157,108456,1,2,0:0:0:0:
484,345,108630,6,0,B|426:283|348:302,1,150,2|10,3:2|0:0,0:0:0:0:
217,368,109150,2,0,L|106:346,1,112.5,2|0,3:2|0:0,0:0:0:0:
106,346,109497,2,0,B|148:333|165:303,1,75,2|8,3:2|0:2,0:0:0:0:
4,288,109843,6,0,B|-19:206|55:159,1,150,6|0,3:2|3:0,0:0:0:0:
128,200,110364,1,8,0:0:0:0:
200,104,110537,1,2,0:0:0:0:
200,104,110624,1,2,0:0:0:0:
200,104,110711,2,0,L|126:117,1,75,2|0,3:2|3:2,0:0:0:0:
264,160,111057,5,8,0:0:0:0:
296,4,111231,2,0,L|282:77,1,75,0|0,0:0|3:0,0:0:0:0:
444,140,111578,5,0,3:0:0:0:
384,276,111751,2,0,L|370:202,1,75,8|0,0:0|0:0,0:0:0:0:
370,202,112011,1,2,0:0:0:0:
370,202,112098,1,2,3:2:0:0:
296,236,112271,1,2,3:2:0:0:
216,224,112445,1,10,0:0:0:0:
168,160,112618,2,0,B|176:116|161:86,1,75,2|4,0:0|3:2,0:0:0:0:
92,124,112965,5,2,0:0:0:0:
244,96,113138,1,10,0:0:0:0:
368,76,113312,1,2,0:0:0:0:
368,76,113398,1,0,0:0:0:0:
368,76,113485,1,2,3:2:0:0:
324,164,113658,1,2,3:2:0:0:
292,8,113832,1,8,0:0:0:0:
456,48,114005,6,0,B|484:120|447:193,1,150,6|2,3:2|3:2,0:0:0:0:
412,296,114526,1,10,0:2:0:0:
504,264,114699,1,2,3:2:0:0:
360,224,114872,2,0,L|286:237,1,75,10|8,0:2|0:3,0:0:0:0:
275,235,115132,1,8,0:3:0:0:
264,239,115219,1,8,3:3:0:0:
253,236,115306,1,8,0:3:0:0:
244,243,115393,1,8,0:3:0:0:
233,239,115479,1,8,0:3:0:0:
224,246,115566,6,0,B|229:282|216:320,1,75,6|0,3:2|0:0,0:0:0:0:
19,252,115913,2,0,B|32:301|40:363,1,112.5,10|0,3:2|0:0,0:0:0:0:
39,362,116260,1,2,3:2:0:0:
127,277,116433,2,0,B|135:244|140:204,1,75,2|10,0:2|3:2,0:0:0:0:
157,37,116780,6,0,P|110:65|54:66,1,112.5,2|0,0:0|0:0,0:0:0:0:
53,65,117127,2,0,P|63:101|72:138,1,75,2|8,0:0|3:2,0:0:0:0:
246,19,117474,6,0,P|242:94|223:167,1,150,2|0,0:0|0:0,0:0:0:0:
279,312,117994,2,0,P|280:274|290:238,1,75,8|0,3:2|0:0,0:0:0:0:
140,203,118341,6,0,B|57:228|5:162,1,150,6|10,3:2|3:2,0:0:0:0:
146,58,118861,2,0,B|210:67|245:18,1,112.5,2|0,0:0|0:0,0:0:0:0:
244,18,119208,2,0,B|266:44|271:86,1,75,2|8,0:0|3:2,0:0:0:0:
290,238,119554,6,0,B|358:235|353:285|430:278,1,150,4|2,3:2|3:2,0:0:0:0:
418,202,120075,1,10,0:0:0:0:
300,318,120248,1,2,3:2:0:0:
430,277,120422,5,10,0:0:0:0:
290,238,120595,1,0,3:2:0:0:
201,380,120768,1,8,0:0:0:0:
61,353,120942,5,8,0:0:0:0:
61,353,121028,1,8,0:0:0:0:
61,353,121115,2,0,B|68:294|32:247,1,112.5,6|0,3:2|0:0,0:0:0:0:
32,247,121462,2,0,L|105:261,1,75,10|0,3:2|0:0,0:0:0:0:
211,190,121809,5,2,3:2:0:0:
129,101,121982,2,0,B|108:138|124:173,1,75,2|10,0:0|3:2,0:0:0:0:
201,380,122329,2,0,B|260:325|340:348,1,150,2|2,0:0|0:0,0:0:0:0:
374,220,122849,1,8,3:2:0:0:
473,281,123023,2,0,L|398:293,1,75,2|0,0:0|3:2,0:0:0:0:
398,293,123283,1,2,0:0:0:0:
398,293,123369,1,0,0:0:0:0:
290,217,123543,2,0,B|280:182|291:142,1,75,14|0,3:2|0:0,0:0:0:0:
169,5,123890,6,0,B|191:85|171:155,1,150,6|8,3:2|0:0,0:0:0:0:
97,75,124410,1,2,0:0:0:0:
257,45,124583,2,0,L|343:61,1,75,10|0,0:0|3:2,0:0:0:0:
465,250,124930,5,8,0:0:0:0:
490,112,125104,1,0,3:0:0:0:
369,148,125277,1,8,0:0:0:0:
442,176,125450,5,0,3:2:0:0:
405,23,125624,1,8,0:0:0:0:
291,131,125797,1,0,3:2:0:0:
291,131,125884,1,0,0:0:0:0:
291,131,125971,1,10,0:0:0:0:
328,284,126144,1,2,3:2:0:0:
442,176,126317,6,0,L|368:191,1,75,10|10,0:0|0:0,0:0:0:0:
357,194,126578,1,8,0:0:0:0:
346,197,126664,1,8,0:3:0:0:
319,41,126838,1,8,0:3:0:0:
163,68,127011,1,8,0:3:0:0:
190,224,127185,1,12,0:3:0:0:
190,224,127531,6,0,L|196:260,2,37.5,8|8|8,0:3|0:3|0:0,0:0:0:0:
229,145,127878,1,4,3:2:0:0:
89,53,128225,5,8,0:0:0:0:
89,53,128311,1,8,0:0:0:0:
89,53,128398,2,0,L|168:69,1,75,0|8,3:2|3:3,0:0:0:0:
298,196,128745,5,10,0:2:0:0:
460,143,128919,1,2,3:2:0:0:
362,123,129092,1,10,0:2:0:0:
477,238,129265,5,10,0:0:0:0:
477,238,129352,1,8,0:0:0:0:
477,238,129439,2,0,B|495:309|453:366,1,134.999995880127,6|0,3:2|0:0,0:0:0:0:
452,366,129786,1,8,0:0:0:0:
327,305,129959,1,0,0:0:0:0:
327,305,130046,1,8,0:0:0:0:
327,305,130132,2,0,L|238:320,1,89.9999972534181,0|0,3:0|3:0,0:0:0:0:
267,233,130479,1,10,0:0:0:0:
166,375,130653,6,0,B|142:317|71:296|13:330,1,179.999994506836,2|0,0:0|3:0,0:0:0:0:
166,217,131173,1,10,0:0:0:0:
65,184,131346,1,0,0:0:0:0:
65,184,131433,1,0,3:0:0:0:
65,184,131520,2,0,L|75:227,2,44.999998626709,2|8|0,0:0|0:0|3:0,0:0:0:0:
180,53,131867,2,0,B|211:97|201:138,1,89.9999972534181,10|0,0:0|0:0,0:0:0:0:
214,312,132213,5,2,3:2:0:0:
302,288,132387,1,0,0:0:0:0:
390,264,132560,1,10,0:0:0:0:
418,341,132734,5,2,0:0:0:0:
418,341,132820,1,8,0:0:0:0:
418,341,132907,1,0,3:0:0:0:
302,288,133080,1,2,3:2:0:0:
186,235,133254,1,8,0:0:0:0:
112,288,133427,6,0,B|43:227|78:122,1,179.999994506836,2|0,0:0|3:0,0:0:0:0:
191,72,133948,2,0,B|238:78|274:43,1,89.9999972534181,8|0,0:0|0:0,0:0:0:0:
274,44,134208,1,2,3:2:0:0:
274,44,134294,2,0,L|280:0,2,44.999998626709,0|8|0,0:0|0:0|3:0,0:0:0:0:
374,122,134641,2,0,L|462:107,1,89.9999972534181,8|0,0:0|0:0,0:0:0:0:
403,34,134988,5,6,3:2:0:0:
325,193,135161,2,0,P|298:156|288:113,1,89.9999972534181,2|8,0:0|0:0,0:0:0:0:
224,240,135508,1,2,0:0:0:0:
224,240,135595,1,8,0:0:0:0:
224,240,135682,2,0,P|180:228|144:202,1,89.9999972534181,0|2,3:0|3:2,0:0:0:0:
175,340,136028,2,0,P|134:359|90:361,1,89.9999972534181,10|0,0:0|0:0,0:0:0:0:
89,360,136289,1,2,0:3:0:0:
89,360,136375,5,2,3:2:0:0:
175,340,136549,1,2,3:2:0:0:
264,348,136722,1,8,0:0:0:0:
370,384,136895,2,0,B|424:338|414:261,1,134.999995880127,2|8,0:0|0:0,0:0:0:0:
414,262,137242,1,2,3:2:0:0:
501,204,137416,2,0,B|509:154|481:118,1,89.9999972534181,8|0,0:0|0:0,0:0:0:0:
405,8,137763,5,6,3:2:0:0:
341,91,137936,1,2,0:0:0:0:
241,59,138109,1,10,0:0:0:0:
160,157,138283,5,2,3:2:0:0:
160,157,138369,1,0,0:0:0:0:
160,157,138456,1,10,0:0:0:0:
224,240,138629,1,2,3:2:0:0:
324,208,138802,1,10,0:0:0:0:
392,384,138976,6,0,L|214:355,1,179.999994506836,6|0,3:2|3:0,0:0:0:0:
146,229,139497,1,12,0:0:0:0:
17,319,139670,2,0,L|106:304,1,89.9999972534181,8|2,0:0|3:2,0:0:0:0:
227,165,140017,5,10,0:0:0:0:
231,142,140104,1,8,0:0:0:0:
242,123,140190,1,10,3:3:0:0:
260,110,140277,1,8,0:3:0:0:
281,102,140364,1,2,0:3:0:0:
303,102,140450,1,8,3:3:0:0:
324,109,140537,6,0,B|379:136|451:105|446:28,1,179.999994506836,4|8,3:2|0:0,0:0:0:0:
416,160,141057,1,0,0:0:0:0:
416,160,141144,1,8,0:0:0:0:
416,160,141231,2,0,L|434:249,1,89.9999972534181,0|0,3:0|3:0,0:0:0:0:
501,185,141578,1,10,0:0:0:0:
464,336,141751,6,0,B|390:269|296:304,1,179.999994506836,2|0,0:0|3:0,0:0:0:0:
206,252,142271,2,0,B|175:285|182:336,1,89.9999972534181,10|0,0:0|0:0,0:0:0:0:
182,335,142531,1,0,3:0:0:0:
182,335,142618,2,0,L|139:343,2,44.999998626709,2|8|0,0:0|0:0|3:2,0:0:0:0:
261,161,142965,2,0,L|172:145,1,89.9999972534181,10|0,0:0|0:0,0:0:0:0:
70,213,143312,5,6,3:2:0:0:
12,144,143485,1,0,3:0:0:0:
43,62,143658,1,10,0:0:0:0:
172,145,143832,5,2,0:0:0:0:
172,145,143919,1,8,0:0:0:0:
172,145,144005,1,0,3:2:0:0:
260,160,144178,1,2,3:2:0:0:
316,92,144351,1,8,0:0:0:0:
228,77,144526,1,2,0:0:0:0:
204,228,144699,6,0,B|223:268|215:316,1,89.9999972534181,0|0,3:2|3:0,0:0:0:0:
321,384,145046,2,0,B|370:327|441:340,1,134.999995880127,8|0,0:0|3:0,0:0:0:0:
441,340,145393,2,0,L|485:331,2,44.999998626709,0|8|0,0:0|0:0|3:0,0:0:0:0:
353,229,145739,2,0,L|441:247,1,89.9999972534181,8|0,0:0|0:0,0:0:0:0:
487,102,146086,5,6,3:2:0:0:
409,72,146260,2,0,B|392:118|421:157,1,89.9999972534181,2|8,0:0|0:0,0:0:0:0:
303,337,146606,2,0,B|234:328|176:372,1,134.999995880127,2|0,0:0|0:0,0:0:0:0:
177,372,146953,1,2,3:0:0:0:
107,253,147127,2,0,B|79:291|87:339,1,89.9999972534181,10|0,0:0|0:0,0:0:0:0:
86,338,147387,1,8,0:0:0:0:
86,338,147474,5,2,3:2:0:0:
130,168,147647,2,0,B|83:162|45:193,1,89.9999972534181,2|8,3:2|0:0,0:0:0:0:
196,56,147994,2,0,B|249:107|319:89,1,134.999995880127,2|8,0:0|0:0,0:0:0:0:
330,83,148341,1,2,3:2:0:0:
404,132,148514,2,0,B|438:99|438:50,1,89.9999972534181,8|0,0:0|0:0,0:0:0:0:
332,184,148861,5,6,3:2:0:0:
452,344,149034,1,2,3:2:0:0:
364,372,149208,5,10,0:2:0:0:
404,132,149381,1,2,3:2:0:0:
480,168,149554,5,10,0:2:0:0:
304,264,149728,2,0,L|214:253,1,89.9999972534181,2|8,3:2|0:0,0:0:0:0:
80,351,150075,6,0,B|40:299|50:222,1,134.999995880127,6|0,3:2|0:0,0:0:0:0:
50,224,150422,1,2,3:2:0:0:
96,152,150595,1,14,0:0:0:0:
60,72,150768,1,0,3:0:0:0:
184,156,150942,5,0,3:0:0:0:
204,148,151028,1,8,0:2:0:0:
224,140,151115,1,8,0:2:0:0:
244,132,151202,1,8,0:2:0:0:
264,124,151289,1,10,3:2:0:0:
284,132,151375,1,8,0:2:0:0:
304,140,151462,1,10,0:2:0:0:
324,148,151549,1,8,0:2:0:0:
344,156,151635,5,6,3:1:0:0:
444,192,151809,1,2,0:0:0:0:
512,112,151982,1,10,0:1:0:0:
416,84,152156,1,2,0:0:0:0:
416,84,152242,1,8,0:0:0:0:
416,84,152329,1,10,0:1:0:0:
372,244,152502,2,0,L|386:332,1,89.9999972534181,2|8,3:2|0:0,0:0:0:0:
256,215,152849,6,0,L|234:348,1,134.999995880127,6|8,3:2|0:0,0:0:0:0:
234,349,153196,1,2,3:2:0:0:
168,304,153369,1,10,0:0:0:0:
84,324,153543,1,2,3:2:0:0:
8,176,153716,5,2,3:2:0:0:
8,176,153803,1,8,0:0:0:0:
8,176,153890,1,2,3:2:0:0:
68,112,154063,1,10,0:0:0:0:
160,152,154237,5,0,0:0:0:0:
160,152,154323,1,0,0:0:0:0:
160,152,154410,1,6,3:1:0:0:
96,216,154583,1,2,0:0:0:0:
140,64,154757,1,10,0:1:0:0:
292,108,154930,1,2,0:0:0:0:
292,108,155017,1,8,0:0:0:0:
292,108,155104,1,2,3:1:0:0:
248,260,155277,2,0,B|276:296|280:344,1,89.9999972534181,2|8,3:2|0:0,0:0:0:0:
400,216,155624,6,0,B|428:280|410:348,1,134.999995880127,6|0,3:2|3:0,0:0:0:0:
414,352,155971,2,0,L|504:336,1,89.9999972534181,2|8,3:2|0:0,0:0:0:0:
400,216,156317,1,2,3:2:0:0:
279,342,156491,1,0,3:0:0:0:
247,347,156578,1,8,0:3:0:0:
216,339,156664,1,8,0:3:0:0:
191,319,156751,1,8,0:3:0:0:
177,290,156838,1,4,3:2:0:0:
252,75,157185,5,6,3:1:0:0:
179,141,157358,1,2,0:0:0:0:
85,110,157531,1,10,0:1:0:0:
158,44,157705,1,2,0:0:0:0:
158,44,157791,1,8,0:0:0:0:
158,44,157878,1,2,3:1:0:0:
273,172,158052,2,0,L|360:149,1,89.9999972534181,2|8,3:2|0:0,0:0:0:0:
447,218,158398,6,0,L|273:172,1,179.999994506836,6|2,3:2|3:2,0:0:0:0:
216,241,158919,1,10,0:2:0:0:
138,209,159092,1,2,3:2:0:0:
190,108,159265,2,0,L|198:152,2,44.999998626709,2|8|10,3:2|0:0|3:2,0:0:0:0:
80,32,159612,2,0,L|63:120,1,89.9999972534181,14|0,0:0|0:0,0:0:0:0:
14,292,159959,6,0,B|62:295|95:327,1,89.9999972534181,6|10,3:2|0:0,0:0:0:0:
113,337,160219,1,8,0:0:0:0:
130,340,160306,1,10,3:3:0:0:
147,338,160393,1,8,0:3:0:0:
163,331,160479,1,6,3:2:0:0:
216,241,160653,1,8,0:0:0:0:
211,223,160739,1,8,0:0:0:0:
207,205,160826,1,10,0:3:0:0:
203,187,160913,1,8,0:3:0:0:
200,169,161000,2,0,L|191:124,1,44.999998626709,10|8,3:0|0:0,0:0:0:0:
175,53,161173,1,6,3:2:0:0:
175,53,161693,5,2,0:0:0:0:
336,160,162040,1,10,0:0:0:0:
418,140,162213,1,2,3:0:0:0:
434,117,162299,1,8,0:3:0:0:
443,90,162386,1,8,0:3:0:0:
443,62,162473,1,8,0:3:0:0:
434,36,162559,1,6,3:2:0:0:
446,300,162907,5,8,3:3:0:0:
366,326,163080,1,0,3:0:0:0:
304,276,163254,1,8,0:3:0:0:
300,258,163341,1,8,0:3:0:0:
295,240,163427,2,0,L|302:195,2,44.999998626709,0|8|8,3:0|0:3|0:3,0:0:0:0:
276,370,163774,2,0,L|187:384,1,89.9999972534181,0|8,3:0|0:3,0:0:0:0:
187,384,164034,1,8,0:3:0:0:
187,384,164121,5,0,3:2:0:0:
180,303,164294,1,8,0:0:0:0:
114,245,164468,1,8,0:0:0:0:
29,236,164641,1,8,0:0:0:0:
180,303,164815,5,8,0:0:0:0:
194,270,164901,1,8,0:0:0:0:
197,234,164988,1,8,0:0:0:0:
186,199,165075,1,8,0:0:0:0:
162,171,165161,1,8,0:0:0:0:
157,135,165248,1,8,0:0:0:0:
165,99,165335,1,8,0:0:0:0:
191,74,165422,1,8,0:0:0:0:
225,64,165508,6,0,L|313:82,1,89.9999972534181,4|2,3:2|0:0,0:0:0:0:
313,82,165768,1,2,0:0:0:0:
313,82,165855,1,10,0:0:0:0:
393,5,166028,1,2,0:0:0:0:
393,5,166115,1,8,0:0:0:0:
393,5,166202,2,0,B|404:25|404:48,1,44.999998626709,2|0,3:2|0:0,0:0:0:0:
499,102,166375,2,0,B|507:150|473:185,1,89.9999972534181,2|8,3:2|0:0,0:0:0:0:
474,184,166635,1,0,0:0:0:0:
474,184,166722,6,0,L|342:212,1,134.999995880127,2|8,0:0|0:0,0:0:0:0:
341,212,167069,2,0,B|371:248|358:297,1,89.9999972534181,2|8,3:2|0:0,0:0:0:0:
225,250,167416,2,0,B|217:296|252:332,1,89.9999972534181,2|0,0:0|0:0,0:0:0:0:
253,333,167676,1,8,0:0:0:0:
253,333,167763,2,0,L|165:317,1,89.9999972534181,2|10,3:2|0:0,0:0:0:0:
98,371,168109,1,0,0:0:0:0:
32,259,168283,6,0,P|44:172|120:130,2,179.999994506836,6|8|2,3:2|0:0|3:2,0:0:0:0:
164,316,169150,2,0,L|255:303,1,89.9999972534181,2|10,3:2|0:2,0:0:0:0:
301,197,169497,6,0,L|122:222,1,179.999994506836,6|2,3:2|3:2,0:0:0:0:
38,103,170017,2,0,B|73:142|118:129,1,89.9999972534181,8|0,0:0|0:0,0:0:0:0:
119,129,170277,1,0,0:0:0:0:
119,129,170364,2,0,L|128:84,2,44.999998626709,0|8|0,3:2|0:0|3:2,0:0:0:0:
201,172,170711,2,0,L|219:82,1,89.9999972534181,14|0,3:2|0:0,0:0:0:0:
344,266,171057,6,0,P|258:267|209:339,1,179.999994506836,6|8,3:2|0:0,0:0:0:0:
68,383,171578,1,0,0:0:0:0:
63,376,171664,1,8,0:0:0:0:
57,367,171751,1,2,3:2:0:0:
32,290,171924,1,0,3:0:0:0:
98,221,172098,2,0,B|173:275|269:248,1,179.999994506836,10|0,0:0|3:2,0:0:0:0:
437,313,172618,5,0,3:2:0:0:
359,345,172791,1,8,0:0:0:0:
322,185,172965,5,0,0:0:0:0:
322,185,173052,1,0,3:0:0:0:
322,185,173138,2,0,L|314:140,2,44.999998626709,2|8|2,0:0|0:0|3:2,0:0:0:0:
414,210,173485,1,10,0:0:0:0:
470,138,173658,1,2,0:0:0:0:
312,47,173832,6,0,B|213:66|267:110|165:141,1,179.999994506836,6|8,3:2|0:0,0:0:0:0:
86,54,174352,1,0,0:0:0:0:
86,54,174439,1,8,0:0:0:0:
86,54,174526,1,2,3:2:0:0:
44,214,174699,1,2,3:2:0:0:
8,120,174872,1,10,0:2:0:0:
147,280,175046,6,0,B|196:224|269:237,1,134.999995880127,6|0,3:2|0:0,0:0:0:0:
268,236,175393,2,0,L|286:324,1,89.9999972534181,2|8,3:2|0:0,0:0:0:0:
350,165,175739,2,0,L|416:104,1,89.9999972534181,2|2,0:2|0:2,0:0:0:0:
416,104,176000,1,8,0:0:0:0:
416,104,176086,1,0,3:0:0:0:
248,130,176260,1,8,0:0:0:0:
226,123,176346,1,8,0:0:0:0:
205,116,176433,1,8,0:3:0:0:
183,109,176520,1,8,0:3:0:0:
162,102,176606,5,4,3:2:0:0:
67,128,176780,2,0,L|56:84,2,44.999998626709,10|8|0,0:0|0:0|3:0,0:0:0:0:
26,276,177127,5,14,0:0:0:0:
93,332,177300,1,2,3:2:0:0:
171,298,177474,1,2,0:0:0:0:
248,130,177647,5,14,0:0:0:0:
266,222,177820,1,2,0:0:0:0:
266,222,177907,1,8,0:0:0:0:
266,222,177994,1,2,3:2:0:0:
284,314,178167,1,14,0:0:0:0:
423,265,178341,6,0,B|384:235|338:254,1,89.9999972534181,2|10,3:2|0:0,0:0:0:0:
338,254,178601,1,0,0:0:0:0:
338,254,178687,1,14,0:0:0:0:
248,130,178861,5,10,0:3:0:0:
248,130,178948,1,8,0:3:0:0:
248,130,179034,2,0,L|262:86,1,44.999998626709,10|8,3:3|0:3,0:0:0:0:
159,119,179208,2,0,L|128:84,1,44.999998626709,10|8,0:3|0:3,0:0:0:0:
104,189,179381,6,0,L|14:207,1,89.9999972534181,6|10,3:2|0:0,0:0:0:0:
15,206,179641,1,8,0:0:0:0:
15,206,179728,1,0,3:2:0:0:
197,26,179901,2,0,B|247:75|321:62,1,134.999995880127,14|0,0:0|0:0,0:0:0:0:
322,62,180248,1,2,0:0:0:0:
451,9,180422,6,0,L|436:97,1,89.9999972534181,14|10,0:0|0:0,0:0:0:0:
436,97,180682,1,8,0:0:0:0:
436,97,180768,1,2,3:2:0:0:
376,243,180942,6,0,L|361:154,1,89.9999972534181,6|2,3:2|3:2,0:0:0:0:
361,154,181202,1,8,0:0:0:0:
361,154,181288,1,10,0:0:0:0:
506,289,181462,5,6,3:2:0:0:
433,311,181635,1,8,0:3:0:0:
350,381,181809,5,8,0:3:0:0:
277,359,181982,1,8,0:3:0:0:
192,384,182156,6,0,L|182:340,1,44.999998626709,14|2,3:2|0:2,0:0:0:0:
164,260,182329,1,2,3:2:0:0:
164,260,182416,1,2,0:2:0:0:
164,260,182502,1,2,3:2:0:0:
278,134,182676,1,14,0:2:0:0:
296,147,182762,1,2,0:2:0:0:
317,155,182849,1,2,3:2:0:0:
339,157,182936,1,2,0:2:0:0:
361,154,183022,1,2,3:2:0:0:
419,42,183196,5,14,0:2:0:0:
397,39,183282,1,2,0:2:0:0:
375,41,183369,1,2,3:2:0:0:
354,49,183456,1,2,0:2:0:0:
336,62,183542,1,2,3:2:0:0:
180,61,183716,5,14,0:2:0:0:
180,61,183803,1,2,0:2:0:0:
180,61,183890,2,0,L|188:14,1,44.999998626709,2|2,3:2|0:2,0:0:0:0:
65,71,184063,5,2,3:2:0:0:
65,71,184150,1,0,0:0:0:0:
65,71,184237,2,0,L|81:165,1,89.9999972534181,14|0,0:2|3:0,0:0:0:0:
37,340,184583,2,0,L|21:251,1,89.9999972534181,8|8,0:0|0:3,0:0:0:0:
21,251,184843,1,8,0:3:0:0:
21,251,184930,6,0,L|221:279,1,202.499993820191,6|0,3:2|3:0,0:0:0:0:
368,352,185624,2,0,L|167:380,1,202.499993820191,14|8,0:0|0:0,0:0:0:0:
221,279,186317,5,4,3:2:0:0:
221,279,186433,2,0,L|235:231,1,44.999998626709,8|8,0:0|0:0,0:0:0:0:
140,175,186664,1,8,0:0:0:0:
140,175,186780,2,0,L|189:173,1,44.999998626709,8|8,0:0|0:0,0:0:0:0:
213,65,187011,1,8,0:3:0:0:
213,65,187127,2,0,L|229:112,1,44.999998626709,8|8,0:3|0:3,0:0:0:0:
340,100,187358,1,8,0:3:0:0:
340,100,187474,2,0,L|300:130,1,44.999998626709,8|8,0:3|0:3,0:0:0:0:
345,231,187705,6,0,B|356:197|383:170|413:163|441:161|441:161|526:146|503:24|416:30|382:80|382:80|388:23|339:-10|258:3|239:78|279:131|314:114|326:155,1,629.999980773926,4|0,3:2|3:0,0:0:0:0:
385,342,190479,2,0,B|413:381|462:366|486:320|449:245|360:243|319:302|319:302|315:346|286:379|248:394|200:336|244:301,1,449.99998626709,0|0,3:0|0:0,0:0:0:0:
243,301,192560,6,0,L|232:226,1,75,4|0,3:0|0:0,0:0:0:0:
145,376,192907,2,0,L|134:301,1,75,4|0,3:0|0:0,0:0:0:0:
28,183,193254,6,0,B|69:227|130:213,1,112.5,6|0,3:2|0:0,0:0:0:0:
130,212,193601,2,0,L|145:138,1,75,10|0,0:0|0:0,0:0:0:0:
243,32,193948,5,2,3:2:0:0:
302,86,194121,1,2,0:2:0:0:
380,66,194294,1,10,0:2:0:0:
243,32,194468,6,0,B|215:62|223:101,1,75,2|0,3:2|0:0,0:0:0:0:
367,137,194815,2,0,B|392:105|380:66,1,75,2|8,3:2|0:0,0:0:0:0:
285,173,195161,6,0,L|306:321,1,150,2|0,0:0|0:0,0:0:0:0:
416,208,195682,2,0,L|405:282,1,75,10|8,0:0|0:3,0:0:0:0:
218,359,196028,5,6,3:0:0:0:
129,380,196202,1,8,0:0:0:0:
108,291,196375,1,0,3:0:0:0:
197,270,196549,1,10,0:0:0:0:
305,182,196722,5,2,3:2:0:0:
416,208,196896,1,8,0:0:0:0:
442,97,197069,1,8,3:2:0:0:
331,70,197243,1,8,0:0:0:0:
248,16,197416,5,0,3:2:0:0:
220,20,197502,1,8,0:0:0:0:
192,24,197589,1,8,0:0:0:0:
164,29,197676,1,8,0:0:0:0:
136,33,197763,6,0,L|129:69,1,37.5,8|8,3:2|0:0,0:0:0:0:
49,97,197936,2,0,L|67:129,1,37.5,8|8,0:0|0:0,0:0:0:0:
48,208,198110,5,10,3:2:0:0:
65,238,198197,1,8,0:0:0:0:
98,256,198283,1,8,3:2:0:0:
135,254,198369,1,8,0:0:0:0:
165,233,198456,1,10,3:2:0:0:
195,210,198544,1,8,0:0:0:0:
232,208,198630,1,8,3:2:0:0:
264,227,198716,1,8,0:0:0:0:
283,258,198803,5,14,3:2:0:0:
256,192,198890,12,2,201578,3:2:0:0:
328,192,201924,6,0,L|375:176,2,50,8|8|8,0:3|0:3|0:3,0:0:0:0:
256,160,202271,2,0,L|256:110,2,50,8|8|8,0:0|0:3|0:3,0:0:0:0:
203,218,202618,2,0,L|155:202,2,50,8|8|8,0:3|0:3|0:3,0:0:0:0:
242,286,202965,2,0,L|212:326,2,50,8|8|8,0:3|0:3|0:3,0:0:0:0:
319,270,203312,2,0,L|362:330,1,75,8|0,0:3|3:0,0:0:0:0:
408,216,203658,5,2,3:2:0:0:
455,147,203832,1,2,3:2:0:0:
404,80,204005,1,2,3:2:0:0:
325,108,204179,1,2,3:2:0:0:
328,192,204352,5,4,3:2:0:0:
493,246,212156,5,8,3:2:0:0:
493,246,212243,1,8,3:2:0:0:
493,246,212330,2,0,L|381:262,1,112.5,12|0,0:0|0:0,0:0:0:0:
371,264,212676,5,6,3:2:0:0:
213,223,212849,1,10,0:0:0:0:
256,380,213023,1,10,3:2:0:0:
303,197,213196,5,10,0:0:0:0:
189,314,213369,1,10,3:2:0:0:
346,355,213543,1,10,0:0:0:0:
213,223,213716,5,10,3:2:0:0:
213,223,213803,1,8,0:0:0:0:
213,223,213890,2,0,B|125:262|52:179,1,179.999994506836,6|0,3:2|3:0,0:0:0:0:
0,74,214410,1,8,0:0:0:0:
12,47,214497,1,8,0:0:0:0:
35,31,214583,1,8,0:3:0:0:
66,28,214670,1,8,0:3:0:0:
88,40,214757,6,0,L|104:81,1,44.999998626709,8|8,0:0|0:0,0:0:0:0:
193,8,214930,2,0,L|186:51,1,44.999998626709,8|8,0:3|0:3,0:0:0:0:
299,33,215104,2,0,L|270:68,1,44.999998626709,8|8,0:2|0:2,0:0:0:0:
378,107,215277,2,0,L|335:123,1,44.999998626709,8|8,0:2|0:2,0:0:0:0:
408,210,215450,6,0,L|273:191,1,134.999995880127,6|0,3:2|0:0,0:0:0:0:
274,191,215797,1,8,0:0:0:0:
328,336,215971,1,0,0:0:0:0:
328,336,216057,1,8,0:0:0:0:
328,336,216144,2,0,B|352:296|336:249,1,89.9999972534181,0|0,3:0|3:0,0:0:0:0:
408,210,216491,1,10,0:0:0:0:
231,333,216664,5,2,0:0:0:0:
231,333,216751,1,0,0:0:0:0:
231,333,216838,2,0,B|176:300|99:315,1,134.999995880127,0|0,3:2|0:0,0:0:0:0:
100,315,217185,2,0,L|12:333,1,89.9999972534181,10|0,0:0|0:0,0:0:0:0:
12,333,217445,1,0,3:0:0:0:
12,333,217531,2,0,L|19:289,2,44.999998626709,2|8|0,0:0|0:0|3:2,0:0:0:0:
160,256,217878,2,0,B|166:209|130:173,1,89.9999972534181,10|0,0:0|0:0,0:0:0:0:
248,15,218225,6,0,B|216:71|236:146,1,134.999995880127,6|0,3:2|0:0,0:0:0:0:
236,146,218572,1,10,0:0:0:0:
408,120,218745,2,0,B|368:96|320:104,1,89.9999972534181,2|0,0:0|3:2,0:0:0:0:
424,216,219092,1,2,3:2:0:0:
360,272,219265,2,0,B|336:232|343:185,1,89.9999972534181,8|2,0:0|0:0,0:0:0:0:
343,185,219526,1,0,0:0:0:0:
343,185,219612,6,0,L|255:201,1,89.9999972534181,0|0,3:2|3:0,0:0:0:0:
184,136,219959,2,0,L|96:152,1,89.9999972534181,8|0,0:0|0:0,0:0:0:0:
87,136,220219,1,0,3:0:0:0:
84,122,220306,1,2,0:3:0:0:
87,108,220393,1,8,0:0:0:0:
93,96,220479,1,0,3:0:0:0:
125,243,220653,2,0,P|80:245|38:229,1,89.9999972534181,8|0,0:0|0:0,0:0:0:0:
201,363,221000,5,6,3:2:0:0:
247,258,221173,2,0,P|285:282|308:320,1,89.9999972534181,2|8,0:0|0:0,0:0:0:0:
405,193,221520,2,0,P|437:276|436:365,1,179.999994506836,2|2,0:0|3:0,0:0:0:0:
312,192,222040,2,0,L|326:103,1,89.9999972534181,10|0,0:0|0:0,0:0:0:0:
326,103,222300,1,8,0:0:0:0:
326,103,222387,5,2,3:2:0:0:
224,16,222560,2,0,P|214:59|226:102,1,89.9999972534181,2|8,3:2|0:0,0:0:0:0:
72,143,222907,2,0,P|111:198|171:229,1,134.999995880127,2|8,0:0|0:0,0:0:0:0:
170,229,223254,2,0,P|126:239|82:249,1,89.9999972534181,2|8,3:2|0:0,0:0:0:0:
70,329,223601,1,0,0:0:0:0:
170,229,223774,5,6,3:2:0:0:
236,379,223948,1,2,3:2:0:0:
264,190,224121,5,10,0:2:0:0:
258,364,224294,1,2,3:2:0:0:
367,196,224468,5,10,0:2:0:0:
283,347,224641,1,2,3:2:0:0:
440,297,224815,5,8,0:0:0:0:
245,277,224988,2,0,B|135:266|181:319|70:301,1,179.999994506836,6|2,3:2|3:2,0:0:0:0:
10,180,225508,1,14,0:0:0:0:
140,202,225682,1,2,3:2:0:0:
92,101,225855,5,0,3:0:0:0:
92,101,225942,1,8,0:2:0:0:
92,101,226028,2,0,L|83:147,1,44.999998626709,8|8,0:2|0:2,0:0:0:0:
242,195,226202,1,10,3:2:0:0:
264,190,226288,1,8,0:2:0:0:
286,185,226375,1,10,0:2:0:0:
308,181,226462,1,8,0:2:0:0:
330,176,226548,5,6,3:1:0:0:
406,245,226722,1,2,0:0:0:0:
505,212,226895,1,10,0:1:0:0:
427,140,227069,1,2,0:0:0:0:
427,140,227156,1,8,0:0:0:0:
427,140,227242,1,6,3:1:0:0:
313,267,227416,2,0,B|325:310|329:355,1,89.9999972534181,2|8,3:2|0:0,0:0:0:0:
242,195,227763,6,0,B|224:130|218:62,1,134.999995880127,6|8,3:2|0:0,0:0:0:0:
229,52,228109,1,2,3:2:0:0:
147,84,228283,1,10,0:0:0:0:
85,24,228456,1,2,3:2:0:0:
169,0,228630,5,2,3:2:0:0:
169,0,228716,1,8,0:0:0:0:
169,0,228803,1,2,3:2:0:0:
128,173,228976,1,10,0:0:0:0:
360,287,229323,5,6,3:1:0:0:
294,349,229497,1,2,0:0:0:0:
205,319,229670,1,10,0:1:0:0:
275,256,229843,1,2,0:0:0:0:
275,256,229930,1,8,0:0:0:0:
275,256,230017,1,10,0:1:0:0:
388,370,230190,2,0,B|436:363|466:328,1,89.9999972534181,2|8,3:0|0:0,0:0:0:0:
482,180,230537,6,0,B|471:106|411:70,1,134.999995880127,6|0,3:2|0:0,0:0:0:0:
411,70,230884,2,0,L|323:88,1,89.9999972534181,2|8,3:2|0:0,0:0:0:0:
208,40,231231,1,2,3:2:0:0:
172,168,231404,5,0,3:0:0:0:
137,177,231491,1,8,0:3:0:0:
101,171,231578,1,8,0:3:0:0:
75,145,231664,1,8,0:3:0:0:
66,110,231751,1,4,3:2:0:0:
228,300,232098,5,6,3:1:0:0:
164,368,232271,1,2,0:0:0:0:
76,336,232445,1,10,3:1:0:0:
144,280,232618,1,2,0:0:0:0:
144,280,232705,1,8,0:0:0:0:
144,280,232791,1,2,3:1:0:0:
72,160,232965,2,0,B|44:194|61:245,1,89.9999972534181,2|8,3:2|0:0,0:0:0:0:
256,376,233312,6,0,B|310:306|277:204,1,179.999994506836,6|2,3:2|3:2,0:0:0:0:
344,152,233832,1,10,0:2:0:0:
432,168,234005,1,2,3:2:0:0:
364,232,234179,2,0,L|374:275,2,44.999998626709,2|8|10,3:2|0:0|3:2,0:0:0:0:
400,88,234526,2,0,L|378:0,1,89.9999972534181,14|0,0:0|0:0,0:0:0:0:
280,208,234872,5,6,3:2:0:0:
168,152,235046,1,10,0:0:0:0:
168,152,235132,1,8,0:0:0:0:
168,152,235219,2,0,L|124:162,1,44.999998626709,10|8,3:3|0:3,0:0:0:0:
56,112,235393,1,6,3:2:0:0:
8,284,235566,1,8,0:0:0:0:
17,317,235653,1,8,0:0:0:0:
41,343,235739,1,10,0:3:0:0:
74,359,235826,1,8,0:3:0:0:
110,363,235913,1,10,3:0:0:0:
143,354,236000,1,8,0:0:0:0:
172,336,236086,1,6,3:2:0:0:
172,336,236606,5,2,0:0:0:0:
224,84,236953,2,0,L|312:98,1,89.9999972534181,10|2,0:0|3:0,0:0:0:0:
332,68,237213,1,8,0:3:0:0:
364,56,237300,1,8,0:3:0:0:
400,60,237387,1,8,0:3:0:0:
424,88,237474,6,0,L|400:236,1,150,6|2,3:2|3:2,0:0:0:0:
472,360,237994,2,0,B|493:332|487:288,1,75,10|0,0:2|0:0,0:0:0:0:
487,289,238254,1,8,0:0:0:0:
487,289,238341,1,2,3:2:0:0:
400,236,238514,2,0,B|398:201|365:171,1,75,0|10,3:0|0:0,0:0:0:0:
315,312,238861,6,0,L|204:333,1,112.5,2|0,0:0|0:0,0:0:0:0:
205,333,239208,1,2,3:2:0:0:
113,207,239381,2,0,P|93:240|88:276,1,75,10|0,0:0|0:0,0:0:0:0:
88,276,239641,1,8,0:0:0:0:
88,276,239728,2,0,L|14:289,1,75,2|0,3:2|3:2,0:0:0:0:
196,167,240075,2,0,L|306:185,1,112.5,10|0,0:0|0:0,0:0:0:0:
389,164,240422,6,0,B|352:173|328:205|328:205|323:247|336:278,1,150,2|10,3:2|0:0,0:0:0:0:
408,355,240942,1,0,0:0:0:0:
408,355,241028,1,8,0:0:0:0:
408,355,241115,2,0,B|428:321|415:282,1,75,2|2,3:2|3:2,0:0:0:0:
470,219,241462,1,8,0:0:0:0:
337,279,241635,6,0,L|227:255,1,112.5,2|0,0:0|0:0,0:0:0:0:
217,251,241982,1,2,3:2:0:0:
160,320,242156,2,0,B|128:293|124:255,1,75,10|0,0:0|0:0,0:0:0:0:
124,256,242416,1,8,0:0:0:0:
124,256,242502,1,2,3:2:0:0:
201,169,242676,1,2,3:2:0:0:
72,104,242849,2,0,B|50:55|86:1|145:10,1,146.249993305207,14|0,0:0|0:0,0:0:0:0:
176,24,243196,6,0,B|216:11|245:40|245:40|269:67|315:57,1,150,6|10,3:2|0:0,0:0:0:0:
426,14,243716,1,2,0:0:0:0:
426,14,243803,1,8,0:0:0:0:
426,14,243890,2,0,L|409:87,1,75,2|2,3:2|3:2,0:0:0:0:
471,142,244237,1,8,0:0:0:0:
371,230,244410,6,0,B|323:198|263:204,1,112.5,2|0,0:0|0:0,0:0:0:0:
263,203,244757,2,0,L|190:218,1,75,2|8,3:2|0:0,0:0:0:0:
139,82,245104,2,0,B|61:102|38:183,1,150,2|0,0:0|3:0,0:0:0:0:
68,256,245624,1,14,0:0:0:0:
17,368,245797,5,0,0:0:0:0:
17,368,245884,1,0,0:0:0:0:
17,368,245971,2,0,L|164:334,1,150,6|8,3:2|0:0,0:0:0:0:
296,376,246491,2,0,B|336:323|319:270,1,112.5,2|0,0:0|0:0,0:0:0:0:
319,270,246838,1,0,3:2:0:0:
241,223,247011,2,0,L|167:240,1,75,10|0,0:0|3:0,0:0:0:0:
85,186,247358,5,4,3:2:0:0:
170,122,247531,1,10,0:0:0:0:
170,122,247618,1,8,0:0:0:0:
170,122,247705,2,0,L|163:158,1,37.5,10|8,0:0|0:0,0:0:0:0:
99,299,247878,6,0,B|145:279|175:300|175:300|183:334|223:348,1,150,14|2,3:2|3:2,0:0:0:0:
232,343,248312,1,2,0:0:0:0:
242,341,248398,1,10,0:3:0:0:
253,339,248485,1,8,0:3:0:0:
264,337,248572,1,8,0:3:0:0:
275,335,248658,1,8,0:3:0:0:
286,333,248745,6,0,L|297:258,1,75,4|0,3:2|0:0,0:0:0:0:
299,247,249005,1,8,0:0:0:0:
300,235,249092,1,2,0:0:0:0:
377,201,249265,1,8,0:0:0:0:
441,95,249439,6,0,B|382:106|332:74,1,112.5,2|8,0:0|0:0,0:0:0:0:
333,74,249786,1,2,0:0:0:0:
272,140,249959,1,8,0:0:0:0:
175,44,250132,6,0,L|101:60,1,75,2|0,0:0|0:0,0:0:0:0:
90,64,250393,1,8,0:0:0:0:
79,67,250479,1,2,0:0:0:0:
176,143,250653,1,8,0:0:0:0:
55,282,250826,6,0,B|18:233|33:174,1,112.5,2|8,0:0|0:0,0:0:0:0:
33,176,251173,2,0,L|106:192,1,75,2|8,0:0|0:0,0:0:0:0:
242,61,251520,6,0,L|168:77,1,75,2|0,0:0|0:0,0:0:0:0:
157,80,251780,1,8,0:0:0:0:
146,82,251867,1,2,0:0:0:0:
263,137,252040,1,8,0:0:0:0:
315,11,252213,2,0,B|370:19|409:67,1,112.5,2|8,0:0|0:0,0:0:0:0:
409,67,252560,2,0,L|395:140,1,75,2|8,0:0|0:0,0:0:0:0:
481,218,252907,5,2,0:0:0:0:
399,249,253080,1,8,0:0:0:0:
364,328,253254,1,0,0:0:0:0:
352,326,253341,2,0,L|315:318,1,37.5,8|10,0:0|0:0,0:0:0:0:
248,261,253514,2,0,L|174:275,1,75,2|0,0:0|0:0,0:0:0:0:
120,346,253774,1,10,0:0:0:0:
110,340,253861,1,8,0:0:0:0:
100,334,253948,2,0,L|91:297,1,37.5,8|8,0:0|0:0,0:0:0:0:
149,195,254121,5,2,0:0:0:0:
158,201,254208,2,0,L|174:273,1,75
