osu file format v14

[General]
AudioFilename: audio.mp3
AudioLeadIn: 0
PreviewTime: 107504
Countdown: 1
SampleSet: Soft
StackLeniency: 0.7
Mode: 0
LetterboxInBreaks: 0
WidescreenStoryboard: 0

[Editor]
Bookmarks: 30254,84920,134254
DistanceSpacing: 1.4
BeatDivisor: 4
GridSize: 8
TimelineZoom: 1

[Metadata]
Title:Onegai Darling
TitleUnicode:Onegai Darling
Artist:Matsushita
ArtistUnicode:Matsushita
Creator:Awaken
Version:Darling!!
Source:
Tags:
BeatmapID:2027353
BeatmapSetID:968947

[Difficulty]
HPDrainRate:7
CircleSize:4
OverallDifficulty:9
ApproachRate:9
SliderMultiplier:1.6
SliderTickRate:1

[Events]
//Background and Video events
//Break Periods
2,105120,106820
//Storyboard Layer 0 (Background)
//Storyboard Layer 1 (Fail)
//Storyboard Layer 2 (Pass)
//Storyboard Layer 3 (Foreground)
//Storyboard Sound Samples

[TimingPoints]
921,333.333333333333,4,2,1,50,1,0
18754,-200,4,2,1,50,0,0
19587,-100,4,2,1,50,0,0
43587,-200,4,2,1,50,0,0
43920,-66.6666666666667,4,2,1,50,0,0
44254,-100,4,2,1,50,0,0
50587,-80,4,2,1,50,0,0
50920,-66.6666666666667,4,2,1,50,0,0
51587,-100,4,2,1,50,0,1
64920,-83.3333333333333,4,2,1,50,0,0
66587,-62.5,4,2,1,50,0,0
66754,-50,4,2,1,50,0,0
67587,-100,4,2,1,50,0,0
78920,-80,4,2,1,50,0,0
79587,-100,4,2,1,50,0,0
98254,-200,4,2,1,50,0,0
98587,-66.6666666666667,4,2,1,50,0,0
98920,-100,4,2,1,50,0,0
107587,-100,4,2,1,50,0,1
120920,-83.3333333333333,4,2,1,50,0,0
122587,-62.5,4,2,1,50,0,0
122754,-50,4,2,1,50,0,0
123587,-100,4,2,1,50,0,0
125754,-83.3333333333333,4,2,1,50,0,0
126254,-100,4,2,1,50,0,0
128087,-200,4,2,1,50,0,0
128754,-100,4,2,1,50,0,0
136920,-200,4,2,1,50,0,0
137254,-66.6666666666667,4,2,1,50,0,0
137587,-100,4,2,1,50,0,0
146254,-100,4,2,1,50,0,1
163587,-200,4,2,1,50,0,1
164587,-100,4,2,1,50,0,1
170254,-83.3333333333333,4,2,1,50,0,0
171920,-71.4285714285714,4,2,1,50,0,0
172087,-62.5,4,2,1,50,0,0
172920,-133.333333333333,4,2,1,50,0,0
174254,-100,4,2,1,50,0,1
174337,-100,4,2,1,50,0,0

[Colours]
Combo1 : 255,255,0
Combo2 : 0,255,168
Combo3 : 255,119,255
Combo4 : 0,255,64

[HitObjects]
163,52,921,5,4,0:0:0:0:
338,92,1087,1,4,0:0:0:0:
30,230,1420,1,4,0:0:0:0:
435,335,1754,1,4,0:0:0:0:
259,14,2087,5,4,0:0:0:0:
259,14,2420,1,0,0:0:0:0:
293,177,2587,1,8,0:0:0:0:
340,337,2754,1,0,0:0:0:0:
340,337,3587,6,0,L|437:324,1,80,4|0,0:0|0:0,0:0:0:0:
320,66,3920,1,8,0:0:0:0:
84,139,4087,2,0,P|47:171|116:237,1,160
320,66,4587,1,8,0:0:0:0:
495,257,4754,2,0,P|525:294|446:347,1,160
206,62,5254,1,8,0:0:0:0:
268,300,5420,6,0,L|279:133,1,160
369,47,5920,1,8,0:0:0:0:
402,226,6087,1,0,0:0:0:0:
402,226,6170,1,0,0:0:0:0:
402,226,6254,1,4,0:0:0:0:
183,188,6420,1,0,0:0:0:0:
360,142,6587,1,8,0:0:0:0:
351,347,6754,1,0,0:0:0:0:
286,189,6920,5,0,0:0:0:0:
486,122,7087,1,0,0:0:0:0:
236,112,7254,1,8,0:0:0:0:
436,202,7420,2,0,P|463:145|405:100,1,120,0|0,0:0|0:0,0:0:0:0:
397,92,7754,1,0,0:0:0:0:
325,311,7920,1,8,0:0:0:0:
309,49,8087,1,0,0:0:0:0:
309,49,8170,1,0,0:0:0:0:
309,49,8254,1,0,0:0:0:0:
325,311,8420,6,0,B|346:269|346:269|328:140,1,160,4|0,0:0|0:0,0:0:0:0:
121,176,8837,1,0,0:0:0:0:
80,258,8920,2,0,P|136:261|175:250,1,80,0|0,0:0|0:0,0:0:0:0:
388,46,9254,2,0,P|332:43|293:54,1,80,8|0,0:0|0:0,0:0:0:0:
45,106,9587,2,0,P|91:136|131:146,1,80,0|0,0:0|0:0,0:0:0:0:
426,192,9920,2,0,P|379:161|339:151,1,80,8|0,0:0|0:0,0:0:0:0:
161,283,10254,5,0,0:0:0:0:
252,166,10420,1,0,0:0:0:0:
252,166,10504,1,0,0:0:0:0:
252,166,10587,1,8,0:0:0:0:
348,330,10754,1,0,0:0:0:0:
348,330,10837,1,0,0:0:0:0:
348,330,10920,1,0,0:0:0:0:
87,342,11087,1,0,0:0:0:0:
306,248,11254,1,8,0:0:0:0:
149,99,11420,5,0,0:0:0:0:
149,99,11504,1,0,0:0:0:0:
149,99,11587,2,0,P|142:159|151:191,1,80,0|0,0:0|0:0,0:0:0:0:
392,300,11920,2,0,P|399:240|390:208,1,80,8|0,0:0|0:0,0:0:0:0:
49,213,12254,2,0,P|72:268|96:291,1,80,0|0,0:0|0:0,0:0:0:0:
493,208,12587,2,0,P|469:152|445:129,1,80,8|0,0:0|0:0,0:0:0:0:
268,339,12920,5,0,0:0:0:0:
206,193,13087,1,0,0:0:0:0:
206,193,13170,1,0,0:0:0:0:
206,193,13254,1,8,0:0:0:0:
359,79,13420,1,0,0:0:0:0:
359,79,13504,1,0,0:0:0:0:
359,79,13587,5,0,0:0:0:0:
374,131,13670,1,0,0:0:0:0:
353,183,13754,1,0,0:0:0:0:
311,220,13837,1,0,0:0:0:0:
256,230,13920,1,8,0:0:0:0:
204,206,14004,1,0,0:0:0:0:
148,212,14087,1,0,0:0:0:0:
99,239,14170,1,0,0:0:0:0:
74,289,14254,6,0,L|65:381,1,80,4|0,0:0|0:0,0:0:0:0:
204,206,14587,2,0,L|195:298,1,80,8|0,0:0|0:0,0:0:0:0:
335,149,14920,2,0,L|326:241,1,80,0|0,0:0|0:0,0:0:0:0:
465,66,15254,2,0,L|456:158,1,80,8|0,0:0|0:0,0:0:0:0:
461,288,15587,5,0,0:0:0:0:
336,106,15754,1,0,0:0:0:0:
281,94,15837,1,0,0:0:0:0:
226,82,15920,1,8,0:0:0:0:
210,291,16087,1,0,0:0:0:0:
155,303,16170,1,0,0:0:0:0:
99,313,16254,1,0,0:0:0:0:
217,181,16420,1,0,0:0:0:0:
338,367,16587,1,8,0:0:0:0:
480,248,16754,5,0,0:0:0:0:
480,248,16837,1,0,0:0:0:0:
480,248,16920,1,4,0:0:0:0:
116,348,17170,1,4,0:0:0:0:
196,21,17420,1,4,0:0:0:0:
388,295,17587,5,4,0:0:0:0:
0,107,17837,1,4,0:0:0:0:
306,8,18087,1,4,0:0:0:0:
263,317,18254,5,4,0:0:0:0:
66,43,18504,1,4,0:0:0:0:
410,19,18754,6,0,P|467:38|400:92,1,180,4|0,0:0|0:0,0:0:0:0:
370,125,19587,6,0,P|394:176|399:255,1,120,4|0,0:0|0:0,0:0:0:0:
387,272,19920,1,8,0:0:0:0:
500,153,20087,1,0,0:0:0:0:
388,353,20254,2,0,P|336:340|310:308,1,80,0|0,0:0|0:0,0:0:0:0:
163,242,20587,2,0,P|203:213|221:176,1,80,8|0,0:0|0:0,0:0:0:0:
283,42,20920,5,0,0:0:0:0:
333,242,21087,1,0,0:0:0:0:
333,242,21170,1,0,0:0:0:0:
333,242,21254,1,8,0:0:0:0:
122,160,21420,1,0,0:0:0:0:
122,160,21504,1,0,0:0:0:0:
122,160,21587,1,0,0:0:0:0:
331,137,21754,1,0,0:0:0:0:
74,233,21920,2,0,P|112:246|151:247,1,80,8|0,0:0|0:0,0:0:0:0:
283,218,22170,5,0,0:0:0:0:
283,218,22254,2,0,P|244:184|183:235,1,120,0|0,0:0|0:0,0:0:0:0:
151,247,22587,1,8,0:0:0:0:
417,190,22754,1,0,0:0:0:0:
229,72,22920,2,0,P|281:77|319:72,1,80,0|0,0:0|0:0,0:0:0:0:
486,141,23254,2,0,P|500:194|493:229,1,80,8|0,0:0|0:0,0:0:0:0:
313,331,23587,5,0,0:0:0:0:
361,133,23754,2,0,L|371:193,1,40,0|0,0:0|0:0,0:0:0:0:
313,331,23920,1,8,0:0:0:0:
229,72,24087,2,0,L|221:127,1,40,0|0,0:0|0:0,0:0:0:0:
129,297,24254,2,0,B|164:260|221:277|221:277|235:336|235:336|290:314|337:341,1,240,0|0,0:0|0:0,0:0:0:0:
416,216,24837,5,0,0:0:0:0:
416,216,24920,2,0,P|459:185|421:133,1,120,4|0,0:0|0:0,0:0:0:0:
397,126,25254,1,8,0:0:0:0:
454,333,25420,1,0,0:0:0:0:
428,44,25587,2,0,P|375:42|330:67,1,80,0|0,0:0|0:0,0:0:0:0:
168,154,25920,2,0,P|225:165|259:162,1,80,8|0,0:0|0:0,0:0:0:0:
355,276,26254,5,0,0:0:0:0:
215,79,26420,1,0,0:0:0:0:
215,79,26504,1,0,0:0:0:0:
215,79,26587,1,8,0:0:0:0:
90,221,26754,1,0,0:0:0:0:
90,221,26837,1,0,0:0:0:0:
90,221,26920,1,0,0:0:0:0:
335,161,27087,1,0,0:0:0:0:
168,278,27254,2,0,P|209:251|255:247,1,80,8|0,0:0|0:0,0:0:0:0:
335,161,27504,5,0,0:0:0:0:
335,161,27587,2,0,P|340:99|331:27,1,120,0|0,0:0|0:0,0:0:0:0:
323,16,27920,1,8,0:0:0:0:
466,139,28087,1,0,0:0:0:0:
342,284,28254,2,0,P|398:274|432:253,1,80,0|0,0:0|0:0,0:0:0:0:
226,191,28587,2,0,P|170:201|136:222,1,80,8|0,0:0|0:0,0:0:0:0:
71,338,28920,5,0,0:0:0:0:
269,314,29087,2,0,L|211:304,1,40,0|0,0:0|0:0,0:0:0:0:
71,338,29254,1,8,0:0:0:0:
377,213,29420,2,0,P|385:188|385:161,1,40,0|0,0:0|0:0,0:0:0:0:
257,15,29587,1,0,0:0:0:0:
257,15,30254,6,0,P|249:72|261:113,1,80,4|0,0:0|0:0,0:0:0:0:
364,269,30587,2,0,P|372:212|360:171,1,80,8|0,0:0|0:0,0:0:0:0:
152,201,30920,1,0,0:0:0:0:
291,343,31087,1,0,0:0:0:0:
111,315,31254,1,8,0:0:0:0:
245,246,31420,1,0,0:0:0:0:
245,246,31504,1,0,0:0:0:0:
245,246,31587,2,0,L|261:158,1,80,0|0,0:0|0:0,0:0:0:0:
441,176,31920,2,0,L|432:89,1,80,8|0,0:0|0:0,0:0:0:0:
235,57,32254,5,0,0:0:0:0:
344,139,32420,1,0,0:0:0:0:
173,195,32587,1,8,0:0:0:0:
354,274,32754,1,0,0:0:0:0:
354,274,32837,1,0,0:0:0:0:
354,274,32920,2,0,L|294:283,1,40,0|0,0:0|0:0,0:0:0:0:
173,195,33087,2,0,L|212:200,1,40,0|0,0:0|0:0,0:0:0:0:
215,340,33254,2,0,L|210:269,1,40,8|0,0:0|0:0,0:0:0:0:
313,142,33420,2,0,L|315:181,1,40,0|0,0:0|0:0,0:0:0:0:
104,283,33587,5,0,0:0:0:0:
70,57,33754,1,0,0:0:0:0:
120,80,33837,1,0,0:0:0:0:
174,90,33920,1,8,0:0:0:0:
230,88,34004,1,0,0:0:0:0:
285,79,34087,1,0,0:0:0:0:
338,62,34170,1,0,0:0:0:0:
387,34,34254,6,0,L|400:92,1,40,0|0,0:0|0:0,0:0:0:0:
510,151,34420,2,0,L|496:214,1,40,0|0,0:0|0:0,0:0:0:0:
324,212,34587,2,0,L|340:269,1,40,8|0,0:0|0:0,0:0:0:0:
452,333,34754,2,0,L|446:378,1,40,0|0,0:0|0:0,0:0:0:0:
254,363,34920,1,0,0:0:0:0:
130,218,35087,1,0,0:0:0:0:
130,218,35170,1,0,0:0:0:0:
130,218,35254,1,8,0:0:0:0:
318,71,35420,5,0,0:0:0:0:
318,71,35504,1,0,0:0:0:0:
318,71,35587,2,0,P|376:66|408:71,1,80,0|0,0:0|0:0,0:0:0:0:
185,123,35920,2,0,P|127:128|95:123,1,80,8|0,0:0|0:0,0:0:0:0:
372,273,36254,1,0,0:0:0:0:
277,158,36420,1,0,0:0:0:0:
228,365,36587,1,8,0:0:0:0:
372,273,36754,1,0,0:0:0:0:
169,266,36920,1,0,0:0:0:0:
362,183,37087,6,0,P|412:194|447:225,1,80,0|8,0:0|0:0,0:0:0:0:
398,384,37420,1,0,0:0:0:0:
255,250,37587,2,0,L|245:158,1,80,0|0,0:0|0:0,0:0:0:0:
101,52,37920,6,0,L|96:143,1,80,8|0,0:0|0:0,0:0:0:0:
96,131,38170,1,0,0:0:0:0:
96,131,38254,1,4,0:0:0:0:
390,90,38420,1,0,0:0:0:0:
390,90,38587,1,8,0:0:0:0:
172,301,38754,1,0,0:0:0:0:
296,37,38920,1,4,0:0:0:0:
296,37,39087,1,0,0:0:0:0:
333,367,39254,5,8,0:0:0:0:
205,96,39420,1,4,0:0:0:0:
205,96,39504,1,0,0:0:0:0:
205,96,39587,1,0,0:0:0:0:
172,301,39754,1,0,0:0:0:0:
209,8,39920,1,8,0:0:0:0:
250,244,40087,1,0,0:0:0:0:
250,244,40420,6,0,P|206:258|153:163,1,160,4|0,0:0|0:0,0:0:0:0:
264,129,40837,1,0,0:0:0:0:
264,129,40920,2,0,L|364:141,1,80,0|0,0:0|0:0,0:0:0:0:
381,257,41254,2,0,L|468:248,1,80,8|0,0:0|0:0,0:0:0:0:
280,334,41587,2,0,L|180:346,1,80,0|0,0:0|0:0,0:0:0:0:
50,235,41920,2,0,L|129:243,1,80,8|0,0:0|0:0,0:0:0:0:
50,235,42254,5,0,0:0:0:0:
200,343,42420,1,0,0:0:0:0:
200,343,42504,1,0,0:0:0:0:
200,343,42587,1,8,0:0:0:0:
351,241,42754,1,0,0:0:0:0:
351,241,42837,1,0,0:0:0:0:
351,241,42920,1,0,0:0:0:0:
124,131,43087,1,0,0:0:0:0:
124,131,43170,1,0,0:0:0:0:
124,131,43254,1,8,0:0:0:0:
308,30,43420,5,0,0:0:0:0:
308,30,43504,1,0,0:0:0:0:
308,30,43587,6,0,P|320:61|316:100,1,60,0|0,0:0|0:0,0:0:0:0:
362,164,43920,6,0,P|336:218|369:269,1,120.000004577637,12|0,0:0|0:0,0:0:0:0:
184,374,44254,1,0,0:0:0:0:
145,206,44420,1,0,0:0:0:0:
277,296,44587,1,8,0:0:0:0:
16,304,44754,5,0,0:0:0:0:
16,304,44837,1,0,0:0:0:0:
16,304,44920,2,0,P|62:311|115:302,1,80,0|0,0:0|0:0,0:0:0:0:
325,205,45254,2,0,P|279:198|226:207,1,80,8|0,0:0|0:0,0:0:0:0:
459,305,45587,2,0,L|448:389,1,80,0|0,0:0|0:0,0:0:0:0:
245,201,45920,6,0,L|227:98,1,80,8|0,0:0|0:0,0:0:0:0:
231,122,46170,1,0,0:0:0:0:
231,122,46254,1,0,0:0:0:0:
161,296,46420,1,0,0:0:0:0:
382,228,46587,1,8,0:0:0:0:
146,372,46754,6,0,P|104:352|87:267,1,120,4|0,0:0|0:0,0:0:0:0:
86,266,47087,1,0,0:0:0:0:
342,333,47254,1,8,0:0:0:0:
401,148,47420,6,0,P|345:153|302:210,1,120,4|0,0:0|0:0,0:0:0:0:
296,236,47754,1,0,0:0:0:0:
20,144,47920,1,8,0:0:0:0:
159,294,48087,6,0,P|177:239|174:169,1,120,4|0,0:0|0:0,0:0:0:0:
170,146,48420,1,0,0:0:0:0:
331,314,48587,1,8,0:0:0:0:
61,368,48754,1,0,0:0:0:0:
331,314,48920,6,0,L|326:216,1,80,0|0,0:0|0:0,0:0:0:0:
163,27,49254,2,0,P|143:73|158:116,1,80,8|0,0:0|0:0,0:0:0:0:
148,100,49504,1,0,0:0:0:0:
148,100,49587,1,0,0:0:0:0:
365,38,49754,1,0,0:0:0:0:
120,186,49920,1,8,0:0:0:0:
176,197,50004,1,0,0:0:0:0:
231,206,50087,1,0,0:0:0:0:
286,215,50170,1,0,0:0:0:0:
340,228,50254,6,0,P|361:171|307:142,1,120,0|0,0:0|0:0,0:0:0:0:
309,284,50587,6,0,P|296:211|319:141,1,150,8|0,0:0|0:0,0:0:0:0:
337,313,50920,6,0,P|350:224|319:141,1,180.000006866455,0|0,0:0|0:0,0:0:0:0:
307,344,51254,5,8,0:0:0:0:
309,284,51337,1,0,0:0:0:0:
311,224,51420,1,0,0:0:0:0:
314,163,51504,1,0,0:0:0:0:
321,108,51587,6,0,P|376:120|409:118,1,80,4|0,0:0|0:0,0:0:0:0:
167,186,51920,2,0,P|112:174|79:176,1,80,8|0,0:0|0:0,0:0:0:0:
30,338,52254,2,0,L|128:330,1,80,0|0,0:0|0:0,0:0:0:0:
388,277,52587,6,0,L|308:283,1,80,8|0,0:0|0:0,0:0:0:0:
308,283,52837,1,0,0:0:0:0:
308,283,52920,1,0,0:0:0:0:
167,186,53087,1,0,0:0:0:0:
402,110,53254,1,8,0:0:0:0:
167,186,53420,1,0,0:0:0:0:
289,117,53587,2,0,P|307:58|305:27,1,80,0|0,0:0|0:0,0:0:0:0:
58,147,53920,6,0,L|66:241,1,80,8|0,0:0|0:0,0:0:0:0:
64,226,54170,1,0,0:0:0:0:
64,226,54254,1,0,0:0:0:0:
206,103,54420,1,0,0:0:0:0:
240,299,54587,1,8,0:0:0:0:
51,314,54754,5,0,0:0:0:0:
51,314,54837,1,0,0:0:0:0:
51,314,54920,1,0,0:0:0:0:
198,208,55087,1,0,0:0:0:0:
322,377,55254,1,8,0:0:0:0:
343,139,55420,5,0,0:0:0:0:
343,139,55504,1,0,0:0:0:0:
343,139,55587,2,0,L|356:250,1,80,0|0,0:0|0:0,0:0:0:0:
192,37,55920,2,0,L|184:123,1,80,8|0,0:0|0:0,0:0:0:0:
356,347,56254,1,0,0:0:0:0:
254,181,56420,1,0,0:0:0:0:
123,293,56587,1,8,0:0:0:0:
376,219,56754,1,0,0:0:0:0:
412,235,56837,1,0,0:0:0:0:
435,267,56920,6,0,L|464:175,1,80,4|0,0:0|0:0,0:0:0:0:
336,22,57254,2,0,P|327:69|345:113,1,80,8|0,0:0|0:0,0:0:0:0:
240,315,57587,2,0,P|249:268|231:224,1,80,0|0,0:0|0:0,0:0:0:0:
100,109,57920,6,0,P|151:108|183:89,1,80,8|0,0:0|0:0,0:0:0:0:
175,94,58170,1,0,0:0:0:0:
175,94,58254,1,0,0:0:0:0:
309,209,58420,1,0,0:0:0:0:
135,303,58587,1,8,0:0:0:0:
175,94,58754,1,0,0:0:0:0:
135,303,58920,2,0,P|97:258|87:221,1,80,0|0,0:0|0:0,0:0:0:0:
290,80,59254,6,0,L|282:168,1,80,8|0,0:0|0:0,0:0:0:0:
282,159,59504,1,0,0:0:0:0:
282,159,59587,1,0,0:0:0:0:
388,288,59754,1,0,0:0:0:0:
201,366,59920,2,0,P|175:327|171:273,1,80,8|0,0:0|0:0,0:0:0:0:
389,188,60254,1,0,0:0:0:0:
253,299,60420,1,0,0:0:0:0:
391,372,60587,1,8,0:0:0:0:
282,159,60754,5,0,0:0:0:0:
282,159,60837,1,0,0:0:0:0:
282,159,60920,1,0,0:0:0:0:
388,288,61087,1,0,0:0:0:0:
184,145,61254,1,8,0:0:0:0:
468,165,61420,1,0,0:0:0:0:
218,244,61587,6,0,P|281:260|313:252,1,80,0|0,0:0|0:0,0:0:0:0:
387,183,61837,1,0,0:0:0:0:
387,183,61920,2,0,L|376:129,1,40,8|0,0:0|0:0,0:0:0:0:
471,73,62087,2,0,L|477:17,1,40,0|0,0:0|0:0,0:0:0:0:
285,92,62254,6,0,B|243:101|243:101|206:82|147:87,1,120,4|0,0:0|0:0,0:0:0:0:
122,93,62587,1,8,0:0:0:0:
271,294,62754,6,0,B|313:303|313:303|350:284|409:289,1,120,0|0,0:0|0:0,0:0:0:0:
432,295,63087,1,0,0:0:0:0:
117,363,63254,6,0,P|71:340|103:274,1,120,8|0,0:0|0:0,0:0:0:0:
126,271,63587,1,0,0:0:0:0:
371,371,63754,1,0,0:0:0:0:
217,118,63920,1,8,0:0:0:0:
387,61,64087,6,0,B|441:77|441:77|466:129|423:189,1,160,4|0,0:0|0:0,0:0:0:0:
256,360,64587,1,8,0:0:0:0:
257,312,64670,1,0,0:0:0:0:
258,263,64754,1,0,0:0:0:0:
259,215,64837,1,0,0:0:0:0:
260,167,64920,6,0,P|281:145|312:127,1,47.9999985351563,4|0,0:0|0:0,0:0:0:0:
465,234,65087,6,0,P|400:257|342:218,1,143.999995605469,4|0,0:0|0:0,0:0:0:0:
470,51,65420,6,0,B|457:141|457:141|431:147|411:166,1,143.999995605469,4|0,0:0|0:0,0:0:0:0:
171,183,65754,6,0,B|183:273|183:273|209:279|229:298,1,143.999995605469,4|0,0:0|0:0,0:0:0:0:
427,351,66087,6,0,P|451:304|372:315,1,143.999995605469,4|0,0:0|0:0,0:0:0:0:
312,167,66420,6,0,L|321:228,1,47.9999985351563,0|0,0:0|0:0,0:0:0:0:
319,103,66587,6,0,L|310:181,1,64,8|0,0:0|0:0,0:0:0:0:
301,25,66754,6,0,L|322:117,1,80,0|0,0:0|0:0,0:0:0:0:
89,350,67587,6,0,L|179:339,1,80,4|0,0:0|0:0,0:0:0:0:
261,55,67920,1,8,0:0:0:0:
309,233,68087,2,0,P|374:227|322:157,1,160,0|0,0:0|0:0,0:0:0:0:
261,55,68587,1,8,0:0:0:0:
110,243,68754,2,0,P|45:237|97:167,1,160,4|0,0:0|0:0,0:0:0:0:
261,55,69254,1,8,0:0:0:0:
320,375,69420,2,0,P|385:369|333:299,1,160,4|0,0:0|0:0,0:0:0:0:
482,218,69920,6,0,P|493:165|479:129,1,80,8|0,0:0|0:0,0:0:0:0:
485,141,70170,1,0,0:0:0:0:
485,141,70254,1,0,0:0:0:0:
292,249,70420,1,0,0:0:0:0:
401,92,70587,1,8,0:0:0:0:
377,323,70754,1,0,0:0:0:0:
301,135,70920,5,0,0:0:0:0:
225,304,71087,1,0,0:0:0:0:
219,87,71254,1,8,0:0:0:0:
292,249,71420,2,0,P|222:218|166:239,1,120,0|0,0:0|0:0,0:0:0:0:
150,250,71754,1,0,0:0:0:0:
410,191,71920,1,8,0:0:0:0:
135,129,72087,2,0,P|119:84|138:40,1,80,0|0,0:0|0:0,0:0:0:0:
306,89,72420,6,0,L|290:270,1,160,4|0,0:0|0:0,0:0:0:0:
327,331,72837,1,0,0:0:0:0:
327,331,72920,1,0,0:0:0:0:
166,89,74254,6,0,P|216:95|299:77,1,120,4|0,0:0|0:0,0:0:0:0:
369,219,74587,2,0,P|312:217|274:198,1,80,8|0,0:0|0:0,0:0:0:0:
51,307,74920,2,0,P|90:288|169:329,1,120,0|0,0:0|0:0,0:0:0:0:
176,345,75254,1,8,0:0:0:0:
290,157,75420,1,0,0:0:0:0:
264,360,75587,6,0,L|253:268,1,80,0|0,0:0|0:0,0:0:0:0:
395,129,75920,2,0,L|385:208,1,80,8|0,0:0|0:0,0:0:0:0:
341,274,76170,1,0,0:0:0:0:
341,274,76254,2,0,L|353:334,1,40,0|0,0:0|0:0,0:0:0:0:
246,241,76420,2,0,L|253:280,1,40,0|0,0:0|0:0,0:0:0:0:
149,274,76587,2,0,L|142:235,1,40,8|0,0:0|0:0,0:0:0:0:
54,241,76754,2,0,L|47:202,1,40,0|0,0:0|0:0,0:0:0:0:
91,88,76920,6,0,P|155:64|205:96,1,120,0|0,0:0|0:0,0:0:0:0:
361,88,77254,2,0,P|323:95|282:76,1,80,8|0,0:0|0:0,0:0:0:0:
308,251,77587,2,0,P|366:232|438:246,1,120,0|0,0:0|0:0,0:0:0:0:
454,261,77920,1,8,0:0:0:0:
261,166,78087,1,0,0:0:0:0:
379,368,78254,6,0,L|251:358,1,120,0|0,0:0|0:0,0:0:0:0:
111,333,78587,2,0,P|158:324|191:298,1,80,8|0,0:0|0:0,0:0:0:0:
405,127,78920,6,0,L|261:166,1,150,0|0,0:0|0:0,0:0:0:0:
95,143,79254,2,0,P|119:193|116:246,1,100,8|0,0:0|0:0,0:0:0:0:
289,363,79587,6,0,P|287:313|296:277,1,80,0|0,0:0|0:0,0:0:0:0:
207,170,79920,2,0,P|209:130|202:91,1,80,8|0,0:0|0:0,0:0:0:0:
337,22,80254,2,0,L|386:28,1,40,0|0,0:0|0:0,0:0:0:0:
426,136,80420,2,0,L|473:122,1,40,0|0,0:0|0:0,0:0:0:0:
320,197,80587,2,0,L|311:141,1,40,8|0,0:0|0:0,0:0:0:0:
435,252,80754,5,0,0:0:0:0:
445,278,80837,1,0,0:0:0:0:
454,301,80920,2,0,L|441:351,3,40,0|0|0|0,0:0|0:0|0:0|0:0,0:0:0:0:
306,288,81254,2,0,L|317:337,1,40,8|0,0:0|0:0,0:0:0:0:
185,316,81420,2,0,L|197:368,1,40,0|0,0:0|0:0,0:0:0:0:
80,203,81587,1,0,0:0:0:0:
80,203,81920,6,0,L|169:208,1,80,8|0,0:0|0:0,0:0:0:0:
256,22,82254,1,0,0:0:0:0:
241,49,82337,1,0,0:0:0:0:
235,81,82420,2,0,P|247:109|252:139,1,40,0|0,0:0|0:0,0:0:0:0:
377,178,82587,2,0,P|363:213|361:232,1,40,8|0,0:0|0:0,0:0:0:0:
246,291,82754,1,0,0:0:0:0:
246,291,82837,1,0,0:0:0:0:
246,291,82920,2,0,L|190:302,1,40
326,360,83087,2,0,L|270:371,1,40
426,346,83254,5,8,0:0:0:0:
445,320,83337,1,0,0:0:0:0:
454,289,83420,1,0,0:0:0:0:
450,256,83504,1,0,0:0:0:0:
442,224,83587,2,0,L|431:173,3,40,0|0|0|0,0:0|0:0|0:0|0:0,0:0:0:0:
262,183,83920,5,8,0:0:0:0:
295,153,84004,1,0,0:0:0:0:
304,110,84087,1,0,0:0:0:0:
288,68,84170,1,0,0:0:0:0:
250,43,84254,2,0,L|195:34,1,40,0|0,0:0|0:0,0:0:0:0:
146,153,84420,2,0,L|96:163,1,40,0|0,0:0|0:0,0:0:0:0:
259,343,84587,1,8,0:0:0:0:
259,343,84920,6,0,P|267:286|255:245,1,80,4|0,0:0|0:0,0:0:0:0:
127,108,85254,2,0,P|119:165|131:206,1,80,8|0,0:0|0:0,0:0:0:0:
360,183,85587,1,0,0:0:0:0:
221,41,85754,1,0,0:0:0:0:
401,69,85920,1,8,0:0:0:0:
267,138,86087,1,0,0:0:0:0:
267,138,86170,1,0,0:0:0:0:
267,138,86254,2,0,L|251:226,1,80,0|0,0:0|0:0,0:0:0:0:
71,208,86587,2,0,L|80:295,1,80,8|0,0:0|0:0,0:0:0:0:
277,327,86920,5,0,0:0:0:0:
168,245,87087,1,0,0:0:0:0:
339,189,87254,1,8,0:0:0:0:
158,110,87420,1,0,0:0:0:0:
158,110,87504,1,0,0:0:0:0:
158,110,87587,2,0,L|218:101,1,40,0|0,0:0|0:0,0:0:0:0:
339,189,87754,2,0,L|300:184,1,40,0|0,0:0|0:0,0:0:0:0:
297,44,87920,2,0,L|302:115,1,40,8|0,0:0|0:0,0:0:0:0:
199,242,88087,2,0,L|197:203,1,40,0|0,0:0|0:0,0:0:0:0:
408,101,88254,5,0,0:0:0:0:
442,327,88420,1,0,0:0:0:0:
392,304,88504,1,0,0:0:0:0:
338,294,88587,1,8,0:0:0:0:
282,296,88670,1,0,0:0:0:0:
227,305,88754,1,0,0:0:0:0:
174,322,88837,1,0,0:0:0:0:
125,350,88920,6,0,L|112:292,1,40,0|0,0:0|0:0,0:0:0:0:
2,233,89087,2,0,L|16:170,1,40,0|0,0:0|0:0,0:0:0:0:
188,172,89254,2,0,L|172:115,1,40,8|0,0:0|0:0,0:0:0:0:
60,51,89420,2,0,L|66:6,1,40,0|0,0:0|0:0,0:0:0:0:
258,21,89587,1,0,0:0:0:0:
272,67,89670,1,0,0:0:0:0:
302,104,89754,1,0,0:0:0:0:
341,130,89837,1,0,0:0:0:0:
387,139,89920,6,0,L|444:118,1,40,8|0,0:0|0:0,0:0:0:0:
327,261,90087,2,0,L|354:319,1,40,0|0,0:0|0:0,0:0:0:0:
194,313,90254,6,0,P|136:318|104:313,1,80
327,261,90587,2,0,P|385:256|417:261,1,80,8|0,0:0|0:0,0:0:0:0:
140,111,90920,1,0,0:0:0:0:
235,226,91087,1,0,0:0:0:0:
284,19,91254,1,8,0:0:0:0:
140,111,91420,1,0,0:0:0:0:
343,118,91587,1,0,0:0:0:0:
150,201,91754,6,0,P|100:190|65:159,1,80,0|8,0:0|0:0,0:0:0:0:
114,0,92087,1,0,0:0:0:0:
257,134,92254,2,0,L|267:226,1,80,0|0,0:0|0:0,0:0:0:0:
411,332,92587,6,0,L|416:241,1,80,8|0,0:0|0:0,0:0:0:0:
416,253,92837,1,0,0:0:0:0:
416,253,92920,1,4,0:0:0:0:
122,294,93087,1,0,0:0:0:0:
122,294,93254,1,8,0:0:0:0:
340,83,93420,1,0,0:0:0:0:
216,347,93587,1,4,0:0:0:0:
216,347,93754,1,0,0:0:0:0:
179,17,93920,5,8,0:0:0:0:
307,288,94087,1,4,0:0:0:0:
307,288,94170,1,0,0:0:0:0:
307,288,94254,1,0,0:0:0:0:
340,83,94420,1,0,0:0:0:0:
303,376,94587,1,8,0:0:0:0:
262,140,94754,1,0,0:0:0:0:
262,140,95087,6,0,P|306:126|359:221,1,160,4|0,0:0|0:0,0:0:0:0:
248,255,95504,1,0,0:0:0:0:
248,255,95587,2,0,L|148:243,1,80,0|0,0:0|0:0,0:0:0:0:
131,127,95920,2,0,L|44:136,1,80,8|0,0:0|0:0,0:0:0:0:
232,50,96254,2,0,L|332:38,1,80,0|0,0:0|0:0,0:0:0:0:
462,149,96587,2,0,L|383:141,1,80,8|0,0:0|0:0,0:0:0:0:
462,149,96920,5,0,0:0:0:0:
312,41,97087,1,0,0:0:0:0:
312,41,97170,1,0,0:0:0:0:
312,41,97254,1,8,0:0:0:0:
161,143,97420,1,0,0:0:0:0:
161,143,97504,1,0,0:0:0:0:
161,143,97587,1,0,0:0:0:0:
388,253,97754,1,0,0:0:0:0:
388,253,97837,1,0,0:0:0:0:
388,253,97920,1,8,0:0:0:0:
204,354,98087,5,0,0:0:0:0:
204,354,98170,1,0,0:0:0:0:
204,354,98254,6,0,P|192:323|196:284,1,60,0|0,0:0|0:0,0:0:0:0:
150,220,98587,6,0,P|176:166|137:115,1,120.000004577637,12|0,0:0|0:0,0:0:0:0:
328,10,98920,1,0,0:0:0:0:
367,178,99087,1,0,0:0:0:0:
235,88,99254,1,8,0:0:0:0:
496,80,99420,5,0,0:0:0:0:
496,80,99504,1,0,0:0:0:0:
496,80,99587,2,0,P|450:73|397:82,1,80,0|0,0:0|0:0,0:0:0:0:
187,179,99920,2,0,P|233:186|286:177,1,80,8|0,0:0|0:0,0:0:0:0:
53,79,100254,2,0,L|64:-5,1,80,0|0,0:0|0:0,0:0:0:0:
267,183,100587,6,0,L|285:286,1,80,8|0,0:0|0:0,0:0:0:0:
281,262,100837,1,0,0:0:0:0:
281,262,100920,1,4,0:0:0:0:
351,88,101087,1,0,0:0:0:0:
130,156,101254,1,8,0:0:0:0:
366,11,101420,6,0,P|408:31|425:116,1,120,4|0,0:0|0:0,0:0:0:0:
424,124,101754,1,0,0:0:0:0:
170,51,101920,1,8,0:0:0:0:
110,234,102087,6,0,P|166:229|209:172,1,120,4|0,0:0|0:0,0:0:0:0:
214,158,102420,1,0,0:0:0:0:
509,188,102587,1,8,0:0:0:0:
351,88,102754,6,0,P|333:143|336:213,1,120,4|0,0:0|0:0,0:0:0:0:
343,238,103087,1,0,0:0:0:0:
181,70,103254,1,8,0:0:0:0:
451,16,103420,1,0,0:0:0:0:
181,70,103587,6,0,L|186:168,1,80,4|0,0:0|0:0,0:0:0:0:
349,357,103920,2,0,P|357:320|339:273,1,80,8|0,0:0|0:0,0:0:0:0:
344,280,104170,1,0,0:0:0:0:
344,280,104254,1,0,0:0:0:0:
68,198,104420,1,0,0:0:0:0:
266,54,104587,5,8,0:3:0:0:
257,109,104670,1,0,0:3:0:0:
246,164,104754,1,0,0:3:0:0:
236,219,104837,1,0,0:3:0:0:
227,275,104920,1,0,0:3:0:0:
334,200,107420,5,0,0:0:0:0:
334,200,107504,1,0,0:0:0:0:
334,200,107587,2,0,L|427:188,1,80,4|0,0:0|0:0,0:0:0:0:
182,155,107920,2,0,L|102:165,1,80,8|0,0:0|0:0,0:0:0:0:
304,87,108254,1,0,0:0:0:0:
217,267,108420,1,0,0:0:0:0:
304,87,108587,1,8,0:0:0:0:
329,303,108754,5,0,0:0:0:0:
329,303,108837,1,0,0:0:0:0:
329,303,108920,2,0,L|320:215,1,80,0|0,0:0|0:0,0:0:0:0:
433,45,109254,2,0,L|424:124,1,80,8|0,0:0|0:0,0:0:0:0:
308,55,109587,1,0,0:0:0:0:
416,225,109754,1,0,0:0:0:0:
200,234,109920,1,8,0:0:0:0:
478,120,110087,1,0,0:0:0:0:
226,19,110254,6,0,P|218:67|235:107,1,80,0|0,0:0|0:0,0:0:0:0:
332,285,110587,2,0,L|341:194,1,80,8|0,0:0|0:0,0:0:0:0:
325,165,110837,1,0,0:0:0:0:
325,165,110920,1,0,0:0:0:0:
152,270,111087,1,0,0:0:0:0:
336,376,111254,1,8,0:0:0:0:
503,257,111420,1,0,0:0:0:0:
230,141,111587,6,0,P|230:199|245:231,1,80,0|0,0:0|0:0,0:0:0:0:
426,368,111920,2,0,L|440:276,1,80,8|0,0:0|0:0,0:0:0:0:
397,33,112254,1,0,0:0:0:0:
346,262,112420,1,0,0:0:0:0:
397,33,112587,1,8,0:0:0:0:
312,136,112754,5,0,0:0:0:0:
273,164,112837,1,0,0:0:0:0:
231,188,112920,2,0,P|186:197|128:182,1,80,0|0,0:0|0:0,0:0:0:0:
126,368,113254,2,0,P|167:343|218:343,1,80,8|0,0:0|0:0,0:0:0:0:
381,244,113587,1,0,0:0:0:0:
152,192,113754,1,0,0:0:0:0:
381,244,113920,1,8,0:0:0:0:
152,192,114087,5,0,0:0:0:0:
152,192,114170,1,0,0:0:0:0:
152,192,114254,2,0,L|251:173,1,80,0|0,0:0|0:0,0:0:0:0:
456,67,114587,2,0,L|374:53,1,80,8|0,0:0|0:0,0:0:0:0:
319,306,114920,1,0,0:0:0:0:
362,142,115087,1,0,0:0:0:0:
189,97,115254,1,8,0:0:0:0:
456,67,115420,1,0,0:0:0:0:
223,22,115587,6,0,L|234:119,1,80,0|0,0:0|0:0,0:0:0:0:
336,272,115920,2,0,P|350:230|334:186,1,80,8|0,0:0|0:0,0:0:0:0:
317,168,116170,1,0,0:0:0:0:
317,168,116254,1,0,0:0:0:0:
226,328,116420,1,0,0:0:0:0:
381,107,116587,1,8,0:0:0:0:
457,294,116754,1,0,0:0:0:0:
232,215,116920,6,0,P|219:168|225:124,1,80,0|0,0:0|0:0,0:0:0:0:
382,27,117254,1,8,0:0:0:0:
457,294,117420,2,0,P|470:247|464:203,1,80,0|0,0:0|0:0,0:0:0:0:
360,144,117670,1,0,0:0:0:0:
360,144,117754,2,0,L|312:138,1,40,0|0,0:0|0:0,0:0:0:0:
200,251,117920,2,0,L|207:301,1,40,8|0,0:0|0:0,0:0:0:0:
122,150,118087,2,0,L|127:111,1,40,0|0,0:0|0:0,0:0:0:0:
340,227,118254,6,0,B|310:174|340:135|340:135|365:146,1,120,4|0,0:0|0:0,0:0:0:0:
400,146,118587,1,8,0:0:0:0:
220,334,118754,6,0,B|250:281|220:242|220:242|195:253,1,120,0|0,0:0|0:0,0:0:0:0:
160,240,119087,1,0,0:0:0:0:
201,110,119254,6,0,P|228:131|226:68,1,120,8|0,0:0|0:0,0:0:0:0:
247,31,119587,5,0,0:0:0:0:
105,178,119754,1,0,0:0:0:0:
382,245,119920,1,8,0:0:0:0:
81,374,120087,2,0,B|110:337|156:339|156:339|178:373|178:373|222:390,1,160,4|0,0:0|0:0,0:0:0:0:
268,271,120587,5,8,0:0:0:0:
274,223,120670,1,0,0:0:0:0:
280,175,120754,1,0,0:0:0:0:
286,127,120837,1,0,0:0:0:0:
292,79,120920,6,0,P|321:106|347:117,1,47.9999985351563,4|0,0:0|0:0,0:0:0:0:
261,1,121087,6,0,B|201:25|203:92|203:92|161:112,1,143.999995605469,4|0,0:0|0:0,0:0:0:0:
286,127,121420,6,0,B|346:151|344:218|344:218|386:238,1,143.999995605469,4|0,0:0|0:0,0:0:0:0:
164,242,121754,6,0,B|104:266|106:333|106:333|64:353,1,143.999995605469,4|0,0:0|0:0,0:0:0:0:
413,291,122087,6,0,P|431:231|369:229,1,143.999995605469,4|0,0:0|0:0,0:0:0:0:
239,327,122420,6,0,L|250:384,1,47.9999985351563,0|0,0:0|0:0,0:0:0:0:
286,177,122587,6,0,L|274:263,1,64,8|0,0:0|0:0,0:0:0:0:
222,15,122754,6,0,L|229:117,1,80,0|0,0:0|0:0,0:0:0:0:
239,327,123587,5,4,0:0:0:0:
117,244,123754,1,0,0:0:0:0:
161,226,123837,1,0,0:0:0:0:
208,217,123920,1,8,0:0:0:0:
256,217,124004,1,0,0:0:0:0:
303,224,124087,1,0,0:0:0:0:
348,237,124170,1,0,0:0:0:0:
391,258,124254,6,0,L|445:244,1,40,0|0,0:0|0:0,0:0:0:0:
474,121,124420,2,0,L|419:117,1,40,0|0,0:0|0:0,0:0:0:0:
266,36,124587,2,0,P|276:83|262:127,1,80,8|0,0:0|0:0,0:0:0:0:
78,288,124920,1,0,0:0:0:0:
177,112,125087,5,0,0:0:0:0:
204,151,125170,1,0,0:0:0:0:
222,195,125254,1,8,0:0:0:0:
215,242,125337,1,0,0:0:0:0:
216,289,125420,1,0,0:0:0:0:
239,331,125504,1,0,0:0:0:0:
275,361,125587,2,0,L|336:350,1,40,0|0,0:0|0:0,0:0:0:0:
345,233,125754,6,0,B|384:206|384:206|420:245|420:245|504:226|481:125,1,239.999992675781,0|0,0:0|0:0,0:0:0:0:
374,74,126254,5,4,0:0:0:0:
337,105,126337,1,0,0:0:0:0:
291,119,126420,1,0,0:0:0:0:
242,119,126504,1,0,0:0:0:0:
194,110,126587,1,8,0:0:0:0:
160,143,126670,1,0,0:0:0:0:
144,188,126754,1,0,0:0:0:0:
150,235,126837,1,0,0:0:0:0:
169,278,126920,5,0,0:0:0:0:
219,303,127004,1,0,0:0:0:0:
273,290,127087,1,0,0:0:0:0:
311,249,127170,1,0,0:0:0:0:
317,192,127254,1,8,0:0:0:0:
284,136,127337,1,0,0:0:0:0:
287,72,127420,1,0,0:0:0:0:
333,27,127504,1,0,0:0:0:0:
396,27,127587,6,0,L|458:37,1,40,4|0,0:0|0:0,0:0:0:0:
508,204,127754,2,0,L|458:208,1,40,0|0,0:0|0:0,0:0:0:0:
132,178,127920,5,8,0:0:0:0:
132,178,128004,1,0,0:0:0:0:
132,178,128087,2,0,L|223:164,1,80,4|0,0:0|0:0,0:0:0:0:
227,174,128754,5,0,0:0:0:0:
401,348,128920,2,0,L|413:268,1,80,4|0,0:0|0:0,0:0:0:0:
324,28,129254,2,0,L|336:107,1,80,8|0,0:0|0:0,0:0:0:0:
291,292,129504,1,0,0:0:0:0:
291,292,129587,2,0,P|248:308|197:306,1,80,0|0,0:0|0:0,0:0:0:0:
105,147,129920,2,0,L|101:198,1,40,8|0,0:0|0:0,0:0:0:0:
176,38,130087,2,0,L|182:97,1,40,0|0,0:0|0:0,0:0:0:0:
145,268,130254,6,0,B|112:273|60:266|52:238|69:214|86:236,1,120,0|0,0:0|0:0,0:0:0:0:
226,179,130587,2,0,L|245:216,1,40,8|0,0:0|0:0,0:0:0:0:
340,260,130754,2,0,B|373:264|425:257|433:229|416:205|399:227,1,120,0|0,0:0|0:0,0:0:0:0:
360,77,131087,2,0,L|357:131,1,40,0|0,0:0|0:0,0:0:0:0:
256,28,131254,1,8,0:0:0:0:
476,117,131420,5,0,0:0:0:0:
476,117,131504,1,0,0:0:0:0:
476,117,131587,1,4,0:0:0:0:
89,206,131837,1,4,0:0:0:0:
480,286,132087,1,4,0:0:0:0:
90,123,132254,5,4,0:0:0:0:
477,201,132504,1,4,0:0:0:0:
89,289,132754,1,4,0:0:0:0:
480,33,132920,5,4,0:0:0:0:
89,206,133170,1,4,0:0:0:0:
483,375,133420,1,4,0:0:0:0:
16,31,134254,6,0,P|60:38|93:62,1,80,0|0,0:0|0:0,0:0:0:0:
236,202,134587,2,0,P|192:195|159:171,1,80,8|0,0:0|0:0,0:0:0:0:
358,63,134920,2,0,L|450:50,1,80,0|0,0:0|0:0,0:0:0:0:
452,331,135254,2,0,L|360:318,1,80,8|0,0:0|0:0,0:0:0:0:
155,297,135587,5,0,0:0:0:0:
376,199,135754,1,0,0:0:0:0:
376,199,135837,1,0,0:0:0:0:
376,199,135920,1,8,0:0:0:0:
91,162,136087,2,0,P|157:168|253:151,1,160,0|0,0:0|0:0,0:0:0:0:
415,347,136587,2,0,P|351:330|321:328,1,80,8|0,0:0|0:0,0:0:0:0:
466,252,136837,5,0,0:0:0:0:
466,252,136920,2,0,P|484:221|485:183,1,60,0|0,0:0|0:0,0:0:0:0:
399,74,137254,6,0,P|370:125|392:178,1,120.000004577637,12|0,0:0|0:0,0:0:0:0:
248,353,137587,6,0,P|257:307|242:273,1,80,0|0,0:0|0:0,0:0:0:0:
191,74,137920,1,8,0:0:0:0:
88,191,138087,2,0,L|263:176,1,160,0|0,0:0|0:0,0:0:0:0:
441,343,138587,2,0,L|266:328,1,160,8|0,0:0|0:0,0:0:0:0:
404,175,139087,1,0,0:0:0:0:
407,194,139170,1,0,0:0:0:0:
410,213,139254,1,8,0:0:0:0:
251,240,139420,1,0,0:0:0:0:
305,47,139587,6,0,P|321:97|309:138,1,80,4|0,0:0|0:0,0:0:0:0:
401,307,139920,1,8,0:0:0:0:
198,147,140087,2,0,L|187:288,1,120,4|0,0:0|0:0,0:0:0:0:
184,309,140420,1,0,0:0:0:0:
42,190,140587,1,8,0:0:0:0:
346,208,140754,6,0,L|341:77,1,120,4|0,0:0|0:0,0:0:0:0:
340,47,141087,1,0,0:0:0:0:
506,190,141254,1,8,0:0:0:0:
198,147,141420,6,0,L|187:288,1,120,4|0,0:0|0:0,0:0:0:0:
184,309,141753,1,0,0:0:0:0:
42,190,141920,1,8,0:0:0:0:
409,209,142087,5,0,0:0:0:0:
409,209,142170,1,0,0:0:0:0:
409,209,142254,2,0,P|352:218|325:217,1,80,0|0,0:0|0:0,0:0:0:0:
66,300,142587,1,8,0:0:0:0:
141,66,142754,2,0,P|188:68|237:80,2,80,0|0|0,0:0|0:0|0:0,0:0:0:0:
165,295,143254,5,8,0:0:0:0:
165,275,143337,1,0,0:0:0:0:
166,255,143420,1,0,0:0:0:0:
168,234,143504,1,0,0:0:0:0:
161,195,143587,5,0,0:0:0:0:
245,182,143920,1,8,0:0:0:0:
329,164,144254,1,0,0:0:0:0:
407,145,144587,1,8,0:0:0:0:
78,176,144754,5,0,0:0:0:0:
78,176,144837,1,0,0:0:0:0:
78,176,144920,1,0,0:0:0:0:
208,205,145254,1,8,0:0:0:0:
338,244,145587,1,0,0:0:0:0:
468,273,145921,1,8,0:0:0:0:
468,273,146004,1,0,0:0:0:0:
468,273,146087,1,0,0:0:0:0:
468,273,146170,1,0,0:0:0:0:
499,240,146254,6,0,L|511:154,1,80,4|0,0:0|0:0,0:0:0:0:
356,44,146587,2,0,L|359:142,1,80,8|0,0:0|0:0,0:0:0:0:
202,365,146920,2,0,P|190:318|207:277,1,80,0|0,0:0|0:0,0:0:0:0:
72,28,147254,6,0,P|84:75|67:116,1,80,8|0,0:0|0:0,0:0:0:0:
58,132,147504,1,0,0:0:0:0:
58,132,147587,1,0,0:0:0:0:
227,181,147754,1,0,0:0:0:0:
21,356,147920,1,8,0:0:0:0:
284,327,148087,1,0,0:0:0:0:
48,263,148254,2,0,P|35:210|47:170,1,80,0|0,0:0|0:0,0:0:0:0:
261,252,148587,6,0,L|252:332,1,80,8|0,0:0|0:0,0:0:0:0:
248,359,148837,1,0,0:0:0:0:
248,359,148920,1,0,0:0:0:0:
118,211,149087,1,0,0:0:0:0:
340,124,149254,1,8,0:0:0:0:
176,53,149420,5,0,0:0:0:0:
176,53,149504,1,0,0:0:0:0:
176,53,149587,1,0,0:0:0:0:
231,259,149754,1,0,0:0:0:0:
449,208,149920,1,8,0:0:0:0:
394,3,150087,1,0,0:0:0:0:
237,179,150254,6,0,L|230:270,1,80,0|0,0:0|0:0,0:0:0:0:
388,82,150587,2,0,L|394:2,1,80,8|0,0:0|0:0,0:0:0:0:
368,274,150920,1,0,0:0:0:0:
138,168,151087,1,0,0:0:0:0:
388,82,151254,1,8,0:0:0:0:
88,256,151420,5,0,0:0:0:0:
141,273,151504,1,0,0:0:0:0:
196,276,151587,2,0,P|224:232|222:192,1,80,4|0,0:0|0:0,0:0:0:0:
388,82,151920,2,0,P|360:126|362:166,1,80,8|0,0:0|0:0,0:0:0:0:
408,307,152254,2,0,P|361:275|315:277,1,80,0|0,0:0|0:0,0:0:0:0:
180,55,152587,6,0,P|227:87|273:85,1,80,8|0,0:0|0:0,0:0:0:0:
283,81,152837,1,0,0:0:0:0:
283,81,152920,1,0,0:0:0:0:
436,217,153087,1,0,0:0:0:0:
196,188,153254,1,8,0:0:0:0:
256,380,153420,1,0,0:0:0:0:
100,230,153587,2,0,P|91:182|103:144,1,80,0|0,0:0|0:0,0:0:0:0:
319,274,153920,6,0,L|226:288,1,80,8|0,0:0|0:0,0:0:0:0:
206,290,154170,1,0,0:0:0:0:
206,290,154254,1,0,0:0:0:0:
309,133,154420,1,0,0:0:0:0:
456,332,154587,2,0,P|468:282|461:248,1,80,8|0,0:0|0:0,0:0:0:0:
186,97,154920,1,0,0:0:0:0:
412,148,155087,1,0,0:0:0:0:
126,183,155254,1,8,0:0:0:0:
337,57,155420,5,0,0:0:0:0:
337,57,155504,1,0,0:0:0:0:
337,57,155587,1,0,0:0:0:0:
266,297,155754,1,0,0:0:0:0:
248,24,155920,1,8,0:0:0:0:
351,264,156087,1,0,0:0:0:0:
189,93,156254,5,0,0:0:0:0:
431,213,156420,1,0,0:0:0:0:
186,370,156587,1,8,0:0:0:0:
304,165,156754,5,0,0:0:0:0:
288,111,156837,1,0,0:0:0:0:
303,57,156920,2,0,P|349:53|402:65,1,80,4|0,0:0|0:0,0:0:0:0:
209,215,157254,2,0,P|163:219|110:207,1,80,8|0,0:0|0:0,0:0:0:0:
372,358,157587,2,0,P|418:354|471:366,1,80,0|0,0:0|0:0,0:0:0:0:
104,287,157920,6,0,P|98:238|116:201,1,80,8|0,0:0|0:0,0:0:0:0:
127,180,158170,1,0,0:0:0:0:
127,180,158254,1,0,0:0:0:0:
492,156,158420,1,0,0:0:0:0:
298,0,158587,1,8,0:0:0:0:
322,337,158753,1,0,0:0:0:0:
298,0,158920,2,0,L|290:97,1,80,0|0,0:0|0:0,0:0:0:0:
322,337,159254,6,0,L|328:257,1,80,8|0,0:0|0:0,0:0:0:0:
332,225,159504,1,0,0:0:0:0:
332,225,159587,1,0,0:0:0:0:
127,180,159754,1,0,0:0:0:0:
429,105,159920,1,8,0:0:0:0:
174,97,160087,5,0,0:0:0:0:
174,97,160170,1,0,0:0:0:0:
174,97,160254,1,0,0:0:0:0:
466,193,160420,1,0,0:0:0:0:
173,258,160587,1,8,0:0:0:0:
409,52,160754,5,0,0:0:0:0:
409,52,160837,1,0,0:0:0:0:
409,52,160920,1,0,0:0:0:0:
381,363,161087,1,0,0:0:0:0:
293,39,161254,1,8,0:0:0:0:
257,359,161420,1,0,0:0:0:0:
466,193,161587,5,0,0:0:0:0:
247,372,161754,1,0,0:0:0:0:
142,125,161920,1,8,0:0:0:0:
25,318,162087,5,0,0:0:0:0:
25,318,162170,1,0,0:0:0:0:
25,318,162254,2,0,P|75:318|114:299,1,80,4|0,0:0|0:0,0:0:0:0:
283,212,162587,2,0,P|233:212|194:231,1,80,8|0,0:0|0:0,0:0:0:0:
404,142,162920,2,0,P|454:142|493:123,1,80,0|0,0:0|0:0,0:0:0:0:
283,212,163254,2,0,P|233:212|194:231,1,80,8|0,0:0|0:0,0:0:0:0:
138,280,163504,5,0,0:0:0:0:
138,280,163587,2,0,L|214:273,1,60,4|0,0:0|0:0,0:0:0:0:
282,315,163920,6,0,L|358:308,1,60,12|0,0:0|0:0,0:0:0:0:
425,343,164254,6,0,L|501:333,1,60,4|0,0:0|0:0,0:0:0:0:
459,236,164587,5,8,0:0:0:0:
491,190,164670,1,0,0:0:0:0:
498,134,164754,1,0,0:0:0:0:
486,79,164837,1,0,0:0:0:0:
457,31,164920,6,0,P|458:86|477:115,1,80,4|0,0:0|0:0,0:0:0:0:
301,274,165254,2,0,P|300:219|281:190,1,80,8|0,0:0|0:0,0:0:0:0:
256,171,165504,1,0,0:0:0:0:
256,171,165587,1,0,0:0:0:0:
127,361,165754,1,0,0:0:0:0:
436,268,165920,1,8,0:0:0:0:
210,257,166087,5,0,0:0:0:0:
210,257,166170,1,0,0:0:0:0:
210,257,166254,2,0,L|224:353,1,80,0|0,0:0|0:0,0:0:0:0:
300,39,166587,1,8,0:0:0:0:
353,133,166754,2,0,P|307:148|259:140,1,80,0|0,0:0|0:0,0:0:0:0:
119,187,167004,1,0,0:0:0:0:
119,187,167087,2,0,L|168:184,1,40,0|0,0:0|0:0,0:0:0:0:
295,293,167254,2,0,L|249:291,1,40,8|0,0:0|0:0,0:0:0:0:
69,352,167420,2,0,L|118:349,1,40,0|0,0:0|0:0,0:0:0:0:
359,356,167587,6,0,P|386:314|371:244,1,120,4|0,0:0|0:0,0:0:0:0:
351,213,167920,1,8,0:0:0:0:
153,28,168087,6,0,P|126:70|141:140,1,120,0|0,0:0|0:0,0:0:0:0:
161,171,168420,1,0,0:0:0:0:
359,356,168587,6,0,P|386:314|371:244,1,120,8|0,0:0|0:0,0:0:0:0:
351,213,168920,1,0,0:0:0:0:
151,325,169087,1,0,0:0:0:0:
45,148,169254,1,8,0:0:0:0:
242,29,169420,2,0,B|300:51|300:51|313:105|274:155,1,160,4|0,0:0|0:0,0:0:0:0:
157,102,169920,5,8,0:0:0:0:
154,158,170004,1,0,0:0:0:0:
152,213,170087,1,0,0:0:0:0:
151,268,170170,1,0,0:0:0:0:
149,324,170254,6,0,L|86:322,1,47.9999985351563,4|0,0:0|0:0,0:0:0:0:
243,260,170420,6,0,B|287:252|287:252|314:279|351:283|351:283|358:323,1,143.999995605469,4|0,0:0|0:0,0:0:0:0:
466,224,170754,6,0,B|422:232|422:232|395:205|358:201|358:201|351:161,1,143.999995605469,4|0,0:0|0:0,0:0:0:0:
319,85,171087,6,0,B|363:77|363:77|390:104|427:108|427:108|434:148,1,143.999995605469,4|0,0:0|0:0,0:0:0:0:
158,179,171420,6,0,P|137:177|176:114,1,143.999995605469,4|0,0:0|0:0,0:0:0:0:
217,319,171754,6,0,L|158:326,1,47.9999985351563,0|0,0:0|0:0,0:0:0:0:
371,223,171920,6,0,L|299:217,1,55.9999982910157,8|0,0:0|0:0,0:0:0:0:
487,331,172087,6,0,L|403:339,1,64,0|0,0:0|0:0,0:0:0:0:
411,324,172920,6,0,P|477:283|310:261,1,450.000017166138,0|0,0:0|0:0,0:0:0:0:
399,227,174254,5,4,0:0:0:0:
150,186,174420,1,0,0:0:0:0:
399,227,174587,1,8,0:0:0:0:
150,186,174754,2,0,L|330:160,1,160,4|0,0:0|0:0,0:0:0:0:
409,324,175254,1,8,0:0:0:0:
478,65,175420,2,0,B|409:31|409:31|319:42,1,160,4|0,0:0|0:0,0:0:0:0:
498,212,175920,1,8,0:0:0:0:
188,333,176087,2,0,B|105:343|105:343|36:309,1,160,4|0,0:0|0:0,0:0:0:0:
302,146,176587,2,0,P|321:178|252:197,1,120,8|0,0:0|0:0,0:0:0:0:
218,147,176920,5,4,0:0:0:0:
286,353,177087,1,0,0:0:0:0:
262,71,177253,1,8,0:0:0:0:
234,293,177420,1,0,0:0:0:0:
218,147,177586,5,0,0:0:0:0:
26,262,177753,1,0,0:0:0:0:
309,231,177920,1,8,0:0:0:0:
76,182,178086,2,0,P|49:239|107:284,1,120,0|0,0:0|0:0,0:0:0:0:
115,292,178420,1,0,0:0:0:0:
187,73,178586,1,8,0:0:0:0:
203,335,178753,1,0,0:0:0:0:
203,335,178836,1,0,0:0:0:0:
203,335,178920,1,0,0:0:0:0:
187,73,179086,6,0,B|166:115|166:115|184:244,1,160,0|0,0:0|0:0,0:0:0:0:
395,209,179503,1,0,0:0:0:0:
432,126,179586,2,0,P|376:123|337:134,1,80,0|0,0:0|0:0,0:0:0:0:
124,338,179920,2,0,P|180:341|219:330,1,80,8|0,0:0|0:0,0:0:0:0:
467,278,180253,2,0,P|421:248|381:238,1,80,0|0,0:0|0:0,0:0:0:0:
86,192,180586,2,0,P|133:223|173:233,1,80,8|0,0:0|0:0,0:0:0:0:
351,101,180920,5,0,0:0:0:0:
260,218,181086,1,0,0:0:0:0:
260,218,181170,1,0,0:0:0:0:
260,218,181253,1,8,0:0:0:0:
164,54,181420,1,0,0:0:0:0:
164,54,181503,1,0,0:0:0:0:
164,54,181586,1,0,0:0:0:0:
425,42,181753,1,0,0:0:0:0:
206,136,181920,1,8,0:0:0:0:
363,285,182086,5,0,0:0:0:0:
363,285,182170,1,0,0:0:0:0:
363,285,182253,2,0,P|370:225|361:193,1,80,0|0,0:0|0:0,0:0:0:0:
120,84,182586,2,0,P|113:144|122:176,1,80,8|0,0:0|0:0,0:0:0:0:
463,171,182920,2,0,P|440:116|416:93,1,80,0|0,0:0|0:0,0:0:0:0:
19,176,183253,2,0,P|43:232|67:255,1,80,8|0,0:0|0:0,0:0:0:0:
244,45,183586,5,0,0:0:0:0:
306,191,183753,1,0,0:0:0:0:
306,191,183836,1,0,0:0:0:0:
306,191,183920,1,8,0:0:0:0:
153,305,184086,1,0,0:0:0:0:
153,305,184170,1,0,0:0:0:0:
153,305,184253,5,0,0:0:0:0:
138,253,184336,1,0,0:0:0:0:
159,201,184420,1,0,0:0:0:0:
201,164,184503,1,0,0:0:0:0:
256,154,184587,2,0,L|317:169,1,40,8|0,0:0|0:0,0:0:0:0:
353,279,184754,2,0,L|409:273,1,40,0|0,0:0|0:0,0:0:0:0:
444,119,184920,5,0,0:0:0:0:
253,257,185087,1,0,0:0:0:0:
47,52,185254,1,8,0:0:0:0:
99,71,185337,1,0,0:0:0:0:
154,75,185420,1,0,0:0:0:0:
210,72,185504,1,0,0:0:0:0:
264,59,185587,2,0,L|300:18,1,40,0|0,0:0|0:0,0:0:0:0:
362,145,185754,2,0,L|335:175,1,40,0|0,0:0|0:0,0:0:0:0:
101,303,185920,5,8,0:0:0:0:
119,249,186004,1,0,0:0:0:0:
169,226,186087,1,0,0:0:0:0:
224,230,186170,1,0,0:0:0:0:
269,263,186254,1,0,0:0:0:0:
308,302,186337,1,0,0:0:0:0:
363,304,186420,1,0,0:0:0:0:
410,274,186504,1,0,0:0:0:0:
432,223,186587,6,0,L|423:163,1,40,8|0,0:0|0:0,0:0:0:0:
330,65,186754,2,0,L|322:121,1,40,0|0,0:0|0:0,0:0:0:0:
194,328,186920,1,0,0:0:0:0:
185,24,187087,6,0,B|146:40|146:40|133:72|133:72|145:111|181:109|181:109|202:135,1,160,0|0,0:0|0:0,0:0:0:0:
182,202,187503,5,0,0:0:0:0:
182,202,187587,1,4,0:0:0:0:
410,185,187837,1,4,0:0:0:0:
60,318,188087,1,4,0:0:0:0:
494,165,188254,5,4,0:0:0:0:
101,237,188504,1,4,0:0:0:0:
435,101,188754,1,4,0:0:0:0:
18,235,188920,5,4,0:0:0:0:
494,165,189170,1,4,0:0:0:0:
60,318,189420,1,4,0:0:0:0:
256,192,189587,12,0,190420,0:0:0:0:
