osu file format v14

[General]
AudioFilename: audio.mp3
AudioLeadIn: 0
PreviewTime: 48682
Countdown: 0
SampleSet: Soft
StackLeniency: 0.3
Mode: 0
LetterboxInBreaks: 0
WidescreenStoryboard: 0

[Editor]
DistanceSpacing: 0.9
BeatDivisor: 4
GridSize: 32
TimelineZoom: 1.9

[Metadata]
Title:Magical Girl*Conflict
TitleUnicode:Magical Girl☆Conflict
Artist:Matsushita
ArtistUnicode:松下
Creator:Petal
Version:Garden's Expert
Source:宿星のガールフレンド
Tags:OP opening eroge japanese pop visual novel mirai soft the destiny star of girlfriend theme キノシタ garden affirmation AF neoskylove captain yasaija 714 seolv [_L_u_k_a_s_] matha video game shukusei no girlfriend
BeatmapID:2454772
BeatmapSetID:1176951

[Difficulty]
HPDrainRate:6
CircleSize:3
OverallDifficulty:8.3
ApproachRate:9.3
SliderMultiplier:0.999999999999999
SliderTickRate:1

[Events]
//Background and Video events
0,0,"Want to.jpg",0,0
//Break Periods
//Storyboard Layer 0 (Background)
//Storyboard Layer 1 (Fail)
//Storyboard Layer 2 (Pass)
//Storyboard Layer 3 (Foreground)
//Storyboard Layer 4 (Overlay)
//Storyboard Sound Samples

[TimingPoints]
1889,217.391304347826,4,2,1,50,1,0
3193,-100,4,2,1,65,0,0
3628,-55.5555555555556,4,2,1,80,0,0
8138,-55.5555555555556,4,2,1,10,0,0
8193,-55.5555555555556,4,2,1,80,0,0
9008,-55.5555555555556,4,2,1,10,0,0
9062,-55.5555555555556,4,2,1,80,0,0
9443,-55.5555555555556,4,2,1,10,0,0
9497,-55.5555555555556,4,2,1,80,0,0
16671,-111.111111111111,4,2,1,80,0,0
17541,-100,4,2,1,65,0,0
20149,-83.3333333333333,4,2,1,65,0,0
20475,-62.5,4,2,1,65,0,0
21019,-55.5555555555556,4,2,1,80,0,0
22921,-55.5555555555556,4,2,1,10,0,0
22975,-55.5555555555556,4,2,1,80,0,0
23356,-55.5555555555556,4,2,1,10,0,0
23410,-55.5555555555556,4,2,1,80,0,0
24497,-100,4,2,1,80,0,0
24552,-100,4,2,1,5,0,0
25258,-100,4,2,1,40,0,0
25367,-55.5555555555556,4,2,1,80,0,0
26671,-66.6666666666667,4,2,1,80,0,0
27106,-83.3333333333333,4,2,1,80,0,0
27975,-55.5555555555556,4,2,1,80,0,0
28573,-55.5555555555556,4,2,1,10,0,0
28628,-55.5555555555556,4,2,1,80,0,0
29008,-55.5555555555556,4,2,1,10,0,0
29062,-55.5555555555556,4,2,1,80,0,0
31019,-83.3333333333333,4,2,1,80,0,0
31454,-83.3333333333333,4,2,1,60,0,0
41454,-55.5555555555556,4,2,1,70,0,0
48845,-50,4,2,1,80,0,1
48899,-50,4,2,1,80,0,0
54225,-50,4,2,1,10,0,0
54280,-50,4,2,1,80,0,0
54660,-50,4,2,1,10,0,0
54715,-50,4,2,1,80,0,0
56182,-50,4,2,1,10,0,0
56236,-50,4,2,1,80,0,0
58573,-50,4,2,1,10,0,0
58628,-50,4,2,1,80,0,0
59008,-50,4,2,1,10,0,0
59062,-50,4,2,1,80,0,0
66617,-50,4,2,1,10,0,0
66671,-50,4,2,1,80,0,0
69715,-100,4,2,1,80,0,0
73193,-55.5555555555556,4,2,1,80,0,1
73247,-55.5555555555556,4,2,1,80,0,0

[Colours]
Combo1 : 255,174,174
Combo2 : 255,211,168
Combo3 : 255,181,255
Combo4 : 255,255,162

[HitObjects]
76,97,1889,5,4,0:0:0:0:
76,97,2323,1,4,0:0:0:0:
76,97,2758,5,4,0:0:0:0:
76,97,2975,1,4,0:0:0:0:
76,97,3193,5,0,1:0:0:0:
106,57,3302,1,0,1:0:0:0:
153,42,3410,1,0,1:0:0:0:
202,50,3519,1,4,3:0:0:0:
242,77,3628,6,0,P|335:84|394:26,1,179.999994506836,6|0,3:2|1:0,0:0:0:0:
512,173,3954,2,0,P|480:167|412:160,1,89.999997253418,2|4,0:0|3:0,0:0:0:0:
312,328,4171,2,0,B|357:294|355:245|355:245|315:218|316:174,1,179.999994506836,4|0,3:0|0:0,0:0:0:0:
73,318,4497,6,0,P|137:259|223:273,1,179.999994506836,4|0,3:0|1:0,0:0:0:0:
315,176,4823,2,0,P|270:170|226:159,1,89.999997253418,4|0,3:0|0:0,0:0:0:0:
88,18,5041,2,0,B|137:43|146:91|146:91|113:117|115:166,1,179.999994506836,4|0,3:0|0:0,0:0:0:0:
204,360,5367,6,0,P|211:315|223:272,1,89.999997253418,4|0,3:0|0:0,0:0:0:0:
406,148,5584,2,0,P|394:191|386:235,1,89.999997253418,0|0,1:0|0:0,0:0:0:0:
95,252,5802,2,0,P|102:207|114:164,1,89.999997253418,4|0,3:0|0:0,0:0:0:0:
297,40,6019,2,0,P|285:83|277:127,1,89.999997253418,0|0,1:0|0:0,0:0:0:0:
321,324,6236,6,0,B|361:298|399:272|435:278|435:278|457:317|492:312,1,179.999994506836,4|0,3:0|1:0,0:0:0:0:
260,235,6562,2,0,B|202:271|202:271|157:281|94:251,1,179.999994506836,4|4,3:0|3:0,0:0:0:0:
161,53,6888,1,0,1:0:0:0:
161,53,6997,1,0,1:0:0:0:
15,159,7106,6,0,P|59:150|103:144,1,89.999997253418,4|0,3:0|0:0,0:0:0:0:
260,235,7323,2,0,P|304:225|348:219,1,89.999997253418,0|0,1:0|0:0,0:0:0:0:
161,53,7541,2,0,P|205:43|249:37,1,89.999997253418,4|0,3:0|0:0,0:0:0:0:
406,129,7758,2,0,P|460:118|504:113,1,89.999997253418,0|0,1:0|0:0,0:0:0:0:
433,345,7975,6,0,P|377:310|375:245,1,134.999995880127,4|0,3:0|0:0,0:0:0:0:
348,218,8193,2,0,P|303:224|259:234,1,89.999997253418,0|0,1:0|0:0,0:0:0:0:
52,306,8410,1,4,3:0:0:0:
52,306,8519,1,4,3:0:0:0:
143,376,8628,2,0,P|151:331|163:288,1,89.999997253418,0|0,1:0|0:0,0:0:0:0:
69,61,8845,6,0,P|120:100|120:166,1,134.999995880127,6|0,3:2|0:0,0:0:0:0:
97,195,9062,2,0,P|52:201|8:211,1,89.999997253418,2|0,1:2|0:0,0:0:0:0:
311,339,9280,2,0,P|259:299|259:233,1,134.999995880127,4|0,1:2|0:0,0:0:0:0:
283,205,9497,2,0,P|327:198|371:188,1,89.999997253418,2|0,1:2|0:0,0:0:0:0:
512,71,9715,5,4,3:0:0:0:
512,71,9823,1,4,3:0:0:0:
424,2,9932,2,0,P|412:45|403:89,1,89.999997253418,2|0,1:2|0:0,0:0:0:0:
512,284,10149,5,4,1:2:0:0:
457,213,10258,1,0,1:0:0:0:
371,187,10367,1,0,1:0:0:0:
283,205,10475,1,0,1:0:0:0:
227,276,10584,6,0,P|182:272|134:257,1,89.999997253418,6|0,3:2|0:0,0:0:0:0:
31,54,10802,1,0,1:0:0:0:
31,54,10910,2,0,P|75:57|118:70,1,89.999997253418,2|4,0:0|3:0,0:0:0:0:
183,162,11128,2,0,P|158:74|221:7,1,179.999994506836,4|0,3:0|0:0,0:0:0:0:
283,205,11454,6,0,P|270:257|265:309,1,89.999997253418,4|0,3:0|0:0,0:0:0:0:
464,384,11671,1,0,1:0:0:0:
464,384,11780,2,0,P|475:340|481:295,1,89.999997253418,4|0,3:0|0:0,0:0:0:0:
201,384,11997,2,0,P|271:331|358:342,1,179.999994506836,4|0,3:0|0:0,0:0:0:0:
476,195,12323,6,0,P|431:188|388:177,1,89.999997253418,4|0,3:0|0:0,0:0:0:0:
210,11,12541,2,0,P|254:17|297:28,1,89.999997253418,0|0,1:0|0:0,0:0:0:0:
278,245,12758,2,0,P|233:238|190:227,1,89.999997253418,4|0,3:0|0:0,0:0:0:0:
12,61,12975,2,0,P|56:67|99:78,1,89.999997253418,0|0,1:0|0:0,0:0:0:0:
146,324,13193,6,0,P|79:270|88:184,1,179.999994506836,4|0,3:0|1:0,0:0:0:0:
220,37,13519,2,0,P|207:77|194:134,1,89.999997253418,4|0,3:0|0:0,0:0:0:0:
278,245,13736,1,4,3:0:0:0:
278,245,13845,2,0,P|288:201|302:158,1,89.999997253418,0|0,1:0|1:0,0:0:0:0:
401,102,14062,5,4,3:0:0:0:
340,331,14280,1,0,1:0:0:0:
111,282,14497,1,4,3:0:0:0:
172,53,14715,1,0,1:0:0:0:
401,102,14932,5,4,3:2:0:0:
340,331,15149,5,0,1:0:0:0:
333,287,15258,1,0,1:0:0:0:
417,243,15367,5,0,1:0:0:0:
424,287,15475,1,0,1:0:0:0:
508,246,15584,5,0,1:0:0:0:
501,202,15693,1,0,1:0:0:0:
508,246,16019,6,0,P|447:183|361:191,1,179.999994506836,6|0,1:0|0:0,0:0:0:0:
335,37,16345,6,0,P|310:120|361:191,1,179.999994506836,6|0,1:0|0:0,0:0:0:0:
240,291,16671,6,0,P|324:270|360:191,1,179.999994506836,6|8,1:0|3:0,0:0:0:0:
47,95,17541,6,0,L|59:198,1,99.9999999999999,4|2,3:2|0:0,0:0:0:0:
193,276,17975,2,0,L|181:176,1,99.9999999999999,4|2,3:0|0:0,0:0:0:0:
239,62,18410,2,0,P|288:56|331:80,1,99.9999999999999,4|2,3:0|0:0,0:0:0:0:
377,162,18736,2,0,P|426:167|469:143,1,99.9999999999999,2|2,0:0|0:0,0:0:0:0:
512,61,19062,1,2,0:0:0:0:
377,162,19280,6,0,L|363:273,1,99.9999999999999,4|2,3:0|0:0,0:0:0:0:
484,384,19715,2,0,L|496:284,1,99.9999999999999,4|2,3:0|0:0,0:0:0:0:
263,339,20149,2,0,P|211:367|153:356,1,119.999996337891,4|4,3:0|3:0,0:0:0:0:
118,276,20475,2,0,L|34:288,1,79.9999999999999,4|0,3:0|1:0,0:0:0:0:
189,218,20693,1,0,1:0:0:0:
203,130,20802,1,0,1:0:0:0:
156,56,20910,1,0,1:0:0:0:
69,34,21019,6,0,P|57:87|51:145,1,89.999997253418,6|2,0:0|0:0,0:0:0:0:
189,218,21236,2,0,B|230:209|230:209|240:214|240:214|275:204,1,89.999997253418,0|0,1:0|0:0,0:0:0:0:
410,38,21454,2,0,B|381:-1|305:16|305:16|286:53|248:56,1,179.999994506836,4|0,3:0|1:0,0:0:0:0:
339,284,21780,6,0,B|325:261|307:237|307:237|329:179|351:116,1,179.999994506836,2|0,0:0|0:0,0:0:0:0:
512,15,22106,2,0,P|498:57|485:104,1,89.999997253418,0|4,1:0|3:0,0:0:0:0:
512,232,22323,1,4,3:0:0:0:
512,232,22432,1,4,3:0:0:0:
512,232,22541,2,0,P|498:274|485:318,1,89.999997253418,0|0,1:0|0:0,0:0:0:0:
226,324,22758,6,0,P|273:278|339:284,1,134.999995880127,4|0,3:0|0:0,0:0:0:0:
367,271,22975,2,0,P|379:227|393:185,1,89.999997253418,0|0,1:0|0:0,0:0:0:0:
328,0,23193,2,0,P|282:46|287:112,1,134.999995880127,4|0,3:0|0:0,0:0:0:0:
264,138,23410,2,0,P|220:125|178:111,1,89.999997253418,0|0,1:0|0:0,0:0:0:0:
23,61,23628,6,0,B|68:72|103:36|103:36|139:-7|195:10,1,179.999994506836,4|0,3:0|1:0,0:0:0:0:
75,165,23954,1,4,3:0:0:0:
75,165,24062,2,0,P|61:217|55:264,1,89.999997253418,4|4,3:0|3:0,0:0:0:0:
242,384,24280,2,0,P|256:332|262:285,1,89.999997253418,4|4,1:3|3:0,0:0:0:0:
175,232,24497,5,6,1:2:0:0:
175,232,25367,6,0,P|260:250|326:190,1,179.999994506836,6|2,1:2|0:0,0:0:0:0:
396,0,25693,2,0,B|446:27|512:38|512:38|500:81|444:69,1,179.999994506836,6|2,1:2|0:0,0:0:0:0:
363,102,26019,2,0,P|319:86|269:74,1,89.999997253418,6|2,1:2|0:0,0:0:0:0:
453,366,26236,6,0,L|438:186,1,179.999994506836,6|0,1:2|1:0,0:0:0:0:
289,225,26562,5,0,1:0:0:0:
289,225,26671,2,0,L|276:75,1,150.000005722046,6|0,1:2|1:0,0:0:0:0:
137,119,26997,5,0,1:0:0:0:
137,119,27106,2,0,L|127:-5,1,119.999996337891,6|0,1:2|1:0,0:0:0:0:
27,185,27432,1,4,1:3:0:0:
30,203,27541,5,0,1:0:0:0:
112,246,27649,1,0,1:0:0:0:
202,231,27758,1,0,1:0:0:0:
267,166,27867,1,0,1:0:0:0:
276,75,27975,2,0,P|323:53|370:41,1,89.999997253418,6|2,1:2|0:0,0:0:0:0:
512,185,28193,2,0,P|465:207|418:219,1,89.999997253418,0|2,1:0|0:0,0:0:0:0:
307,384,28410,6,0,P|348:334|332:271,1,134.999995880127,4|0,3:0|0:0,0:0:0:0:
302,254,28628,2,0,P|308:225|327:155,1,89.999997253418,0|0,1:0|0:0,0:0:0:0:
489,47,28845,2,0,P|439:88|376:72,1,134.999995880127,4|0,3:0|0:0,0:0:0:0:
359,42,29062,2,0,P|330:48|260:67,1,89.999997253418,0|0,1:0|0:0,0:0:0:0:
41,0,29280,5,4,3:0:0:0:
120,40,29388,1,4,3:0:0:0:
157,122,29497,1,0,1:0:0:0:
137,210,29606,1,4,3:0:0:0:
69,269,29715,2,0,P|172:243|265:232,1,179.999994506836,6|0,1:0|0:0,0:0:0:0:
346,224,30041,2,0,P|335:267|328:312,1,89.999997253418,6|0,1:0|0:0,0:0:0:0:
495,89,30367,6,0,P|502:44|512:0,1,89.999997253418,6|0,1:0|0:0,0:0:0:0:
501,193,30584,2,0,B|401:190|443:126|336:128,1,179.999994506836,6|4,1:0|3:0,0:0:0:0:
234,138,30910,1,4,3:0:0:0:
234,138,31019,2,0,P|197:98|213:29,1,119.999996337891,6|0,1:2|0:0,0:0:0:0:
448,320,31454,5,6,1:2:0:0:
448,320,31888,5,0,1:0:0:0:
352,256,32106,1,2,0:0:0:0:
256,320,32323,1,4,3:0:0:0:
256,320,32541,1,4,3:0:0:0:
160,256,32758,5,0,1:0:0:0:
64,320,32975,1,2,0:0:0:0:
256,192,33193,1,4,3:0:0:0:
64,64,33410,1,2,0:0:0:0:
64,64,33628,5,2,1:2:0:0:
64,96,33736,1,2,0:0:0:0:
64,128,33845,1,2,0:0:0:0:
64,160,33954,1,2,0:0:0:0:
64,192,34062,5,4,3:0:0:0:
160,192,34280,1,4,3:0:0:0:
256,192,34497,5,4,0:0:0:0:
256,96,34715,1,2,0:0:0:0:
256,0,34932,5,6,3:2:0:0:
352,0,35149,1,2,0:0:0:0:
352,32,35258,1,2,0:0:0:0:
352,128,35475,1,2,0:0:0:0:
384,128,35584,1,0,0:0:0:0:
416,128,35693,1,2,0:0:0:0:
448,128,35802,5,4,3:0:0:0:
512,224,36019,1,6,3:0:0:0:
448,320,36236,1,0,1:0:0:0:
384,224,36454,1,2,0:0:0:0:
512,224,36671,5,4,3:0:0:0:
320,320,36888,1,2,0:0:0:0:
288,320,36997,1,2,0:0:0:0:
256,320,37106,1,0,1:0:0:0:
160,320,37323,1,2,0:0:0:0:
64,320,37541,5,4,3:0:0:0:
64,288,37649,1,0,1:0:0:0:
64,192,37867,1,4,3:0:0:0:
96,192,37975,1,0,1:0:0:0:
128,192,38084,1,0,1:0:0:0:
160,192,38193,1,0,1:0:0:0:
192,192,38302,1,0,1:0:0:0:
224,192,38410,5,4,3:2:0:0:
352,32,39280,1,4,1:2:0:0:
160,32,40149,5,4,3:2:0:0:
256,96,40584,1,6,3:2:0:0:
352,32,41019,1,2,0:0:0:0:
352,32,41236,1,2,0:0:0:0:
352,32,41454,5,0,1:0:0:0:
435,62,41562,1,0,1:0:0:0:
481,139,41671,1,0,1:0:0:0:
470,228,41780,1,0,1:0:0:0:
402,287,41888,2,0,B|297:291|343:228|235:239,1,179.999994506836,6|0,3:2|1:0,0:0:0:0:
123,209,42215,2,0,P|131:250|138:307,1,89.999997253418,2|4,0:0|3:0,0:0:0:0:
5,179,42432,5,4,3:0:0:0:
50,101,42541,1,0,1:0:0:0:
137,82,42649,1,4,3:0:0:0:
214,127,42758,2,0,P|309:125|365:64,1,179.999994506836,4|0,3:0|1:0,0:0:0:0:
512,194,43084,2,0,P|475:187|422:175,1,89.999997253418,4|0,3:0|0:0,0:0:0:0:
196,321,43302,5,4,3:0:0:0:
275,362,43410,1,0,1:0:0:0:
362,340,43519,1,4,3:0:0:0:
410,264,43628,2,0,P|419:221|424:171,1,89.999997253418,6|0,1:2|0:0,0:0:0:0:
227,38,43845,1,0,1:0:0:0:
227,38,44062,6,0,P|218:81|213:131,1,89.999997253418,4|4,3:0|3:0,0:0:0:0:
436,54,44280,1,0,1:0:0:0:
436,54,44497,6,0,P|399:47|346:35,1,89.999997253418,4|0,3:0|0:0,0:0:0:0:
148,210,44715,2,0,P|221:162|305:184,1,179.999994506836,0|0,1:0|0:0,0:0:0:0:
409,263,45041,1,4,3:0:0:0:
409,263,45149,2,0,P|413:218|422:174,1,89.999997253418,0|0,1:0|0:0,0:0:0:0:
281,384,45367,1,6,1:2:0:0:
281,384,45584,6,0,P|290:339|295:295,1,89.999997253418,0|0,1:0|0:0,0:0:0:0:
204,148,45802,1,4,3:0:0:0:
204,148,45910,1,4,3:0:0:0:
204,148,46019,2,0,P|195:193|191:237,1,89.999997253418,0|4,1:0|3:0,0:0:0:0:
512,64,46236,5,4,3:0:0:0:
449,0,46345,1,0,1:0:0:0:
363,24,46454,1,0,1:0:0:0:
402,173,46562,5,4,3:0:0:0:
489,151,46671,1,0,1:0:0:0:
512,64,46780,1,0,1:0:0:0:
363,24,46888,5,0,1:0:0:0:
340,111,46997,1,0,1:0:0:0:
402,173,47106,1,2,1:0:0:0:
434,94,47323,5,2,1:0:0:0:
434,94,47432,1,2,1:2:0:0:
434,94,47541,1,2,1:0:0:0:
402,173,47758,5,2,1:0:0:0:
340,111,47867,1,0,1:0:0:0:
363,24,47975,1,4,3:0:0:0:
449,0,48084,1,2,1:0:0:0:
512,64,48193,1,2,1:0:0:0:
489,151,48302,1,2,0:1:0:0:
402,173,48410,1,2,1:0:0:0:
402,173,48845,6,0,P|436:216|422:270,1,99.9999999999999,6|2,1:2|0:0,0:0:0:0:
329,384,49062,1,0,1:0:0:0:
329,384,49171,1,2,0:0:0:0:
232,308,49280,2,0,B|272:302|272:302|279:293|279:293|327:283,1,99.9999999999999,4|0,3:0|0:0,0:0:0:0:
496,197,49497,2,0,B|456:191|456:191|449:182|449:182|401:172,1,99.9999999999999,0|0,1:0|0:0,0:0:0:0:
281,7,49715,6,0,B|332:34|316:93|316:93|270:126|277:175,1,200,4|0,3:0|1:0,0:0:0:0:
99,105,50041,2,0,P|134:71|183:68,1,99.9999999999999,2|4,0:0|3:0,0:0:0:0:
401,172,50258,1,4,3:0:0:0:
401,172,50367,2,0,B|393:212|393:212|383:223|383:223|373:266,1,99.9999999999999,0|0,1:0|0:0,0:0:0:0:
230,384,50584,5,4,3:0:0:0:
151,342,50693,1,2,0:0:0:0:
128,254,50802,1,0,1:0:0:0:
172,175,50910,1,2,0:0:0:0:
258,146,51019,2,0,P|268:99|279:33,1,99.9999999999999,4|0,3:0|0:0,0:0:0:0:
24,274,51236,2,0,P|13:322|5:372,1,99.9999999999999,0|0,1:0|0:0,0:0:0:0:
256,263,51454,6,0,B|201:268|172:230|172:230|143:172|60:192,1,200,4|0,3:0|1:0,0:0:0:0:
0,61,51780,2,0,B|55:18|134:34|134:34|142:72|165:81,1,200,2|4,0:0|3:0,0:0:0:0:
355,126,52106,2,0,P|312:131|251:148,1,99.9999999999999,0|2,1:0|0:0,0:0:0:0:
452,67,52323,5,4,3:0:0:0:
452,67,52541,1,0,1:0:0:0:
325,219,52649,2,0,B|336:173|336:173|344:166|344:166|354:125,1,99.9999999999999,2|4,0:0|3:0,0:0:0:0:
503,234,52867,1,4,3:0:0:0:
407,283,52975,2,0,B|396:329|396:329|388:336|388:336|377:376,1,99.9999999999999,0|2,1:0|0:0,0:0:0:0:
125,375,53193,6,0,P|184:300|279:310,1,200,4|0,3:0|1:0,0:0:0:0:
475,360,53519,2,0,L|372:377,1,99.9999999999999,2|4,0:0|3:0,0:0:0:0:
491,250,53736,1,4,3:0:0:0:
491,250,53845,2,0,P|499:205|514:147,1,99.9999999999999,0|0,1:0|0:0,0:0:0:0:
381,0,54062,6,0,B|347:41|347:41|356:88|377:135,1,150,6|0,1:2|0:0,0:0:0:0:
388,163,54280,2,0,P|343:154|281:145,1,99.9999999999999,0|0,1:0|0:0,0:0:0:0:
40,94,54497,2,0,P|88:41|159:53,1,150,4|0,3:0|0:0,0:0:0:0:
190,74,54715,2,0,P|178:122|169:178,1,99.9999999999999,0|0,1:0|0:0,0:0:0:0:
388,193,54932,5,4,3:0:0:0:
294,333,55041,2,0,B|320:270|272:230|272:230|278:195|292:134,1,200,0|4,1:0|3:0,0:0:0:0:
465,0,55367,5,0,1:0:0:0:
507,78,55475,1,0,1:0:0:0:
473,161,55584,1,0,1:0:0:0:
388,193,55693,1,0,1:0:0:0:
289,145,55802,6,0,P|240:132|190:128,1,99.9999999999999,6|2,1:2|0:0,0:0:0:0:
0,7,56019,2,0,P|86:14|114:67,1,150,0|0,1:0|0:0,0:0:0:0:
94,99,56236,2,0,B|87:140|87:140|96:152|96:152|89:194,1,99.9999999999999,4|0,3:0|0:0,0:0:0:0:
265,347,56454,2,0,B|271:304|271:304|262:292|262:292|269:251,1,99.9999999999999,0|0,1:0|0:0,0:0:0:0:
91,298,56671,6,0,B|126:304|159:283|178:249|178:249|232:228|268:250,1,200,4|0,3:0|1:0,0:0:0:0:
409,142,56997,2,0,P|361:154|295:164,1,99.9999999999999,2|4,0:0|3:0,0:0:0:0:
265,347,57215,1,4,3:0:0:0:
265,347,57323,2,0,P|313:335|379:325,1,99.9999999999999,0|0,1:0|0:0,0:0:0:0:
491,219,57541,5,4,3:0:0:0:
510,131,57649,1,2,0:0:0:0:
470,49,57758,1,0,1:0:0:0:
384,21,57867,1,2,0:0:0:0:
300,54,57975,2,0,P|255:65|196:70,1,99.9999999999999,4|0,3:0|0:0,0:0:0:0:
25,94,58193,2,0,B|32:54|32:54|43:43|43:43|51:0,1,99.9999999999999,0|0,1:0|0:0,0:0:0:0:
117,149,58410,6,0,P|101:225|89:314,1,150,6|0,3:2|0:0,0:0:0:0:
91,333,58628,2,0,P|44:345|-1:324,1,99.9999999999999,0|0,1:0|0:0,0:0:0:0:
225,196,58845,2,0,P|303:177|362:215,1,150,4|0,3:0|0:0,0:0:0:0:
386,238,59062,2,0,P|393:188|404:139,1,99.9999999999999,0|0,1:0|0:0,0:0:0:0:
511,361,59280,6,0,B|467:317|393:338|393:338|379:387|310:387,1,200,4|0,3:0|1:0,0:0:0:0:
187,304,59606,2,0,P|235:292|285:284,1,99.9999999999999,2|4,0:0|3:0,0:0:0:0:
501,147,59823,1,2,0:0:0:0:
473,61,59932,1,0,1:0:0:0:
386,36,60041,1,2,0:0:0:0:
306,77,60149,6,0,P|293:125|285:175,1,99.9999999999999,4|0,3:0|0:0,0:0:0:0:
108,283,60367,1,0,1:0:0:0:
108,283,60475,2,0,B|142:237|203:249|203:249|240:293|295:282,1,200,2|4,0:0|3:0,0:0:0:0:
380,197,60802,2,0,B|338:191|338:191|325:180|325:180|284:174,1,99.9999999999999,0|0,1:0|0:0,0:0:0:0:
131,42,61019,5,6,1:2:0:0:
31,384,61236,1,0,1:0:0:0:
207,109,61454,5,4,3:0:0:0:
132,363,61671,1,0,1:0:0:0:
284,174,61888,5,4,3:0:0:0:
258,259,61997,1,0,1:0:0:0:
234,344,62106,1,0,1:0:0:0:
329,327,62215,5,4,3:0:0:0:
342,284,62324,1,0,1:0:0:0:
355,242,62432,1,0,1:0:0:0:
427,294,62541,5,0,1:0:0:0:
419,322,62649,1,0,1:0:0:0:
504,329,62758,5,6,1:2:0:0:
342,284,62975,1,2,0:0:0:0:
207,384,63193,5,0,1:0:0:0:
45,339,63410,1,2,0:0:0:0:
207,384,63628,1,4,3:0:0:0:
45,339,63845,1,2,0:0:0:0:
165,219,64062,5,0,1:0:0:0:
3,174,64280,1,2,0:0:0:0:
45,339,64497,5,4,3:0:0:0:
124,55,64715,1,2,0:0:0:0:
416,30,64932,1,0,1:0:0:0:
337,314,65149,1,2,0:0:0:0:
45,339,65367,5,4,3:0:0:0:
68,252,65475,1,0,1:0:0:0:
92,165,65584,1,4,3:0:0:0:
271,49,65802,5,0,1:0:0:0:
271,49,66019,5,0,1:0:0:0:
264,70,66128,1,0,1:0:0:0:
258,91,66236,2,0,P|307:79|357:76,1,99.9999999999999,6|2,1:2|0:0,0:0:0:0:
512,250,66454,2,0,P|449:203|456:122,1,150,0|0,1:0|0:0,0:0:0:0:
470,108,66671,2,0,B|474:68|474:68|464:50|464:50|469:11,1,99.9999999999999,4|0,3:0|0:0,0:0:0:0:
328,181,66888,2,0,B|324:221|324:221|334:239|334:239|328:277,1,99.9999999999999,0|0,1:0|0:0,0:0:0:0:
63,256,67106,6,0,P|126:183|221:194,1,200,4|0,3:0|1:0,0:0:0:0:
357,79,67432,1,4,3:0:0:0:
357,79,67541,2,0,P|313:82|244:94,1,99.9999999999999,2|4,0:0|3:0,0:0:0:0:
69,31,67758,2,0,P|118:27|168:19,1,99.9999999999999,0|0,1:0|0:0,0:0:0:0:
221,194,67975,5,6,1:2:0:0:
221,194,68193,1,0,1:0:0:0:
328,277,68302,2,0,B|334:239|334:239|324:221|324:221|328:181,1,99.9999999999999,2|4,0:0|3:0,0:0:0:0:
512,90,68519,1,0,1:0:0:0:
405,7,68628,2,0,B|399:45|399:45|409:63|409:63|405:103,1,99.9999999999999,2|4,0:0|3:0,0:0:0:0:
221,194,68845,1,6,1:2:0:0:
221,194,69063,5,4,3:0:0:0:
428,217,69171,1,6,1:2:0:0:
259,292,69388,5,4,3:0:0:0:
368,305,69497,1,0,1:0:0:0:
307,384,69606,5,0,1:0:0:0:
307,384,69715,6,0,B|357:295|286:232|290:279|216:195|270:109,1,300,6|0,1:2|1:0,0:0:0:0:
454,93,70475,1,0,1:0:0:0:
454,93,70584,2,0,P|485:203|371:144,1,300,6|0,1:2|1:0,0:0:0:0:
360,53,71345,1,0,1:0:0:0:
360,53,71671,5,6,1:0:0:0:
152,331,71888,1,6,1:0:0:0:
490,228,72106,1,6,1:0:0:0:
22,156,72323,1,6,1:0:0:0:
256,192,72541,5,4,3:0:0:0:
256,224,72649,1,4,3:0:0:0:
256,160,72758,1,2,1:0:0:0:
