osu file format v14

[General]
AudioFilename: audio.mp3
AudioLeadIn: 0
PreviewTime: 31059
Countdown: 0
SampleSet: Normal
StackLeniency: 0.7
Mode: 1
LetterboxInBreaks: 0
WidescreenStoryboard: 1

[Editor]
DistanceSpacing: 1
BeatDivisor: 4
GridSize: 32
TimelineZoom: 3.799999

[Metadata]
Title:Kuuchuu Bunkai
TitleUnicode:空中分解
Artist:Matsushita
ArtistUnicode:松下
Creator:Shinsekai-
Version:Oni
Source:
Tags:chichinya female vocals solo 歌い手 utaite aerial breakup japanese rock j-rock jrock three surii すりぃ collage 鏡音レン kagamine len vocaloid cover
BeatmapID:2812367
BeatmapSetID:1359139

[Difficulty]
HPDrainRate:5
CircleSize:5
OverallDifficulty:5
ApproachRate:5
SliderMultiplier:1.4
SliderTickRate:1

[Events]
//Background and Video events
0,0,"bg.jpg",0,90
//Break Periods
//Storyboard Layer 0 (Background)
//Storyboard Layer 1 (Fail)
//Storyboard Layer 2 (Pass)
//Storyboard Layer 3 (Foreground)
//Storyboard Layer 4 (Overlay)
//Storyboard Sound Samples

[TimingPoints]
478,300,4,1,0,80,1,0
31678,-100,4,1,0,80,0,1
38878,-100,4,1,0,80,0,0
41278,-100,4,1,0,80,0,1
48478,-100,4,1,0,80,0,0

[HitObjects]
256,192,478,5,0,0:0:0:0:
256,192,703,1,0,0:0:0:0:
256,192,928,1,0,0:0:0:0:
256,192,1078,1,0,0:0:0:0:
256,192,1378,1,12,0:0:0:0:
256,192,1678,1,0,0:0:0:0:
256,192,1753,1,0,0:0:0:0:
256,192,1828,1,0,0:0:0:0:
256,192,1978,1,8,0:0:0:0:
256,192,2128,1,0,0:0:0:0:
256,192,2278,1,8,0:0:0:0:
256,192,2428,1,0,0:0:0:0:
256,192,2728,1,8,0:0:0:0:
256,192,2803,1,8,0:0:0:0:
256,192,2878,1,8,0:0:0:0:
256,192,3028,1,0,0:0:0:0:
256,192,3178,1,8,0:0:0:0:
256,192,3328,1,0,0:0:0:0:
256,192,3478,1,8,0:0:0:0:
256,192,3628,1,8,0:0:0:0:
256,192,3778,1,0,0:0:0:0:
256,192,3853,1,0,0:0:0:0:
256,192,3928,1,0,0:0:0:0:
256,192,4078,1,8,0:0:0:0:
256,192,4153,1,8,0:0:0:0:
256,192,4228,1,8,0:0:0:0:
256,192,4378,1,8,0:0:0:0:
256,192,4528,1,8,0:0:0:0:
256,192,4678,1,0,0:0:0:0:
256,192,4753,1,0,0:0:0:0:
256,192,4828,1,0,0:0:0:0:
256,192,5128,1,8,0:0:0:0:
256,192,5203,1,8,0:0:0:0:
256,192,5278,1,0,0:0:0:0:
256,192,5428,1,8,0:0:0:0:
256,192,5578,1,0,0:0:0:0:
256,192,5728,1,0,0:0:0:0:
256,192,5878,1,8,0:0:0:0:
256,192,5953,1,8,0:0:0:0:
256,192,6028,1,0,0:0:0:0:
256,192,6178,1,12,0:0:0:0:
256,192,6478,1,4,0:0:0:0:
256,192,6778,1,8,0:0:0:0:
256,192,6928,1,8,0:0:0:0:
256,192,7078,1,0,0:0:0:0:
256,192,7153,1,0,0:0:0:0:
256,192,7228,1,0,0:0:0:0:
256,192,7528,1,8,0:0:0:0:
256,192,7678,1,0,0:0:0:0:
256,192,7753,1,0,0:0:0:0:
256,192,7828,1,0,0:0:0:0:
256,192,7978,1,8,0:0:0:0:
256,192,8128,1,8,0:0:0:0:
256,192,8203,1,8,0:0:0:0:
256,192,8278,1,8,0:0:0:0:
256,192,8428,1,0,0:0:0:0:
256,192,8578,1,8,0:0:0:0:
256,192,8728,1,8,0:0:0:0:
256,192,8878,1,4,0:0:0:0:
256,192,9178,1,0,0:0:0:0:
256,192,9328,1,8,0:0:0:0:
256,192,9478,1,0,0:0:0:0:
256,192,9628,1,8,0:0:0:0:
256,192,9928,1,0,0:0:0:0:
256,192,10003,1,0,0:0:0:0:
256,192,10078,1,8,0:0:0:0:
256,192,10228,1,0,0:0:0:0:
256,192,10378,1,8,0:0:0:0:
256,192,10528,1,0,0:0:0:0:
256,192,10603,1,0,0:0:0:0:
256,192,10678,1,8,0:0:0:0:
256,192,10828,1,0,0:0:0:0:
256,192,10978,1,8,0:0:0:0:
256,192,11053,1,8,0:0:0:0:
256,192,11128,1,8,0:0:0:0:
256,192,11278,1,4,0:0:0:0:
256,192,11578,1,8,0:0:0:0:
256,192,12178,1,8,0:0:0:0:
256,192,12778,1,8,0:0:0:0:
256,192,13378,1,8,0:0:0:0:
256,192,13978,1,8,0:0:0:0:
256,192,14578,1,8,0:0:0:0:
256,192,15178,1,8,0:0:0:0:
256,192,15478,1,0,0:0:0:0:
256,192,15628,1,12,0:0:0:0:
256,192,15778,1,12,0:0:0:0:
256,192,15928,1,4,0:0:0:0:
256,192,16078,1,12,0:0:0:0:
256,192,16378,1,8,0:0:0:0:
256,192,16528,1,8,0:0:0:0:
256,192,16678,1,0,0:0:0:0:
256,192,16828,1,8,0:0:0:0:
256,192,16978,1,8,0:0:0:0:
256,192,17278,1,0,0:0:0:0:
256,192,17428,1,0,0:0:0:0:
256,192,17578,1,8,0:0:0:0:
256,192,17728,1,8,0:0:0:0:
248,193,17878,1,0,0:0:0:0:
256,192,18028,1,8,0:0:0:0:
256,192,18103,1,8,0:0:0:0:
256,192,18178,1,8,0:0:0:0:
256,192,18328,1,8,0:0:0:0:
256,192,18478,1,0,0:0:0:0:
256,192,18778,1,8,0:0:0:0:
256,192,18928,1,8,0:0:0:0:
256,192,19078,1,0,0:0:0:0:
256,192,19228,1,8,0:0:0:0:
256,192,19378,1,8,0:0:0:0:
256,192,19678,1,0,0:0:0:0:
256,192,19828,1,0,0:0:0:0:
256,192,19978,1,8,0:0:0:0:
256,192,20128,1,8,0:0:0:0:
256,192,20278,1,0,0:0:0:0:
256,192,20428,1,12,0:0:0:0:
256,192,20578,1,12,0:0:0:0:
256,192,20728,1,12,0:0:0:0:
256,192,20878,1,4,0:0:0:0:
256,192,21178,1,8,0:0:0:0:
256,192,21328,1,0,0:0:0:0:
256,192,21478,1,8,0:0:0:0:
256,192,21628,1,0,0:0:0:0:
256,192,21928,1,0,0:0:0:0:
256,192,22003,1,0,0:0:0:0:
256,192,22078,1,8,0:0:0:0:
256,192,22228,1,8,0:0:0:0:
256,192,22378,1,0,0:0:0:0:
256,192,22528,1,8,0:0:0:0:
256,192,22828,1,8,0:0:0:0:
256,192,22978,1,8,0:0:0:0:
256,192,23128,1,0,0:0:0:0:
256,192,23278,1,8,0:0:0:0:
256,192,23578,1,8,0:0:0:0:
256,192,23878,1,0,0:0:0:0:
256,192,24028,1,0,0:0:0:0:
256,192,24103,1,0,0:0:0:0:
256,192,24178,1,8,0:0:0:0:
256,192,24328,1,8,0:0:0:0:
256,192,24478,1,0,0:0:0:0:
256,192,24628,1,8,0:0:0:0:
256,192,24703,1,0,0:0:0:0:
256,192,24778,1,8,0:0:0:0:
256,192,24928,1,0,0:0:0:0:
256,192,25228,1,0,0:0:0:0:
256,192,25378,1,8,0:0:0:0:
256,192,25528,1,0,0:0:0:0:
256,192,25678,1,12,0:0:0:0:
256,192,25978,1,8,0:0:0:0:
256,192,26278,1,0,0:0:0:0:
256,192,26428,1,8,0:0:0:0:
256,192,26578,1,0,0:0:0:0:
256,192,26728,1,8,0:0:0:0:
256,192,26878,1,0,0:0:0:0:
256,192,26953,1,0,0:0:0:0:
256,192,27028,1,0,0:0:0:0:
256,192,27178,1,8,0:0:0:0:
256,192,27328,1,8,0:0:0:0:
256,192,27628,1,0,0:0:0:0:
256,192,27778,1,8,0:0:0:0:
256,192,27928,1,0,0:0:0:0:
256,192,28078,1,12,0:0:0:0:
256,192,28378,1,8,0:0:0:0:
256,192,28678,1,0,0:0:0:0:
256,192,28828,1,0,0:0:0:0:
256,192,28978,1,8,0:0:0:0:
256,192,29128,1,8,0:0:0:0:
256,192,29278,1,0,0:0:0:0:
256,192,29353,1,8,0:0:0:0:
256,192,29428,1,0,0:0:0:0:
256,192,29578,1,8,0:0:0:0:
256,192,29728,1,0,0:0:0:0:
256,192,29878,1,8,0:0:0:0:
256,192,30028,1,8,0:0:0:0:
256,192,30103,1,8,0:0:0:0:
256,192,30178,1,0,0:0:0:0:
256,192,30328,1,8,0:0:0:0:
256,192,30478,1,0,0:0:0:0:
256,192,31078,1,0,0:0:0:0:
256,192,31303,1,0,0:0:0:0:
256,192,31528,1,0,0:0:0:0:
256,192,31678,1,12,0:0:0:0:
256,192,31978,1,12,0:0:0:0:
256,192,32278,1,12,0:0:0:0:
256,192,32428,1,0,0:0:0:0:
256,192,32578,1,8,0:0:0:0:
256,192,32653,1,8,0:0:0:0:
256,192,32728,1,0,0:0:0:0:
256,192,32878,1,0,0:0:0:0:
256,192,33028,1,8,0:0:0:0:
256,192,33178,1,0,0:0:0:0:
256,192,33328,1,8,0:0:0:0:
256,192,33628,1,0,0:0:0:0:
256,192,33703,1,0,0:0:0:0:
256,192,33778,1,8,0:0:0:0:
256,192,33928,1,0,0:0:0:0:
256,192,34078,1,8,0:0:0:0:
256,192,34378,1,0,0:0:0:0:
256,192,34528,1,0,0:0:0:0:
256,192,34678,1,8,0:0:0:0:
256,192,34753,1,0,0:0:0:0:
256,192,34828,1,8,0:0:0:0:
256,192,34978,1,0,0:0:0:0:
256,192,35128,1,8,0:0:0:0:
256,192,35428,1,0,0:0:0:0:
256,192,35578,1,0,0:0:0:0:
256,192,35728,1,8,0:0:0:0:
256,192,36028,1,0,0:0:0:0:
256,192,36103,1,0,0:0:0:0:
256,192,36178,1,0,0:0:0:0:
256,192,36328,1,0,0:0:0:0:
256,192,36478,1,12,0:0:0:0:
256,192,36778,1,12,0:0:0:0:
256,192,37078,1,12,0:0:0:0:
256,192,37228,1,0,0:0:0:0:
256,192,37303,1,0,0:0:0:0:
256,192,37378,1,8,0:0:0:0:
256,192,37528,1,8,0:0:0:0:
256,192,37678,1,0,0:0:0:0:
256,192,37828,1,8,0:0:0:0:
256,192,37978,1,0,0:0:0:0:
256,192,38128,1,8,0:0:0:0:
256,192,38428,1,8,0:0:0:0:
256,192,38503,1,8,0:0:0:0:
256,192,38578,1,0,0:0:0:0:
256,192,38728,1,0,0:0:0:0:
256,192,38878,1,12,0:0:0:0:
256,192,39178,1,0,0:0:0:0:
256,192,39328,1,12,0:0:0:0:
256,192,39628,1,12,0:0:0:0:
256,192,39928,1,4,0:0:0:0:
256,192,40228,1,0,0:0:0:0:
256,192,40378,1,0,0:0:0:0:
256,192,40528,1,8,0:0:0:0:
256,192,40603,1,8,0:0:0:0:
256,192,40678,1,0,0:0:0:0:
256,192,40828,1,8,0:0:0:0:
256,192,40903,1,8,0:0:0:0:
256,192,40978,1,0,0:0:0:0:
256,192,41128,1,0,0:0:0:0:
256,192,41278,1,12,0:0:0:0:
256,192,41578,1,12,0:0:0:0:
256,192,41878,1,12,0:0:0:0:
256,192,42178,1,0,0:0:0:0:
256,192,42328,1,8,0:0:0:0:
256,192,42478,1,8,0:0:0:0:
256,192,42628,1,0,0:0:0:0:
256,192,42703,1,0,0:0:0:0:
256,192,42778,1,8,0:0:0:0:
256,192,42928,1,8,0:0:0:0:
256,192,43228,1,0,0:0:0:0:
256,192,43303,1,0,0:0:0:0:
256,192,43378,1,8,0:0:0:0:
256,192,43528,1,0,0:0:0:0:
256,192,43678,1,12,0:0:0:0:
256,192,43978,1,0,0:0:0:0:
256,192,44053,1,0,0:0:0:0:
256,192,44128,1,0,0:0:0:0:
256,192,44278,1,8,0:0:0:0:
256,192,44428,1,0,0:0:0:0:
256,192,44578,1,8,0:0:0:0:
256,192,44728,1,0,0:0:0:0:
256,192,45028,1,0,0:0:0:0:
256,192,45178,1,8,0:0:0:0:
256,192,45328,1,0,0:0:0:0:
256,192,45628,1,8,0:0:0:0:
256,192,45703,1,8,0:0:0:0:
256,192,45778,1,0,0:0:0:0:
256,192,45928,1,8,0:0:0:0:
256,192,46078,1,12,0:0:0:0:
256,192,46378,1,12,0:0:0:0:
256,192,46678,1,12,0:0:0:0:
256,192,46828,1,0,0:0:0:0:
256,192,46978,1,8,0:0:0:0:
256,192,47128,1,0,0:0:0:0:
256,192,47278,1,8,0:0:0:0:
256,192,47353,1,0,0:0:0:0:
256,192,47428,1,8,0:0:0:0:
256,192,47578,1,0,0:0:0:0:
256,192,47728,1,8,0:0:0:0:
256,192,48028,1,8,0:0:0:0:
256,192,48178,1,8,0:0:0:0:
256,192,48328,1,0,0:0:0:0:
256,192,48478,1,12,0:0:0:0:
256,192,48778,1,8,0:0:0:0:
256,192,48928,1,8,0:0:0:0:
256,192,49228,1,8,0:0:0:0:
256,192,49528,1,8,0:0:0:0:
256,192,49678,1,0,0:0:0:0:
256,192,49828,1,8,0:0:0:0:
256,192,49978,1,8,0:0:0:0:
256,192,50128,1,0,0:0:0:0:
256,192,50203,1,0,0:0:0:0:
256,192,50278,1,0,0:0:0:0:
256,192,50428,1,0,0:0:0:0:
256,192,50578,1,8,0:0:0:0:
256,192,50878,1,0,0:0:0:0:
256,192,50953,1,0,0:0:0:0:
256,192,51028,1,8,0:0:0:0:
256,192,51178,1,8,0:0:0:0:
256,192,51328,1,0,0:0:0:0:
256,192,51478,1,8,0:0:0:0:
256,192,51628,1,0,0:0:0:0:
256,192,51928,1,8,0:0:0:0:
256,192,52003,1,8,0:0:0:0:
256,192,52078,1,0,0:0:0:0:
256,192,52228,1,0,0:0:0:0:
256,192,52378,1,8,0:0:0:0:
256,192,52528,1,0,0:0:0:0:
256,192,52678,1,8,0:0:0:0:
256,192,52753,1,0,0:0:0:0:
256,192,52828,1,8,0:0:0:0:
256,192,52978,1,0,0:0:0:0:
256,192,53128,1,0,0:0:0:0:
256,192,53278,1,12,0:0:0:0:
256,192,53578,1,0,0:0:0:0:
256,192,53653,1,0,0:0:0:0:
256,192,53728,1,0,0:0:0:0:
256,192,53878,1,8,0:0:0:0:
256,192,54028,1,0,0:0:0:0:
256,192,54328,1,0,0:0:0:0:
256,192,54403,1,0,0:0:0:0:
256,192,54478,1,8,0:0:0:0:
256,192,54628,1,8,0:0:0:0:
256,192,54778,1,0,0:0:0:0:
256,192,54928,1,0,0:0:0:0:
256,192,55078,1,8,0:0:0:0:
256,192,55153,1,8,0:0:0:0:
256,192,55228,1,0,0:0:0:0:
256,192,55378,1,12,0:0:0:0:
256,192,55678,1,12,0:0:0:0:
256,192,55978,1,0,0:0:0:0:
256,192,56128,1,0,0:0:0:0:
256,192,56203,1,0,0:0:0:0:
256,192,56278,1,0,0:0:0:0:
256,192,56428,1,8,0:0:0:0:
256,192,56728,1,8,0:0:0:0:
256,192,56878,1,0,0:0:0:0:
256,192,57028,1,8,0:0:0:0:
256,192,57103,1,8,0:0:0:0:
256,192,57178,1,0,0:0:0:0:
256,192,57328,1,8,0:0:0:0:
256,192,57478,1,0,0:0:0:0:
256,192,57778,1,0,0:0:0:0:
256,192,57853,1,0,0:0:0:0:
256,192,57928,1,0,0:0:0:0:
256,192,58078,1,12,0:0:0:0:
256,192,58378,1,0,0:0:0:0:
256,192,58528,1,8,0:0:0:0:
256,192,58828,1,8,0:0:0:0:
256,192,59128,1,8,0:0:0:0:
256,192,59278,1,0,0:0:0:0:
256,192,59428,1,8,0:0:0:0:
256,192,59728,1,8,0:0:0:0:
256,192,59803,1,8,0:0:0:0:
256,192,59878,1,8,0:0:0:0:
256,192,60028,1,8,0:0:0:0:
256,192,60178,1,0,0:0:0:0:
256,192,60328,1,8,0:0:0:0:
