osu file format v14

[General]
AudioFilename: audio.mp3
AudioLeadIn: 0
PreviewTime: 31059
Countdown: 0
SampleSet: Normal
StackLeniency: 0.7
Mode: 1
LetterboxInBreaks: 0
WidescreenStoryboard: 1

[Editor]
DistanceSpacing: 1
BeatDivisor: 4
GridSize: 32
TimelineZoom: 2

[Metadata]
Title:Kuuchuu Bunkai
TitleUnicode:空中分解
Artist:Matsushita
ArtistUnicode:松下
Creator:Shinsekai-
Version:Kantan
Source:
Tags:chichinya female vocals solo 歌い手 utaite aerial breakup japanese rock j-rock jrock three surii すりぃ collage 鏡音レン kagamine len vocaloid cover
BeatmapID:2812365
BeatmapSetID:1359139

[Difficulty]
HPDrainRate:8
CircleSize:5
OverallDifficulty:2
ApproachRate:5
SliderMultiplier:1.2
SliderTickRate:1

[Events]
//Background and Video events
0,0,"bg.jpg",0,90
//Break Periods
//Storyboard Layer 0 (Background)
//Storyboard Layer 1 (Fail)
//Storyboard Layer 2 (Pass)
//Storyboard Layer 3 (Foreground)
//Storyboard Layer 4 (Overlay)
//Storyboard Sound Samples

[TimingPoints]
478,300,4,1,0,80,1,0
31678,-100,4,1,0,80,0,1
38878,-100,4,1,0,80,0,0
41278,-100,4,1,0,80,0,1
48478,-100,4,1,0,80,0,0

[HitObjects]
256,192,478,5,0,0:0:0:0:
256,192,1378,1,12,0:0:0:0:
256,192,1678,1,0,0:0:0:0:
256,192,2278,1,0,0:0:0:0:
256,192,2878,1,8,0:0:0:0:
256,192,3478,1,0,0:0:0:0:
256,192,3778,1,0,0:0:0:0:
256,192,4078,1,12,0:0:0:0:
256,192,4678,1,0,0:0:0:0:
256,192,5278,1,0,0:0:0:0:
256,192,6178,1,12,0:0:0:0:
256,192,6478,1,4,0:0:0:0:
256,192,7078,1,8,0:0:0:0:
256,192,7678,1,0,0:0:0:0:
256,192,8278,1,8,0:0:0:0:
256,192,8578,1,8,0:0:0:0:
256,192,8878,1,4,0:0:0:0:
256,192,9478,1,0,0:0:0:0:
256,192,10078,1,8,0:0:0:0:
256,192,10678,1,8,0:0:0:0:
256,192,10978,1,8,0:0:0:0:
256,192,11278,1,4,0:0:0:0:
256,192,12178,1,8,0:0:0:0:
256,192,12778,1,8,0:0:0:0:
256,192,13378,1,8,0:0:0:0:
256,192,13978,1,8,0:0:0:0:
256,192,14578,1,8,0:0:0:0:
256,192,15178,1,8,0:0:0:0:
256,192,15778,1,12,0:0:0:0:
256,192,16078,1,12,0:0:0:0:
256,192,16678,1,0,0:0:0:0:
256,192,17278,1,0,0:0:0:0:
256,192,17578,1,8,0:0:0:0:
256,192,18178,1,8,0:0:0:0:
256,192,18478,1,0,0:0:0:0:
256,192,19678,1,0,0:0:0:0:
256,192,20278,1,0,0:0:0:0:
256,192,20578,1,12,0:0:0:0:
256,192,20878,1,4,0:0:0:0:
256,192,21478,1,8,0:0:0:0:
256,192,22078,1,8,0:0:0:0:
256,192,22528,1,8,0:0:0:0:
256,192,23278,1,8,0:0:0:0:
256,192,23878,1,0,0:0:0:0:
256,192,24178,1,8,0:0:0:0:
256,192,24478,1,0,0:0:0:0:
256,192,25678,1,12,0:0:0:0:
256,192,26278,1,0,0:0:0:0:
256,192,26878,1,0,0:0:0:0:
256,192,27328,1,8,0:0:0:0:
256,192,28078,1,12,0:0:0:0:
256,192,28678,1,0,0:0:0:0:
256,192,29278,1,8,0:0:0:0:
256,192,29578,1,0,0:0:0:0:
256,192,29878,1,0,0:0:0:0:
256,192,30178,1,8,0:0:0:0:
256,192,31078,1,0,0:0:0:0:
256,192,31678,1,12,0:0:0:0:
256,192,31978,1,12,0:0:0:0:
256,192,32278,1,12,0:0:0:0:
256,192,32878,1,0,0:0:0:0:
256,192,33328,1,8,0:0:0:0:
256,192,34078,1,0,0:0:0:0:
256,192,34678,1,8,0:0:0:0:
256,192,35278,1,8,0:0:0:0:
256,192,36478,1,12,0:0:0:0:
256,192,36778,1,12,0:0:0:0:
256,192,37078,1,12,0:0:0:0:
256,192,37678,1,0,0:0:0:0:
256,192,38128,1,0,0:0:0:0:
256,192,38878,1,8,0:0:0:0:
256,192,39328,1,8,0:0:0:0:
256,192,39928,1,4,0:0:0:0:
256,192,41278,1,12,0:0:0:0:
256,192,41578,1,12,0:0:0:0:
256,192,41878,1,12,0:0:0:0:
256,192,42478,1,0,0:0:0:0:
256,192,42928,1,0,0:0:0:0:
256,192,43678,1,12,0:0:0:0:
256,192,44278,1,0,0:0:0:0:
256,192,44878,1,8,0:0:0:0:
256,192,46078,1,12,0:0:0:0:
256,192,46378,1,12,0:0:0:0:
256,192,46678,1,12,0:0:0:0:
256,192,47278,1,0,0:0:0:0:
256,192,47728,1,0,0:0:0:0:
256,192,48178,1,8,0:0:0:0:
256,192,48478,1,12,0:0:0:0:
256,192,50128,1,0,0:0:0:0:
256,192,50578,1,8,0:0:0:0:
256,192,50878,1,4,0:0:0:0:
256,192,51478,1,8,0:0:0:0:
256,192,52078,1,0,0:0:0:0:
256,192,52678,1,8,0:0:0:0:
256,192,52978,1,0,0:0:0:0:
256,192,53278,1,12,0:0:0:0:
256,192,54478,1,8,0:0:0:0:
256,192,55078,1,0,0:0:0:0:
256,192,55378,1,12,0:0:0:0:
256,192,55678,1,12,0:0:0:0:
256,192,56278,1,8,0:0:0:0:
256,192,56878,1,0,0:0:0:0:
256,192,57478,1,0,0:0:0:0:
256,192,58078,1,12,0:0:0:0:
256,192,59278,1,0,0:0:0:0:
256,192,59878,1,8,0:0:0:0:
256,192,60178,1,0,0:0:0:0:
