osu file format v14

[General]
AudioFilename: audio.mp3
AudioLeadIn: 0
PreviewTime: 30844
Countdown: 1
SampleSet: Soft
StackLeniency: 0.6
Mode: 0
LetterboxInBreaks: 0
WidescreenStoryboard: 1

[Editor]
Bookmarks: 1669,11269,16069,20869,25669,31669,48469,50869,57919
DistanceSpacing: 0.85
BeatDivisor: 4
GridSize: 32
TimelineZoom: 1.8

[Metadata]
Title:Kuuchuu Bunkai
TitleUnicode:空中分解
Artist:Matsushita
ArtistUnicode:松下
Creator:Irohas
Version:Normal
Source:
Tags:mugiwarasekai aerial breakup
BeatmapID:1679268
BeatmapSetID:799889

[Difficulty]
HPDrainRate:4
CircleSize:3.5
OverallDifficulty:5
ApproachRate:5
SliderMultiplier:1.1
SliderTickRate:1

[Events]
//Background and Video events
0,0,"bg.jpg",0,0
//Break Periods
2,11459,14409
//Storyboard Layer 0 (Background)
//Storyboard Layer 1 (Fail)
//Storyboard Layer 2 (Pass)
//Storyboard Layer 3 (Foreground)
//Storyboard Sound Samples

[TimingPoints]
459,300,4,2,5,60,1,0
459,-100,4,2,5,60,0,0
1659,-100,4,2,5,60,0,0
6309,-100,4,2,0,60,0,0
6459,-100,4,2,5,60,0,0
10959,-100,4,2,5,60,0,0
15609,-100,4,2,5,60,0,0
15684,-100,4,2,5,5,0,0
15759,-100,4,2,5,60,0,0
15834,-100,4,2,5,5,0,0
15909,-100,4,2,5,60,0,0
15984,-100,4,2,5,5,0,0
16059,-100,4,2,5,60,0,0
16134,-100,4,2,5,5,0,0
16359,-100,4,2,5,60,0,0
16809,-100,4,2,5,60,0,0
17259,-100,4,2,5,60,0,0
18009,-100,4,2,5,60,0,0
20409,-100,4,2,5,60,0,0
20484,-100,4,2,5,5,0,0
20559,-100,4,2,5,60,0,0
20634,-100,4,2,5,5,0,0
20709,-100,4,2,5,60,0,0
20784,-100,4,2,5,5,0,0
20859,-100,4,2,5,60,0,0
23484,-100,4,2,5,5,0,0
23559,-100,4,2,5,60,0,0
25284,-100,4,2,5,5,0,0
25359,-100,4,2,5,60,0,0
25434,-100,4,2,5,5,0,0
25509,-100,4,2,5,60,0,0
25584,-100,4,2,5,5,0,0
25659,-100,4,2,5,60,0,0
28059,-100,4,2,2,60,0,0
30609,-100,4,2,1,25,0,0
31059,-100,4,2,5,60,0,0
31209,-100,4,2,5,5,0,0
31284,-100,4,2,5,60,0,0
31434,-100,4,2,5,5,0,0
31509,-100,4,2,5,60,0,0
31584,-100,4,2,5,5,0,0
31659,-100,4,2,1,85,0,1
31809,-100,4,2,2,70,0,1
32484,-100,4,2,2,5,0,1
32559,-100,4,2,2,70,0,1
38859,-100,4,2,2,70,0,0
39309,-100,4,2,2,70,0,0
39384,-100,4,2,2,5,0,0
39609,-100,4,2,2,70,0,0
39684,-100,4,2,2,5,0,0
39909,-100,4,2,2,70,0,1
40509,-100,4,2,2,70,0,1
41109,-100,4,2,2,70,0,0
41259,-100,4,2,2,70,0,1
44184,-100,4,2,2,5,0,1
44259,-100,4,2,2,70,0,1
48459,-100,4,2,5,60,0,0
50109,-100,4,2,5,60,0,0
50859,-100,4,2,5,60,0,0
56859,-100,4,2,5,60,0,0
57159,-100,4,2,5,60,0,0
57459,-100,4,2,5,60,0,0
57759,-100,4,2,5,60,0,0
58059,-100,4,2,5,60,0,0
59259,-100,4,2,5,60,0,0
59709,-100,4,2,5,60,0,0
60159,-100,4,2,5,60,0,0

[Colours]
Combo1 : 142,186,244
Combo2 : 250,145,99
Combo3 : 255,74,74
Combo4 : 235,235,235
Combo5 : 248,133,162

[HitObjects]
74,128,1659,6,0,P|78:172|86:259,1,110,6|8,3:2|0:0,0:0:0:0:
172,267,2259,2,0,P|177:212|182:157,1,110,0|8,3:0|0:0,0:0:0:0:
212,121,2709,2,0,P|241:92|355:125,1,165,6|8,0:1|0:0,0:0:0:0:
437,149,3459,2,0,P|441:121|445:94,2,55,0|6|8,3:0|0:1|0:0,0:0:0:0:
367,211,4059,6,0,P|340:262|371:320,1,110,4|8,3:2|0:0,0:0:0:0:
280,357,4659,2,0,P|232:351|159:342,1,110,0|8,3:0|0:0,0:0:0:0:
124,334,5109,2,0,B|84:295|84:295|120:181,1,165,6|8,0:1|0:0,0:0:0:0:
205,159,5859,2,0,P|200:131|196:104,1,55,0|6,3:0|0:1,0:0:0:0:
185,61,6159,1,12,0:0:0:0:
273,30,6459,6,0,B|325:10|325:10|384:34,1,110,6|8,3:2|0:0,0:0:0:0:
467,13,7059,2,0,P|462:53|454:140,1,110,0|8,3:0|0:0,0:0:0:0:
412,141,7509,2,0,P|417:181|429:324,1,165,6|8,0:1|0:0,0:0:0:0:
368,377,8259,2,0,P|323:382|291:388,2,55,0|6|8,3:0|0:1|0:0,0:0:0:0:
329,291,8859,6,0,P|293:283|200:263,1,110,4|8,3:2|0:0,0:0:0:0:
181,351,9459,2,0,P|127:361|73:373,1,110,0|8,3:0|0:0,0:0:0:0:
28,358,9909,1,2,0:0:0:0:
23,355,10059,1,8,0:0:0:0:
86,286,10359,1,8,0:0:0:0:
17,222,10659,1,10,0:2:0:0:
96,171,10959,2,8,P|104:128|109:96,1,55
116,71,11259,5,4,3:2:0:0:
388,269,15609,6,8,L|378:340,2,55,10|10|10,0:0|0:0|0:0,0:0:0:0:
375,224,16059,2,0,B|325:202|325:202|254:231,1,110,12|6,0:0|0:1,0:0:0:0:
197,279,16659,1,0,3:0:0:0:
191,282,16809,2,0,P|137:278|57:272,1,110,2|0,0:0|0:0,0:0:0:0:
35,258,17259,2,0,B|6:213|6:213|35:150,1,110,0|6,3:0|0:1,0:0:0:0:
67,135,17709,1,2,0:0:0:0:
145,83,18009,2,0,P|156:43|163:12,2,55,2|6|0,0:0|0:1|0:0,0:0:0:0:
172,120,18459,6,0,P|207:114|300:102,1,110,0|4,3:0|0:1,0:0:0:0:
371,131,19059,1,0,3:0:0:0:
368,126,19209,2,0,P|379:86|389:52,2,55,2|4|0,0:0|0:1|0:0,0:0:0:0:
354,171,19659,2,0,P|389:165|482:153,1,110,0|6,3:0|0:1,0:0:0:0:
509,149,20109,1,2,0:0:0:0:
475,236,20409,2,8,P|485:282|491:313,1,55,10|10,0:0|0:0,0:0:0:0:
470,327,20709,1,10,0:0:0:0:
470,327,20859,6,0,B|433:305|433:305|351:330,1,110,4|8,3:2|0:0,0:0:0:0:
297,275,21459,2,0,P|287:237|280:197,2,55,0|2|8,3:0|0:3|0:0,0:0:0:0:
224,334,22059,2,0,B|187:356|187:356|105:331,1,110,0|8,3:0|0:0,0:0:0:0:
87,307,22509,2,0,P|82:259|72:181,1,110,10|2,0:0|0:0,0:0:0:0:
68,150,22959,1,8,0:0:0:0:
146,99,23259,6,0,P|184:82|249:99,1,110,4|8,3:2|0:0,0:0:0:0:
340,110,23859,2,0,L|352:41,2,55,0|0|8,3:0|3:0|0:0,0:0:0:0:
321,152,24309,2,0,P|323:206|326:271,1,110,6|2,0:1|0:0,0:0:0:0:
327,308,24759,1,8,0:0:0:0:
327,308,24909,1,8,0:0:0:0:
235,329,25209,2,0,L|244:383,2,55,0|8|2,3:0|0:0|3:0,0:0:0:0:
212,289,25659,6,0,P|171:270|93:300,1,110,4|8,0:0|0:0,0:0:0:0:
24,261,26259,2,0,P|3:219|31:153,1,110,0|8,0:0|0:0,0:0:0:0:
64,142,26709,1,6,0:1:0:0:
64,142,26859,2,0,P|99:136|191:121,1,110,0|8,3:0|0:0,0:0:0:0:
211,150,27309,2,0,P|265:158|319:168,1,110,8|0,0:0|3:0,0:0:0:0:
361,146,27759,1,8,0:0:0:0:
441,192,28059,6,0,B|461:147|461:147|433:88,2,110,4|12|4,0:0|0:1|3:1,0:0:0:0:
361,240,28959,1,12,0:1:0:0:
423,309,29259,2,0,P|469:303|498:298,2,55,4|0|12,3:1|3:0|0:1,0:0:0:0:
383,334,29709,2,0,P|341:330|256:323,1,110,8|8,0:1|0:1,0:0:0:0:
235,301,30159,2,8,L|158:310,1,55,12|8,0:1|0:1,0:0:0:0:
0,67,31059,6,8,B|-17:105|-17:105|3:147,2,82.5,8|8|8,3:2|3:2|0:0,0:0:0:0:
42,48,31659,6,0,P|84:44|169:37,1,110,14|12,3:0|0:1,0:0:0:0:
237,75,32259,2,0,P|291:79|346:84,1,110,6|12,3:1|0:1,0:0:0:0:
392,75,32709,1,2,0:0:0:0:
397,79,32859,2,0,P|422:141|394:188,1,110,4|12,3:1|0:1,0:0:0:0:
363,198,33309,2,0,P|346:248|367:299,1,110,2|0,0:0|3:0,0:0:0:0:
406,324,33759,1,12,0:1:0:0:
324,371,34059,6,0,P|282:367|197:360,1,110,4|12,3:1|0:1,0:0:0:0:
148,295,34659,2,0,P|110:298|73:302,2,55,4|0|12,3:1|3:0|0:1,0:0:0:0:
191,276,35109,2,0,B|214:230|214:230|181:164,1,110,0|2,3:0|0:0,0:0:0:0:
156,142,35559,1,12,0:1:0:0:
156,142,35709,1,2,0:0:0:0:
239,95,36009,2,0,L|251:26,2,55,0|12|2,3:0|0:1|0:0,0:0:0:0:
264,131,36459,6,0,P|311:150|371:124,1,110,4|12,0:0|0:1,0:0:0:0:
457,134,37059,2,0,P|454:188|451:253,1,110,4|12,3:1|0:1,0:0:0:0:
433,287,37509,1,2,0:0:0:0:
428,283,37659,2,0,B|391:261|391:261|309:286,1,110,4|12,3:1|0:1,0:0:0:0:
298,317,38109,2,0,B|261:339|261:339|179:314,1,110,2|2,0:0|0:0,0:0:0:0:
151,327,38559,1,12,0:1:0:0:
73,274,38859,6,0,P|30:279|0:283,2,55,12|0|2,0:1|3:0|3:2,0:0:0:0:
108,243,39309,1,12,0:1:0:0:
68,158,39609,1,12,0:1:0:0:
24,75,39909,2,0,B|58:51|58:51|143:78,1,110,4|0,0:0|3:0,0:0:0:0:
159,101,40359,1,8,0:1:0:0:
159,101,40509,2,0,P|213:95|283:87,1,110,8|8,0:1|0:1,0:0:0:0:
311,106,40959,2,8,L|365:112,1,55,0|8,3:0|0:1,0:0:0:0:
408,93,41259,6,0,P|405:139|399:216,1,110,4|12,0:0|0:1,0:0:0:0:
313,239,41859,2,0,P|272:220|201:244,1,110,4|12,3:1|0:1,0:0:0:0:
188,275,42309,1,2,0:0:0:0:
185,281,42459,2,0,P|144:300|73:276,1,110,4|12,3:1|0:1,0:0:0:0:
51,250,42909,2,0,P|46:195|43:140,1,110,2|0,0:0|0:0,0:0:0:0:
40,93,43359,1,12,0:1:0:0:
112,33,43659,6,0,P|147:27|239:12,1,110,6|12,3:2|0:1,0:0:0:0:
302,59,44259,2,0,P|329:61|356:63,2,55,6|2|12,3:1|0:2|0:1,0:0:0:0:
267,90,44709,2,0,B|244:136|244:136|277:202,1,110,2|0,0:0|0:0,0:0:0:0:
296,227,45159,1,12,0:1:0:0:
296,227,45309,1,2,0:0:0:0:
229,293,45609,2,0,L|241:362,2,55,0|12|2,3:0|0:1|0:0,0:0:0:0:
192,264,46059,6,0,P|150:260|65:253,1,110,6|12,0:0|0:1,0:0:0:0:
13,191,46659,2,0,P|-8:143|22:85,1,110,4|12,3:1|0:1,0:0:0:0:
54,71,47109,1,2,0:0:0:0:
51,66,47259,2,0,L|60:11,2,55,4|2|12,3:1|3:0|0:1,0:0:0:0:
93,85,47709,2,0,P|135:81|220:74,1,110,2|2,0:0|0:0,0:0:0:0:
236,107,48159,2,8,L|313:116,1,55,12|0,0:1|3:0,0:0:0:0:
328,85,48459,1,4,0:0:0:0:
416,59,50109,6,8,P|409:21|404:-6,2,55,0|0|0,3:0|3:0|3:0,0:0:0:0:
395,100,50559,1,4,0:0:0:0:
471,155,50859,6,0,P|467:199|459:286,1,110,6|8,3:2|0:0,0:0:0:0:
373,294,51459,2,0,P|368:239|363:184,1,110,0|8,3:0|0:0,0:0:0:0:
333,148,51909,2,0,P|304:119|190:152,1,165,6|8,0:1|0:0,0:0:0:0:
108,176,52659,2,0,P|104:148|100:121,2,55,0|6|8,3:0|0:1|0:0,0:0:0:0:
178,238,53259,6,0,P|205:289|174:347,1,110,4|8,3:2|0:0,0:0:0:0:
265,384,53859,2,0,P|313:378|386:369,1,110,0|8,3:0|0:0,0:0:0:0:
421,361,54309,2,0,B|461:322|461:322|425:208,1,165,6|8,0:1|0:0,0:0:0:0:
340,186,55059,2,0,P|345:158|349:131,1,55,0|6,3:0|0:1,0:0:0:0:
360,88,55359,1,12,0:0:0:0:
272,57,55659,6,0,B|220:37|220:37|161:61,1,110,2|8,3:2|0:0,0:0:0:0:
121,50,56109,1,0,3:0:0:0:
121,50,56259,2,0,P|126:105|131:160,1,110,2|8,0:0|0:0,0:0:0:0:
186,234,56859,2,0,P|181:289|176:344,2,110,0|0|0,3:0|3:0|3:0,0:0:0:0:
244,160,57759,2,0,P|281:154|321:149,1,55,0|0,3:0|3:0,0:0:0:0:
325,189,58059,6,0,P|364:210|440:194,1,110,4|8,0:0|0:0,0:0:0:0:
502,146,58659,2,0,P|507:91|513:30,1,110,0|8,3:0|0:0,0:0:0:0:
418,33,59259,2,0,B|378:56|378:56|297:31,1,110,8|2,0:0|3:0,0:0:0:0:
275,59,59709,2,8,L|202:73,1,55,10|10,0:0|0:0,0:0:0:0:
185,38,60009,2,8,L|125:26,1,55,10|10,0:0|0:0,0:0:0:0:
92,54,60309,1,2,0:0:0:0:
