osu file format v14

[General]
AudioFilename: audio.mp3
AudioLeadIn: 0
PreviewTime: 30844
Countdown: 1
SampleSet: Soft
StackLeniency: 0.4
Mode: 0
LetterboxInBreaks: 0
WidescreenStoryboard: 1

[Editor]
Bookmarks: 1669,11269,16069,20869,25669,31669,48469,50869,57919
DistanceSpacing: 0.1
BeatDivisor: 4
GridSize: 32
TimelineZoom: 1.8

[Metadata]
Title:Kuuchuu Bunkai
TitleUnicode:空中分解
Artist:Matsushita
ArtistUnicode:松下
Creator:Irohas
Version:Insane
Source:
Tags:mugiwarasekai aerial breakup
BeatmapID:1679266
BeatmapSetID:799889

[Difficulty]
HPDrainRate:7
CircleSize:4.1
OverallDifficulty:8
ApproachRate:9
SliderMultiplier:1.7
SliderTickRate:2

[Events]
//Background and Video events
0,0,"bg.jpg",0,0
//Break Periods
//Storyboard Layer 0 (Background)
//Storyboard Layer 1 (Fail)
//Storyboard Layer 2 (Pass)
//Storyboard Layer 3 (Foreground)
//Storyboard Sound Samples

[TimingPoints]
459,300,4,2,5,60,1,0
459,-142.857142857143,4,2,5,60,0,0
1659,-100,4,2,5,60,0,0
6309,-100,4,2,0,60,0,0
6459,-100,4,2,5,60,0,0
10959,-90.9090909090909,4,2,5,60,0,0
15609,-111.111111111111,4,2,5,60,0,0
15684,-111.111111111111,4,2,5,5,0,0
15759,-111.111111111111,4,2,5,60,0,0
15834,-111.111111111111,4,2,5,5,0,0
15909,-111.111111111111,4,2,5,60,0,0
15984,-111.111111111111,4,2,5,5,0,0
16059,-111.111111111111,4,2,5,60,0,0
16134,-111.111111111111,4,2,5,5,0,0
16359,-125,4,2,5,60,0,0
16809,-125,4,2,5,60,0,0
17259,-181.818181818182,4,2,5,60,0,0
18009,-153.846153846154,4,2,5,60,0,0
18609,-181.818181818182,4,2,5,60,0,0
20409,-83.3333333333333,4,2,5,60,0,0
20484,-90.9090909090909,4,2,5,5,0,0
20559,-83.3333333333333,4,2,5,60,0,0
20634,-90.9090909090909,4,2,5,5,0,0
20709,-83.3333333333333,4,2,5,60,0,0
20784,-90.9090909090909,4,2,5,5,0,0
20859,-100,4,2,5,60,0,0
23484,-100,4,2,5,5,0,0
23559,-100,4,2,5,60,0,0
25209,-90.9090909090909,4,2,5,60,0,0
25284,-90.9090909090909,4,2,5,5,0,0
25359,-90.9090909090909,4,2,5,60,0,0
25434,-90.9090909090909,4,2,5,5,0,0
25509,-90.9090909090909,4,2,5,60,0,0
25584,-90.9090909090909,4,2,5,5,0,0
25659,-100,4,2,5,60,0,0
28059,-105.263157894737,4,2,2,60,0,0
30609,-105.263157894737,4,2,1,25,0,0
31059,-105.263157894737,4,2,5,60,0,0
31209,-105.263157894737,4,2,5,5,0,0
31284,-105.263157894737,4,2,5,60,0,0
31434,-105.263157894737,4,2,5,5,0,0
31509,-105.263157894737,4,2,5,60,0,0
31584,-105.263157894737,4,2,5,5,0,0
31659,-100,4,2,1,85,0,1
31809,-100,4,2,2,70,0,1
32484,-100,4,2,2,5,0,1
32559,-100,4,2,2,70,0,1
38859,-100,4,2,2,70,0,0
39309,-90.9090909090909,4,2,2,70,0,0
39384,-100,4,2,2,5,0,0
39609,-90.9090909090909,4,2,2,70,0,0
39684,-100,4,2,2,5,0,0
39909,-90.9090909090909,4,2,2,70,0,1
40509,-86.9565217391304,4,2,2,70,0,1
41109,-86.9565217391304,4,2,2,70,0,0
41259,-100,4,2,2,70,0,1
44184,-100,4,2,2,5,0,1
44259,-100,4,2,2,70,0,1
48459,-100,4,2,5,60,0,0
50109,-111.111111111111,4,2,5,60,0,0
50859,-100,4,2,5,60,0,0
56859,-125,4,2,5,60,0,0
57159,-142.857142857143,4,2,5,60,0,0
57459,-166.666666666667,4,2,5,60,0,0
57759,-111.111111111111,4,2,5,60,0,0
59259,-142.857142857143,4,2,5,60,0,0
59709,-83.3333333333333,4,2,5,60,0,0
60159,-111.111111111111,4,2,5,60,0,0

[Colours]
Combo1 : 142,186,244
Combo2 : 250,145,99
Combo3 : 255,74,74
Combo4 : 235,235,235
Combo5 : 248,133,162

[HitObjects]
238,108,1659,6,0,L|232:155,2,42.5,6|0|6,3:2|0:0|0:1,0:0:0:0:
90,231,1959,2,0,P|143:222|198:214,1,85,8|6,0:0|0:1,0:0:0:0:
339,306,2259,1,0,3:0:0:0:
262,360,2409,2,0,P|244:314|261:272,1,85,6|8,0:1|0:0,0:0:0:0:
374,147,2709,6,0,P|392:193|375:235,1,85,6|0,0:1|3:0,0:0:0:0:
206,90,3009,1,6,0:1:0:0:
309,195,3159,2,0,P|267:187|225:181,1,85,8|6,0:0|0:1,0:0:0:0:
100,297,3459,2,0,P|141:289|192:280,1,85,0|6,3:0|0:1,0:0:0:0:
32,178,3759,1,8,0:0:0:0:
31,190,3834,1,2,0:0:0:0:
30,202,3909,1,6,0:1:0:0:
183,281,4059,6,0,L|191:225,1,42.5,4|0,3:2|0:0,0:0:0:0:
151,168,4209,1,6,0:1:0:0:
263,331,4359,2,0,P|307:347|349:330,1,85,8|6,0:0|0:1,0:0:0:0:
434,219,4659,1,0,3:0:0:0:
341,335,4809,2,0,P|334:280|327:229,1,85,6|8,0:1|0:0,0:0:0:0:
151,168,5109,6,0,B|189:187|189:187|233:166,1,85,6|0,0:1|3:0,0:0:0:0:
193,83,5409,1,6,0:1:0:0:
106,242,5559,1,8,0:0:0:0:
59,45,5709,1,6,0:1:0:0:
227,168,5859,5,0,3:0:0:0:
214,165,5934,1,0,0:0:0:0:
201,162,6009,1,6,0:1:0:0:
300,95,6159,1,12,0:0:0:0:
212,261,6309,1,6,0:0:0:0:
53,164,6459,6,0,P|87:158|109:154,2,42.5,6|0|6,3:2|0:0|0:1,0:0:0:0:
176,97,6759,2,0,P|194:51|177:9,1,85,8|6,0:0|0:1,0:0:0:0:
94,156,7059,1,0,3:0:0:0:
280,103,7209,2,0,P|274:145|269:187,1,85,6|8,0:1|0:0,0:0:0:0:
186,355,7509,2,0,P|180:312|175:270,1,85,6|0,0:1|3:0,0:0:0:0:
298,359,7809,5,6,0:1:0:0:
175,270,7959,2,0,P|218:249|264:262,1,85,8|6,0:0|0:1,0:0:0:0:
413,281,8259,2,0,P|367:295|323:274,1,85,0|6,3:0|0:1,0:0:0:0:
512,169,8559,1,8,0:0:0:0:
510,181,8634,1,0,0:0:0:0:
508,193,8709,1,6,0:1:0:0:
350,97,8859,6,0,L|361:154,1,42.5,4|0,3:2|0:0,0:0:0:0:
376,217,9009,1,6,0:1:0:0:
512,77,9159,2,0,B|474:58|474:58|430:79,1,85,8|6,0:0|0:1,0:0:0:0:
288,180,9459,1,0,3:0:0:0:
149,75,9609,2,0,P|154:117|159:159,1,85,6|8,0:1|0:0,0:0:0:0:
100,222,9909,5,4,0:1:0:0:
236,120,10059,1,4,0:0:0:0:
52,66,10209,5,2,3:2:0:0:
54,78,10284,1,2,3:2:0:0:
56,90,10359,1,8,0:0:0:0:
210,251,10509,1,6,0:1:0:0:
212,239,10584,1,6,0:1:0:0:
214,227,10659,1,10,0:2:0:0:
275,29,10809,1,2,3:0:0:0:
103,169,10959,6,8,P|133:163|161:153,1,46.7500014266968
355,248,11109,2,8,P|330:240|305:236,1,46.7500014266968
252,140,11259,5,4,3:2:0:0:
218,220,11559,1,8,1:1:0:0:
221,229,12159,5,8,1:1:0:0:
224,238,12759,5,8,1:1:0:0:
227,247,13359,5,8,1:1:0:0:
230,256,13959,5,8,1:1:0:0:
232,265,14559,5,8,1:1:0:0:
235,274,15159,5,8,1:1:0:0:
314,229,15459,1,0,3:0:0:0:
139,359,15609,6,0,L|195:349,1,38.2499988327027,10|0,0:0|0:0,0:0:0:0:
130,336,15759,2,0,L|167:342,1,38.2499988327027,10|0,0:0|0:0,0:0:0:0:
129,313,15909,2,0,L|182:332,1,38.2499988327027,10|0,0:0|0:0,0:0:0:0:
53,281,16059,5,4,0:0:0:0:
0,353,16359,5,6,0:1:0:0:
3,363,16509,1,2,0:0:0:0:
186,251,16659,1,0,3:0:0:0:
124,175,16809,5,2,0:0:0:0:
127,185,16959,1,6,0:1:0:0:
127,185,17259,6,0,P|132:153|140:119,1,46.7500014266968,0|2,3:0|0:0,0:0:0:0:
57,95,17559,2,0,P|51:63|44:29,1,46.7500014266968,6|2,0:1|0:0,0:0:0:0:
128,0,17859,5,0,3:0:0:0:
198,40,18009,1,2,0:0:0:0:
265,84,18159,1,6,0:1:0:0:
385,46,18459,5,0,3:0:0:0:
265,93,18609,2,0,P|295:99|325:105,2,46.7500014266968,0|4|0,0:0|0:1|0:0,0:0:0:0:
192,152,19059,5,0,3:0:0:0:
313,202,19209,2,0,P|283:208|252:214,1,46.7500014266968,2|4,0:0|0:1,0:0:0:0:
261,216,19659,6,0,P|283:220|306:225,1,46.7500014266968,0|0,3:0|0:0,0:0:0:0:
357,294,19959,2,0,P|379:289|402:284,1,46.7500014266968,6|2,0:1|0:0,0:0:0:0:
471,227,20259,1,0,3:0:0:0:
287,361,20409,6,0,P|271:342|263:305,1,50.9999984436036,10|0,0:0|0:0,0:0:0:0:
200,261,20559,2,0,P|184:285|180:321,1,50.9999984436036,10|0,0:0|0:0,0:0:0:0:
117,371,20709,2,0,P|101:352|95:313,1,50.9999984436036,10|0,0:0|0:0,0:0:0:0:
0,290,20859,5,4,3:2:0:0:
78,251,21009,1,0,3:0:0:0:
0,290,21159,2,0,B|-21:249|-21:249|5:200,1,85,8|0,0:0|3:0,0:0:0:0:
175,150,21459,1,0,3:0:0:0:
65,69,21609,2,0,P|74:123|84:180,1,85,2|8,0:3|0:0,0:0:0:0:
166,236,21909,1,6,0:1:0:0:
207,65,22059,5,0,3:0:0:0:
166,236,22209,1,0,3:0:0:0:
198,58,22359,1,8,0:0:0:0:
333,188,22509,2,0,B|296:206|296:206|249:179,1,85,10|0,0:0|3:0,0:0:0:0:
388,93,22809,5,2,0:0:0:0:
257,184,22959,2,0,P|251:141|244:89,1,85,8|2,0:0|0:0,0:0:0:0:
59,260,23259,6,0,P|93:226|172:242,1,127.5,4|0,3:2|0:0,0:0:0:0:
158,352,23559,2,0,P|107:357|72:328,1,85,8|2,0:0|0:0,0:0:0:0:
299,268,23859,1,0,3:0:0:0:
280,350,24009,1,0,3:0:0:0:
228,200,24159,1,8,0:0:0:0:
403,289,24309,6,0,L|418:183,1,85,6|0,0:1|3:0,0:0:0:0:
360,26,24609,1,2,0:0:0:0:
512,101,24759,2,0,B|479:120|479:120|430:99,1,85,8|8,0:0|0:0,0:0:0:0:
467,22,25059,5,0,3:0:0:0:
467,22,25209,1,0,3:0:0:0:
316,127,25359,1,8,0:0:0:0:
316,127,25509,1,2,3:0:0:0:
167,28,25659,6,0,B|124:52|124:52|152:186,1,170,4|8,0:0|0:0,0:0:0:0:
156,176,26109,1,2,0:0:0:0:
308,121,26259,2,0,P|302:167|296:222,1,85,0|0,0:0|3:0,0:0:0:0:
213,342,26559,2,0,P|208:299|202:257,1,85,8|4,0:0|1:0,0:0:0:0:
398,344,26859,6,0,P|349:354|311:325,1,85,0|0,3:0|3:0,3:0:0:0:
427,240,27159,1,8,0:0:0:0:
320,337,27309,2,0,P|408:325|503:314,1,170,8|0,0:0|3:0,0:0:0:0:
303,263,27759,2,0,P|284:231|298:170,1,85,8|2,0:0|0:0,0:0:0:0:
424,72,28059,6,0,P|416:133|411:175,1,80.7499978437424,4|2,0:0|0:0,0:0:0:0:
343,36,28359,2,0,P|335:97|330:139,1,80.7499978437424,12|2,0:1|0:0,0:0:0:0:
202,202,28659,6,0,L|302:181,1,80.7499978437424,4|0,3:1|3:0,3:0:0:0:
150,297,28959,2,0,L|250:276,1,80.7499978437424,12|0,0:1|3:0,3:0:0:0:
53,128,29259,5,4,3:1:0:0:
202,202,29409,1,0,3:0:0:0:
50,276,29559,1,12,0:1:0:0:
138,101,29709,2,0,P|132:143|124:194,1,80.7499978437424,8|4,0:1|3:1,0:0:0:0:
77,31,30009,5,8,0:1:0:0:
228,127,30159,1,12,0:1:0:0:
390,27,30309,1,8,0:1:0:0:
309,68,30459,5,0,3:0:0:0:
369,132,30609,2,0,L|362:167,10,20.1874994609356,2|2|2|2|2|2|2|2|2|2|2,0:0|0:0|0:0|0:0|0:0|0:0|0:0|0:0|0:0|0:0|0:0,0:0:0:0:
324,221,31059,6,0,B|362:237|362:237|413:214,1,80.7499978437424,8|0,3:2|3:0,0:0:0:0:
485,227,31284,6,0,B|447:211|447:211|396:234,1,80.7499978437424,8|0,3:2|3:0,0:0:0:0:
393,347,31509,6,0,P|397:327|402:302,1,40.3749989218712,8|0,0:0|0:0,0:0:0:0:
227,207,31659,6,0,P|236:265|245:318,1,85,14|2,3:0|0:0,0:0:0:0:
302,127,31959,2,0,P|311:185|320:238,1,85,12|2,0:1|0:0,0:0:0:0:
367,63,32259,6,0,P|398:37|483:62,1,127.5,6|0,3:1|0:0,0:0:0:0:
512,124,32559,2,0,P|503:182|496:235,1,85,12|2,0:1|0:0,0:0:0:0:
367,63,32859,5,4,3:1:0:0:
499,208,33009,2,0,B|459:227|459:227|413:207,1,85,2|12,0:0|0:1,0:0:0:0:
243,154,33309,2,0,B|283:137|283:137|324:155,1,85,2|4,0:0|3:1,0:0:0:0:
157,211,33609,1,0,3:0:0:0:
321,153,33759,2,0,L|303:264,1,85,12|2,0:1|0:0,0:0:0:0:
232,368,34059,6,0,L|218:284,1,85,4|2,3:1|0:0,0:0:0:0:
81,361,34359,1,12,0:1:0:0:
219,285,34509,1,2,3:0:0:0:
95,227,34659,1,4,3:1:0:0:
95,227,34809,1,0,3:0:0:0:
210,384,34959,1,12,0:1:0:0:
356,215,35109,6,0,B|391:243|391:243|365:387,1,170,0|2,3:0|0:0,0:0:0:0:
226,190,35559,1,12,0:1:0:0:
289,302,35709,2,0,P|236:293|179:284,1,85,2|4,0:0|3:1,3:0:0:0:
226,190,36009,1,2,0:0:0:0:
124,325,36159,1,12,0:1:0:0:
124,325,36309,1,2,0:0:0:0:
16,194,36459,6,0,B|-6:234|-6:234|18:283,1,85,4|2,0:0|0:0,0:0:0:0:
107,96,36759,2,0,P|116:154|125:205,1,85,12|2,0:1|0:0,0:0:0:0:
190,26,37059,1,4,3:1:0:0:
120,179,37209,1,0,3:0:0:0:
25,30,37359,2,0,P|66:8|110:15,1,85,12|2,0:1|0:0,0:0:0:0:
258,147,37659,5,4,3:1:0:0:
417,0,37809,2,0,B|442:38|442:38|425:83,1,85,2|12,0:0|0:1,0:0:0:0:
258,147,38109,2,0,L|364:129,1,85,2|4,0:0|3:1,3:0:0:0:
392,213,38409,5,2,0:0:0:0:
298,50,38559,1,12,0:1:0:0:
399,228,38709,1,2,0:0:0:0:
462,59,38859,5,12,0:1:0:0:
388,105,39009,1,0,3:0:0:0:
465,147,39159,1,2,3:2:0:0:
288,45,39309,6,0,P|272:70|267:97,1,46.7500014266968,12|0,0:1|0:0,0:0:0:0:
224,287,39609,6,0,P|208:262|203:235,1,46.7500014266968,12|0,0:1|0:0,0:0:0:0:
328,153,39909,6,0,B|227:139|264:219|153:213,1,187.000005706787,4|0,0:0|3:0,0:0:0:0:
28,71,40359,1,8,0:1:0:0:
130,138,40509,6,8,P|134:113|142:65,1,48.8750009322167,8|0,0:1|3:1,0:0:0:0:
149,14,40659,1,0,3:1:0:0:
37,217,40809,6,8,P|33:192|23:138,1,48.8750009322167,8|8,0:1|0:1,0:1:0:0:
18,86,40959,1,0,3:0:0:0:
173,276,41109,6,8,P|177:251|183:207,1,48.8750009322167,8|8,0:1|0:1,0:1:0:0:
145,147,41259,6,0,B|208:136|208:136|242:161|242:161|318:147,1,170,4|12,0:0|0:1,0:0:0:0:
427,245,41709,1,2,0:0:0:0:
304,149,41859,2,0,P|313:207|322:260,1,85,4|2,3:1|3:0,3:0:0:0:
176,288,42159,2,0,P|222:308|265:296,1,85,12|2,0:1|0:0,0:0:0:0:
102,196,42459,5,4,3:1:0:0:
29,326,42609,2,0,P|22:284|15:238,1,85,0|12,3:0|0:1,3:0:0:0:
116,113,42909,2,0,P|107:171|98:224,1,85,2|4,0:0|3:1,3:0:0:0:
41,56,43209,1,0,0:0:0:0:
194,167,43359,1,12,0:1:0:0:
194,167,43509,1,2,0:0:0:0:
334,50,43659,6,0,B|355:87|355:87|337:132,1,85,6|2,3:2|0:0,0:0:0:0:
472,230,43959,2,0,P|430:223|336:211,1,127.5,12|0,0:1|0:0,0:0:0:0:
278,249,44259,2,0,B|258:289|258:289|280:329,1,85,6|2,3:1|0:2,0:0:0:0:
183,197,44559,1,12,0:1:0:0:
277,324,44709,2,0,P|224:315|169:307,1,85,2|6,0:0|0:1,0:0:0:0:
104,339,45009,1,0,0:0:0:0:
183,197,45159,1,12,0:1:0:0:
104,339,45309,6,4,B|67:310|67:310|96:171,1,170,2|0,0:0|3:0,0:0:0:0:
0,68,45759,2,0,P|9:126|18:179,1,85,12|2,0:1|0:0,3:0:0:0:
165,38,46059,6,0,P|123:20|81:33,1,85,6|0,0:0|0:0,0:0:0:0:
217,119,46359,2,0,P|270:110|330:100,1,85,12|2,0:1|0:0,0:0:0:0:
165,38,46659,5,4,3:1:0:0:
273,194,46809,1,0,3:0:0:0:
399,33,46959,2,0,P|390:91|381:144,1,85,12|2,0:1|0:0,0:0:0:0:
286,277,47259,2,0,P|279:235|272:193,1,85,4|2,3:1|3:0,3:0:0:0:
377,312,47559,5,12,0:1:0:0:
176,220,47709,2,0,P|151:257|162:304,1,85,2|6,0:0|0:1,0:0:0:0:
234,382,48009,5,2,0:0:0:0:
370,197,48159,1,12,0:1:0:0:
289,234,48309,1,0,3:0:0:0:
368,285,48459,5,4,0:0:0:0:
512,356,50109,5,0,3:0:0:0:
512,356,50184,1,0,3:0:0:0:
512,356,50259,2,0,P|493:359|474:363,1,38.2499988327027,0|0,3:0|3:0,3:0:0:0:
423,295,50409,2,0,P|390:288|369:284,1,38.2499988327027,0|0,3:0|3:0,3:0:0:0:
321,351,50559,1,4,0:0:0:0:
316,344,50859,6,0,L|307:297,2,42.5,6|0|2,3:2|0:0|0:3,0:0:0:0:
161,230,51159,2,0,P|214:239|269:247,1,85,8|6,0:0|0:1,0:0:0:0:
421,139,51459,1,0,3:0:0:0:
340,92,51609,2,0,P|322:138|339:180,1,85,6|8,0:1|0:0,0:0:0:0:
452,305,51909,6,0,P|470:259|453:217,1,85,6|0,0:1|3:0,0:0:0:0:
284,362,52209,1,6,0:1:0:0:
387,257,52359,2,0,P|345:265|303:271,1,85,8|6,0:0|0:1,0:0:0:0:
177,154,52659,2,0,P|218:162|260:168,1,85,0|6,3:0|0:1,0:0:0:0:
110,274,52959,1,8,0:0:0:0:
109,262,53034,1,2,0:0:0:0:
108,250,53109,1,6,0:1:0:0:
261,169,53259,6,0,L|269:225,1,42.5,4|0,3:2|0:0,0:0:0:0:
229,284,53409,1,6,0:1:0:0:
341,121,53559,2,0,P|385:105|427:122,1,85,8|6,0:0|0:1,0:0:0:0:
512,233,53859,1,0,3:0:0:0:
419,117,54009,2,0,P|412:172|405:223,1,85,6|8,0:1|0:0,0:0:0:0:
348,353,54309,6,0,P|342:310|337:268,1,85,6|0,0:1|3:0,0:0:0:0:
201,345,54609,1,6,0:1:0:0:
337,268,54759,2,0,P|296:252|251:268,1,85,8|6,0:0|0:1,0:0:0:0:
148,219,55059,1,0,3:0:0:0:
201,345,55209,1,6,0:1:0:0:
240,155,55359,5,12,0:0:0:0:
190,339,55509,1,6,0:1:0:0:
56,304,55659,6,0,L|112:294,2,42.5,2|0|6,3:2|0:0|0:1,0:0:0:0:
222,251,55959,1,8,0:0:0:0:
106,184,56109,6,0,P|110:203|113:221,3,21.25,0|0|0|0,3:0|3:0|3:0|3:0,0:0:0:0:
118,211,56259,6,0,B|138:170|138:170|116:132,1,85,2|6,0:0|0:1,0:0:0:0:
197,10,56559,2,0,B|177:51|177:51|199:89,1,85,8|6,0:0|0:1,0:0:0:0:
338,133,56859,6,0,P|297:126|251:119,1,68,0|6,3:0|0:1,0:0:0:0:
362,120,57159,6,0,P|321:113|281:107,1,59.4999981842042,0|2,3:0|0:3,0:0:0:0:
368,151,57459,6,0,L|298:139,1,50.9999984436036,0|2,3:0|0:0,0:0:0:0:
463,326,57759,6,0,P|479:298|485:272,1,38.2499988327027,0|0,3:0|3:0,3:0:0:0:
470,193,57909,2,0,P|486:221|492:247,1,38.2499988327027,0|0,3:0|3:0,3:0:0:0:
489,262,58059,6,0,P|443:254|391:245,1,76.4999976654053,4|6,0:0|0:1,0:0:0:0:
286,343,58359,2,0,P|323:336|361:329,1,76.4999976654053,8|6,0:0|0:1,0:0:0:0:
211,264,58659,1,0,3:0:0:0:
287,224,58809,1,6,0:1:0:0:
190,357,58959,1,8,0:0:0:0:
118,194,59109,1,6,0:1:0:0:
133,290,59259,6,0,P|105:285|79:280,1,29.7499990921021,8|2,0:0|0:0,0:0:0:0:
103,301,59409,2,0,P|75:306|49:311,1,29.7499990921021,2|2,0:0|0:0,0:0:0:0:
66,302,59559,1,2,3:0:0:0:
213,230,59709,6,8,L|227:159,1,50.9999984436036,10|10,0:0|0:0,0:0:0:0:
296,323,59859,6,8,L|310:252,1,50.9999984436036,10|10,0:0|0:0,0:0:0:0:
397,248,60009,6,8,L|411:177,1,50.9999984436036,10|10,0:0|0:0,0:0:0:0:
477,342,60159,6,8,L|489:288,1,38.2499988327027,10|2,0:0|3:0,0:0:0:0:
491,283,60309,1,2,0:0:0:0:
