osu file format v14

[General]
AudioFilename: audio.mp3
AudioLeadIn: 0
PreviewTime: 30844
Countdown: 1
SampleSet: Soft
StackLeniency: 0.6
Mode: 0
LetterboxInBreaks: 0
WidescreenStoryboard: 1

[Editor]
Bookmarks: 1669,11269,16069,20869,25669,31669,48469,50869,57919
DistanceSpacing: 1
BeatDivisor: 2
GridSize: 32
TimelineZoom: 1.8

[Metadata]
Title:Kuuchuu Bunkai
TitleUnicode:空中分解
Artist:Matsushita
ArtistUnicode:松下
Creator:Irohas
Version:Easy
Source:
Tags:mugiwarasekai aerial breakup
BeatmapID:1679265
BeatmapSetID:799889

[Difficulty]
HPDrainRate:2
CircleSize:3
OverallDifficulty:3
ApproachRate:3
SliderMultiplier:0.9
SliderTickRate:1

[Events]
//Background and Video events
0,0,"bg.jpg",0,0
//Break Periods
2,11459,14619
//Storyboard Layer 0 (Background)
//Storyboard Layer 1 (Fail)
//Storyboard Layer 2 (Pass)
//Storyboard Layer 3 (Foreground)
//Storyboard Sound Samples

[TimingPoints]
459,300,4,2,5,60,1,0
459,-100,4,2,5,60,0,0
1659,-100,4,2,5,60,0,0
6309,-100,4,2,0,60,0,0
6459,-100,4,2,5,60,0,0
10959,-100,4,2,5,60,0,0
15609,-100,4,2,5,60,0,0
15684,-100,4,2,5,5,0,0
15759,-100,4,2,5,60,0,0
15834,-100,4,2,5,5,0,0
15909,-100,4,2,5,60,0,0
15984,-100,4,2,5,5,0,0
16059,-100,4,2,5,60,0,0
16134,-100,4,2,5,5,0,0
16359,-100,4,2,5,60,0,0
16809,-100,4,2,5,60,0,0
17259,-100,4,2,5,60,0,0
18009,-100,4,2,5,60,0,0
20409,-100,4,2,5,60,0,0
20484,-100,4,2,5,5,0,0
20559,-100,4,2,5,60,0,0
20634,-100,4,2,5,5,0,0
20709,-100,4,2,5,60,0,0
20784,-100,4,2,5,5,0,0
20859,-100,4,2,5,60,0,0
23484,-100,4,2,5,5,0,0
23559,-100,4,2,5,60,0,0
25284,-100,4,2,5,5,0,0
25359,-100,4,2,5,60,0,0
25434,-100,4,2,5,5,0,0
25509,-100,4,2,5,60,0,0
25584,-100,4,2,5,5,0,0
25659,-100,4,2,5,60,0,0
28059,-100,4,2,2,60,0,0
30609,-100,4,2,1,25,0,0
31059,-100,4,2,5,60,0,0
31209,-100,4,2,5,5,0,0
31284,-100,4,2,5,60,0,0
31434,-100,4,2,5,5,0,0
31509,-100,4,2,5,60,0,0
31584,-100,4,2,5,5,0,0
31659,-100,4,2,1,85,0,1
31809,-100,4,2,2,70,0,1
32484,-100,4,2,2,5,0,1
32559,-100,4,2,2,70,0,1
38859,-100,4,2,2,70,0,0
39309,-100,4,2,2,70,0,0
39384,-100,4,2,2,5,0,0
39609,-100,4,2,2,70,0,0
39684,-100,4,2,2,5,0,0
39909,-100,4,2,2,70,0,1
40509,-100,4,2,2,70,0,1
41109,-100,4,2,2,70,0,0
41259,-100,4,2,2,70,0,1
44184,-100,4,2,2,5,0,1
44259,-100,4,2,2,70,0,1
48459,-100,4,2,5,60,0,0
50109,-100,4,2,5,60,0,0
50859,-100,4,2,5,60,0,0
56859,-100,4,2,5,60,0,0
57159,-100,4,2,5,60,0,0
57459,-100,4,2,5,60,0,0
57759,-100,4,2,5,60,0,0
58059,-100,4,2,5,60,0,0
59259,-100,4,2,5,60,0,0
59709,-100,4,2,5,60,0,0
60159,-100,4,2,5,60,0,0

[Colours]
Combo1 : 142,186,244
Combo2 : 250,145,99
Combo3 : 255,74,74
Combo4 : 235,235,235
Combo5 : 248,133,162

[HitObjects]
44,276,1659,6,0,P|86:268|146:258,1,90,6|8,3:2|0:0,0:0:0:0:
216,292,2259,1,0,3:0:0:0:
314,199,2709,2,0,P|358:235|450:227,1,135,6|8,0:1|0:0,0:0:0:0:
481,159,3459,2,0,P|471:115|459:55,1,90,0|8,3:0|0:0,0:0:0:0:
372,61,4059,6,0,P|381:105|390:148,1,90,4|8,3:2|0:0,0:0:0:0:
314,199,4659,1,0,3:0:0:0:
207,115,5109,2,0,P|166:109|60:97,1,135,6|8,0:1|0:0,0:0:0:0:
0,151,5859,1,0,3:0:0:0:
51,224,6159,1,12,0:0:0:0:
10,304,6459,6,0,B|53:321|53:321|103:299,1,90,6|8,3:2|0:0,0:0:0:0:
166,250,7059,1,0,3:0:0:0:
256,350,7509,2,0,P|297:341|406:318,1,135,6|8,0:1|0:0,0:0:0:0:
459,266,8259,2,0,P|475:218|453:167,1,90,0|8,3:0|0:0,0:0:0:0:
511,104,8859,6,0,P|472:87|418:99,1,90,4|8,3:2|0:0,0:0:0:0:
359,154,9459,2,0,P|320:171|266:159,1,90,0|8,3:0|0:0,0:0:0:0:
208,102,10059,2,0,B|166:68|166:68|26:109,1,180,4|10,0:0|0:2,0:0:0:0:
0,181,10959,1,8,0:0:0:0:
49,256,11259,5,4,3:2:0:0:
285,355,16059,6,0,P|333:348|425:335,2,135,12|2|6,0:0|0:0|0:1,0:0:0:0:
199,325,17259,2,0,P|181:289|194:237,1,90,0|6,3:0|0:1,0:0:0:0:
263,189,17859,2,0,P|281:153|268:101,1,90,0|6,3:0|0:1,0:0:0:0:
196,55,18459,6,0,B|158:31|158:31|55:63,2,135,0|0|4,3:0|0:0|0:1,0:0:0:0:
271,105,19659,2,0,P|305:122|363:116,1,90,0|6,3:0|0:1,0:0:0:0:
436,79,20259,1,0,3:0:0:0:
507,133,20559,1,10,0:0:0:0:
441,195,20859,6,0,P|434:234|418:346,2,135,4|0|8,3:2|3:0|0:0,0:0:0:0:
367,144,22059,2,0,P|319:118|224:169,1,135,0|10,3:0|0:0,0:0:0:0:
143,228,22959,1,8,0:0:0:0:
72,172,23259,6,0,P|49:219|55:270,1,90,4|8,3:2|0:0,0:0:0:0:
112,319,23859,1,0,3:0:0:0:
236,371,24309,2,0,P|293:362|438:341,1,180,6|8,0:1|0:0,0:0:0:0:
481,232,25359,1,8,0:0:0:0:
409,177,25659,6,0,B|366:159|366:159|311:183,1,90,4|8,0:0|0:0,0:0:0:0:
262,240,26259,2,0,B|219:258|219:258|164:234,1,90,0|8,0:0|0:0,0:0:0:0:
92,219,26859,2,0,P|53:263|56:348,2,135,0|8|8,3:0|0:0|0:0,0:0:0:0:
165,169,28059,6,0,P|156:121|145:55,1,90,4|12,0:0|0:1,0:0:0:0:
234,52,28659,2,0,P|241:96|249:140,1,90,4|12,3:1|0:1,0:0:0:0:
288,221,29259,2,0,P|325:196|421:217,1,135,4|8,3:1|0:1,0:0:0:0:
482,154,30009,2,8,P|504:199|493:261,1,90,8|8,0:1|0:1,0:0:0:0:
401,346,31659,5,14,3:0:0:0:
319,308,31959,1,12,0:1:0:0:
247,363,32259,2,0,P|196:357|128:349,1,90,6|12,3:1|0:1,0:0:0:0:
71,313,32859,2,0,P|38:267|65:171,2,135,4|2|12,3:1|0:0|0:1,0:0:0:0:
127,242,34059,6,0,B|161:209|161:209|300:244,1,180,4|4,3:1|3:1,0:0:0:0:
391,331,35109,2,0,P|424:290|386:188,1,135,0|12,3:0|0:1,0:0:0:0:
448,129,35859,2,0,P|393:118|340:107,1,90,4|12,3:1|0:1,0:0:0:0:
286,59,36459,5,4,0:0:0:0:
220,121,36759,1,12,0:1:0:0:
164,50,37059,2,0,P|109:61|56:72,1,90,4|12,3:1|0:1,0:0:0:0:
6,128,37659,2,0,B|-21:167|-21:167|3:271,2,135,4|2|12,3:1|0:0|0:1,0:0:0:0:
94,150,38859,6,0,B|121:189|121:189|97:293,1,135,12|12,0:1|0:1,0:0:0:0:
34,335,39609,1,12,0:1:0:0:
115,378,39909,2,0,P|173:370|255:358,1,135,4|8,0:0|0:1,0:0:0:0:
294,281,40659,2,0,P|336:261|394:276,1,90,0|0,3:1|3:0,0:0:0:0:
445,325,41259,5,4,0:2:0:0:
505,258,41559,1,12,0:1:0:0:
442,193,41859,2,0,P|449:139|456:87,1,90,4|12,3:1|0:1,0:0:0:0:
386,43,42459,2,0,P|335:17|243:54,1,135,4|2,3:1|0:0,0:0:0:0:
143,100,43359,1,12,0:1:0:0:
194,174,43659,6,0,P|180:230|167:282,1,90,6|12,3:2|0:1,0:0:0:0:
236,324,44259,2,0,P|278:299|376:326,2,135,6|2|12,3:1|0:0|0:1,0:0:0:0:
155,364,45459,2,0,P|105:357|38:350,1,90,0|12,0:0|0:1,0:0:0:0:
1,289,46059,5,4,0:0:0:0:
79,244,46359,1,12,0:1:0:0:
159,204,46659,2,0,P|204:211|249:216,1,90,4|12,3:1|0:1,0:0:0:0:
266,127,47259,2,0,P|198:118|131:111,2,135,4|2|12,3:1|0:0|0:1,0:0:0:0:
344,82,48459,5,4,0:0:0:0:
512,308,50859,6,0,P|470:300|410:290,1,90,6|8,3:2|0:0,0:0:0:0:
340,324,51459,1,0,3:0:0:0:
242,231,51909,2,0,P|198:267|106:259,1,135,6|8,0:1|0:0,0:0:0:0:
51,211,52659,2,0,P|41:166|32:123,1,90,0|8,3:0|0:0,0:0:0:0:
102,67,53259,6,0,P|150:91|206:82,1,90,4|8,3:2|0:0,0:0:0:0:
259,38,53859,1,0,3:0:0:0:
345,141,54309,2,0,P|412:133|487:125,1,135,6|8,0:1|0:0,0:0:0:0:
512,214,55059,1,0,3:0:0:0:
449,278,55359,1,12,0:0:0:0:
383,340,55659,6,0,B|343:363|343:363|229:328,1,135,2|0,3:2|3:0,0:0:0:0:
174,304,56409,1,6,0:1:0:0:
92,342,56709,2,0,P|68:291|100:200,1,135,6|0,0:1|3:0,0:0:0:0:
27,148,57459,2,0,P|69:128|135:143,1,90,0|0,3:0|3:0,0:0:0:0:
175,193,58059,6,0,P|217:213|283:198,1,90,4|8,0:0|0:0,0:0:0:0:
314,138,58659,2,0,P|356:118|422:133,1,90,0|8,3:0|0:0,0:0:0:0:
468,177,59259,1,8,0:0:0:0:
432,307,59709,2,0,B|364:292|364:292|332:316|332:316|247:301,1,180,10|2,0:0|0:0,0:0:0:0:
