osu file format v14

[General]
AudioFilename: audio.mp3
AudioLeadIn: 0
PreviewTime: 30836
Countdown: 0
SampleSet: Soft
StackLeniency: 0.4
Mode: 0
LetterboxInBreaks: 0
WidescreenStoryboard: 1

[Editor]
DistanceSpacing: 1.3
BeatDivisor: 4
GridSize: 16
TimelineZoom: 3.199999

[Metadata]
Title:Kuuchuu Bunkai
TitleUnicode:空中分解
Artist:Matsushita
ArtistUnicode:松下
Creator:EnuHQ
Version:browiec's Broken
Source:
Tags:j-rock jrock three 3 すりぃ collage 鏡音レン kagamine len vocaloid version aerial breakup japanese rock browiec kuki1537
BeatmapID:4049254
BeatmapSetID:1954777

[Difficulty]
HPDrainRate:5.7
CircleSize:4
OverallDifficulty:9
ApproachRate:9.3
SliderMultiplier:1.9
SliderTickRate:1

[Events]
//Background and Video events
0,0,"woman.jpg",0,0
//Break Periods
//Storyboard Layer 0 (Background)
//Storyboard Layer 1 (Fail)
//Storyboard Layer 2 (Pass)
//Storyboard Layer 3 (Foreground)
//Storyboard Layer 4 (Overlay)
//Storyboard Sound Samples

[TimingPoints]
-3214,300,4,2,22,30,1,0
386,-133.333333333333,4,2,22,70,0,0
1586,-100,4,2,22,80,0,0
11186,-133.333333333333,4,2,22,55,0,0
20786,-117.647058823529,4,2,22,65,0,0
25586,-117.647058823529,4,2,22,75,0,0
30423,-117.647058823529,4,2,22,30,0,0
30986,-100,4,2,22,75,0,0
31136,-100,4,2,22,30,0,0
31211,-100,4,2,22,75,0,0
31361,-100,4,2,22,30,0,0
31436,-100,4,2,22,75,0,0
31511,-100,4,2,22,30,0,0
31586,-83.3333333333333,4,2,22,85,0,0
31886,-90.9090909090909,4,2,22,85,0,0
41186,-83.3333333333333,4,2,22,85,0,0
41486,-90.9090909090909,4,2,22,85,0,0
50186,-133.333333333333,4,2,22,70,0,0
50786,-100,4,2,22,80,0,0

[Colours]
Combo1 : 241,180,165
Combo2 : 208,209,203
Combo3 : 244,168,182
Combo4 : 191,196,202

[HitObjects]
92,107,386,6,0,P|82:159|72:214,2,106.875,2|2|2,2:0|2:0|2:0,2:0:0:0:
144,34,986,1,2,2:0:0:0:
144,34,1286,6,0,B|191:25|191:25|195:28|195:28|250:19,1,106.875,2|0,2:0|2:0,2:0:0:0:
274,18,1586,6,0,P|293:60|289:107,1,95,6|2,1:2|2:0,2:0:0:0:
141,220,1886,2,0,P|168:182|211:161,1,95,10|2,2:0|2:0,2:0:0:0:
256,371,2186,1,2,1:2:0:0:
95,300,2336,2,0,P|48:291|1:282,1,95,2|8,2:0|2:0,2:0:0:0:
281,215,2636,5,2,2:0:0:0:
97,123,2786,1,2,1:2:0:0:
188,306,2936,1,2,2:0:0:0:
333,139,3086,2,0,P|375:119|422:123,1,95,10|2,2:0|2:0,2:0:0:0:
197,219,3386,1,2,1:2:0:0:
264,40,3536,1,2,2:0:0:0:
390,209,3686,2,0,P|381:256|372:303,1,95,10|2,2:0|2:0,2:0:0:0:
126,163,3986,5,6,1:2:0:0:
126,163,4061,1,2,0:0:0:0:
126,163,4136,1,2,0:0:0:0:
281,186,4286,2,0,P|253:147|210:128,1,95,10|2,2:0|2:0,2:0:0:0:
30,287,4586,1,2,1:2:0:0:
214,312,4736,2,0,P|205:265|196:218,1,95,2|8,2:0|2:0,2:0:0:0:
437,67,5036,5,2,2:0:0:0:
346,249,5186,1,2,1:2:0:0:
265,17,5336,1,2,2:0:0:0:
496,195,5486,2,0,P|449:186|402:177,1,95,10|2,2:0|2:0,2:0:0:0:
145,107,5786,5,2,1:2:0:0:
348,54,5936,1,2,2:0:0:0:
37,66,6086,5,10,2:0:0:0:
315,168,6236,1,2,2:0:0:0:
87,240,6386,5,6,1:2:0:0:
87,240,6461,1,2,0:0:0:0:
87,240,6536,1,2,0:0:0:0:
241,78,6686,2,0,P|232:125|223:172,1,95,10|2,2:0|2:0,2:0:0:0:
386,278,6986,1,2,1:2:0:0:
417,95,7136,2,0,P|375:76|328:80,1,95,2|8,2:0|2:0,2:0:0:0:
155,315,7436,5,2,2:0:0:0:
315,168,7586,1,2,1:2:0:0:
318,384,7736,1,2,2:0:0:0:
148,221,7886,2,0,P|195:230|242:239,1,95,10|2,2:0|2:0,2:0:0:0:
512,189,8186,1,2,1:2:0:0:
342,83,8336,1,2,2:0:0:0:
386,287,8486,2,0,P|395:240|404:193,1,95,10|2,2:0|2:0,2:0:0:0:
151,38,8786,5,6,1:2:0:0:
151,38,8861,1,2,0:0:0:0:
151,38,8936,1,2,0:0:0:0:
28,229,9086,2,0,P|47:186|85:158,1,95,10|2,2:0|2:0,2:0:0:0:
251,292,9386,1,2,1:2:0:0:
101,338,9536,2,0,P|110:291|119:244,1,95,2|8,2:0|2:0,2:0:0:0:
191,93,9836,1,2,2:0:0:0:
268,309,9986,6,0,L|259:262,1,47.5,10|0,2:0|2:0,2:0:0:0:
345,164,10136,1,0,1:2:0:0:
345,164,10211,1,0,1:2:0:0:
345,164,10286,2,0,L|336:210,1,47.5,10|0,2:0|2:0,2:0:0:0:
420,231,10436,2,0,L|428:184,1,47.5,0|0,1:2|1:2,2:0:0:0:
394,50,10586,5,10,2:0:0:0:
394,50,10661,1,8,2:0:0:0:
394,50,10736,2,0,L|402:96,1,47.5,8|8,2:0|2:0,2:0:0:0:
255,180,10886,1,10,2:0:0:0:
212,174,10961,1,8,2:0:0:0:
170,169,11036,1,8,2:0:0:0:
127,163,11111,1,8,2:0:0:0:
85,158,11186,6,0,B|94:209|94:209|89:215|89:215|99:266,1,106.875,6|0,1:2|3:0,2:0:0:0:
102,280,11486,5,8,2:1:0:0:
112,290,12086,5,8,2:1:0:0:
122,300,12686,5,8,2:1:0:0:
132,310,13286,5,8,2:1:0:0:
142,320,13886,5,8,2:1:0:0:
152,330,14486,5,8,2:1:0:0:
162,340,15086,5,8,2:1:0:0:
302,230,15386,5,0,1:2:0:0:
221,274,15536,1,10,2:0:0:0:
395,325,15686,1,10,2:0:0:0:
315,141,15836,1,10,2:0:0:0:
210,365,15986,6,0,B|169:342|121:360|121:360|99:338|96:310,1,142.5,6|0,1:2|2:0,2:0:0:0:
148,239,16436,1,0,2:0:0:0:
85,178,16586,1,0,1:2:0:0:
85,178,16736,2,0,P|51:172|14:164,1,71.2500000000002,0|0,2:0|2:0,2:0:0:0:
0,73,17036,1,0,2:0:0:0:
80,18,17186,6,0,P|86:52|93:88,2,71.2500000000002,2|2|2,1:2|2:0|2:0,2:0:0:0:
196,20,17636,2,0,P|195:55|182:88,1,71.2500000000002,2|2,2:0|1:2,2:0:0:0:
231,170,17936,1,2,2:0:0:0:
231,170,18086,2,0,P|261:152|297:147,1,71.2500000000002,2|2,2:0|2:0,2:0:0:0:
365,85,18386,6,0,B|441:67|427:117|504:98,2,142.5,0|0|0,1:2|2:0|1:2,2:0:0:0:
297,147,19136,1,0,2:0:0:0:
297,147,19286,2,0,P|304:181|310:216,1,71.2500000000002,0|0,2:0|2:0,2:0:0:0:
279,356,19586,1,0,1:2:0:0:
234,268,19736,1,0,2:0:0:0:
355,305,19886,1,0,2:0:0:0:
269,366,20036,2,0,P|234:358|199:352,1,71.2500000000002,0|0,2:0|1:2,2:0:0:0:
17,179,20336,5,10,2:0:0:0:
108,378,20486,1,10,2:0:0:0:
17,179,20636,1,10,2:0:0:0:
234,268,20786,6,0,B|295:258|295:258|327:279|327:279|388:269,1,161.500000000001,2|8,1:2|2:0,2:0:0:0:
441,196,21236,1,2,2:0:0:0:
307,116,21386,1,2,2:0:0:0:
410,38,21536,2,0,P|401:77|394:117,1,80.7500000000003,2|8,1:2|2:0,2:0:0:0:
351,193,21836,1,2,2:0:0:0:
200,89,21986,5,2,1:2:0:0:
292,28,22136,1,2,2:0:0:0:
235,167,22286,1,10,2:0:0:0:
129,31,22436,2,0,P|91:17|51:21,1,80.7500000000003,10|0,2:0|2:0,2:0:0:0:
100,155,22736,1,2,1:2:0:0:
200,89,22886,1,10,2:0:0:0:
100,155,23036,1,2,2:0:0:0:
235,167,23186,6,0,P|300:153|366:141,1,121.125,2|0,1:2|2:0,2:0:0:0:
376,141,23486,2,0,P|367:180|360:220,1,80.7500000000003,10|0,2:0|2:0,2:0:0:0:
284,383,23786,1,2,2:0:0:0:
240,272,23936,1,2,1:2:0:0:
284,383,24086,1,10,2:0:0:0:
369,230,24236,6,0,P|408:221|448:214,1,80.7500000000003,2|0,2:0|1:2,2:0:0:0:
322,304,24536,1,2,1:2:0:0:
376,141,24686,1,10,2:0:0:0:
496,286,24836,2,0,P|509:323|505:363,1,80.7500000000003,10|0,2:0|2:0,2:0:0:0:
276,195,25136,5,2,1:2:0:0:
422,332,25286,1,10,2:0:0:0:
221,267,25436,1,2,2:0:0:0:
446,144,25586,6,0,B|406:147|358:160|358:160|339:123|299:109,1,161.500000000001,6|8,1:2|2:0,2:0:0:0:
219,119,26036,1,2,2:0:0:0:
350,245,26186,1,2,2:0:0:0:
196,210,26336,2,0,P|235:203|275:194,1,80.7500000000003,2|8,1:2|2:0,2:0:0:0:
165,293,26636,1,2,2:0:0:0:
81,134,26786,5,2,1:2:0:0:
196,210,26936,1,2,2:0:0:0:
127,57,27086,1,10,2:0:0:0:
21,200,27236,2,0,P|29:239|36:279,1,80.7500000000003,10|0,2:0|2:0,2:0:0:0:
102,379,27536,1,2,1:2:0:0:
165,293,27686,1,10,2:0:0:0:
102,379,27836,1,2,2:0:0:0:
114,217,27986,6,0,P|157:203|231:231,1,121.125,6|0,1:2|2:0,2:0:0:0:
239,242,28286,2,0,P|252:279|248:319,1,80.7500000000003,10|0,2:0|2:0,2:0:0:0:
274,149,28586,1,2,1:2:0:0:
165,293,28736,1,0,1:2:0:0:
102,118,28886,2,0,P|95:78|86:38,1,80.7500000000003,10|0,2:0|2:0,2:0:0:0:
274,149,29186,5,2,1:2:0:0:
114,217,29336,1,2,1:2:0:0:
338,267,29486,1,10,2:0:0:0:
199,77,29636,2,0,P|190:116|183:156,1,80.7500000000003,10|0,2:0|1:2,2:0:0:0:
111,351,29936,1,10,2:0:0:0:
25,220,30086,1,10,2:0:0:0:
111,351,30236,1,10,2:0:0:0:
179,276,30386,6,0,L|177:297,12,20.1875000000001,0|0|0|0|0|0|0|0|0|0|0|0|0,3:2|3:2|3:2|3:2|3:2|3:2|3:2|3:2|3:2|3:2|3:2|3:2|3:2,3:2:0:0:
121,207,30986,6,0,P|163:188|210:192,1,95,10|0,2:0|2:0,2:0:0:0:
240,110,31211,6,0,P|277:136|297:179,1,95,10|0,2:0|2:0,2:0:0:0:
362,237,31436,6,0,P|357:260|353:284,1,47.5,10|0,2:0|2:0,2:0:0:0:
508,77,31586,6,0,B|458:65|416:95|416:95|392:64|353:57,1,171,6|0,1:2|2:0,2:0:0:0:
288,3,31886,2,0,P|236:13|185:23,1,104.5,10|0,2:0|2:0,2:0:0:0:
14,162,32186,1,2,1:2:0:0:
212,233,32336,1,2,1:2:0:0:
63,6,32486,2,0,P|73:57|83:108,1,104.5,10|2,2:0|2:0,2:0:0:0:
168,368,32786,5,0,1:2:0:0:
248,146,32936,1,2,2:0:0:0:
345,371,33086,1,8,2:0:0:0:
436,161,33236,2,0,P|425:212|415:263,1,104.5,2|0,1:2|2:0,2:0:0:0:
212,233,33536,1,2,1:2:0:0:
356,135,33686,1,10,2:0:0:0:
248,320,33836,1,2,2:0:0:0:
154,89,33986,6,0,P|98:51|7:74,1,156.75,2|0,1:2|2:0,2:0:0:0:
0,85,34286,1,10,2:0:0:0:
128,205,34436,1,2,2:0:0:0:
244,45,34586,1,2,1:2:0:0:
60,146,34736,1,2,1:2:0:0:
300,241,34886,1,10,2:0:0:0:
0,334,35036,6,0,B|113:299|91:389|199:358,1,209,2|2,2:0|2:0,2:0:0:0:
312,225,35486,1,10,2:0:0:0:
137,173,35636,2,0,P|147:224|157:275,1,104.5,2|0,1:2|2:0,2:0:0:0:
315,14,35936,5,2,1:2:0:0:
232,185,36086,1,10,2:0:0:0:
146,47,36236,1,2,2:0:0:0:
312,225,36386,6,0,B|366:223|411:210|411:210|431:234|425:265,1,156.75,6|0,1:2|2:0,2:0:0:0:
401,348,36686,2,0,P|349:354|301:335,1,104.5,10|0,2:0|2:0,2:0:0:0:
98,198,36986,1,2,1:2:0:0:
214,367,37136,1,2,1:2:0:0:
25,258,37286,2,0,P|6:209|12:158,1,104.5,10|2,2:0|2:0,2:0:0:0:
277,221,37586,5,2,1:2:0:0:
90,321,37736,1,2,2:0:0:0:
199,143,37886,1,8,2:0:0:0:
323,369,38036,2,0,B|356:362|379:355|379:355|419:372|419:372|452:362|482:357,1,156.75,2|0,1:2|2:0,2:0:0:0:
490,354,38336,1,2,1:2:0:0:
353,171,38486,1,10,2:0:0:0:
490,354,38636,1,2,2:0:0:0:
193,222,38786,5,10,2:0:0:0:
435,129,38936,1,0,1:2:0:0:
240,324,39086,1,2,2:0:0:0:
124,13,39236,5,6,1:2:0:0:
323,369,39536,5,6,1:2:0:0:
0,173,39836,6,0,B|64:165|117:147|117:147|143:191|185:201,1,209,2|0,1:2|1:2,2:0:0:0:
480,160,40286,1,10,2:0:0:0:
223,8,40436,2,0,P|213:59|203:110,1,104.5,10|0,2:0|1:2,2:0:0:0:
454,276,40736,5,10,2:0:0:0:
420,250,40811,1,8,2:0:0:0:
379,236,40886,1,10,2:0:0:0:
336,234,40961,1,8,2:0:0:0:
294,246,41036,1,8,2:0:0:0:
258,270,41111,1,8,2:0:0:0:
231,304,41186,6,0,B|139:275|158:348|62:323,1,171,6|0,1:2|2:0,2:0:0:0:
0,267,41486,2,0,P|-6:215|12:167,1,104.5,10|0,2:0|2:0,2:0:0:0:
217,94,41786,1,2,1:2:0:0:
9,3,41936,1,2,1:2:0:0:
86,232,42086,2,0,P|137:222|188:212,1,104.5,10|2,2:0|2:0,2:0:0:0:
455,47,42386,5,2,1:2:0:0:
217,94,42536,1,2,2:0:0:0:
455,47,42686,1,8,2:0:0:0:
275,258,42836,2,0,P|285:207|295:156,1,104.5,2|0,1:2|2:0,2:0:0:0:
426,319,43136,1,2,1:2:0:0:
197,358,43286,2,0,P|178:309|184:258,1,104.5,10|2,2:0|2:0,2:0:0:0:
410,132,43586,6,0,B|429:230|429:230|372:204,1,156.75,6|0,1:2|2:0,2:0:0:0:
322,133,43886,2,0,P|270:127|222:146,1,104.5,10|2,2:0|2:0,2:0:0:0:
53,315,44186,1,2,1:2:0:0:
283,216,44336,1,2,1:2:0:0:
71,110,44486,1,10,2:0:0:0:
135,371,44636,6,0,B|138:333|151:298|151:298|121:250|121:250|131:212|137:173,1,209,2|2,2:0|2:0,2:0:0:0:
264,74,45086,1,10,2:0:0:0:
317,246,45236,2,0,P|265:251|217:232,1,104.5,2|0,1:2|2:0,2:0:0:0:
71,11,45536,5,2,1:2:0:0:
6,244,45686,1,10,2:0:0:0:
71,11,45836,1,2,2:0:0:0:
277,164,45986,6,0,P|353:149|430:134,1,156.75,6|0,1:2|2:0,2:0:0:0:
456,130,46286,2,0,P|474:178|469:229,1,104.5,10|0,2:0|2:0,2:0:0:0:
275,71,46586,1,2,1:2:0:0:
380,240,46736,1,2,1:2:0:0:
478,41,46886,2,0,P|427:31|376:21,1,104.5,10|2,2:0|2:0,2:0:0:0:
171,150,47186,5,2,1:2:0:0:
380,240,47336,1,2,2:0:0:0:
127,309,47486,1,10,2:0:0:0:
270,159,47636,2,0,P|280:210|290:261,1,104.5,2|0,1:2|2:0,2:0:0:0:
95,211,47936,1,2,1:2:0:0:
252,339,48086,1,10,2:0:0:0:
171,150,48236,1,2,2:0:0:0:
38,358,48386,5,2,1:2:0:0:
38,358,50036,5,0,1:2:0:0:
38,358,50111,1,0,1:2:0:0:
38,358,50186,2,0,L|43:320,1,35.6250000000001,8|8,2:0|2:0,2:0:0:0:
119,254,50336,2,0,L|124:292,1,35.6250000000001,0|0,1:2|1:2,2:0:0:0:
185,352,50486,6,0,B|219:339|242:337|242:337|261:357|290:367,1,106.875,12|0,2:0|2:0,2:0:0:0:
369,350,50786,6,0,P|388:308|384:261,1,95,6|2,1:2|2:0,2:0:0:0:
227,175,51086,2,0,P|253:212|296:232,1,95,10|2,2:0|2:0,2:0:0:0:
459,97,51386,1,2,1:2:0:0:
294,50,51536,2,0,P|303:97|312:144,1,95,2|8,2:0|2:0,2:0:0:0:
185,352,51836,5,2,2:0:0:0:
51,160,51986,1,2,1:2:0:0:
185,352,52136,1,2,2:0:0:0:
227,175,52286,2,0,P|180:184|133:193,1,95,10|2,2:0|2:0,2:0:0:0:
290,338,52586,1,2,1:2:0:0:
104,277,52736,1,2,2:0:0:0:
316,168,52886,2,0,P|335:210|331:257,1,95,10|2,2:0|2:0,2:0:0:0:
111,74,53186,6,0,B|159:79|194:93|194:93|204:64|230:46,1,142.5,6|0,1:2|2:0,2:0:0:0:
305,11,53486,2,0,P|352:20|399:29,1,95,10|2,2:0|2:0,2:0:0:0:
474,102,53711,1,2,2:0:0:0:
474,102,53786,2,0,P|450:106|427:111,1,47.5,2|0,1:2|2:0,2:0:0:0:
306,206,53936,1,2,2:0:0:0:
306,206,54011,1,2,2:0:0:0:
306,206,54086,1,10,2:0:0:0:
459,247,54236,1,2,2:0:0:0:
299,103,54386,5,2,1:2:0:0:
262,287,54536,2,0,P|271:334|280:381,1,95,2|8,2:0|2:0,2:0:0:0:
107,260,54836,2,0,P|102:213|121:170,1,95,2|0,2:0|1:2,2:0:0:0:
299,103,55136,1,2,2:0:0:0:
36,24,55286,2,0,B|66:20|89:15|89:15|121:30|121:30|148:25|174:22,1,142.5,14|0,2:0|3:0,3:0:0:0:
264,9,55586,6,0,B|242:133|242:133|273:113|300:101,1,190,6|0,1:2|1:2,2:0:0:0:
437,48,56036,2,0,L|461:45,4,23.75,0|0|0|0|2,3:2|3:2|3:2|3:2|1:2,2:0:0:0:
404,214,56336,2,0,P|395:167|386:120,1,95,2|8,2:0|2:0,2:0:0:0:
227,223,56636,1,2,2:0:0:0:
381,351,56786,5,2,1:2:0:0:
312,194,56936,1,2,3:2:0:0:
215,375,57086,1,2,1:2:0:0:
306,212,57236,1,2,3:2:0:0:
295,328,57386,5,2,1:2:0:0:
200,145,57536,1,2,2:0:0:0:
133,337,57686,1,0,1:2:0:0:
109,332,57761,1,0,1:2:0:0:
86,328,57836,1,0,1:2:0:0:
63,323,57911,1,0,1:2:0:0:
39,319,57986,6,0,B|-11:268|-1:199|-1:199|52:156,1,190,6|10,1:2|2:0,2:0:0:0:
231,228,58436,2,0,P|184:232|141:213,1,95,2|0,2:0|1:2,2:0:0:0:
239,45,58736,2,0,P|281:25|328:30,1,95,2|8,3:2|2:0,2:0:0:0:
424,184,59036,1,2,2:0:0:0:
251,136,59186,6,0,P|227:140|204:145,4,47.5,10|2|2|2|2,2:0|2:0|2:0|2:0|2:0,2:0:0:0:
502,245,59636,5,8,2:0:0:0:
462,270,59711,1,8,2:0:0:0:
415,276,59786,1,8,2:0:0:0:
371,261,59861,1,8,2:0:0:0:
337,228,59936,2,0,P|332:204|328:181,1,47.5,8|8,2:0|2:0,2:0:0:0:
497,70,60086,6,0,P|492:93|488:117,1,47.5,2|2,1:2|1:2,2:0:0:0:
424,184,60236,1,2,1:2:0:0:
