osu file format v14

[General]
AudioFilename: audio.mp3
AudioLeadIn: 0
PreviewTime: 30836
Countdown: 0
SampleSet: Soft
StackLeniency: 0.7
Mode: 0
LetterboxInBreaks: 0
WidescreenStoryboard: 1

[Editor]
DistanceSpacing: 1
BeatDivisor: 4
GridSize: 16
TimelineZoom: 1.4

[Metadata]
Title:Kuuchuu Bunkai
TitleUnicode:空中分解
Artist:Matsushita
ArtistUnicode:松下
Creator:EnuHQ
Version:Normal
Source:
Tags:j-rock jrock three 3 すりぃ collage 鏡音レン kagamine len vocaloid version aerial breakup japanese rock browiec kuki1537
BeatmapID:4048532
BeatmapSetID:1954777

[Difficulty]
HPDrainRate:3
CircleSize:3.2
OverallDifficulty:4
ApproachRate:5.5
SliderMultiplier:1
SliderTickRate:1

[Events]
//Background and Video events
0,0,"woman.jpg",0,0
//Break Periods
2,11386,14336
//Storyboard Layer 0 (Background)
//Storyboard Layer 1 (Fail)
//Storyboard Layer 2 (Pass)
//Storyboard Layer 3 (Foreground)
//Storyboard Layer 4 (Overlay)
//Storyboard Sound Samples

[TimingPoints]
-3214,300,4,2,0,100,1,0
386,-111.111111111111,4,2,22,70,0,0
1586,-100,4,2,22,80,0,0
11186,-100,4,2,22,55,0,0
15536,-111.111111111111,4,2,22,55,0,0
20786,-100,4,2,22,65,0,0
25586,-100,4,2,22,75,0,0
31586,-90.9090909090909,4,2,22,85,0,0
50036,-90.9090909090909,4,2,22,70,0,0
50786,-100,4,2,22,80,0,0

[Colours]
Combo1 : 241,180,165
Combo2 : 208,209,203
Combo3 : 244,168,182
Combo4 : 191,196,202

[HitObjects]
64,53,386,6,0,L|-2:30,2,67.5000000000001,2|2|2,2:0|2:0|2:0,2:0:0:0:
105,70,986,1,2,2:0:0:0:
180,20,1286,1,2,2:0:0:0:
241,98,1586,6,0,P|223:145|206:196,1,100,6|10,1:2|2:0,2:0:0:0:
189,239,2036,2,0,P|165:230|141:222,2,50,2|2|2,2:0|1:2|2:0,0:0:0:0:
258,319,2636,1,2,2:0:0:0:
258,319,2786,2,0,P|291:283|340:282,1,100,2|10,1:2|2:0,0:0:0:0:
417,346,3386,2,0,P|432:298|450:251,1,100,2|10,1:2|2:0,0:0:0:0:
499,164,3986,6,0,P|481:117|464:66,1,100,6|10,1:2|2:0,2:0:0:0:
447,23,4436,2,0,P|471:14|495:6,2,50,2|2|2,2:0|1:2|2:0,0:0:0:0:
362,73,5036,1,2,2:0:0:0:
362,73,5186,2,0,P|313:74|276:42,1,100,2|10,1:2|2:0,0:0:0:0:
203,111,5786,2,0,L|219:158,1,50,2|2,1:2|2:0,0:0:0:0:
238,204,6086,1,10,2:0:0:0:
191,292,6386,6,0,P|144:274|93:257,1,100,6|10,1:2|2:0,2:0:0:0:
48,270,6836,2,0,P|38:292|31:317,2,50,2|2|2,2:0|1:2|2:0,0:0:0:0:
22,178,7436,1,2,2:0:0:0:
22,178,7586,2,0,P|37:130|55:83,1,100,2|10,1:2|2:0,0:0:0:0:
129,16,8186,1,2,1:2:0:0:
195,90,8486,1,10,2:0:0:0:
267,21,8786,6,0,P|304:52|352:51,1,100,6|10,1:2|2:0,2:0:0:0:
394,20,9236,2,0,P|416:10|440:3,2,50,2|2|2,2:0|1:2|2:0,0:0:0:0:
430,118,9836,1,2,2:0:0:0:
430,118,9986,2,0,P|424:166|389:201,2,100,10|10|10,2:0|2:0|2:0,2:0:0:0:
355,51,10886,2,0,L|300:69,1,50,10|8,2:0|2:0,0:0:0:0:
273,95,11186,5,6,1:2:0:0:
499,45,15536,6,0,L|513:2,2,45,10|10|10,2:0|2:0|2:0,0:0:0:0:
484,88,15986,6,0,P|443:71|398:58,1,90.0000000000001,6|0,1:2|2:0,2:0:0:0:
329,10,16586,1,0,1:2:0:0:
329,10,16736,2,0,P|288:26|243:39,1,90.0000000000001,0|0,2:0|2:0,2:0:0:0:
204,17,17186,1,2,1:2:0:0:
146,86,17486,1,2,2:0:0:0:
146,86,17636,2,0,P|163:126|150:169,1,90.0000000000001,2|2,2:0|2:0,2:0:0:0:
124,205,18086,1,2,2:0:0:0:
158,287,18386,6,0,P|114:299|73:316,2,90.0000000000001,0|0|0,1:2|2:0|1:2,2:0:0:0:
223,348,19286,1,0,2:0:0:0:
290,288,19586,2,0,P|277:244|260:203,1,90.0000000000001,0|0,1:2|2:0,0:0:0:0:
239,162,20036,1,0,2:0:0:0:
291,88,20336,2,0,P|297:67|305:45,2,45,10|10|10,2:0|2:0|2:0,0:0:0:0:
321,127,20786,6,0,P|366:145|411:126,1,100,2|8,1:2|2:0,2:0:0:0:
455,99,21236,1,2,2:0:0:0:
455,99,21386,2,0,P|473:144|487:192,1,100,2|8,2:0|2:0,0:0:0:0:
403,248,21986,2,0,P|389:296|370:342,1,100,2|10,1:2|2:0,0:0:0:0:
333,376,22436,1,10,2:0:0:0:
260,307,22736,2,0,P|234:314|208:323,2,50,2|10|2,1:2|2:0|2:0,0:0:0:0:
292,268,23186,5,2,1:2:0:0:
234,185,23486,1,10,2:0:0:0:
283,98,23786,2,0,P|306:89|330:82,2,50,2|2|10,2:0|1:2|2:0,0:0:0:0:
251,59,24236,2,0,P|204:40|156:26,1,100,2|2,2:0|1:2,2:0:0:0:
114,48,24686,1,10,2:0:0:0:
114,48,24836,1,10,2:0:0:0:
36,116,25136,1,2,1:2:0:0:
36,116,25286,2,0,P|44:139|51:163,1,50,10|2,2:0|2:0,0:0:0:0:
67,211,25586,6,0,P|48:258|34:306,1,100,6|8,1:2|2:0,2:0:0:0:
60,354,26036,1,2,2:0:0:0:
60,354,26186,2,0,P|107:335|155:321,1,100,2|8,2:0|2:0,0:0:0:0:
240,372,26786,1,2,1:2:0:0:
304,296,27086,1,10,2:0:0:0:
304,296,27236,2,0,P|270:260|267:211,1,100,10|2,2:0|1:2,2:0:0:0:
290,167,27686,1,10,2:0:0:0:
239,80,27986,6,0,P|192:61|144:47,2,100,6|10|2,1:2|2:0|1:2,2:0:0:0:
322,24,28886,1,10,2:0:0:0:
391,96,29186,2,0,P|414:88|438:81,2,50,2|2|10,1:2|1:2|2:0,0:0:0:0:
360,135,29636,2,0,P|379:182|393:230,1,100,10|10,2:0|2:0,2:0:0:0:
361,268,30086,2,0,P|338:260|314:253,1,50,10|10,2:0|2:0,0:0:0:0:
270,278,30386,1,0,3:2:0:0:
197,91,30986,6,0,L|224:20,2,75,10|10|10,2:0|2:0|2:0,2:0:0:0:
157,130,31586,6,0,P|165:155|173:181,1,55,6|0,1:2|0:0,2:0:0:0:
220,211,31886,2,0,P|211:236|203:262,1,55,10|0,2:0|2:0,2:0:0:0:
169,307,32186,1,2,1:2:0:0:
261,375,32486,1,10,2:0:0:0:
261,375,32636,2,0,P|311:354|364:338,2,110,2|2|2,2:0|2:0|1:2,0:0:0:0:
166,330,33536,1,2,1:2:0:0:
166,330,33686,2,0,P|140:338|114:346,1,55,10|2,2:0|2:0,0:0:0:0:
66,316,33986,6,0,P|34:272|50:222,1,110,2|10,1:2|2:0,2:0:0:0:
115,134,34586,1,2,1:2:0:0:
115,134,34736,2,0,P|107:108|99:82,1,55,2|10,1:2|2:0,0:0:0:0:
126,33,35036,2,0,P|176:54|229:70,1,110,2|2,2:0|2:0,2:0:0:0:
281,47,35486,1,10,2:0:0:0:
281,47,35636,1,2,1:2:0:0:
379,107,35936,1,2,1:2:0:0:
379,107,36086,2,0,P|371:133|363:159,1,55,10|2,2:0|2:0,0:0:0:0:
316,189,36386,6,0,P|337:239|353:292,1,110,6|10,1:2|2:0,2:0:0:0:
274,369,36986,2,0,P|249:361|223:353,1,55,2|2,1:2|1:2,0:0:0:0:
180,318,37286,2,0,P|155:327|129:335,1,55,10|2,2:0|2:0,2:0:0:0:
101,293,37586,1,2,1:2:0:0:
101,293,37736,2,0,P|122:243|138:190,1,110,2|2,2:0|1:2,0:0:0:0:
218,114,38336,1,2,1:2:0:0:
218,114,38486,2,0,P|210:88|202:62,1,55,10|2,2:0|2:0,0:0:0:0:
160,24,38786,6,0,P|110:45|57:61,1,110,10|2,2:0|2:0,0:0:0:0:
9,32,39236,1,6,1:2:0:0:
6,141,39536,1,6,1:2:0:0:
82,219,39836,2,0,P|66:271|44:322,1,110,2|0,1:2|1:2,2:0:0:0:
77,372,40286,1,10,2:0:0:0:
77,372,40436,2,0,P|129:355|179:334,1,110,10|10,2:0|2:0,2:0:0:0:
213,289,40886,1,10,2:0:0:0:
301,354,41186,6,0,P|309:329|317:303,1,55,6|0,1:2|0:0,2:0:0:0:
364,273,41486,2,0,P|355:248|347:222,1,55,10|0,2:0|2:0,2:0:0:0:
313,177,41786,1,2,1:2:0:0:
225,109,42086,2,0,P|234:84|242:58,1,55,10|2,2:0|2:0,2:0:0:0:
260,7,42386,1,2,1:2:0:0:
260,7,42536,2,0,P|312:24|362:45,1,110,2|2,2:0|1:2,0:0:0:0:
444,119,43136,2,0,P|469:110|495:102,2,55,2|10|2,1:2|2:0|2:0,0:0:0:0:
393,140,43586,6,0,P|384:192|420:230,1,110,6|10,1:2|2:0,2:0:0:0:
379,332,44186,1,2,1:2:0:0:
279,298,44486,1,10,2:0:0:0:
279,298,44636,2,0,P|228:277|176:260,1,110,2|2,2:0|2:0,2:0:0:0:
146,219,45086,1,10,2:0:0:0:
146,219,45236,1,2,1:2:0:0:
238,155,45536,1,2,1:2:0:0:
238,155,45686,2,0,P|230:129|222:103,1,55,10|2,2:0|2:0,0:0:0:0:
250,55,45986,5,6,1:2:0:0:
340,117,46286,1,10,2:0:0:0:
431,56,46586,2,0,P|422:29|413:3,2,55,2|2|10,1:2|1:2|2:0,0:0:0:0:
462,107,47036,1,2,2:0:0:0:
462,107,47186,2,0,P|444:159|423:209,1,110,2|10,1:2|2:0,0:0:0:0:
405,262,47636,1,2,1:2:0:0:
370,368,47936,1,2,1:2:0:0:
370,368,48086,2,0,P|344:360|318:352,1,55,10|2,2:0|2:0,0:0:0:0:
264,335,48386,5,2,1:2:0:0:
427,3,50036,6,0,P|453:80|480:159,1,165,0|12,1:2|2:0,0:0:0:0:
398,216,50786,6,0,P|416:263|433:314,1,100,6|10,1:2|2:0,2:0:0:0:
450,357,51236,2,0,P|474:348|498:340,2,50,2|2|2,2:0|1:2|2:0,0:0:0:0:
354,373,51836,1,2,2:0:0:0:
354,373,51986,2,0,P|307:355|256:338,1,100,2|10,1:2|2:0,0:0:0:0:
166,375,52586,2,0,P|130:342|129:293,1,100,2|10,1:2|2:0,0:0:0:0:
193,217,53186,6,0,P|175:170|158:119,1,100,6|10,1:2|2:0,2:0:0:0:
195,88,53636,1,2,2:0:0:0:
195,88,53786,2,0,P|242:106|293:123,1,100,2|10,1:2|2:0,2:0:0:0:
374,69,54386,1,2,1:2:0:0:
443,140,54686,1,8,2:0:0:0:
389,224,54986,2,0,P|398:248|406:272,1,50,0|2,1:2|2:0,0:0:0:0:
423,318,55286,1,14,2:0:0:0:
323,305,55586,6,0,P|276:322|228:338,1,100,6|0,1:2|1:2,2:0:0:0:
201,297,56036,2,0,P|210:273|218:249,1,50,0|2,3:2|1:2,2:0:0:0:
235,203,56336,1,2,2:0:0:0:
282,117,56636,1,2,2:0:0:0:
282,117,56786,2,0,P|329:132|376:149,2,100,2|2|2,1:2|1:2|1:2,0:0:0:0:
221,37,57686,2,0,P|197:44|173:53,1,50,0|0,1:2|1:2,0:0:0:0:
125,39,57986,5,6,1:2:0:0:
55,110,58286,1,10,2:0:0:0:
55,110,58436,2,0,P|73:157|90:208,1,100,2|2,2:0|3:2,2:0:0:0:
121,298,59036,1,2,2:0:0:0:
273,168,59636,2,0,P|320:183|367:201,1,100,8|8,2:0|2:0,0:0:0:0:
417,223,60086,1,2,1:2:0:0:
417,223,60236,1,2,1:2:0:0:
