osu file format v14

[General]
AudioFilename: audio.mp3
AudioLeadIn: 0
PreviewTime: 30836
Countdown: 0
SampleSet: Soft
StackLeniency: 0.7
Mode: 0
LetterboxInBreaks: 0
WidescreenStoryboard: 1

[Editor]
DistanceSpacing: 1
BeatDivisor: 4
GridSize: 32
TimelineZoom: 2.3

[Metadata]
Title:Kuuchuu Bunkai
TitleUnicode:空中分解
Artist:Matsushita
ArtistUnicode:松下
Creator:EnuHQ
Version:Hard
Source:
Tags:j-rock jrock three 3 すりぃ collage 鏡音レン kagamine len vocaloid version aerial breakup japanese rock browiec kuki1537
BeatmapID:4048530
BeatmapSetID:1954777

[Difficulty]
HPDrainRate:4
CircleSize:3.4
OverallDifficulty:6.4
ApproachRate:8
SliderMultiplier:1.52
SliderTickRate:1

[Events]
//Background and Video events
0,0,"woman.jpg",0,0
//Break Periods
2,11386,14786
2,48586,49286
//Storyboard Layer 0 (Background)
//Storyboard Layer 1 (Fail)
//Storyboard Layer 2 (Pass)
//Storyboard Layer 3 (Foreground)
//Storyboard Layer 4 (Overlay)
//Storyboard Sound Samples

[TimingPoints]
-3214,300,4,2,0,100,1,0
386,-125,4,2,22,70,0,0
1586,-100,4,2,22,80,0,0
11186,-100,4,2,22,55,0,0
15536,-106.382978723404,4,2,22,55,0,0
15986,-121.951219512195,4,2,22,55,0,0
20786,-108.695652173913,4,2,22,65,0,0
25586,-108.695652173913,4,2,22,75,0,0
31586,-98.0392156862745,4,2,22,85,0,0
50786,-100,4,2,22,80,0,0

[Colours]
Combo1 : 241,180,165
Combo2 : 208,209,203
Combo3 : 244,168,182
Combo4 : 191,196,202

[HitObjects]
296,111,386,6,0,L|380:76,2,91.2,2|2|2,2:0|2:0|2:0,2:0:0:0:
218,148,986,1,2,2:0:0:0:
173,19,1286,1,2,2:0:0:0:
5,0,1586,6,0,P|36:45|17:97,1,114,6|0,1:2|0:0,2:0:0:0:
0,131,1886,2,0,P|37:140|72:155,1,76,10|2,2:0|2:0,2:0:0:0:
138,235,2186,1,2,1:2:0:0:
180,143,2336,2,0,P|202:70|230:0,1,152,2|2,2:0|2:0,2:0:0:0:
296,82,2786,6,0,P|334:80|363:57,1,76,2|2,1:2|2:0,0:0:0:0:
444,0,3086,2,0,P|453:37|468:72,1,76,10|2,2:0|2:0,2:0:0:0:
408,152,3386,1,2,1:2:0:0:
408,152,3536,1,2,2:0:0:0:
488,202,3686,2,0,P|467:232|431:243,1,76,10|2,2:0|2:0,2:0:0:0:
354,290,3986,6,0,P|305:269|247:252,1,114,6|0,1:2|0:0,2:0:0:0:
211,239,4286,2,0,P|197:204|188:167,1,76,10|2,2:0|2:0,2:0:0:0:
259,101,4586,1,2,1:2:0:0:
196,25,4736,2,0,B|143:45|143:45|126:80|126:80|66:104,1,152,2|2,2:0|2:0,2:0:0:0:
18,182,5186,6,0,P|27:218|42:253,1,76,2|2,1:2|2:0,0:0:0:0:
117,333,5486,2,0,P|132:298|141:261,1,76,10|2,2:0|2:0,2:0:0:0:
213,195,5786,1,2,1:2:0:0:
213,195,5936,1,2,2:0:0:0:
289,256,6086,2,0,P|325:245|347:215,1,76,10|2,2:0|2:0,0:0:0:0:
461,245,6386,6,0,P|440:196|423:138,1,114,6|0,1:2|0:0,2:0:0:0:
410,102,6686,2,0,P|375:88|338:79,1,76,10|2,2:0|2:0,2:0:0:0:
251,25,6986,1,2,1:2:0:0:
251,25,7136,2,0,P|181:53|108:75,1,152,2|2,2:0|2:0,2:0:0:0:
35,141,7586,6,0,P|37:178|60:207,1,76,2|2,1:2|2:0,0:0:0:0:
135,274,7886,2,0,P|159:244|160:207,1,76,10|2,2:0|2:0,2:0:0:0:
224,135,8186,2,0,P|260:120|297:111,1,76,2|2,1:2|2:0,0:0:0:0:
367,43,8486,1,10,2:0:0:0:
367,43,8636,1,2,2:0:0:0:
439,121,8786,6,0,P|408:166|427:218,1,114,6|0,1:2|0:0,2:0:0:0:
449,249,9086,2,0,P|435:283|426:320,1,76,10|2,2:0|2:0,2:0:0:0:
351,384,9386,1,2,1:2:0:0:
292,308,9536,2,0,P|222:336|149:358,1,152,2|2,2:0|2:0,2:0:0:0:
71,299,9986,5,10,2:0:0:0:
124,230,10136,2,0,P|157:216|190:208,2,38,0|0|10,1:2|1:2|2:0,0:0:0:0:
52,182,10436,2,0,P|20:195|-13:203,2,38,0|0|10,1:2|1:2|2:0,2:0:0:0:
119,112,10736,1,8,2:0:0:0:
51,50,10886,2,0,P|19:63|-14:71,3,38,10|8|8|8,2:0|2:0|2:0|2:0,0:0:0:0:
0,71,11186,5,6,1:2:0:0:
37,317,15536,6,0,L|13:384,2,71.4400000000002,10|10|10,2:0|2:0|2:0,0:0:0:0:
73,230,15986,6,0,P|133:230|177:274,1,124.64,6|0,1:2|2:0,2:0:0:0:
332,368,16586,2,0,P|313:308|290:250,1,124.64,0|0,1:2|2:0,0:0:0:0:
383,141,17186,6,0,P|371:100|355:61,1,62.3200000000001,2|2,1:2|2:0,2:0:0:0:
295,33,17486,1,2,2:0:0:0:
295,33,17636,2,0,P|265:43|235:51,1,62.3200000000001,2|2,2:0|1:2,2:0:0:0:
165,105,17936,2,0,P|145:67|150:36,2,62.3200000000001,2|2|2,2:0|2:0|2:0,0:0:0:0:
213,173,18386,6,0,P|194:232|171:290,1,124.64,0|0,1:2|2:0,2:0:0:0:
336,364,18986,2,0,P|358:306|377:246,1,124.64,0|0,1:2|2:0,0:0:0:0:
488,103,19586,6,0,P|447:91|408:75,1,62.3200000000001,0|0,1:2|2:0,0:0:0:0:
363,133,19886,1,0,2:0:0:0:
363,133,20036,2,0,P|333:123|303:115,1,62.3200000000001,0|0,2:0|1:2,2:0:0:0:
250,54,20336,1,10,2:0:0:0:
250,54,20486,1,10,2:0:0:0:
185,101,20636,1,10,2:0:0:0:
125,43,20786,6,0,P|77:90|81:157,1,139.84,2|8,1:2|2:0,2:0:0:0:
94,250,21236,1,2,2:0:0:0:
94,250,21386,2,0,P|61:239|28:230,2,69.92,2|2|8,2:0|1:2|2:0,0:0:0:0:
159,307,21836,5,2,2:0:0:0:
159,307,21986,2,0,P|206:289|255:273,1,69.92,2|2,1:2|2:0,0:0:0:0:
287,335,22286,1,10,2:0:0:0:
348,281,22436,2,0,P|375:219|343:159,1,139.84,10|2,2:0|1:2,2:0:0:0:
279,112,22886,1,10,2:0:0:0:
279,112,23036,1,2,2:0:0:0:
332,50,23186,6,0,P|391:26|464:4,1,139.84,2|10,1:2|2:0,2:0:0:0:
512,164,23786,2,0,P|504:197|478:220,1,69.92,2|2,2:0|1:2,0:0:0:0:
435,287,24086,2,0,P|402:274|369:262,1,69.92,10|2,2:0|2:0,0:0:0:0:
313,317,24386,6,0,P|325:349|337:382,2,69.92,0|2|10,1:2|1:2|2:0,0:0:0:0:
245,274,24836,2,0,P|270:209|291:143,1,139.84,10|2,2:0|1:2,2:0:0:0:
359,98,25286,1,10,2:0:0:0:
359,98,25436,1,2,2:0:0:0:
307,33,25586,6,0,P|247:1|185:28,1,139.84,6|8,1:2|2:0,2:0:0:0:
108,66,26036,1,2,2:0:0:0:
108,66,26186,2,0,P|98:32|87:-1,2,69.92,2|2|8,2:0|1:2|2:0,0:0:0:0:
55,141,26636,5,2,2:0:0:0:
55,141,26786,2,0,P|81:162|117:161,1,69.92,2|2,1:2|2:0,0:0:0:0:
178,111,27086,1,10,2:0:0:0:
227,177,27236,2,0,P|205:243|180:308,1,139.84,10|2,2:0|1:2,2:0:0:0:
121,371,27686,1,10,2:0:0:0:
121,371,27836,1,2,2:0:0:0:
55,314,27986,6,0,P|33:287|34:253,1,69.92,6|0,1:2|0:0,2:0:0:0:
92,193,28286,2,0,P|113:166|112:132,1,69.92,10|0,2:0|2:0,2:0:0:0:
46,71,28586,2,0,P|79:58|112:46,1,69.92,2|0,1:2|1:2,0:0:0:0:
187,9,28886,2,0,P|220:22|253:34,1,69.92,10|0,2:0|2:0,2:0:0:0:
317,92,29186,6,0,P|338:66|337:30,2,69.92,2|2|10,1:2|1:2|2:0,0:0:0:0:
250,146,29636,2,0,P|275:211|297:277,1,139.84,10|10,2:0|2:0,2:0:0:0:
254,357,30086,1,10,2:0:0:0:
254,357,30236,1,10,2:0:0:0:
463,286,30986,6,0,P|477:336|497:385,2,104.88,10|10|10,2:0|2:0|2:0,2:0:0:0:
396,219,31586,6,0,P|411:185|422:145,1,77.52,6|0,1:2|0:0,2:0:0:0:
484,82,31886,2,0,P|469:48|458:8,1,77.52,10|0,2:0|2:0,2:0:0:0:
361,68,32186,2,0,B|273:77|297:115|217:127,1,155.04,2|10,1:2|2:0,0:0:0:0:
138,70,32636,1,2,2:0:0:0:
57,15,32786,6,0,P|34:45|35:83,1,77.52,0|2,1:2|2:0,0:0:0:0:
97,163,33086,1,8,2:0:0:0:
97,163,33236,2,0,P|76:237|45:314,1,155.04,2|2,1:2|1:2,2:0:0:0:
111,378,33686,1,10,2:0:0:0:
185,315,33836,1,2,2:0:0:0:
251,382,33986,6,0,P|296:331|275:246,1,155.04,2|10,1:2|2:0,2:0:0:0:
196,203,34436,1,2,2:0:0:0:
265,142,34586,2,0,P|254:104|239:69,1,77.52,2|2,1:2|1:2,0:0:0:0:
314,1,34886,5,10,2:0:0:0:
314,1,35036,2,0,P|385:29|460:50,1,155.04,2|2,2:0|2:0,2:0:0:0:
401,142,35486,1,10,2:0:0:0:
486,198,35636,2,0,P|504:270|457:328,1,155.04,2|2,1:2|1:2,2:0:0:0:
375,384,36086,1,10,2:0:0:0:
307,321,36236,1,2,2:0:0:0:
224,384,36386,6,0,P|203:328|214:305,1,77.52,6|0,1:2|0:0,2:0:0:0:
267,238,36686,2,0,P|287:206|283:168,1,77.52,10|0,2:0|2:0,2:0:0:0:
352,107,36986,1,2,1:2:0:0:
352,107,37136,1,2,1:2:0:0:
275,49,37286,2,0,P|239:33|202:23,1,77.52,10|2,2:0|2:0,2:0:0:0:
120,73,37586,5,2,1:2:0:0:
44,16,37736,2,0,P|24:48|28:86,1,77.52,2|8,2:0|2:0,0:0:0:0:
77,174,38036,2,0,B|43:222|47:270|47:270|84:311,1,155.04,2|2,1:2|1:2,2:0:0:0:
152,384,38486,1,10,2:0:0:0:
152,384,38636,1,2,2:0:0:0:
220,317,38786,5,10,2:0:0:0:
220,317,38936,2,0,P|276:338|299:327,1,77.52,0|2,1:2|2:0,0:0:0:0:
401,384,39236,2,0,P|381:352|385:314,1,77.52,6|0,1:2|0:0,0:0:0:0:
451,261,39536,1,6,1:2:0:0:
325,104,39836,6,0,P|250:125|178:154,1,155.04,2|0,1:2|1:2,2:0:0:0:
106,232,40286,1,10,2:0:0:0:
36,164,40436,2,0,L|-1:176,2,38.76,10|10|0,2:0|2:0|1:2,2:0:0:0:
104,98,40736,1,10,2:0:0:0:
104,98,40811,1,8,2:0:0:0:
104,98,40886,2,0,L|92:61,3,38.76,10|8|8|8,2:0|2:0|2:0|2:0,0:0:0:0:
82,29,41186,6,0,P|116:44|156:55,1,77.52,6|0,1:2|0:0,2:0:0:0:
219,117,41486,2,0,P|253:102|293:91,1,77.52,10|0,2:0|2:0,2:0:0:0:
354,11,41786,2,0,P|399:62|378:147,1,155.04,2|10,1:2|2:0,0:0:0:0:
331,215,42236,1,2,2:0:0:0:
411,273,42386,6,0,P|386:303|349:311,1,77.52,2|2,1:2|2:0,0:0:0:0:
270,384,42686,1,8,2:0:0:0:
270,384,42836,2,0,P|249:310|218:233,1,155.04,2|2,1:2|1:2,2:0:0:0:
276,162,43286,1,10,2:0:0:0:
192,108,43436,1,2,2:0:0:0:
128,184,43586,6,0,P|83:133|104:48,1,155.04,6|10,1:2|2:0,2:0:0:0:
175,0,44036,1,2,2:0:0:0:
175,0,44186,2,0,P|210:15|247:25,1,77.52,2|2,1:2|1:2,0:0:0:0:
303,102,44486,1,10,2:0:0:0:
388,30,44636,6,0,B|422:78|418:126|418:126|381:167,1,155.04,2|2,2:0|2:0,2:0:0:0:
449,244,45086,1,10,2:0:0:0:
384,317,45236,2,0,P|312:288|237:267,1,155.04,2|2,1:2|1:2,2:0:0:0:
184,194,45686,1,10,2:0:0:0:
247,130,45836,1,2,2:0:0:0:
194,48,45986,6,0,P|138:27|115:38,1,77.52,6|0,1:2|0:0,2:0:0:0:
31,0,46286,2,0,P|11:32|15:70,1,77.52,10|0,2:0|2:0,2:0:0:0:
91,132,46586,1,2,1:2:0:0:
91,132,46736,1,2,1:2:0:0:
33,209,46886,2,0,P|17:245|7:282,1,77.52,10|2,2:0|2:0,2:0:0:0:
57,359,47186,5,2,1:2:0:0:
127,297,47336,1,2,2:0:0:0:
184,364,47486,1,10,2:0:0:0:
256,300,47636,2,0,B|317:317|317:317|331:345|331:345|403:364,1,155.04,2|2,1:2|1:2,2:0:0:0:
479,384,48086,2,0,P|504:355|506:317,1,77.52,10|2,2:0|2:0,0:0:0:0:
448,248,48386,5,2,1:2:0:0:
237,360,50036,5,0,1:2:0:0:
237,360,50111,1,0,1:2:0:0:
237,360,50186,2,0,L|179:380,2,38.7600002365723,8|8|0,2:0|2:0|1:2,2:0:0:0:
311,331,50486,1,12,2:0:0:0:
507,384,50786,6,0,P|476:339|495:287,1,114,6|0,1:2|0:0,2:0:0:0:
512,253,51086,2,0,P|475:244|440:229,1,76,10|2,2:0|2:0,2:0:0:0:
374,149,51386,1,2,1:2:0:0:
332,241,51536,2,0,P|310:314|282:384,1,152,2|2,2:0|2:0,2:0:0:0:
216,302,51986,6,0,P|178:304|149:327,1,76,2|2,1:2|2:0,0:0:0:0:
68,384,52286,2,0,P|59:347|44:312,1,76,10|2,2:0|2:0,2:0:0:0:
104,232,52586,1,2,1:2:0:0:
104,232,52736,1,2,2:0:0:0:
24,182,52886,2,0,P|45:152|81:141,1,76,10|2,2:0|2:0,2:0:0:0:
158,94,53186,6,0,P|207:115|265:132,1,114,6|0,1:2|2:0,2:0:0:0:
301,145,53486,2,0,P|315:180|324:217,1,76,10|2,2:0|2:0,2:0:0:0:
253,283,53786,1,2,1:2:0:0:
316,359,53936,2,0,B|369:339|369:339|386:304|386:304|446:280,1,152,2|2,2:0|2:0,0:0:0:0:
494,202,54386,6,0,P|485:166|470:131,1,76,2|2,1:2|2:0,0:0:0:0:
395,51,54686,2,0,P|380:86|371:123,1,76,8|2,2:0|2:0,0:0:0:0:
299,189,54986,1,0,1:2:0:0:
299,189,55136,1,2,2:0:0:0:
223,128,55286,2,0,P|187:139|165:169,1,76,14|0,2:0|0:0,3:0:0:0:
86,241,55586,6,0,P|77:204|62:168,1,76,6|0,1:2|0:0,2:0:0:0:
0,106,55886,1,0,1:2:0:0:
61,39,56036,1,0,3:2:0:0:
61,39,56111,1,0,3:2:0:0:
61,39,56186,1,2,1:2:0:0:
133,93,56336,2,0,P|203:65|276:43,1,152,2|2,2:0|2:0,2:0:0:0:
357,16,56786,6,0,P|381:46|382:83,1,76,2|2,1:2|3:2,0:0:0:0:
444,148,57086,2,0,P|442:185|418:214,1,76,2|2,1:2|3:2,0:0:0:0:
370,284,57386,2,0,P|334:269|298:260,1,76,2|2,1:2|2:0,0:0:0:0:
219,305,57686,2,0,L|232:348,3,38,0|0|0|0,1:2|1:2|1:2|1:2,0:0:0:0:
185,277,57986,6,0,P|199:241|208:205,1,76,6|0,1:2|0:0,2:0:0:0:
148,137,58286,1,10,2:0:0:0:
212,80,58436,2,0,P|247:94|283:103,1,76,2|0,2:0|1:2,2:0:0:0:
348,38,58736,2,0,P|384:46|419:61,1,76,2|8,3:2|2:0,2:0:0:0:
481,138,59036,6,0,P|453:208|431:281,1,152,2|2,2:0|2:0,0:0:0:0:
265,373,59636,2,0,L|254:336,5,38,8|8|8|8|8|8,2:0|2:0|2:0|2:0|2:0|2:0,0:0:0:0:
241,304,60086,1,2,1:2:0:0:
213,209,60236,1,2,1:2:0:0:
