osu file format v14

[General]
AudioFilename: audio.ogg
AudioLeadIn: 0
PreviewTime: 66708
Countdown: 0
SampleSet: Soft
StackLeniency: 0.7
Mode: 0
LetterboxInBreaks: 0
WidescreenStoryboard: 1

[Editor]
Bookmarks: 1740,14783,25218,46088,56522,64349,65653,66957,77392,89131,90435,100870,103479,105435
DistanceSpacing: 0.3
BeatDivisor: 4
GridSize: 32
TimelineZoom: 1

[Metadata]
Title:Koishichatta Mitai
TitleUnicode:恋しちゃったみたい
Artist:Matsushita
ArtistUnicode:松下
Creator:tomatas95
Version:Innocent Desire
Source:アイキス
Tags:eroge Ai Kiss giga 戏画社 jumping jumpin' kiss visual novel _kotachi_ -brethia kotachi galgame vn opening op video game japanese j-pop jpop pop
BeatmapID:4438364
BeatmapSetID:2113814

[Difficulty]
HPDrainRate:5.5
CircleSize:3.8
OverallDifficulty:9
ApproachRate:9.3
SliderMultiplier:1.8
SliderTickRate:1

[Events]
//Background and Video events
Video,-550,"erogedaisukidesu.mp4"
0,0,"HinataKawaii.jpg",0,0
//Break Periods
//Storyboard Layer 0 (Background)
//Storyboard Layer 1 (Fail)
//Storyboard Layer 2 (Pass)
//Storyboard Layer 3 (Foreground)
//Storyboard Layer 4 (Overlay)
//Storyboard Sound Samples

[TimingPoints]
431,326.086956521739,4,2,1,40,1,0
1735,-166.666666666667,4,2,1,45,0,0
2224,-166.666666666667,4,2,1,40,0,0
3039,-166.666666666667,4,2,1,50,0,0
3528,-166.666666666667,4,2,1,40,0,0
4344,-166.666666666667,4,2,1,45,0,0
4833,-166.666666666667,4,2,1,40,0,0
5648,-166.666666666667,4,2,1,50,0,0
6137,-166.666666666667,4,2,1,40,0,0
6952,-166.666666666667,4,2,1,45,0,0
7441,-166.666666666667,4,2,1,5,0,0
7767,-166.666666666667,4,2,1,40,0,0
8257,-166.666666666667,4,2,1,50,0,0
8909,-166.666666666667,4,2,1,5,0,0
9235,-166.666666666667,4,2,1,50,0,0
10050,-166.666666666667,4,2,1,40,0,0
10865,-166.666666666667,4,2,1,50,0,0
11354,-166.666666666667,4,2,1,40,0,0
12170,-111.111111111111,4,2,1,50,0,0
12496,-111.111111111111,4,2,1,55,0,0
12822,-111.111111111111,4,2,1,60,0,0
13148,-111.111111111111,4,2,1,65,0,0
13474,-111.111111111111,4,2,1,70,0,0
13555,-111.111111111111,4,2,1,40,0,0
14126,-111.111111111111,4,2,1,60,0,0
14289,-100,4,2,1,60,0,0
14452,-100,4,2,1,65,0,0
14778,-200,4,2,2,60,0,0
15022,-200,4,2,2,5,0,0
15104,-76.9230769230769,4,2,1,75,0,0
15348,-76.9230769230769,4,2,2,5,0,0
15430,-76.9230769230769,4,2,1,70,0,0
15920,-100,4,2,1,70,0,0
17305,-100,4,2,5,70,0,0
17387,-100,4,2,1,70,0,0
18528,-90.9090909090909,4,2,2,75,0,0
18854,-90.9090909090909,4,2,1,70,0,0
19180,-83.3333333333333,4,2,1,75,0,0
19506,-83.3333333333333,4,2,1,70,0,0
19996,-83.3333333333333,4,2,1,65,0,0
20322,-76.9230769230769,4,2,1,75,0,0
20566,-76.9230769230769,4,2,2,5,0,0
20648,-76.9230769230769,4,2,1,70,0,0
21137,-100,4,2,1,70,0,0
22523,-100,4,2,5,70,0,0
22605,-100,4,2,1,70,0,0
23746,-90.9090909090909,4,2,2,75,0,0
24072,-90.9090909090909,4,2,1,70,0,0
24398,-83.3333333333333,4,2,1,75,0,0
24724,-83.3333333333333,4,2,1,70,0,0
24887,-83.3333333333333,4,2,1,65,0,0
25131,-83.3333333333333,4,2,1,5,0,0
25213,-99.9999999999999,4,2,2,65,0,0
25539,-99.9999999999999,4,2,1,60,0,0
25865,-111.111111111111,4,2,1,60,0,0
26517,-111.111111111111,4,2,1,65,0,0
26680,-111.111111111111,4,2,1,60,0,0
26685,-111.111111111111,4,2,1,60,0,0
27822,-111.111111111111,4,2,1,65,0,0
27985,-111.111111111111,4,2,1,60,0,0
28148,-111.111111111111,4,2,1,60,0,0
30430,-111.111111111111,4,2,1,65,0,0
30593,-111.111111111111,4,2,1,60,0,0
30598,-111.111111111111,4,2,1,60,0,0
31735,-111.111111111111,4,2,1,65,0,0
31898,-111.111111111111,4,2,1,60,0,0
31903,-111.111111111111,4,2,1,60,0,0
33039,-111.111111111111,4,2,1,65,0,0
33202,-111.111111111111,4,2,1,60,0,0
34262,-111.111111111111,4,2,5,60,0,0
34344,-111.111111111111,4,2,1,70,0,0
34833,-100,4,2,1,70,0,0
35077,-100,4,2,1,60,0,0
35082,-100,4,2,1,60,0,0
35159,-100,4,2,1,70,0,0
35648,-111.111111111111,4,2,2,65,0,0
35974,-111.111111111111,4,2,1,60,0,0
36952,-111.111111111111,4,2,1,65,0,0
37115,-111.111111111111,4,2,1,60,0,0
37120,-111.111111111111,4,2,1,60,0,0
38257,-111.111111111111,4,2,1,65,0,0
38420,-111.111111111111,4,2,1,60,0,0
38583,-111.111111111111,4,2,1,60,0,0
40784,-111.111111111111,4,2,1,55,0,0
40865,-111.111111111111,4,2,1,65,0,0
41028,-111.111111111111,4,2,1,60,0,0
42170,-111.111111111111,4,2,1,65,0,0
42333,-111.111111111111,4,2,1,60,0,0
42338,-111.111111111111,4,2,1,60,0,0
43474,-111.111111111111,4,2,1,65,0,0
43637,-111.111111111111,4,2,1,60,0,0
43800,-111.111111111111,4,2,1,65,0,0
44778,-111.111111111111,4,2,1,70,0,0
45267,-100,4,2,1,70,0,0
45430,-100,4,2,1,65,0,0
45435,-100,4,2,1,65,0,0
45594,-100,4,2,1,60,0,0
45757,-100,4,2,1,55,0,0
46083,-111.111111111111,4,2,2,65,0,0
46409,-111.111111111111,4,2,1,60,0,0
46414,-111.111111111111,4,2,1,60,0,0
46735,-125,4,2,1,60,0,0
47387,-125,4,2,1,65,0,0
47550,-125,4,2,1,60,0,0
48691,-125,4,2,2,65,0,0
48854,-125,4,2,1,60,0,0
48859,-125,4,2,1,60,0,0
49833,-125,4,2,5,60,0,0
49996,-125,4,2,1,65,0,0
50159,-125,4,2,1,60,0,0
51300,-125,4,2,1,65,0,0
51463,-125,4,2,1,60,0,0
51468,-125,4,2,1,60,0,0
52441,-125,4,2,5,60,0,0
52604,-125,4,2,1,65,0,0
52767,-125,4,2,1,60,0,0
53909,-125,4,2,1,65,0,0
54072,-125,4,2,1,60,0,0
54077,-125,4,2,1,60,0,0
55050,-125,4,2,5,60,0,0
55213,-125,4,2,1,65,0,0
55376,-125,4,2,1,60,0,0
55865,-111.111111111111,4,2,1,65,0,0
56517,-100,4,2,1,70,0,0
57007,-100,4,2,1,75,0,0
57170,-100,4,2,1,70,0,0
59045,-100,4,2,5,70,0,0
59126,-100,4,2,1,75,0,0
59289,-100,4,2,1,70,0,0
59294,-100,4,2,1,70,0,0
59615,-100,4,2,1,75,0,0
59778,-100,4,2,1,70,0,0
60757,-100,4,2,1,75,0,0
61409,-100,4,2,5,65,0,0
61735,-100,4,2,1,75,0,0
61898,-100,4,2,1,70,0,0
61903,-100,4,2,1,70,0,0
62224,-100,4,2,1,75,0,0
62387,-100,4,2,1,70,0,0
63365,-100,4,2,1,75,0,0
63854,-100,4,2,1,70,0,0
64262,-100,4,2,1,5,0,0
64344,-166.666666666667,4,2,5,50,0,0
64670,-166.666666666667,4,2,5,55,0,0
64675,-166.666666666667,4,2,5,55,0,0
64996,-166.666666666667,4,2,5,60,0,0
65001,-166.666666666667,4,2,5,60,0,0
65322,-166.666666666667,4,2,5,65,0,0
65327,-166.666666666667,4,2,5,65,0,0
65485,-166.666666666667,4,2,1,55,0,0
65648,-166.666666666667,4,2,1,70,0,0
65811,-100,4,2,1,70,0,0
66300,-100,4,2,1,75,0,0
66952,-76.9230769230769,4,2,1,85,0,1
67278,-90.9090909090909,4,2,1,80,0,1
68175,-90.9090909090909,4,2,5,80,0,1
68257,-83.3333333333333,4,2,1,85,0,1
68420,-83.3333333333333,4,2,1,80,0,1
68583,-90.9090909090909,4,2,1,80,0,1
69561,-83.3333333333333,4,2,2,85,0,1
69724,-83.3333333333333,4,2,1,80,0,1
69729,-83.3333333333333,4,2,1,80,0,1
69805,-83.3333333333333,4,2,1,5,0,1
69887,-83.3333333333333,4,2,1,80,0,1
70783,-83.3333333333333,4,2,5,80,0,1
70865,-83.3333333333333,4,2,1,85,0,1
71028,-83.3333333333333,4,2,1,80,0,1
72088,-83.3333333333333,4,2,5,80,0,1
72170,-90.9090909090909,4,2,1,85,0,1
72333,-90.9090909090909,4,2,1,80,0,1
73474,-90.9090909090909,4,2,1,85,0,1
73637,-90.9090909090909,4,2,1,80,0,1
74696,-90.9090909090909,4,2,5,80,0,1
74778,-90.9090909090909,4,2,1,70,0,1
75104,-90.9090909090909,4,2,1,75,0,1
75430,-90.9090909090909,4,2,1,80,0,1
75757,-90.9090909090909,4,2,1,85,0,1
76083,-90.9090909090909,4,2,1,90,0,1
76409,-90.9090909090909,4,2,1,80,0,1
76653,-90.9090909090909,4,2,5,80,0,1
76735,-90.9090909090909,4,2,1,80,0,1
77061,-90.9090909090909,4,2,1,75,0,0
77387,-76.9230769230769,4,2,1,85,0,1
77713,-90.9090909090909,4,2,1,80,0,1
78610,-90.9090909090909,4,2,5,80,0,1
78691,-83.3333333333333,4,2,1,85,0,1
78697,-83.3333333333333,4,2,1,85,0,1
78854,-83.3333333333333,4,2,1,80,0,1
79017,-90.9090909090909,4,2,1,80,0,1
79996,-83.3333333333333,4,2,2,85,0,1
80159,-83.3333333333333,4,2,1,80,0,1
80164,-83.3333333333333,4,2,1,80,0,1
80240,-83.3333333333333,4,2,1,5,0,1
80322,-83.3333333333333,4,2,1,80,0,1
81218,-83.3333333333333,4,2,5,80,0,1
81300,-83.3333333333333,4,2,1,85,0,1
81463,-83.3333333333333,4,2,1,80,0,1
82523,-83.3333333333333,4,2,5,80,0,1
82604,-90.9090909090909,4,2,1,85,0,1
82610,-90.9090909090909,4,2,1,85,0,1
82767,-90.9090909090909,4,2,1,80,0,1
83909,-90.9090909090909,4,2,1,85,0,1
84072,-90.9090909090909,4,2,1,80,0,1
85213,-90.9090909090909,4,2,1,70,0,1
85702,-83.3333333333333,4,2,2,85,0,1
86028,-83.3333333333333,4,2,1,75,0,1
86191,-83.3333333333333,4,2,1,70,0,1
86517,-83.3333333333333,4,2,1,85,0,1
87496,-83.3333333333333,4,2,1,75,0,1
87822,-83.3333333333333,4,2,2,85,0,1
87985,-83.3333333333333,4,2,1,70,0,1
88311,-83.3333333333333,4,2,1,75,0,1
88474,-83.3333333333333,4,2,1,80,0,1
88800,-83.3333333333333,4,2,1,85,0,1
89126,-83.3333333333333,4,2,1,90,0,0
89452,-83.3333333333333,4,2,1,40,0,0
89778,-83.3333333333333,4,2,1,50,0,0
90104,-83.3333333333333,4,2,1,65,0,0
90267,-125,4,2,1,65,0,0
90430,-200,4,2,2,60,0,0
90674,-200,4,2,2,5,0,0
90757,-76.9230769230769,4,2,1,75,0,0
91001,-76.9230769230769,4,2,2,5,0,0
91083,-76.9230769230769,4,2,1,70,0,0
91572,-100,4,2,1,70,0,0
92958,-100,4,2,5,70,0,0
93040,-100,4,2,1,70,0,0
94180,-90.9090909090909,4,2,2,75,0,0
94186,-90.9090909090909,4,2,2,75,0,0
94507,-90.9090909090909,4,2,1,70,0,0
94670,-90.9090909090909,4,2,1,70,0,0
94833,-83.3333333333333,4,2,1,75,0,0
95159,-83.3333333333333,4,2,1,70,0,0
95649,-83.3333333333333,4,2,1,65,0,0
95729,-83.3333333333333,4,2,1,65,0,0
95974,-76.9230769230769,4,2,1,75,0,0
95980,-76.9230769230769,4,2,1,75,0,0
96218,-76.9230769230769,4,2,2,5,0,0
96301,-76.9230769230769,4,2,1,70,0,0
96463,-76.9230769230769,4,2,1,70,0,0
96789,-100,4,2,1,70,0,0
98176,-100,4,2,5,70,0,0
98258,-100,4,2,1,70,0,0
99398,-90.9090909090909,4,2,2,75,0,0
99404,-90.9090909090909,4,2,2,75,0,0
99725,-90.9090909090909,4,2,1,70,0,0
99887,-90.9090909090909,4,2,1,70,0,0
100050,-83.3333333333333,4,2,1,75,0,0
100056,-83.3333333333333,4,2,1,75,0,0
100377,-83.3333333333333,4,2,1,70,0,0
100539,-100,4,2,1,65,0,0
100545,-100,4,2,1,65,0,0
100865,-100,4,2,1,75,0,0
101191,-100,4,2,1,70,0,0
101354,-100,4,2,1,75,0,0
101680,-100,4,2,1,70,0,0
101844,-100,4,2,1,75,0,0
102170,-100,4,2,1,70,0,0
102333,-100,4,2,1,75,0,0
102659,-100,4,2,1,70,0,0
102822,-100,4,2,1,75,0,0
103474,-158.730158730159,4,2,1,70,0,0
103800,-158.730158730159,4,2,1,65,0,0
103805,-158.730158730159,4,2,1,65,0,0
104126,-158.730158730159,4,2,1,60,0,0
104131,-158.730158730159,4,2,1,60,0,0
104452,-111.111111111111,4,2,1,55,0,0
104615,-111.111111111111,4,2,1,60,0,0
104697,-111.111111111111,4,2,5,60,0,0
104778,-142.857142857143,4,2,5,50,0,0
105104,-142.857142857143,4,2,1,45,0,0
105109,-142.857142857143,4,2,1,45,0,0
105430,-142.857142857143,4,2,1,5,0,0

[Colours]
Combo1 : 238,164,153
Combo2 : 251,243,155
Combo3 : 183,158,248
Combo4 : 242,162,244

[HitObjects]
245,50,1735,6,0,P|206:23|143:41,1,108,2|0,0:0|0:0,0:0:0:0:
109,103,2224,2,0,P|73:65|75:12,2,108,2|0|0,0:0|0:0|0:0,0:0:0:0:
129,179,3039,2,0,P|176:154|190:103,1,108,2|0,0:0|0:0,0:0:0:0:
109,103,3528,2,0,L|-5:126,1,108,2|0,0:0|0:0,0:0:0:0:
173,261,4180,5,0,0:0:0:0:
173,261,4344,2,0,P|214:251|297:235,1,108,2|0,0:0|0:0,0:0:0:0:
296,322,4833,2,0,P|243:332|190:344,2,108,2|0|0,0:0|0:0|0:0,0:0:0:0:
362,372,5648,6,0,P|379:329|348:264,1,108,2|0,0:0|0:0,0:0:0:0:
349,193,6137,2,0,P|402:200|437:240,2,108,2|0|0,0:0|0:0|0:0,0:0:0:0:
278,238,6952,2,0,P|207:249|112:268,1,162,2|0,0:0|0:0,0:0:0:0:
221,86,7767,2,0,P|224:61|234:17,2,53.9999999999999,2|0|0,0:0|0:0|0:0,0:0:0:0:
184,158,8257,6,0,B|241:180|287:137|287:137|334:94|391:116,1,216,2|0,0:0|0:0,0:0:0:0:
383,114,9235,2,0,P|392:138|387:164,1,53.9999999999999
459,199,9561,6,0,P|472:120|434:50,2,162,2|2|0,0:0|0:0|0:0,0:0:0:0:
459,199,10865,2,0,P|451:251|479:296,1,108,2|0,0:0|0:0,0:0:0:0:
402,341,11354,2,0,P|360:308|307:309,1,108,2|0,0:0|0:0,0:0:0:0:
86,248,12170,6,0,P|95:287|100:328,1,81.0000000000001,6|0,3:2|3:0,0:0:0:0:
175,167,12496,2,0,P|166:127|161:87,1,81.0000000000001,2|0,3:2|3:0,0:0:0:0:
90,163,12822,1,2,3:2:0:0:
171,252,12985,5,0,3:0:0:0:
171,252,13066,1,0,3:0:0:0:
171,252,13148,2,0,L|215:261,1,40.5,10|8,0:0|0:0,0:0:0:0:
296,184,13311,2,0,L|252:193,1,40.5,10|8,0:0|0:0,0:0:0:0:
175,167,13474,1,2,3:2:0:0:
148,79,14126,5,0,3:0:0:0:
148,79,14208,1,0,3:0:0:0:
148,79,14289,2,0,P|140:54|133:16,1,45,8|8,0:0|0:0,0:0:0:0:
52,65,14452,5,10,0:0:0:0:
52,65,14534,1,8,0:0:0:0:
52,65,14615,2,0,P|59:89|67:128,1,45,8|8,0:0|0:0,0:0:0:0:
106,214,14778,6,0,P|84:184|53:198,1,67.5,2|0,3:2|0:0,0:0:0:0:
50,269,15104,6,0,L|235:235,1,175.5,14|0,0:0|0:0,0:0:0:0:
307,219,15430,1,2,3:2:0:0:
309,306,15594,1,0,3:0:0:0:
250,144,15757,1,8,0:0:0:0:
399,193,15920,2,0,L|487:209,1,90,2|0,3:2|0:0,0:0:0:0:
368,50,16246,5,2,3:2:0:0:
307,219,16409,1,8,0:0:0:0:
451,96,16572,1,0,3:2:0:0:
277,24,16735,2,0,P|229:34|184:45,1,90,2|0,3:2|0:0,0:0:0:0:
131,219,17061,2,0,P|178:229|224:240,1,90,10|0,0:0|0:0,0:0:0:0:
250,144,17387,6,0,L|59:111,1,180,2|8,3:2|0:0,0:0:0:0:
0,26,17876,5,0,3:0:0:0:
40,213,18039,1,0,3:2:0:0:
98,27,18202,5,2,0:0:0:0:
35,230,18365,1,8,0:0:0:0:
295,215,18528,6,0,P|330:128|266:61,1,198,6|0,3:2|3:0,0:0:0:0:
163,134,19017,1,8,0:0:0:0:
271,293,19180,6,0,B|329:309|371:263|371:263|414:216|473:233,1,216,6|0,3:2|3:0,0:0:0:0:
250,144,19670,5,8,0:0:0:0:
441,312,19833,1,0,3:0:0:0:
406,103,19996,1,0,3:0:0:0:
406,103,20077,1,0,3:0:0:0:
406,103,20159,1,0,3:0:0:0:
271,293,20322,6,0,P|201:281|78:259,1,175.5,14|0,0:0|0:0,0:0:0:0:
14,241,20648,5,2,3:2:0:0:
104,108,20811,1,0,3:0:0:0:
20,87,20974,5,8,0:0:0:0:
98,262,21137,2,0,P|142:269|186:277,1,90,2|0,3:2|0:0,0:0:0:0:
362,272,21463,5,2,3:2:0:0:
179,190,21626,1,8,0:0:0:0:
371,166,21789,1,0,3:2:0:0:
271,293,21952,6,0,L|284:183,1,90,2|0,3:2|0:0,0:0:0:0:
449,240,22278,2,0,L|439:330,1,90,10|0,0:0|0:0,0:0:0:0:
350,345,22604,6,0,L|371:166,1,180,2|8,3:2|0:0,0:0:0:0:
410,17,23094,5,0,0:0:0:0:
449,240,23257,1,2,3:2:0:0:
273,71,23420,1,0,3:0:0:0:
512,105,23583,1,10,0:0:0:0:
281,203,23746,6,0,L|74:180,1,198,6|0,3:2|3:0,0:0:0:0:
273,71,24235,1,8,0:0:0:0:
64,265,24398,6,0,P|11:220|59:102,1,216,6|0,3:2|3:0,0:0:0:0:
166,87,24887,6,0,P|180:161|196:263,1,162,4|0,3:0|0:0,0:0:0:0:
174,324,25213,6,0,B|222:337|257:299|257:299|292:260|341:274,1,180,6|8,3:2|0:0,0:0:0:0:
496,236,25702,1,2,0:0:0:0:
415,211,25865,2,0,P|414:251|431:288,1,81.0000000000001,2|0,3:2|3:2,0:0:0:0:
477,153,26191,2,0,P|478:112|461:76,1,81.0000000000001,8|0,0:0|3:0,0:0:0:0:
397,131,26517,6,0,P|326:141|231:154,1,162,2|8,0:0|0:0,0:0:0:0:
67,141,27007,2,0,P|81:87|178:92,1,162,2|0,0:0|3:0,0:0:0:0:
282,231,27496,5,10,0:0:0:0:
260,66,27659,1,0,3:0:0:0:
150,174,27822,1,2,3:2:0:0:
151,185,28148,6,0,L|168:266,1,81.0000000000001,10|0,0:0|0:0,0:0:0:0:
88,318,28474,2,0,L|71:238,1,81.0000000000001,2|0,0:0|3:0,0:0:0:0:
298,151,28800,6,0,L|281:232,1,81.0000000000001,10|0,0:0|0:0,0:0:0:0:
361,284,29126,2,0,L|377:204,1,81.0000000000001,2|0,0:0|3:0,0:0:0:0:
418,43,29452,6,0,P|379:54|355:85,1,81.0000000000001,10|0,0:0|0:0,0:0:0:0:
492,75,29778,2,0,P|501:35|487:0,1,81.0000000000001,2|0,3:2|3:0,0:0:0:0:
427,123,30104,2,0,P|456:150|494:156,1,81.0000000000001,8|0,0:0|0:0,0:0:0:0:
354,85,30430,6,0,P|272:73|180:61,1,162,2|10,3:2|0:0,0:0:0:0:
117,17,30920,1,2,0:0:0:0:
41,61,31083,2,0,P|30:104|56:151,1,81.0000000000001,0|0,3:0|3:0,0:0:0:0:
117,181,31409,2,0,P|128:138|102:91,1,81.0000000000001,8|0,0:0|0:0,0:0:0:0:
32,216,31735,6,0,P|112:225|200:241,1,162,2|8,0:0|0:0,0:0:0:0:
179,322,32224,2,0,P|99:308|18:298,1,162,2|0,0:0|3:0,0:0:0:0:
115,104,32713,5,10,0:0:0:0:
204,141,32876,1,0,3:0:0:0:
293,178,33039,6,0,L|306:85,1,81.0000000000001,2|0,3:2|0:0,0:0:0:0:
455,2,33365,2,0,L|443:82,1,81.0000000000001,10|0,0:0|0:0,0:0:0:0:
381,159,33691,2,0,L|462:171,1,81.0000000000001,2|0,0:0|3:0,0:0:0:0:
366,20,34017,2,0,L|286:9,1,81.0000000000001,8|0,0:0|3:0,0:0:0:0:
124,33,34344,5,6,3:2:0:0:
304,97,34507,1,0,3:0:0:0:
286,8,34670,5,8,0:0:0:0:
117,116,34833,2,0,P|72:116|49:4,1,180,2|0,3:2|3:0,0:0:0:0:
214,65,35322,1,10,0:0:0:0:
168,213,35485,5,8,0:0:0:0:
168,213,35566,1,8,0:0:0:0:
168,213,35648,2,0,P|106:225|5:242,1,162,6|8,3:2|0:0,0:0:0:0:
117,116,36137,1,2,0:0:0:0:
264,162,36300,2,0,P|295:167|345:176,1,81.0000000000001,2|0,3:2|3:2,0:0:0:0:
168,213,36626,2,0,P|137:219|86:227,1,81.0000000000001,8|0,0:0|3:0,0:0:0:0:
34,113,36952,6,0,P|48:49|151:47,1,162,2|8,0:0|0:0,0:0:0:0:
217,37,37441,2,0,P|202:100|100:103,1,162,2|0,0:0|3:0,0:0:0:0:
8,241,37930,5,10,0:0:0:0:
34,113,38094,1,0,3:0:0:0:
60,303,38257,1,2,3:2:0:0:
62,314,38583,6,0,L|151:299,1,81.0000000000001,10|0,0:0|0:0,0:0:0:0:
87,227,38909,2,0,L|-2:242,1,81.0000000000001,2|0,0:0|3:0,0:0:0:0:
233,124,39235,6,0,L|322:139,1,81.0000000000001,10|0,0:0|0:0,0:0:0:0:
258,211,39561,2,0,L|169:196,1,81.0000000000001,2|0,0:0|3:0,0:0:0:0:
319,330,39887,6,0,P|340:304|334:245,1,81.0000000000001,10|0,0:0|0:0,0:0:0:0:
471,260,40213,2,0,P|458:228|404:204,1,81.0000000000001,2|0,3:2|3:0,0:0:0:0:
486,93,40539,2,0,P|452:87|404:122,1,81.0000000000001,8|0,0:0|0:0,0:0:0:0:
403,118,40784,1,8,0:0:0:0:
392,124,40865,6,0,L|312:137,1,81.0000000000001,2|0,3:2|0:0,0:0:0:0:
113,152,41191,2,0,L|193:166,1,81.0000000000001,10|2,0:0|0:0,0:0:0:0:
237,91,41517,6,0,L|251:12,1,81.0000000000001,0|0,3:0|3:0,0:0:0:0:
267,211,41844,2,0,L|253:290,1,81.0000000000001,8|0,0:0|0:0,0:0:0:0:
33,141,42170,6,0,P|41:84|143:81,1,162,2|8,0:0|0:0,0:0:0:0:
113,152,42659,2,0,P|102:218|86:318,1,162,2|0,0:0|3:0,0:0:0:0:
267,211,43148,5,10,0:0:0:0:
267,211,43311,1,0,3:0:0:0:
335,268,43474,6,0,L|438:288,1,81.0000000000001,2|0,3:2|0:0,0:0:0:0:
183,242,43800,2,0,L|80:222,1,81.0000000000001,10|0,0:0|0:0,0:0:0:0:
210,158,44126,5,10,0:0:0:0:
252,300,44289,1,0,3:0:0:0:
267,91,44452,5,10,0:0:0:0:
183,242,44615,1,0,3:0:0:0:
181,76,44778,5,6,3:2:0:0:
355,241,44941,1,8,0:0:0:0:
315,12,45104,1,2,3:2:0:0:
267,211,45267,6,0,P|346:199|453:183,1,180,10|4,0:0|3:0,0:0:0:0:
512,124,45757,5,2,3:2:0:0:
426,95,45920,1,0,3:0:0:0:
489,265,46083,6,0,B|425:286|376:238|376:238|327:189|263:211,1,243,6|0,3:2|3:0,0:0:0:0:
94,159,46735,2,0,B|147:115|195:163|195:163|159:222|210:272,1,216,8|2,0:0|0:0,0:0:0:0:
127,306,47387,6,0,L|55:291,1,72,0|0,3:2|0:0,0:0:0:0:
274,294,47713,2,0,L|346:279,1,72,2|0,0:0|3:0,0:0:0:0:
173,116,48039,6,0,L|197:259,1,144,10|2,0:0|0:0,0:0:0:0:
259,143,48528,1,8,0:0:0:0:
135,34,48691,6,0,B|75:-22|6:32|5:91|46:122|91:118|100:90,1,216,6|0,3:2|3:0,0:0:0:0:
173,115,49344,2,0,P|234:101|323:83,1,144,8|0,0:0|0:0,0:0:0:0:
387,28,49833,1,0,3:0:0:0:
482,133,49996,6,0,P|487:97|473:65,1,72,2|0,3:2|0:0,0:0:0:0:
396,112,50322,2,0,P|391:147|405:180,1,72,0|0,0:0|3:0,0:0:0:0:
464,275,50648,5,10,0:0:0:0:
310,239,50811,1,8,0:0:0:0:
405,180,50974,5,2,3:2:0:0:
369,334,51137,1,8,0:0:0:0:
183,198,51300,6,0,B|210:148|263:139|313:175|313:175|309:250,1,216,6|0,3:2|3:0,0:0:0:0:
237,272,51952,2,0,P|196:280|96:307,1,144,8|2,0:0|0:0,0:0:0:0:
65,148,52441,1,0,3:0:0:0:
43,228,52604,6,0,P|82:228|127:196,1,72,2|0,3:2|0:0,0:0:0:0:
86,66,52930,2,0,P|46:65|1:97,1,72,2|0,0:0|3:0,0:0:0:0:
65,148,53257,2,0,L|218:121,1,144,10|2,0:0|0:0,0:0:0:0:
278,81,53746,1,8,0:0:0:0:
204,248,53909,6,0,B|156:195|205:123|205:123|241:175|291:159,1,216,6|0,3:2|3:0,0:0:0:0:
287,247,54561,2,0,L|440:220,1,144,8|2,0:0|0:0,0:0:0:0:
502,173,55050,1,0,3:0:0:0:
502,173,55213,2,0,P|515:206|512:242,1,72,2|0,3:2|0:0,0:0:0:0:
423,308,55539,2,0,L|352:320,1,72,2|0,0:0|3:0,0:0:0:0:
174,231,55865,2,0,P|181:171|277:168,1,162,10|8,0:0|0:0,0:0:0:0:
433,223,56354,5,8,0:0:0:0:
433,223,56436,1,8,0:0:0:0:
433,223,56517,2,0,L|239:257,1,180,6|8,3:2|0:0,0:0:0:0:
268,159,57007,2,0,L|368:141,1,90,10|0,0:0|3:0,0:0:0:0:
89,118,57333,2,0,L|-11:135,1,90,2|8,0:0|0:0,0:0:0:0:
165,232,57659,6,0,P|179:141|191:45,1,180,2|0,0:0|3:0,0:0:0:0:
89,118,58148,5,8,0:0:0:0:
270,162,58311,1,8,0:0:0:0:
157,320,58474,2,0,P|87:304|102:185,1,180,2|8,3:2|0:0,0:0:0:0:
165,232,58963,5,0,3:0:0:0:
165,232,59045,1,0,3:0:0:0:
165,232,59126,2,0,P|256:246|355:263,1,180,2|8,3:2|0:0,0:0:0:0:
503,304,59615,2,0,P|517:255|486:206,1,90,10|0,0:0|3:0,0:0:0:0:
342,177,59941,2,0,P|328:226|359:275,1,90,2|8,0:0|0:0,0:0:0:0:
412,334,60267,6,0,L|435:145,1,180,2|0,0:0|0:0,0:0:0:0:
456,35,60757,5,8,0:0:0:0:
502,220,60920,1,8,0:0:0:0:
349,83,61083,2,0,P|301:78|252:110,1,90,2|0,3:2|3:0,0:0:0:0:
88,197,61409,5,0,3:0:0:0:
88,197,61490,1,0,3:0:0:0:
88,197,61572,2,0,L|132:189,1,45,0|0,3:0|3:0,0:0:0:0:
204,226,61735,6,0,B|227:182|198:141|198:141|169:100|193:57,1,180,6|8,3:2|0:0,0:0:0:0:
131,188,62224,2,0,L|42:203,1,90,10|0,0:0|3:0,0:0:0:0:
262,96,62550,2,0,L|350:80,1,90,2|8,0:0|0:0,0:0:0:0:
106,6,62876,6,0,P|50:3|44:113,1,180,2|0,0:0|3:0,0:0:0:0:
204,226,63365,5,8,0:0:0:0:
115,91,63528,1,8,0:0:0:0:
274,183,63691,2,0,L|362:167,1,90,2|0,3:2|3:0,0:0:0:0:
147,289,64017,2,0,L|58:304,1,90,8|0,0:0|0:0,0:0:0:0:
268,319,64344,6,0,B|323:279|373:317|373:317|426:365|504:309|504:309|506:233|431:214,1,377.999999999999,2|0,3:2|3:0,0:0:0:0:
427,116,65648,5,8,0:0:0:0:
230,232,65811,1,0,3:0:0:0:
443,217,65974,5,8,0:0:0:0:
214,131,66137,1,0,3:0:0:0:
420,32,66300,5,8,0:0:0:0:
332,286,66463,1,0,3:0:0:0:
202,29,66626,5,8,0:0:0:0:
223,23,66707,1,8,0:0:0:0:
246,27,66789,1,8,0:0:0:0:
265,38,66870,1,8,0:0:0:0:
278,57,66952,6,0,L|304:187,1,117,6|0,3:2|3:0,0:0:0:0:
185,274,67278,2,0,L|159:144,1,99,8|2,0:0|3:2,0:0:0:0:
193,85,67604,5,8,0:0:0:0:
351,259,67767,1,2,3:2:0:0:
165,176,67930,5,8,0:0:0:0:
399,187,68094,1,0,3:0:0:0:
97,225,68257,6,0,P|82:167|105:119,1,108,10|0,0:0|3:0,0:0:0:0:
351,259,68583,2,0,P|363:309|343:365,1,99.0000030212403,8|2,0:0|3:2,0:0:0:0:
165,176,68909,5,8,0:0:0:0:
403,99,69072,1,0,3:0:0:0:
225,269,69235,5,8,0:0:0:0:
319,43,69398,1,0,3:0:0:0:
143,258,69561,6,0,P|93:213|121:103,1,162,10|0,0:2|0:0,0:0:0:0:
140,51,69887,5,8,0:0:0:0:
228,282,70050,1,2,3:2:0:0:
225,25,70213,5,8,0:0:0:0:
143,258,70376,1,2,3:2:0:0:
137,38,70539,5,8,0:0:0:0:
231,295,70702,1,0,3:0:0:0:
369,53,70865,5,10,0:0:0:0:
99,124,71028,1,0,3:0:0:0:
386,168,71191,5,8,0:0:0:0:
137,38,71354,1,2,3:2:0:0:
228,282,71517,5,8,0:0:0:0:
369,53,71680,1,0,3:0:0:0:
122,230,71844,5,8,0:0:0:0:
259,14,72007,1,0,3:0:0:0:
332,286,72170,6,0,L|448:267,1,99,10|0,0:0|3:0,0:0:0:0:
122,230,72496,2,0,L|6:249,1,99,8|0,0:0|0:0,0:0:0:0:
115,116,72822,5,10,0:0:0:0:
227,282,72985,1,2,3:2:0:0:
17,159,73148,5,8,0:0:0:0:
213,73,73311,1,0,3:0:0:0:
141,311,73474,6,0,L|25:330,1,99,10|0,0:0|0:0,0:0:0:0:
279,174,73800,2,0,L|395:155,1,99,10|0,0:0|3:0,0:0:0:0:
471,111,74126,5,10,0:0:0:0:
213,73,74289,1,0,3:0:0:0:
338,269,74452,5,10,0:0:0:0:
347,28,74615,1,0,3:0:0:0:
150,250,74778,5,10,0:0:0:0:
196,165,74941,1,0,3:0:0:0:
63,160,75104,5,8,0:0:0:0:
246,247,75267,1,0,3:0:0:0:
116,72,75430,5,8,0:0:0:0:
200,332,75594,1,0,3:0:0:0:
295,77,75757,5,8,0:0:0:0:
75,311,75920,1,0,3:0:0:0:
52,19,76083,6,0,P|123:-12|198:72,1,198,10|8,0:0|0:0,0:0:0:0:
246,247,76572,5,0,3:0:0:0:
116,72,76735,1,8,0:0:0:0:
75,311,76898,1,0,3:0:0:0:
201,41,77061,5,8,0:0:0:0:
197,65,77142,1,8,0:0:0:0:
193,89,77224,1,8,0:0:0:0:
188,114,77305,1,8,0:0:0:0:
183,137,77387,6,0,P|238:153|297:170,1,117,6|0,3:2|3:0,0:0:0:0:
477,88,77713,2,0,P|422:72|363:55,1,99,8|2,0:0|3:2,0:0:0:0:
201,41,78039,5,8,0:0:0:0:
401,159,78202,1,2,3:2:0:0:
157,214,78365,5,8,0:0:0:0:
297,11,78528,1,0,3:0:0:0:
319,274,78691,6,0,P|306:220|293:166,1,108,10|0,0:0|3:0,0:0:0:0:
96,15,79017,2,0,P|108:68|121:122,1,99,8|2,0:0|3:2,0:0:0:0:
231,254,79344,5,8,0:0:0:0:
39,173,79507,1,0,3:0:0:0:
224,87,79670,5,8,0:0:0:0:
117,298,79833,1,0,3:0:0:0:
5,58,79996,6,0,P|65:40|116:121,1,162,10|0,0:2|0:0,0:0:0:0:
146,192,80322,5,8,0:0:0:0:
304,0,80485,1,2,3:2:0:0:
231,254,80648,5,8,0:0:0:0:
206,6,80811,1,2,3:2:0:0:
328,232,80974,5,8,0:0:0:0:
117,111,81137,1,0,3:0:0:0:
421,141,81300,5,10,0:0:0:0:
141,203,81463,1,0,3:0:0:0:
406,23,81626,5,8,0:0:0:0:
230,266,81789,1,2,3:2:0:0:
206,6,81952,5,8,0:0:0:0:
344,253,82115,1,0,3:0:0:0:
117,111,82278,5,8,0:0:0:0:
406,23,82441,1,0,3:0:0:0:
230,266,82604,6,0,L|115:237,1,99,10|0,0:0|3:0,0:0:0:0:
417,141,82930,2,0,L|532:170,1,99,10|0,0:0|0:0,0:0:0:0:
278,124,83257,5,10,0:0:0:0:
485,63,83420,1,2,3:2:0:0:
296,208,83583,5,8,0:0:0:0:
406,23,83746,1,0,3:0:0:0:
215,181,83909,6,0,P|194:136|201:88,1,99,10|0,0:0|3:0,0:0:0:0:
382,235,84235,2,0,P|353:274|308:293,1,99,10|0,0:0|3:0,0:0:0:0:
95,303,84561,5,10,0:0:0:0:
201,88,84724,1,0,3:0:0:0:
232,331,84887,1,8,0:0:0:0:
13,178,85050,5,8,0:0:0:0:
13,178,85132,1,8,0:0:0:0:
13,178,85213,1,2,3:2:0:0:
105,211,85376,1,0,3:0:0:0:
89,113,85539,1,0,3:0:0:0:
304,28,85702,6,0,P|293:116|274:257,1,216,14|0,0:0|3:0,0:0:0:0:
361,287,86191,2,0,P|368:233|374:179,1,108,8|0,0:0|3:0,0:0:0:0:
304,38,86517,5,14,0:0:0:0:
280,329,86680,1,0,3:0:0:0:
383,10,86844,5,8,0:0:0:0:
361,287,87007,1,2,3:2:0:0:
225,10,87170,5,8,0:0:0:0:
201,301,87333,1,0,3:0:0:0:
201,301,87414,1,0,3:0:0:0:
201,301,87496,1,0,3:0:0:0:
64,66,87659,1,0,3:0:0:0:
286,210,87822,5,14,0:0:0:0:
129,109,87985,1,0,3:0:0:0:
300,123,88148,1,2,3:2:0:0:
126,197,88311,1,0,3:0:0:0:
352,255,88474,5,10,0:0:0:0:
64,66,88637,1,8,0:0:0:0:
371,89,88800,1,10,0:0:0:0:
53,234,88963,1,10,0:0:0:0:
242,5,89126,1,10,0:0:0:0:
456,169,90104,5,10,0:0:0:0:
456,169,90186,1,8,0:0:0:0:
456,169,90267,2,0,L|445:107,1,36,8|8,0:0|0:0,0:0:0:0:
448,51,90430,6,0,P|487:55|509:81,1,67.5,2|0,3:2|0:0,0:0:0:0:
449,133,90757,6,0,P|366:121|258:103,1,175.5,14|0,0:0|0:0,0:0:0:0:
183,99,91083,1,2,3:2:0:0:
353,31,91246,1,0,3:0:0:0:
289,201,91409,1,8,0:0:0:0:
258,17,91572,2,0,L|279:124,1,90,2|0,3:2|0:0,0:0:0:0:
388,300,91898,5,2,3:2:0:0:
208,210,92061,1,8,0:0:0:0:
377,208,92224,5,0,3:2:0:0:
218,316,92387,2,0,L|111:333,1,90,2|0,3:2|0:0,0:0:0:0:
388,300,92713,2,0,L|495:283,1,90,10|0,0:0|0:0,0:0:0:0:
274,104,93039,6,0,L|300:283,1,180,2|8,3:2|0:0,0:0:0:0:
96,158,93528,5,0,3:0:0:0:
218,316,93691,1,0,3:2:0:0:
185,144,93854,5,2,0:0:0:0:
129,330,94017,1,8,0:0:0:0:
71,76,94180,6,0,P|145:51|179:153,1,198,6|0,3:2|3:0,0:0:0:0:
218,316,94670,1,8,0:0:0:0:
17,251,94833,6,0,L|236:222,1,216,6|0,3:2|3:0,0:0:0:0:
304,159,95322,5,8,0:0:0:0:
105,157,95485,1,0,3:0:0:0:
249,23,95648,1,0,3:0:0:0:
249,23,95729,1,0,3:0:0:0:
249,23,95811,1,0,3:0:0:0:
336,263,95974,6,0,L|354:79,1,175.5,14|0,0:0|0:0,0:0:0:0:
354,0,96300,5,2,3:2:0:0:
511,93,96463,1,0,3:0:0:0:
512,5,96626,1,8,0:0:0:0:
353,88,96789,2,0,L|262:103,1,90,2|0,3:2|0:0,0:0:0:0:
70,52,97115,5,2,3:2:0:0:
194,192,97278,1,8,0:0:0:0:
166,34,97441,5,0,3:2:0:0:
96,209,97604,2,0,L|5:224,1,90,2|0,3:2|0:0,0:0:0:0:
294,185,97930,2,0,L|385:170,1,90,10|0,0:0|0:0,0:0:0:0:
209,295,98257,6,0,P|199:236|178:100,1,180,2|8,3:2|0:0,0:0:0:0:
168,11,98746,5,0,0:0:0:0:
96,209,98909,1,2,3:2:0:0:
286,61,99072,1,0,3:0:0:0:
37,77,99235,1,10,0:0:0:0:
294,185,99398,6,0,P|389:172|494:159,1,198,6|0,3:2|3:0,0:0:0:0:
383,71,99887,1,8,0:0:0:0:
512,264,100050,6,0,P|404:277|297:292,1,216,6|0,3:2|3:0,0:0:0:0:
294,185,100539,2,0,L|419:167,1,90,4|0,3:0|0:0,0:0:0:0:
194,62,100865,5,8,0:0:0:0:
297,291,101028,1,2,3:2:0:0:
343,45,101191,1,0,3:0:0:0:
223,266,101354,5,8,0:0:0:0:
269,21,101517,1,2,3:2:0:0:
374,249,101680,1,0,3:0:0:0:
112,108,101844,5,8,0:0:0:0:
383,164,102007,1,2,3:2:0:0:
127,278,102170,1,0,3:0:0:0:
357,79,102333,5,8,0:0:0:0:
100,195,102496,1,2,3:2:0:0:
374,249,102659,1,0,3:0:0:0:
202,46,102822,5,8,0:0:0:0:
262,309,102985,1,0,3:0:0:0:
357,79,103148,5,8,0:0:0:0:
100,195,103311,1,0,3:0:0:0:
262,322,103474,6,0,P|246:231|198:30,1,283.5,2|0,3:2|0:0,0:0:0:0:
108,37,104452,2,0,P|117:76|125:116,1,81.0000000000001,8|0,0:0|3:0,0:0:0:0:
126,128,104697,1,0,3:0:0:0:
124,141,104778,6,0,B|88:223|-2:210|-34:156|-15:107|29:86|52:107,1,252,2|0,3:2|0:0,0:0:0:0:
