osu file format v14

[General]
AudioFilename: audio.mp3
AudioLeadIn: 0
PreviewTime: 65523
Countdown: 0
SampleSet: Soft
StackLeniency: 0.7
Mode: 0
LetterboxInBreaks: 0
WidescreenStoryboard: 0

[Editor]
Bookmarks: 14460,26374,34885,48502,58715,65523,72332,79140,85949,92757,106374,123396,138715,145523,148928,152332,160843,167651,182970,196587,203396,210204,211906
DistanceSpacing: 0.8
BeatDivisor: 4
GridSize: 8
TimelineZoom: 1.7

[Metadata]
Title:Hey Darling!
TitleUnicode:Hey Darling!
Artist:Matsushita
ArtistUnicode:松下
Creator:Shikibe Mayu
Version:Toa my beloved
Source:ワガママハイスペックOC
Tags:Shizuku- Kazato Asa Wagamama High Spec Highspec wagahigh OC VOCAL ALBUM MDCD-0006 Shota Horie 堀江 晶太 madosoft まどそふと eroge visual novel galgame full version opening op alternator narumi toa 鳴海 兎亜 overclock over clock rock video game japanese
BeatmapID:3120956
BeatmapSetID:1525401

[Difficulty]
HPDrainRate:6
CircleSize:4
OverallDifficulty:9
ApproachRate:9.4
SliderMultiplier:1.92
SliderTickRate:1

[Events]
//Background and Video events
0,0,"0787.jpg",0,0
//Break Periods
2,1043,2005
2,2745,3707
2,181468,182430
//Storyboard Layer 0 (Background)
//Storyboard Layer 1 (Fail)
//Storyboard Layer 2 (Pass)
//Storyboard Layer 3 (Foreground)
//Storyboard Layer 4 (Overlay)
//Storyboard Sound Samples

[TimingPoints]
843,212.765957446809,4,2,7,60,1,0
8183,-142.857142857143,4,2,7,60,0,0
12970,-142.857142857143,4,2,7,40,0,0
14034,-66.6666666666667,4,2,7,60,0,0
14460,-100,4,2,7,75,0,1
18289,-125,4,2,7,75,0,1
18661,-125,4,2,7,5,0,1
18715,-100,4,2,7,75,0,1
21268,-100,4,2,7,60,0,0
21906,-166.666666666667,4,2,7,60,0,0
23821,-66.6666666666667,4,2,7,70,0,0
24672,-100,4,2,7,75,0,0
27651,-66.6666666666667,4,2,7,75,0,0
28077,-100,4,2,7,70,0,0
34885,-111.111111111111,4,2,7,60,0,0
48502,-111.111111111111,4,2,7,55,0,0
51906,-166.666666666666,4,2,7,55,0,0
58715,-100,4,2,7,60,0,0
65098,-66.6666666666667,4,2,7,75,0,0
65523,-83.3333333333333,4,2,7,75,0,1
65736,-111.111111111111,4,2,7,75,0,1
66162,-90.9090909090909,4,2,7,75,0,1
67225,-76.9230769230769,4,2,7,75,0,1
67438,-100,4,2,7,75,0,1
69353,-66.6666666666667,4,2,7,75,0,1
69779,-166.666666666667,4,2,7,75,0,1
69991,-125,4,2,7,75,0,1
70630,-100,4,2,7,75,0,1
73183,-83.3333333333333,4,2,7,75,0,1
73502,-100,4,2,7,75,0,1
79140,-100,4,2,7,60,0,0
80843,-125,4,2,7,60,0,0
81694,-66.6666666666667,4,2,7,75,0,0
82545,-100,4,2,7,75,0,0
85523,-76.9230769230769,4,2,7,75,0,0
85949,-100,4,2,7,70,0,0
89353,-142.857142857143,4,2,7,70,0,0
89672,-100,4,2,7,70,0,0
91374,-76.9230769230769,4,2,7,70,0,0
91694,-125,4,2,7,70,0,0
92757,-111.111111111111,4,2,7,60,0,0
106374,-111.111111111111,4,2,7,50,0,0
111055,-166.666666666666,4,2,7,60,0,0
116587,-166.666666666666,4,2,7,60,0,0
116906,-100,4,2,7,60,0,0
118608,-111.111111111111,4,2,7,60,0,0
119991,-111.111111111111,4,2,7,65,0,0
123396,-100,4,2,7,75,0,1
138715,-100,4,2,7,60,0,0
145523,-100,4,2,7,65,0,0
159991,-125,4,2,7,65,0,0
160843,-166.666666666667,4,2,7,60,0,0
163396,-111.111111111111,4,2,7,60,0,0
165949,-66.6666666666667,4,2,7,75,0,0
166906,-66.6666666666667,4,2,7,65,0,0
167651,-100,4,2,7,75,0,1
168502,-83.3333333333333,4,2,7,75,0,1
168821,-100,4,2,7,75,0,1
174460,-100,4,2,7,60,0,0
177013,-66.6666666666667,4,2,7,75,0,0
177864,-100,4,2,7,75,0,0
180843,-111.111111111111,4,2,7,75,0,0
182970,-100,4,2,7,75,0,0
186800,-90.9090909090909,4,2,7,75,0,0
187225,-125,4,2,7,75,0,0
188077,-100,4,2,7,75,0,0
195098,-76.9230769230769,4,2,7,75,0,0
195311,-100,4,2,7,75,0,0
195523,-76.9230769230769,4,2,7,75,0,0
196587,-100,4,2,7,70,0,0
210204,-166.666666666667,4,2,7,75,0,0
210417,-166.666666666667,4,2,7,5,0,0
211693,-166.666666666667,4,2,7,30,0,0

[Colours]
Combo1 : 197,190,250
Combo2 : 159,221,211
Combo3 : 207,207,207
Combo4 : 164,208,232

[HitObjects]
440,104,630,5,0,3:0:0:0:
442,88,701,1,0,3:0:0:0:
445,73,772,1,0,3:0:0:0:
447,57,843,1,6,1:0:0:0:
96,192,2545,5,6,1:0:0:0:
447,327,4247,5,6,1:0:0:0:
388,266,4672,1,2,2:0:0:0:
305,286,5098,1,2,2:0:0:0:
280,367,5523,1,2,2:0:0:0:
105,342,5736,5,0,3:0:0:0:
105,342,5807,1,0,3:0:0:0:
105,342,5878,1,0,3:0:0:0:
105,342,5949,2,0,P|68:280|67:188,1,144,6|0,1:2|2:0,2:0:0:0:
68,198,6162,1,0,3:0:0:0:
87,118,6268,2,0,P|34:126|2:154,1,96,2|0,1:0|2:0,2:0:0:0:
150,175,6481,1,0,3:0:0:0:
244,25,6587,6,0,B|205:-4|205:-4|237:164,1,192,4|0,1:2|3:1,2:1:0:0:
215,307,6906,5,8,2:0:0:0:
305,286,7013,1,0,3:0:0:0:
368,353,7119,1,0,3:0:0:0:
458,332,7225,5,8,2:0:0:0:
480,296,7296,1,0,3:0:0:0:
482,254,7367,1,0,3:0:0:0:
463,216,7438,1,0,3:0:0:0:
428,192,7509,1,0,3:0:0:0:
386,189,7580,1,0,3:0:0:0:
348,207,7651,5,6,3:1:0:0:
305,286,7864,1,2,2:0:0:0:
215,307,8077,1,0,3:0:0:0:
215,307,8183,2,0,L|109:288,1,67.1999999999999,2|0,2:0|2:0,2:0:0:0:
76,342,8396,1,2,2:0:0:0:
76,342,8502,2,0,P|42:283|42:213,1,134.4,0|2,3:0|2:0,2:0:0:0:
87,201,8821,1,2,2:0:0:0:
50,173,8928,1,2,3:2:0:0:
50,173,9140,2,0,L|61:105,1,67.1999999999999,2|0,2:0|2:0,2:0:0:0:
168,24,9353,5,4,3:1:0:0:
231,88,9566,1,2,2:0:0:0:
319,64,9779,1,0,3:0:0:0:
319,64,9885,2,0,L|392:81,1,67.1999999999999,2|0,2:0|2:0,2:0:0:0:
432,168,10098,2,0,L|505:185,1,67.1999999999999,2|0,2:0|3:0,2:0:0:0:
497,183,10311,5,2,2:0:0:0:
497,183,10417,2,0,L|510:255,1,67.1999999999999,2|0,2:0|2:0,2:0:0:0:
448,384,10630,2,0,L|422:240,1,134.4,0|2,3:0|2:0,2:0:0:0:
384,79,11055,5,4,3:2:0:0:
384,79,11268,1,0,2:0:0:0:
384,79,11481,1,8,2:0:0:0:
333,54,11587,1,8,2:0:0:0:
279,68,11694,1,8,2:0:0:0:
246,113,11800,1,8,2:0:0:0:
249,169,11906,1,8,2:0:0:0:
216,213,12013,1,8,2:0:0:0:
161,226,12119,1,8,2:0:0:0:
111,202,12225,1,8,2:0:0:0:
88,151,12332,1,8,2:0:0:0:
102,96,12438,1,8,2:0:0:0:
176,129,12545,5,8,2:3:0:0:
174,138,12616,1,8,2:3:0:0:
172,144,12686,1,8,2:3:0:0:
171,152,12757,1,4,3:1:0:0:
160,320,12970,5,2,2:0:0:0:
160,320,13077,1,2,2:0:0:0:
77,295,13289,1,2,2:0:0:0:
14,353,13502,1,2,2:0:0:0:
95,378,13715,1,2,2:0:0:0:
95,378,13821,1,2,2:0:0:0:
256,336,14034,6,0,L|256:48,1,288,12|0,2:0|2:0,2:0:0:0:
128,192,14460,6,0,P|62:205|3:148,1,144,6|0,3:1|2:0,2:0:0:0:
4,147,14672,2,0,L|22:49,1,96,10|0,2:0|2:0,2:0:0:0:
231,129,14885,5,2,3:1:0:0:
309,110,14991,1,0,3:0:0:0:
387,91,15098,2,0,P|402:146|401:193,1,96,8|0,2:0|2:0,2:0:0:0:
505,375,15311,6,0,P|446:319|367:326,1,144,2|0,3:1|2:0,2:0:0:0:
374,323,15523,1,8,2:0:0:0:
321,266,15630,2,0,P|297:313|316:376,1,96,2|0,2:1|3:0,2:0:0:0:
231,129,15843,2,0,P|255:82|236:19,1,96,0|8,3:1|2:0,2:0:0:0:
48,101,16055,5,2,2:0:0:0:
48,101,16162,2,0,P|120:58|188:75,1,144,2|0,3:1|2:0,2:0:0:0:
231,129,16374,2,0,P|287:123|321:93,1,96,8|0,2:0|3:0,2:0:0:0:
512,256,16587,5,2,2:1:0:0:
427,236,16694,1,0,3:0:0:0:
342,216,16800,2,0,P|286:222|252:252,1,96,8|0,2:0|2:0,2:0:0:0:
8,216,17013,5,8,2:0:0:0:
33,293,17119,1,8,2:0:0:0:
58,370,17225,1,8,2:0:0:0:
167,250,17332,5,8,2:0:0:0:
87,233,17438,1,8,2:0:0:0:
8,216,17545,1,8,2:0:0:0:
58,370,17651,5,8,2:0:0:0:
112,309,17757,1,8,2:0:0:0:
167,250,17864,1,2,3:1:0:0:
167,250,18289,6,0,B|238:217|281:278|281:278|329:354|410:313,1,268.8,12|0,2:1|2:1,2:1:0:0:
399,317,18715,6,0,P|317:300|250:375,1,192,12|0,2:0|3:0,2:0:0:0:
112,309,19034,2,0,P|88:259|109:197,1,96,12|0,2:0|2:0,2:0:0:0:
45,59,19247,1,0,3:0:0:0:
45,59,19353,2,0,L|22:166,1,96,12|0,2:0|2:0,2:0:0:0:
167,250,19566,6,0,L|268:227,1,96,4|0,3:2|2:0,2:0:0:0:
348,131,19779,2,0,L|449:108,1,96,4|0,3:2|2:0,2:0:0:0:
126,133,19991,6,0,L|227:110,1,96,4|0,3:2|2:0,2:0:0:0:
387,254,20204,2,0,L|488:231,1,96,4|0,3:2|2:0,2:0:0:0:
257,367,20417,5,8,2:0:0:0:
168,344,20523,1,8,2:0:0:0:
162,253,20630,1,8,2:0:0:0:
246,219,20736,1,8,2:0:0:0:
304,288,20843,1,8,2:0:0:0:
387,254,20949,1,8,2:0:0:0:
381,163,21055,1,8,2:0:0:0:
293,142,21162,1,8,2:0:0:0:
246,219,21268,1,4,3:1:0:0:
38,172,21481,5,2,2:0:0:0:
16,139,21587,1,2,2:0:0:0:
20,93,21694,1,8,2:0:0:0:
160,105,21906,2,0,L|96:117,1,57.5999999999999,2|0,2:0|2:0,2:0:0:0:
38,172,22119,5,0,3:0:0:0:
112,272,22332,1,2,2:0:0:0:
134,237,22438,1,2,2:0:0:0:
122,196,22545,1,8,2:0:0:0:
245,106,22757,2,0,L|309:118,1,57.5999999999999,2|0,2:0|2:0,2:0:0:0:
376,72,22970,5,2,3:2:0:0:
471,258,23183,1,2,2:0:0:0:
431,285,23289,1,2,2:0:0:0:
388,277,23396,1,8,2:0:0:0:
400,164,23608,5,2,2:0:0:0:
417,177,23715,1,2,2:0:0:0:
415,196,23821,2,0,B|320:175|292:252|303:261|317:270|274:349|169:307,3,288,4|4|4|8,3:2|3:2|3:2|2:0,2:0:0:0:
130,375,24530,5,8,2:0:0:0:
130,375,24601,1,8,2:0:0:0:
130,375,24672,2,0,P|103:329|118:271,1,96,4|0,3:1|2:0,2:0:0:0:
242,249,24885,2,0,P|269:295|254:353,1,96,8|0,2:1|2:0,2:0:0:0:
186,312,25098,1,0,3:0:0:0:
158,204,25204,2,0,B|206:221|250:187|239:171|232:161|278:122|337:152,1,192,8|0,2:0|3:0,2:0:0:0:
502,81,25523,6,0,P|488:35|449:9,1,96,8|8,2:0|2:0,2:0:0:0:
442,13,25683,1,8,2:0:0:0:
435,17,25736,2,8,L|419:116,1,96,8|8,2:0|2:0,2:0:0:0:
376,336,25949,5,8,2:0:0:0:
466,354,26055,1,8,2:0:0:0:
512,273,26162,1,8,2:0:0:0:
450,205,26268,1,8,2:3:0:0:
365,243,26374,1,12,2:0:0:0:
52,221,27651,6,0,B|-13:213|-53:142|-10:53|48:36|100:101|66:139,1,288,12|0,2:0|2:0,2:0:0:0:
65,139,28077,6,0,P|113:145|152:115,1,96,6|0,3:2|2:0,2:0:0:0:
233,206,28289,1,8,2:0:0:0:
233,206,28396,2,0,P|196:118|200:12,1,192,2|0,3:2|3:0,2:0:0:0:
321,190,28715,2,0,P|309:254|273:285,1,96,8|0,2:0|2:0,2:0:0:0:
67,261,28928,6,0,P|155:196|246:213,1,192,2|8,3:2|2:0,2:0:0:0:
232,205,29247,1,0,3:0:0:0:
231,205,29353,2,0,P|204:167|211:121,1,96,2|0,2:0|2:0,2:0:0:0:
301,105,29566,2,0,P|328:142|321:189,1,96,8|0,2:0|2:0,2:0:0:0:
453,346,29779,6,0,P|358:275|275:279,1,192,2|8,3:2|2:0,2:0:0:0:
245,348,30098,1,0,3:0:0:0:
163,357,30204,2,0,P|136:311|151:247,1,96,2|0,2:0|2:0,2:0:0:0:
187,33,30417,2,0,P|214:79|199:143,1,96,8|0,2:0|2:0,2:0:0:0:
55,246,30630,5,2,3:2:0:0:
83,191,30736,1,0,3:0:0:0:
144,177,30843,1,8,2:0:0:0:
89,201,30949,5,2,2:0:0:0:
143,188,31055,1,0,2:0:0:0:
193,204,31162,1,0,3:0:0:0:
227,247,31268,2,0,P|272:247|322:216,1,96,8|0,2:0|2:0,2:0:0:0:
384,30,31481,6,0,P|361:68|363:127,1,96,4|0,3:2|2:0,2:0:0:0:
429,207,31694,1,8,2:0:0:0:
429,207,31800,2,0,P|354:157|252:161,1,192,2|0,3:2|3:0,2:0:0:0:
186,110,32119,2,0,P|178:57|207:7,1,96,8|0,2:0|2:0,2:0:0:0:
138,269,32332,2,0,P|146:322|117:372,1,96,2|0,3:2|2:0,2:0:0:0:
58,308,32545,5,8,2:0:0:0:
130,257,32651,1,0,3:0:0:0:
217,248,32757,1,2,2:0:0:0:
297,284,32864,1,0,3:0:0:0:
348,355,32970,2,0,P|401:347|442:319,1,96,8|0,2:0|2:0,2:0:0:0:
408,88,33183,6,0,P|364:173|369:276,1,192,4|8,3:1|2:0,2:0:0:0:
367,267,33502,1,2,2:0:0:0:
367,267,33608,2,0,P|308:268|270:230,1,96,0|0,3:0|2:0,2:0:0:0:
296,160,33821,2,0,P|355:159|393:197,1,96,8|0,2:0|2:0,2:0:0:0:
168,384,34034,1,4,3:2:0:0:
168,384,34247,5,8,2:0:0:0:
89,352,34353,1,8,2:0:0:0:
76,268,34460,1,8,2:0:0:0:
141,215,34566,1,8,2:0:0:0:
221,246,34672,1,8,2:0:0:0:
237,331,34779,1,8,2:0:0:0:
157,299,34885,6,0,B|230:253|248:325|326:275,1,172.8,6|8,3:2|2:0,2:0:0:0:
322,277,35204,1,2,2:0:0:0:
322,277,35311,2,0,P|297:235|315:185,1,86.4000000000001,0|0,3:0|2:0,2:0:0:0:
382,180,35523,2,0,P|407:222|389:272,1,86.4000000000001,8|0,2:0|2:0,2:0:0:0:
484,128,35736,6,0,P|396:119|348:51,1,172.8,2|8,3:2|2:0,2:0:0:0:
348,55,36055,1,2,2:0:0:0:
348,55,36162,2,0,L|262:78,1,86.4000000000001,0|0,3:0|2:0,2:0:0:0:
182,181,36374,2,0,L|96:204,1,86.4000000000001,8|0,2:0|2:0,2:0:0:0:
75,125,36587,6,0,L|161:102,1,86.4000000000001,2|0,3:2|2:0,2:0:0:0:
285,153,36800,2,0,L|371:130,1,86.4000000000001,8|0,2:0|2:0,2:0:0:0:
288,311,37013,1,2,2:0:0:0:
288,311,37119,1,0,3:0:0:0:
288,311,37225,2,0,P|255:259|255:222,1,86.4000000000001,8|0,2:0|2:0,2:0:0:0:
381,309,37438,6,0,P|306:320|237:385,1,172.8,2|8,3:2|2:0,2:0:0:0:
160,369,37757,2,0,P|138:331|134:271,1,86.4000000000001,2|0,2:0|3:0,2:0:0:0:
62,85,37970,1,0,3:0:0:0:
77,146,38077,1,8,2:0:0:0:
16,131,38183,1,0,2:0:0:0:
52,121,38289,6,0,B|128:104|117:183|213:159,1,172.8,2|8,3:2|2:0,2:0:0:0:
203,0,38608,2,0,P|177:42|190:100,1,86.4000000000001,2|0,2:0|3:0,2:0:0:0:
245,240,38821,1,0,2:0:0:0:
245,240,38928,2,0,P|245:282|221:318,1,86.4000000000001,8|0,2:0|2:0,2:0:0:0:
128,341,39140,6,0,L|304:377,1,172.8,2|8,3:2|2:0,2:0:0:0:
357,318,39460,1,2,2:0:0:0:
448,340,39566,1,0,3:0:0:0:
448,340,39672,1,0,3:0:0:0:
448,340,39779,2,0,P|464:284|453:243,1,86.4000000000001,8|0,2:0|2:0,2:0:0:0:
473,156,39991,6,0,L|384:136,1,86.4000000000001,2|0,3:2|2:0,2:0:0:0:
298,112,40204,2,0,L|213:93,1,86.4000000000001,8|0,2:0|2:0,2:0:0:0:
435,27,40417,6,0,L|376:91,1,86.4000000000001,2|0,3:2|2:0,2:0:0:0:
309,157,40630,2,0,L|251:221,1,86.4000000000001,8|0,2:0|2:0,2:0:0:0:
305,0,40843,6,0,L|331:78,1,86.4000000000001,2|0,3:2|2:0,2:0:0:0:
355,170,41055,1,8,2:0:0:0:
355,170,41162,2,0,L|380:252,1,86.4000000000001,0|0,3:2|2:0,2:0:0:0:
306,336,41374,5,0,3:0:0:0:
267,310,41481,1,10,2:0:0:0:
220,318,41587,1,0,2:0:0:0:
144,384,41694,6,0,P|181:294|149:200,1,172.8,4|8,3:2|2:0,2:0:0:0:
164,223,42013,1,2,2:0:0:0:
102,10,42225,1,0,3:0:0:0:
102,10,42332,2,0,P|82:54|96:110,1,86.4000000000001,8|0,2:0|2:0,2:0:0:0:
30,166,42545,6,0,P|109:120|198:136,1,172.8,2|8,3:2|2:0,2:0:0:0:
266,156,42864,1,0,3:0:0:0:
266,156,42970,2,0,P|266:109|241:64,1,86.4000000000001,2|0,0:2|3:0,2:0:0:0:
106,104,43183,2,0,P|106:151|131:196,1,86.4000000000001,8|0,2:0|2:0,2:0:0:0:
281,260,43396,6,0,P|240:236|188:235,1,86.4000000000001,2|0,3:2|2:0,2:0:0:0:
51,356,43608,1,8,2:0:0:0:
51,356,43715,2,0,L|228:316,1,172.8,2|0,3:2|3:0,2:0:0:0:
281,260,44034,2,0,P|240:236|188:235,1,86.4000000000001,8|0,2:0|2:0,2:0:0:0:
311,346,44247,6,0,L|351:169,1,172.8,2|8,3:2|2:0,2:0:0:0:
286,105,44566,2,0,L|306:16,1,86.4000000000001,0|0,3:0|2:0,2:0:0:0:
458,121,44779,1,0,3:0:0:0:
458,121,44885,2,0,P|412:92|352:90,1,86.4000000000001,8|0,2:0|2:0,2:0:0:0:
306,260,45098,6,0,P|352:289|412:291,1,86.4000000000001,2|0,3:2|2:0,2:0:0:0:
201,232,45311,1,8,2:0:0:0:
201,232,45417,2,0,L|111:253,1,86.4000000000001,2|0,3:2|2:0,2:0:0:0:
52,300,45630,5,0,3:0:0:0:
35,279,45736,1,8,2:0:0:0:
36,253,45843,1,2,2:0:0:0:
128,167,45949,6,0,P|116:209|117:257,1,86.4000000000001,2|0,3:2|2:0,2:0:0:0:
52,300,46162,1,8,2:0:0:0:
128,331,46268,2,0,L|308:288,1,172.8,2|0,3:2|3:0,2:0:0:0:
297,291,46587,2,0,P|285:333|286:381,1,86.4000000000001,8|0,2:0|2:0,2:0:0:0:
384,384,46800,6,0,P|396:342|395:294,1,86.4000000000001,2|0,3:2|2:0,2:0:0:0:
421,226,47013,1,8,2:0:0:0:
492,261,47119,2,0,P|397:254|324:178,1,172.8,2|0,3:2|3:0,2:0:0:0:
386,137,47438,2,0,L|373:45,1,86.4000000000001,8|0,2:0|2:0,2:0:0:0:
241,40,47651,5,8,2:3:0:0:
181,21,47757,1,8,2:3:0:0:
126,50,47864,1,8,2:3:0:0:
108,109,47970,1,8,2:3:0:0:
136,164,48077,1,4,2:3:0:0:
116,222,48183,1,4,2:3:0:0:
61,250,48289,1,4,2:3:0:0:
3,230,48396,1,4,2:3:0:0:
0,220,48502,5,4,3:1:0:0:
122,302,48928,1,0,3:0:0:0:
254,237,49353,1,0,3:0:0:0:
263,90,49779,1,0,3:0:0:0:
263,90,49991,1,2,2:0:0:0:
140,8,50204,5,0,3:0:0:0:
130,154,50630,1,0,3:0:0:0:
253,236,51055,1,0,3:0:0:0:
387,171,51481,1,0,3:0:0:0:
387,171,51694,1,2,2:0:0:0:
348,94,51906,6,0,L|172:130,1,115.2,0|2,3:0|2:0,2:0:0:0:
221,102,52225,1,2,2:0:0:0:
193,94,52332,1,0,3:0:0:0:
176,96,52438,1,2,2:0:0:0:
172,232,52651,1,2,2:0:0:0:
172,232,52757,6,0,P|184:198|178:147,1,57.6000000000002,0|0,3:0|2:0,2:0:0:0:
106,51,52970,2,0,P|95:77|93:106,1,57.6000000000002,2|0,2:0|2:0,2:0:0:0:
0,221,53183,6,0,P|54:182|125:190,1,115.2,0|2,3:0|2:0,2:0:0:0:
100,180,53502,1,2,2:0:0:0:
100,180,53608,1,0,3:0:0:0:
233,353,53821,5,2,2:0:0:0:
233,353,53928,2,0,L|222:288,1,57.6000000000002,0|0,2:0|3:0,2:0:0:0:
158,368,54140,1,2,2:0:0:0:
158,368,54247,2,0,L|147:303,1,57.6000000000002,2|0,2:0|2:0,2:0:0:0:
384,192,54460,5,0,3:0:0:0:
426,199,54566,1,8,2:0:0:0:
412,159,54672,1,0,3:0:0:0:
417,162,54885,1,8,2:0:0:0:
224,96,55098,5,8,2:0:0:0:
140,111,55204,1,8,2:0:0:0:
168,31,55311,1,4,3:1:0:0:
168,31,55736,5,0,3:0:0:0:
196,176,55949,1,2,2:0:0:0:
56,127,56162,1,0,3:0:0:0:
42,208,56374,6,0,P|69:208|106:192,1,57.6000000000002,2|0,2:0|2:0,2:0:0:0:
140,111,56587,1,0,3:0:0:0:
140,111,56800,1,2,2:0:0:0:
162,255,57013,6,0,L|145:374,1,115.2,0|2,3:0|2:0,2:0:0:0:
145,369,57332,1,2,2:0:0:0:
145,369,57438,1,0,3:0:0:0:
13,315,57651,2,0,L|68:300,1,57.6000000000002,2|0,2:0|2:0,2:0:0:0:
261,358,57864,5,4,3:1:0:0:
337,327,57970,1,8,2:0:0:0:
399,384,58077,1,8,2:0:0:0:
503,210,58289,5,8,2:0:0:0:
424,226,58396,1,8,2:0:0:0:
489,192,58502,1,8,2:0:0:0:
429,206,58608,1,8,2:0:0:0:
454,190,58715,6,0,P|473:143|456:80,1,96,4|0,3:2|2:0,2:0:0:0:
304,162,58928,1,0,3:0:0:0:
304,162,59034,2,0,P|346:135|411:140,1,96,10|0,2:0|2:0,2:0:0:0:
260,0,59247,2,0,P|261:50|224:104,1,96,10|0,2:1|2:0,2:0:0:0:
261,358,59460,6,2,P|231:270|137:241,1,192,10|0,2:1|3:1,2:1:0:0:
143,240,59779,2,0,L|31:270,1,96,8|0,2:0|3:0,2:0:0:0:
15,148,59991,5,0,3:0:0:0:
0,97,60098,1,0,3:0:0:0:
19,47,60204,1,0,3:0:0:0:
47,29,60311,1,0,3:0:0:0:
169,118,60417,6,0,P|118:122|75:96,1,96,10|0,2:1|2:0,2:0:0:0:
275,20,60630,1,0,3:0:0:0:
275,20,60736,2,0,L|252:117,1,96,8|0,2:0|2:0,2:0:0:0:
226,213,60949,2,0,L|203:310,1,96,10|0,2:0|2:0,2:0:0:0:
275,384,61162,6,2,P|203:330|94:350,1,192,10|0,2:1|3:1,2:1:0:0:
39,306,61481,1,8,2:0:0:0:
30,355,61587,1,0,3:0:0:0:
23,330,61694,5,0,3:0:0:0:
106,341,61800,1,0,3:0:0:0:
176,296,61906,1,0,3:0:0:0:
201,216,62013,1,0,3:0:0:0:
169,139,62119,1,14,2:0:0:0:
169,139,62332,5,0,3:0:0:0:
92,183,62438,2,0,P|41:183|-8:164,1,96,8|0,2:0|2:0,2:0:0:0:
133,59,62651,5,8,2:0:0:0:
212,56,62757,1,0,3:0:0:0:
169,46,62864,1,0,3:0:0:0:
228,81,62970,1,8,2:0:0:0:
488,202,63183,5,8,2:0:0:0:
395,176,63289,1,8,2:0:0:0:
351,256,63396,1,8,2:0:0:0:
184,384,63608,5,8,2:0:0:0:
132,375,63679,5,8,2:0:0:0:
81,366,63750,5,8,2:0:0:0:
30,357,63821,5,12,2:0:0:0:
256,48,65098,6,0,L|256:336,1,288,12|0,2:0|2:0,2:0:0:0:
512,224,65523,6,0,P|460:173|358:194,1,172.8,6|0,3:1|2:0,2:0:0:0:
364,195,65736,2,0,L|379:299,1,86.4000000000001,10|0,2:0|3:0,2:0:0:0:
168,380,65949,5,2,2:0:0:0:
101,323,66055,1,0,3:0:0:0:
11,353,66162,2,0,P|-11:311|-7:242,1,105.6,8|0,2:1|2:0,2:0:0:0:
202,192,66374,2,0,P|225:238|223:291,1,105.6,2|0,3:1|2:0,2:0:0:0:
89,169,66587,5,8,2:0:0:0:
89,169,66694,2,0,P|84:121|126:57,1,105.6,2|0,3:2|2:0,2:0:0:0:
223,94,66906,2,0,P|227:141|185:205,1,105.6,2|8,3:2|2:0,2:0:0:0:
128,243,67119,1,2,2:0:0:0:
168,380,67225,6,0,B|270:405|239:307|356:339,1,187.2,2|0,3:1|2:0,2:0:0:0:
351,341,67438,2,0,P|329:298|339:231,1,96,8|0,2:1|2:0,2:0:0:0:
416,229,67651,2,0,P|438:272|428:339,1,96,2|0,3:1|3:0,2:0:0:0:
225,291,67864,5,8,2:0:0:0:
225,291,67970,1,0,2:0:0:0:
225,291,68077,2,0,L|248:168,1,96,2|0,3:1|2:0,2:0:0:0:
263,94,68289,2,0,L|281:0,1,96,10|0,2:1|2:0,2:0:0:0:
408,124,68502,6,0,P|353:134|308:177,1,96,2|0,3:2|3:0,2:0:0:0:
240,378,68715,2,0,P|185:368|140:325,1,96,10|0,2:1|2:0,2:0:0:0:
94,75,68928,6,0,P|146:179|141:258,1,192,2|8,3:2|2:0,2:0:0:0:
138,262,69247,1,0,3:0:0:0:
81,378,69353,6,2,P|72:201|225:291,1,432,2|0,2:1|2:1,2:1:0:0:
224,289,69779,2,0,P|219:321|201:352,1,57.5999999999999,2|0,3:2|2:0,2:0:0:0:
299,246,69991,6,0,P|330:220|377:222,1,76.8,8|0,2:0|3:0,2:0:0:0:
456,137,70204,2,0,P|463:176|437:216,1,76.8,2|0,0:2|3:0,2:0:0:0:
471,327,70417,2,0,P|432:313|411:271,1,76.8,8|0,2:0|2:0,2:0:0:0:
224,289,70630,6,0,B|124:257|153:341|37:306,1,192,4|8,3:1|2:0,2:0:0:0:
200,201,70949,2,0,B|221:302|280:235|308:353,1,192,4|0,3:2|3:0,2:0:0:0:
137,267,71268,2,0,B|214:197|126:179|214:96,1,192,12|0,2:0|3:0,2:0:0:0:
292,280,71587,5,8,2:0:0:0:
328,208,71694,1,8,2:0:0:0:
268,160,71800,1,8,2:0:0:0:
192,176,71906,1,8,2:0:0:0:
132,112,72013,1,8,2:0:0:0:
164,32,72119,1,8,2:0:0:0:
244,24,72225,1,8,2:0:0:0:
244,24,72332,6,0,P|291:69|273:156,1,144,6|0,3:1|2:0,2:0:0:0:
268,160,72545,2,0,P|316:159|367:189,1,96,8|0,2:0|3:0,2:0:0:0:
236,314,72757,2,0,P|211:272|211:213,1,96,2|0,0:1|3:0,2:0:0:0:
386,265,72970,2,0,P|362:307|311:336,1,96,8|0,0:0|2:0,2:0:0:0:
296,246,73183,6,0,B|414:214|375:332|505:298,1,230.4,2|8,3:1|2:0,2:0:0:0:
236,314,73502,2,0,P|211:272|211:213,1,96,2|0,3:2|2:0,2:0:0:0:
330,92,73715,2,0,P|354:133|354:192,1,96,2|8,3:2|2:0,2:0:0:0:
296,246,73928,1,2,2:0:0:0:
208,225,74034,6,0,L|101:250,1,96,2|0,3:1|2:0,2:0:0:0:
357,180,74247,2,0,L|464:155,1,96,8|0,2:0|2:0,2:0:0:0:
288,32,74460,5,2,2:1:0:0:
215,56,74566,1,0,3:0:0:0:
155,11,74672,2,0,P|130:59|138:114,1,96,8|0,2:0|2:0,2:0:0:0:
190,308,74885,5,8,2:0:0:0:
270,282,74991,1,8,2:0:0:0:
350,257,75098,1,8,2:0:0:0:
227,143,75204,5,8,2:0:0:0:
208,225,75311,1,8,2:0:0:0:
190,308,75417,1,8,2:0:0:0:
351,258,75523,5,8,2:0:0:0:
290,201,75630,1,8,2:0:0:0:
227,143,75736,1,10,2:1:0:0:
452,36,76162,6,0,B|486:24|507:-3|507:-3|457:228,1,288,4|0,3:1|2:0,2:0:0:0:
460,211,76587,6,0,P|404:211|352:251,1,96,8|0,2:0|2:0,2:0:0:0:
296,368,76800,1,0,3:0:0:0:
312,376,76906,2,0,B|344:268|256:296|296:176,1,192,12|0,2:0|3:0,2:0:0:0:
387,146,77225,2,0,P|395:198|345:238,1,96,8|0,2:0|2:0,2:0:0:0:
192,384,77438,6,0,L|95:369,1,96,6|0,3:1|2:0,2:0:0:0:
112,187,77651,2,8,L|15:172,1,96,4|0,3:2|2:0,2:0:0:0:
304,107,77864,6,8,L|207:92,1,96,4|0,3:2|2:0,2:0:0:0:
96,276,78077,2,8,L|-1:261,1,96,4|0,3:2|2:0,2:0:0:0:
312,376,78289,5,0,3:1:0:0:
396,357,78396,1,8,2:0:0:0:
448,288,78502,1,8,2:0:0:0:
443,201,78608,1,8,2:0:0:0:
384,138,78715,1,8,2:0:0:0:
298,127,78821,1,8,2:0:0:0:
226,174,78928,1,8,2:0:0:0:
201,257,79034,1,8,2:0:0:0:
234,337,79140,5,6,3:1:0:0:
234,337,79353,1,2,2:0:0:0:
180,342,79460,1,2,2:0:0:0:
145,384,79566,1,8,2:0:0:0:
145,384,79779,1,2,2:0:0:0:
201,257,79991,5,0,3:0:0:0:
101,309,80204,1,2,2:0:0:0:
47,304,80311,1,2,2:0:0:0:
12,262,80417,1,8,2:0:0:0:
12,262,80630,1,2,2:0:0:0:
147,81,80843,6,0,P|114:155|126:242,1,153.6,2|2,3:1|2:0,2:0:0:0:
201,257,81162,1,2,2:0:0:0:
101,309,81268,1,8,2:0:0:0:
339,371,81481,5,2,2:0:0:0:
378,359,81587,1,2,2:0:0:0:
404,384,81694,2,0,B|456:301|393:249|381:256|367:266|305:186|383:114,3,288,4|4|4|8,3:2|3:2|3:2|2:0,2:0:0:0:
448,155,82403,5,8,2:0:0:0:
446,164,82474,1,8,2:0:0:0:
445,172,82545,2,0,P|393:210|346:205,1,96,6|0,3:1|2:0,2:0:0:0:
299,88,82757,2,0,P|333:55|380:49,1,96,8|0,2:0|2:0,2:0:0:0:
370,128,82970,5,2,3:2:0:0:
208,16,83077,2,0,P|254:78|254:212,1,192,8|0,2:0|3:0,2:0:0:0:
144,372,83396,6,0,P|116:333|114:286,1,96,8|0,2:0|2:0,2:0:0:0:
228,344,83608,2,0,P|226:296|198:258,1,96,4|0,3:2|2:0,2:0:0:0:
330,249,83821,6,0,P|304:208|261:189,1,96,4|0,3:2|2:0,2:0:0:0:
4,359,84034,2,0,P|0:311|20:269,1,96,4|0,3:2|2:0,2:0:0:0:
134,200,84247,5,14,2:0:0:0:
461,343,85311,5,0,3:0:0:0:
461,343,85382,1,0,3:0:0:0:
461,343,85452,1,0,3:0:0:0:
461,343,85523,2,0,P|480:189|337:249,1,374.4,12|0,2:0|2:0,2:0:0:0:
172,301,85949,6,0,B|123:293|104:255|104:255|42:243|-9:324,1,192,4|8,3:1|2:0,2:0:0:0:
182,220,86268,1,0,3:0:0:0:
248,264,86374,2,0,P|257:310|224:370,1,96,2|0,0:2|3:0,2:0:0:0:
113,178,86587,2,0,P|148:147|216:145,1,96,8|0,2:0|2:0,2:0:0:0:
291,6,86800,6,0,P|247:111|263:187,1,192,2|8,3:1|2:0,2:0:0:0:
451,149,87119,2,0,P|435:89|388:54,1,96,2|0,2:0|2:0,2:0:0:0:
335,104,87332,1,0,3:0:0:0:
335,104,87438,2,0,P|351:164|398:199,1,96,8|0,2:0|2:0,2:0:0:0:
512,384,87651,6,0,P|457:313|344:310,1,192,2|8,3:1|2:0,2:0:0:0:
294,253,87970,2,0,L|180:282,1,96,0|2,3:0|0:0,2:0:0:0:
155,348,88183,1,0,3:0:0:0:
155,348,88289,2,0,L|41:377,1,96,8|0,2:0|2:0,2:0:0:0:
0,260,88502,5,2,3:2:0:0:
24,182,88608,1,0,3:0:0:0:
96,154,88715,1,8,2:0:0:0:
35,192,88821,5,2,3:2:0:0:
101,163,88928,1,0,2:0:0:0:
171,176,89034,1,0,3:0:0:0:
211,236,89140,1,8,2:0:0:0:
282,259,89247,1,0,3:0:0:0:
355,229,89353,2,0,P|358:190|331:142,1,67.1999999999999,6|0,3:1|2:0,2:0:0:0:
183,369,89566,5,8,2:0:0:0:
183,369,89672,2,0,P|244:316|356:316,1,192,2|0,3:2|2:0,2:0:0:0:
422,277,89991,2,0,P|471:301|531:288,1,96,8|0,2:0|2:0,2:0:0:0:
501,124,90204,6,0,L|476:242,1,96,2|0,3:1|2:0,2:0:0:0:
280,264,90417,1,8,2:0:0:0:
280,264,90523,1,0,3:0:0:0:
280,264,90630,2,0,P|248:227|259:158,1,96,2|0,2:0|3:0,2:0:0:0:
321,146,90843,2,0,P|353:183|342:252,1,96,8|0,2:0|2:0,2:0:0:0:
183,380,91055,6,0,P|141:326|52:318,1,144,4|0,3:2|2:0,2:0:0:0:
61,306,91268,1,8,2:0:0:0:
0,374,91374,2,0,P|87:374|176:230,1,249.6,6|0,3:1|2:0,2:0:0:0:
123,194,91694,2,0,L|143:95,1,76.8,8|0,2:0|2:0,2:0:0:0:
355,27,91906,5,4,3:1:0:0:
355,27,92119,1,8,2:0:0:0:
435,43,92225,1,8,2:0:0:0:
445,126,92332,1,8,2:0:0:0:
369,161,92438,1,8,2:0:0:0:
312,98,92545,1,8,2:0:0:0:
280,77,92616,1,0,3:0:0:0:
247,80,92686,1,0,3:0:0:0:
231,107,92757,6,0,P|244:171|259:296,1,172.8,6|8,3:1|2:0,2:0:0:0:
257,277,93077,1,0,3:0:0:0:
257,277,93183,2,0,P|286:230|267:177,1,86.4000000000001,2|0,0:0|3:0,2:0:0:0:
198,175,93396,2,0,P|169:222|188:275,1,86.4000000000001,8|0,2:0|2:0,2:0:0:0:
336,334,93608,6,0,P|406:278|489:296,1,172.8,2|8,3:2|2:0,2:0:0:0:
373,186,93928,2,0,P|386:274|329:337,1,172.8,2|0,3:2|3:0,2:0:0:0:
152,384,94247,6,0,P|143:340|106:308,1,86.4000000000001,8|0,2:0|2:0,2:0:0:0:
216,182,94460,2,0,P|182:211|173:259,1,86.4000000000001,2|0,3:2|2:0,2:0:0:0:
9,227,94672,2,0,P|51:241|97:225,1,86.4000000000001,8|0,2:0|2:0,2:0:0:0:
242,301,94885,6,0,P|199:287|153:303,1,86.4000000000001,2|0,3:2|3:0,2:0:0:0:
99,144,95098,2,0,P|108:188|145:220,1,86.4000000000001,8|0,2:0|2:0,2:0:0:0:
35,346,95311,2,0,P|68:316|77:268,1,86.4000000000001,2|0,3:2|2:0,2:0:0:0:
0,116,95523,5,8,2:0:0:0:
0,116,95630,2,0,P|79:115|154:54,1,172.8,0|0,3:0|2:0,2:0:0:0:
208,0,95949,2,0,P|231:49|205:114,1,86.4000000000001,8|0,2:0|2:0,2:0:0:0:
448,186,96162,6,0,P|425:137|451:72,1,86.4000000000001,2|0,3:2|2:0,2:0:0:0:
509,119,96374,1,8,2:0:0:0:
506,129,96481,2,0,B|422:123|448:198|342:186,1,172.8,2|0,3:2|3:0,2:0:0:0:
293,245,96800,6,0,P|270:196|296:131,1,86.4000000000001,10|0,2:0|2:0,2:0:0:0:
208,0,97013,2,0,P|231:49|205:114,1,86.4000000000001,2|0,3:2|0:0,2:0:0:0:
201,162,97225,2,0,P|152:185|87:159,1,86.4000000000001,8|0,2:0|3:0,2:0:0:0:
123,26,97438,5,2,2:0:0:0:
123,26,97545,1,0,3:0:0:0:
123,26,97651,2,0,P|121:68|142:105,1,86.4000000000001,8|0,2:0|2:0,2:0:0:0:
289,230,97864,6,0,L|384:204,1,86.4000000000001,2|0,3:2|2:0,2:0:0:0:
185,257,98077,2,0,L|90:283,1,86.4000000000001,8|0,2:0|2:0,2:0:0:0:
274,281,98289,6,0,L|344:351,1,86.4000000000001,2|0,2:0|3:0,2:0:0:0:
199,205,98502,2,0,L|129:135,1,86.4000000000001,8|0,2:0|2:0,2:0:0:0:
222,295,98715,6,0,L|197:390,1,86.4000000000001,2|0,3:2|2:0,2:0:0:0:
251,191,98928,1,8,2:0:0:0:
251,191,99034,2,0,L|276:96,1,86.4000000000001,0|0,3:2|2:0,2:0:0:0:
216,1,99247,5,0,3:0:0:0:
216,1,99353,2,0,L|191:96,1,86.4000000000001,8|0,2:0|2:0,2:0:0:0:
352,179,99566,6,0,B|405:191|431:159|427:153|424:147|456:103|512:122,1,172.8,6|8,3:2|2:0,2:0:0:0:
375,23,99885,2,0,P|358:67|378:118,1,86.4000000000001,2|0,2:0|2:0,2:0:0:0:
500,198,100098,1,0,3:0:0:0:
500,198,100204,2,0,L|482:287,1,86.4000000000001,8|0,2:0|2:0,2:0:0:0:
482,282,100417,1,2,3:2:0:0:
248,310,100630,5,8,2:0:0:0:
248,310,100736,2,0,P|229:267|240:203,1,86.4000000000001,0|0,3:0|2:0,2:0:0:0:
290,116,100949,1,0,3:0:0:0:
290,116,101055,2,0,P|309:159|298:223,1,86.4000000000001,8|0,2:0|2:0,2:0:0:0:
303,384,101268,6,0,P|227:330|139:350,1,172.8,2|8,3:2|2:0,2:0:0:0:
0,265,101587,2,0,P|1:220|34:180,2,86.4000000000001,2|0|0,2:0|2:0|3:0,2:0:0:0:
80,288,101906,2,0,P|103:252|104:210,1,86.4000000000001,8|0,2:0|2:0,2:0:0:0:
0,104,102119,6,0,B|51:112|77:87|77:87|115:47|174:64,1,172.8,2|8,3:2|2:0,2:0:0:0:
219,3,102438,2,0,P|241:46|231:103,1,86.4000000000001,2|0,2:0|2:0,2:0:0:0:
202,218,102651,1,0,3:0:0:0:
202,218,102757,2,0,P|180:175|190:118,1,86.4000000000001,10|0,2:0|2:0,2:0:0:0:
396,86,102970,6,0,P|306:98|255:174,1,172.8,2|8,3:2|2:0,2:0:0:0:
225,300,103289,2,0,P|182:300|144:279,1,86.4000000000001,2|0,2:0|2:0,2:0:0:0:
287,239,103502,1,0,3:0:0:0:
309,265,103608,1,8,2:0:0:0:
313,298,103715,1,2,2:0:0:0:
162,379,103821,6,0,P|163:286|213:206,1,172.8,2|8,3:2|2:0,2:0:0:0:
160,16,104140,2,0,P|159:109|109:189,1,172.8,2|0,2:0|3:0,2:0:0:0:
120,177,104460,2,0,L|24:159,1,86.4000000000001,8|0,2:0|2:0,2:0:0:0:
200,88,104672,6,0,L|295:105,1,86.4000000000001,2|0,3:2|2:0,2:0:0:0:
352,56,104885,1,8,2:0:0:0:
352,56,104991,2,0,P|423:69|472:169,1,172.8,2|0,3:2|2:0,2:0:0:0:
424,216,105311,2,0,L|441:311,1,86.4000000000001,8|0,2:0|2:0,2:0:0:0:
320,384,105523,6,0,L|302:288,1,86.4000000000001,2|8,3:2|2:0,2:0:0:0:
304,292,105683,1,8,2:0:0:0:
302,284,105736,1,8,2:0:0:0:
244,265,105843,1,8,2:0:0:0:
194,298,105949,1,8,2:0:0:0:
173,349,106055,1,8,2:0:0:0:
119,361,106162,1,0,3:0:0:0:
69,346,106268,1,0,3:0:0:0:
67,333,106374,5,4,3:1:0:0:
8,184,106800,1,0,3:0:0:0:
68,127,107013,1,2,2:0:0:0:
144,160,107225,1,0,3:0:0:0:
144,160,107651,1,0,3:0:0:0:
256,0,108077,5,2,3:2:0:0:
320,128,108502,5,0,3:0:0:0:
298,209,108715,1,2,2:0:0:0:
276,290,108928,1,0,3:0:0:0:
26,262,109353,5,0,3:2:0:0:
98,316,109566,1,2,2:0:0:0:
16,352,109779,1,2,3:2:0:0:
166,273,110204,1,0,3:0:0:0:
309,363,110630,1,0,3:2:0:0:
392,344,110843,1,2,2:0:0:0:
392,344,110949,1,2,2:0:0:0:
392,344,111055,2,0,P|415:291|408:234,1,115.2,0|2,3:0|2:0,2:0:0:0:
496,80,111481,6,0,P|473:133|480:190,1,115.2,0|2,3:0|2:0,2:0:0:0:
479,188,111800,1,2,2:0:0:0:
328,216,112013,1,2,2:0:0:0:
328,216,112119,2,0,L|208:192,1,115.2,2|0,2:0|3:0,2:0:0:0:
151,239,112438,1,8,2:3:0:0:
135,201,112545,1,8,2:3:0:0:
143,162,112651,1,8,2:3:0:0:
215,193,112757,5,4,2:3:0:0:
136,222,112864,1,4,2:3:0:0:
58,202,112970,1,4,2:3:0:0:
26,129,113077,1,4,2:3:0:0:
40,43,113183,5,6,3:1:0:0:
44,33,113608,1,0,3:0:0:0:
136,68,113821,1,2,2:0:0:0:
210,0,114034,1,0,3:0:0:0:
288,128,114460,5,0,3:2:0:0:
272,212,114672,1,2,2:0:0:0:
256,296,114885,1,0,3:2:0:0:
272,212,115098,1,2,2:0:0:0:
288,128,115311,6,0,L|413:103,1,115.2,6|0,3:2|2:0,2:0:0:0:
143,318,115736,2,0,L|268:293,1,115.2,6|0,3:2|2:0,2:0:0:0:
384,384,116162,5,8,2:0:0:0:
455,362,116268,1,8,2:0:0:0:
499,303,116374,1,8,2:0:0:0:
495,229,116481,1,8,2:0:0:0:
440,176,116587,1,6,3:1:0:0:
288,128,116800,5,0,3:0:0:0:
288,128,116906,2,0,L|273:28,1,96,8|0,2:0|2:0,2:0:0:0:
368,118,117119,2,0,L|353:18,1,96,8|0,2:0|2:0,2:0:0:0:
336,191,117332,6,2,B|235:167|259:266|138:233,1,192,10|0,2:1|3:1,2:1:0:0:
161,221,117651,1,8,2:0:0:0:
150,204,117757,1,8,2:0:0:0:
157,183,117864,1,8,2:0:0:0:
141,171,117970,1,8,2:0:0:0:
169,78,118077,5,0,3:0:0:0:
167,86,118183,1,0,3:0:0:0:
166,94,118289,2,12,B|44:66|44:66|77:82|89:125,1,192,12|0,2:0|3:0,2:0:0:0:
28,213,118608,2,0,P|2:182|5:138,1,86.4000000000001,10|0,2:1|2:0,2:0:0:0:
91,284,118821,2,0,P|116:314|113:358,1,86.4000000000001,10|0,2:0|2:0,2:0:0:0:
34,378,119034,6,2,P|125:338|218:355,1,172.8,10|0,2:1|2:1,2:1:0:0:
237,381,119353,1,8,2:0:0:0:
295,364,119460,1,0,3:0:0:0:
248,267,119566,5,4,2:3:0:0:
250,276,119672,1,4,2:3:0:0:
252,283,119779,1,4,2:3:0:0:
254,292,119885,1,4,2:3:0:0:
257,302,119991,2,0,B|303:313|334:280|334:280|370:238|436:267,1,172.8,4|8,3:1|2:0,2:0:0:0:
512,320,120311,2,0,P|465:246|474:151,1,172.8,4|0,3:1|3:0,2:0:0:0:
397,12,120630,2,0,P|418:57|401:119,1,86.4000000000001,8|0,2:0|2:0,2:0:0:0:
414,92,120843,5,4,3:1:0:0:
331,66,120949,1,8,2:0:0:0:
263,119,121055,1,8,2:0:0:0:
249,204,121162,1,8,2:0:0:0:
285,281,121268,1,8,2:0:0:0:
246,358,121374,1,8,2:0:0:0:
162,382,121481,1,8,2:0:0:0:
81,352,121587,1,8,2:0:0:0:
78,337,121694,5,6,3:1:0:0:
376,384,121906,5,8,2:0:0:0:
403,284,122013,1,6,3:1:0:0:
216,8,122225,5,8,2:0:0:0:
189,108,122332,1,6,3:1:0:0:
189,108,122545,5,2,3:2:0:0:
263,87,122651,1,8,2:0:0:0:
330,124,122757,1,8,2:0:0:0:
351,198,122864,1,8,2:0:0:0:
314,265,122970,1,8,2:0:0:0:
335,338,123077,1,8,2:0:0:0:
402,375,123183,1,8,2:0:0:0:
475,354,123289,1,8,2:0:0:0:
425,201,123396,6,0,P|401:225|415:298,1,96,6|0,3:1|2:0,2:0:0:0:
502,275,123608,1,8,2:0:0:0:
499,265,123715,2,0,P|394:280|324:358,1,192,2|0,3:2|2:0,2:0:0:0:
256,384,124034,2,0,P|235:340|235:284,1,96,8|0,2:0|2:0,2:0:0:0:
251,51,124247,6,0,P|272:95|272:151,1,96,2|0,3:1|2:0,2:0:0:0:
151,167,124460,1,8,2:0:0:0:
151,167,124566,2,0,P|245:166|325:217,1,192,2|0,3:1|3:0,2:0:0:0:
376,112,124885,2,0,P|355:68|355:12,1,96,8|0,2:0|2:0,2:0:0:0:
88,105,125098,6,0,P|106:173|112:249,1,144,2|0,3:1|2:0,2:0:0:0:
112,246,125311,1,8,2:0:0:0:
69,320,125417,2,0,P|34:265|48:212,1,96,0|0,3:2|2:0,2:0:0:0:
85,173,125630,1,0,3:0:0:0:
164,186,125736,2,0,P|199:241|185:294,1,96,8|0,2:0|2:0,2:0:0:0:
248,384,125949,5,2,3:1:0:0:
286,312,126055,1,0,3:0:0:0:
355,272,126162,1,8,2:0:0:0:
440,270,126268,1,0,3:0:0:0:
511,314,126374,1,2,3:1:0:0:
431,104,126587,2,0,L|450:5,1,96,10|0,2:1|2:0,2:0:0:0:
512,129,126800,6,0,P|430:145|393:204,1,144,2|0,3:2|2:0,2:0:0:0:
391,196,127013,2,0,P|333:190|303:148,1,96,8|0,2:0|2:0,2:0:0:0:
238,9,127225,1,2,2:1:0:0:
258,32,127332,1,0,3:0:0:0:
231,50,127438,2,0,L|213:150,1,96,8|0,2:0|2:0,2:0:0:0:
120,336,127651,5,2,3:1:0:0:
102,309,127757,1,0,3:0:0:0:
62,300,127864,1,8,2:0:0:0:
55,379,127970,2,2,P|159:373|237:278,1,192,2|0,2:1|3:1,2:1:0:0:
195,237,128289,2,0,L|212:142,1,96,8|0,2:0|2:0,2:0:0:0:
28,13,128502,5,6,3:1:0:0:
0,45,128608,1,0,3:0:0:0:
18,85,128715,2,0,L|32:182,1,96,10|0,2:1|2:0,2:0:0:0:
211,142,128928,2,0,L|225:239,1,96,2|0,3:1|2:0,2:0:0:0:
406,201,129140,2,0,L|420:298,1,96,10|0,2:1|2:0,2:0:0:0:
512,129,129353,5,6,3:1:0:0:
472,52,129460,1,8,2:0:0:0:
388,25,129566,1,8,2:0:0:0:
308,66,129672,1,8,2:0:0:0:
282,150,129779,1,8,2:0:0:0:
323,228,129885,1,8,2:0:0:0:
294,314,129991,1,8,2:0:0:0:
216,355,130098,1,8,2:0:0:0:
130,327,130204,6,0,P|95:280|131:182,1,144,6|0,3:1|2:0,2:0:0:0:
121,194,130417,2,0,P|166:188|217:225,1,96,8|0,2:0|2:0,2:0:0:0:
370,125,130630,1,2,3:1:0:0:
370,125,130736,2,0,P|392:83|386:36,1,96,0|8,3:0|2:0,2:0:0:0:
137,7,130949,6,0,B|232:-10|196:92|314:64,1,192,2|0,2:1|3:0,2:0:0:0:
355,206,131268,2,0,P|311:187|286:147,1,96,10|0,2:1|2:0,2:0:0:0:
485,64,131481,2,0,P|469:113|462:169,1,96,2|0,3:1|2:0,2:0:0:0:
433,383,131694,5,8,2:0:0:0:
506,319,131800,1,0,3:0:0:0:
407,287,131906,2,0,P|311:312|193:338,1,192,2|8,3:1|2:0,2:0:0:0:
149,370,132225,2,0,P|141:327|171:269,1,96,2|0,3:1|2:0,2:0:0:0:
291,294,132438,2,0,P|299:337|269:395,1,96,2|8,3:1|2:0,2:0:0:0:
220,332,132651,6,2,B|203:229|287:267|270:152,1,192,2|0,2:1|3:1,2:1:0:0:
203,95,132970,2,0,L|220:-8,1,96,8|0,2:0|2:0,2:0:0:0:
80,136,133183,5,2,2:0:0:0:
80,136,133289,1,0,3:0:0:0:
80,136,133396,2,0,L|97:33,1,96,8|0,2:0|2:0,2:0:0:0:
270,155,133608,5,2,3:1:0:0:
328,96,133715,1,0,3:0:0:0:
408,120,133821,1,8,2:0:0:0:
488,144,133928,5,2,3:1:0:0:
501,101,134034,1,0,3:0:0:0:
467,61,134140,1,2,2:1:0:0:
408,120,134247,5,8,2:0:0:0:
423,202,134353,1,2,2:1:0:0:
501,228,134460,1,0,3:0:0:0:
488,144,134566,5,2,3:1:0:0:
445,161,134672,1,8,2:0:0:0:
423,202,134779,1,2,2:1:0:0:
368,280,134885,5,2,3:1:0:0:
320,208,134991,1,0,3:0:0:0:
224,208,135098,2,0,L|127:234,1,96,8|0,2:1|2:0,2:0:0:0:
16,160,135311,5,14,2:0:0:0:
48,72,135417,1,4,2:3:0:0:
136,56,135523,1,4,2:3:0:0:
200,104,135630,5,14,2:0:0:0:
160,144,135736,1,4,2:3:0:0:
112,136,135843,1,4,2:3:0:0:
136,56,135949,5,12,2:0:0:0:
160,144,136055,1,4,2:3:0:0:
184,232,136162,1,4,2:3:0:0:
288,256,136268,5,12,2:0:0:0:
314,159,136374,1,4,2:3:0:0:
340,62,136481,1,4,2:3:0:0:
464,16,136587,6,0,B|489:52|489:52|470:115,1,96,12|0,2:0|2:3,2:3:0:0:
451,290,136800,5,4,2:3:0:0:
433,378,136906,1,4,2:3:0:0:
512,354,137013,2,0,P|438:310|331:323,1,192,12|4,2:0|2:3,2:0:0:0:
392,121,137332,2,0,P|390:207|455:293,1,192,12|4,2:0|2:3,2:0:0:0:
335,320,137651,2,0,P|275:304|224:295,1,96,8|0,2:0|2:0,2:0:0:0:
92,123,137864,5,6,3:1:0:0:
46,132,137935,1,2,2:3:0:0:
16,168,138006,1,2,2:3:0:0:
19,207,138077,1,2,2:3:0:0:
47,241,138147,1,2,2:3:0:0:
79,251,138218,1,2,2:3:0:0:
79,251,138289,2,0,L|173:231,1,96,8|0,2:0|2:0,2:0:0:0:
504,184,138502,5,4,2:3:0:0:
504,184,138608,1,4,2:3:0:0:
504,184,138715,2,0,B|400:232|345:136|359:115|376:88|312:-8|192:56,1,384,6|2,3:1|3:2,2:0:0:0:
152,120,139566,1,2,3:2:0:0:
80,88,139991,1,2,3:2:0:0:
136,24,140204,5,2,2:0:0:0:
136,24,140311,1,2,2:0:0:0:
136,24,140417,2,2,P|104:152|104:312,1,288,6|0,3:1|2:1,2:1:0:0:
48,368,140843,1,2,3:2:0:0:
48,368,141268,1,2,3:2:0:0:
48,368,141694,1,2,3:2:0:0:
360,352,142119,6,0,B|256:400|201:304|215:283|232:256|168:160|48:224,1,384,6|2,3:1|3:2,2:0:0:0:
0,288,142757,1,0,2:0:0:0:
80,312,142970,1,2,3:2:0:0:
144,248,143183,1,0,2:0:0:0:
144,248,143289,1,2,2:0:0:0:
55,220,143502,1,2,2:0:0:0:
168,344,143715,5,2,2:0:0:0:
168,344,143821,2,0,P|212:325|259:316,1,96,4|0,3:1|2:0,2:0:0:0:
328,264,144034,1,0,3:0:0:0:
328,264,144140,2,0,P|416:288|456:384,1,192,8|0,2:0|3:0,2:0:0:0:
248,232,144460,2,0,P|257:186|267:123,1,96,8|0,2:0|2:0,2:0:0:0:
108,22,144672,5,2,3:1:0:0:
17,40,144779,1,8,2:0:0:0:
33,56,144991,5,0,3:0:0:0:
89,48,145098,1,8,2:0:0:0:
139,75,145204,1,0,3:0:0:0:
158,129,145311,1,0,3:0:0:0:
209,153,145417,1,0,3:0:0:0:
264,136,145523,6,2,B|183:117|183:117|107:312|107:312|0:288,1,384,6|0,3:1|3:1,2:1:0:0:
82,227,146162,1,2,2:0:0:0:
163,249,146374,1,0,3:0:0:0:
226,324,146587,1,2,2:0:0:0:
290,308,146694,1,2,2:0:0:0:
260,333,146800,1,0,3:0:0:0:
240,240,147013,1,2,2:0:0:0:
336,176,147225,5,0,3:0:0:0:
432,208,147438,1,2,2:0:0:0:
432,208,147545,1,2,2:0:0:0:
432,208,147651,1,0,3:0:0:0:
512,136,147864,1,2,2:0:0:0:
408,104,148077,5,0,3:0:0:0:
432,208,148289,1,2,2:0:0:0:
352,280,148502,1,0,3:0:0:0:
376,384,148715,1,2,2:0:0:0:
376,384,148928,5,4,3:1:0:0:
508,229,149140,5,0,3:0:0:0:
512,200,149247,1,0,3:0:0:0:
499,163,149353,1,8,2:0:0:0:
472,140,149460,1,0,3:0:0:0:
435,130,149566,1,0,3:0:0:0:
398,138,149672,1,0,3:0:0:0:
368,174,149779,5,8,2:0:0:0:
379,131,149885,1,0,3:0:0:0:
362,83,149991,1,0,3:0:0:0:
318,52,150098,1,0,3:0:0:0:
271,47,150204,1,8,2:0:0:0:
215,70,150311,1,0,3:0:0:0:
183,130,150417,1,0,3:0:0:0:
202,195,150523,1,0,3:0:0:0:
273,229,150630,2,0,P|282:182|252:133,1,96,14|0,2:0|2:0,2:0:0:0:
16,283,150843,5,0,3:0:0:0:
57,267,150949,1,0,3:0:0:0:
100,271,151055,1,8,2:0:0:0:
138,300,151162,1,0,3:0:0:0:
147,329,151268,1,0,3:0:0:0:
148,348,151374,1,0,3:0:0:0:
73,378,151481,5,8,2:0:0:0:
60,331,151587,1,8,2:0:0:0:
82,277,151694,1,8,2:0:0:0:
127,253,151800,1,8,2:0:0:0:
173,224,151906,1,8,2:3:0:0:
187,179,152013,1,8,2:3:0:0:
179,124,152119,1,4,2:3:0:0:
136,88,152225,1,4,2:3:0:0:
88,160,152332,6,0,B|154:179|184:130|176:127|168:124|208:72|268:102,1,192,6|8,3:1|2:0,2:0:0:0:
320,48,152651,2,0,P|335:96|328:166,1,96,2|0,2:1|2:0,2:0:0:0:
272,280,152864,1,0,3:0:0:0:
272,280,152970,2,0,P|257:234|257:186,1,96,8|0,2:0|2:0,2:0:0:0:
512,168,153183,6,0,P|416:168|336:240,1,192,6|8,3:2|2:0,2:0:0:0:
408,280,153502,2,0,L|387:381,1,96,0|0,3:0|2:0,2:0:0:0:
257,186,153715,1,0,3:0:0:0:
257,186,153821,2,0,L|278:85,1,96,8|0,2:0|2:0,2:0:0:0:
208,304,154034,6,0,B|114:286|135:387|30:366,1,192,6|8,3:1|2:0,2:0:0:0:
16,344,154353,1,2,2:0:0:0:
32,312,154460,2,0,L|16:200,1,96,0|0,3:0|2:0,2:0:0:0:
128,96,154672,5,8,2:0:0:0:
152,47,154779,1,0,3:0:0:0:
109,7,154885,2,0,L|-3:26,1,96,6|0,3:1|2:0,2:0:0:0:
104,208,155098,5,8,2:0:0:0:
112,204,155204,2,0,B|206:186|185:287|290:266,1,192,2|0,3:1|3:0,2:0:0:0:
303,107,155523,2,0,P|263:141|278:210,1,96,10|0,2:1|2:0,2:0:0:0:
394,280,155736,6,0,P|384:228|317:206,1,96,6|0,3:1|2:0,2:0:0:0:
432,356,155949,1,8,2:0:0:0:
497,310,156055,2,0,L|287:362,1,192,4|0,3:2|2:0,2:0:0:0:
98,301,156374,2,0,P|68:334|81:408,1,96,8|0,2:0|2:0,2:0:0:0:
140,364,156587,5,0,3:0:0:0:
148,359,156694,2,0,P|126:264|22:224,1,192,12|0,2:0|2:0,2:0:0:0:
23,136,157013,5,8,2:0:0:0:
73,136,157119,1,8,2:0:0:0:
117,114,157225,1,0,3:0:0:0:
126,89,157332,1,0,3:0:0:0:
64,32,157438,5,8,2:0:0:0:
208,56,157580,1,0,3:0:0:0:
352,80,157722,1,0,3:0:0:0:
304,168,157864,5,8,2:0:0:0:
188,187,158006,1,0,3:0:0:0:
73,206,158147,1,0,3:0:0:0:
104,296,158289,6,0,B|184:248|243:308|225:321|210:333|288:400|360:352,1,288,8|0,2:0|3:0,2:0:0:0:
432,378,158715,1,8,2:0:0:0:
448,352,158786,1,8,2:0:0:0:
450,325,158857,1,8,2:0:0:0:
440,303,158928,1,0,3:0:0:0:
360,272,159034,1,0,3:0:0:0:
336,192,159140,5,8,2:0:0:0:
208,216,159282,1,0,3:0:0:0:
80,240,159424,1,0,3:0:0:0:
88,24,159566,5,8,2:0:0:0:
32,104,159708,1,0,3:0:0:0:
112,160,159850,1,0,3:0:0:0:
171,77,159991,2,0,B|221:65|262:23|262:23|201:239,1,307.2,12|2,2:0|2:3,2:0:0:0:
72,376,160843,6,0,B|52:248|52:248|24:228|-21:219|-21:219|47:238|112:199,1,345.599999999999,4|0,3:1|2:0,2:0:0:0:
216,280,161694,2,0,P|180:336|177:261,2,172.8,4|8|0,3:1|2:3|3:0,2:0:0:0:
344,160,162545,2,0,B|327:127|266:116|214:179|264:264|348:249|360:170|360:170|348:221|366:268,1,345.599999999999,4|0,3:1|2:0,2:0:0:0:
455,378,163396,2,0,B|473:340|496:336|505:343|512:348|576:294|509:234|462:262|462:262|440:230|389:235|366:289|405:322,2,345.599989453125,4|4|4,3:1|3:2|3:2,2:0:0:0:
35,332,164672,6,0,B|108:314|108:314|143:126|143:126|261:96,1,345.6,8|4,2:3|3:1,2:0:0:0:
331,236,165311,1,0,3:0:0:0:
362,205,165417,1,0,3:0:0:0:
407,223,165523,1,10,2:0:0:0:
496,121,165736,5,8,2:0:0:0:
488,90,165807,1,8,2:0:0:0:
479,59,165878,1,8,0:0:0:0:
469,29,165949,2,0,B|379:-8|341:59|346:70|352:80|309:148|207:102,3,288,4|4|4|4,3:1|3:2|3:2|3:2,2:0:0:0:
171,362,166800,5,0,3:0:0:0:
144,377,166906,1,8,2:0:0:0:
94,384,167013,1,8,2:0:0:0:
44,371,167119,1,8,2:0:0:0:
8,320,167225,1,8,2:0:0:0:
7,258,167332,1,8,2:0:0:0:
45,210,167438,1,8,2:0:0:0:
109,191,167545,1,8,2:0:0:0:
181,219,167651,6,0,P|254:235|322:177,1,144,6|0,3:1|2:0,2:0:0:0:
315,187,167864,2,0,P|294:146|312:78,1,96,10|0,2:0|3:0,2:0:0:0:
445,72,168077,2,0,P|419:110|352:129,1,96,2|0,0:2|3:0,2:0:0:0:
281,17,168289,2,0,P|327:19|376:68,1,96,10|0,2:0|2:0,2:0:0:0:
504,248,168502,6,0,B|452:233|427:268|427:268|399:310|337:292,1,172.8,2|0,3:1|2:0,2:0:0:0:
340,288,168715,1,8,2:0:0:0:
365,211,168821,2,0,P|436:224|484:332,1,192,2|0,2:0|3:0,2:0:0:0:
272,384,169140,5,8,2:0:0:0:
272,384,169247,1,2,2:0:0:0:
272,384,169353,2,0,P|264:336|251:290,1,96,2|0,3:1|2:0,2:0:0:0:
272,169,169566,2,0,P|260:122|252:75,1,96,10|0,2:0|3:0,2:0:0:0:
416,220,169779,2,0,P|369:227|323:240,1,96,2|0,0:2|3:0,2:0:0:0:
201,219,169991,2,0,P|155:232|108:239,1,96,10|0,2:0|2:0,2:0:0:0:
12,8,170204,5,10,2:0:0:0:
95,30,170311,1,8,2:0:0:0:
179,52,170417,1,8,2:0:0:0:
58,175,170523,5,10,2:0:0:0:
35,91,170630,1,8,2:0:0:0:
12,8,170736,1,8,2:0:0:0:
180,52,170843,5,10,2:0:0:0:
118,113,170949,1,8,2:0:0:0:
58,175,171055,1,2,3:1:0:0:
272,384,171481,6,0,B|350:366|350:366|380:228|380:228|488:198,1,288,6|0,3:1|2:0,2:0:0:0:
472,292,171906,6,0,P|420:292|372:256,1,96,6|0,3:1|2:0,2:0:0:0:
433,8,172119,1,0,3:0:0:0:
425,21,172225,2,0,P|443:87|444:210,1,192,12|0,2:0|2:0,2:0:0:0:
327,336,172545,2,0,P|301:290|308:231,1,96,8|0,2:0|2:0,2:0:0:0:
396,174,172757,6,0,L|381:279,1,96,6|0,3:1|2:0,2:0:0:0:
264,78,172970,2,0,L|249:183,1,96,4|0,3:2|2:0,2:0:0:0:
146,255,173183,2,0,L|131:360,1,96,4|0,3:2|2:0,2:0:0:0:
20,136,173396,2,0,L|5:241,1,96,4|0,3:2|2:0,2:0:0:0:
132,350,173608,5,0,3:0:0:0:
208,372,173715,1,8,2:0:0:0:
276,328,173821,1,8,2:0:0:0:
284,248,173928,1,8,2:0:0:0:
236,183,174034,1,8,2:0:0:0:
213,102,174140,1,8,2:0:0:0:
240,23,174247,1,8,2:0:0:0:
315,0,174353,1,8,2:0:0:0:
396,13,174460,5,6,3:1:0:0:
501,175,174672,1,2,2:0:0:0:
446,191,174779,1,2,2:0:0:0:
400,155,174885,2,0,B|341:134|307:176|314:179|323:183|288:231|215:208,2,192,8|2|2,2:0|2:0|3:2,2:0:0:0:
336,284,175523,5,2,2:0:0:0:
336,284,175630,1,2,2:0:0:0:
336,284,175736,2,0,P|312:171|293:79,2,192,8|2|2,2:0|2:0|3:2,2:0:0:0:
100,368,176374,5,2,2:0:0:0:
100,368,176481,1,2,2:0:0:0:
100,368,176587,2,0,P|76:328|84:272,1,96,10|0,2:0|2:0,2:0:0:0:
180,152,176800,5,2,2:0:0:0:
180,152,176906,1,2,2:0:0:0:
180,152,177013,2,0,B|270:115|311:186|302:196|289:208|357:283|442:219,3,288,4|4|4|8,3:2|3:2|3:2|2:0,2:0:0:0:
458,306,177722,1,8,2:0:0:0:
464,300,177793,1,8,2:0:0:0:
468,296,177864,6,0,P|497:261|493:190,1,96,6|0,3:1|2:0,2:0:0:0:
380,162,178077,2,0,P|350:196|354:267,1,96,8|0,2:0|2:0,2:0:0:0:
371,327,178289,5,0,3:0:0:0:
425,229,178396,2,0,P|348:188|239:199,1,192,8|0,2:0|2:0,2:0:0:0:
246,195,178715,6,0,P|244:148|220:107,1,96,14|0,2:0|2:0,2:0:0:0:
140,136,178928,2,0,P|141:183|165:224,1,96,4|0,3:2|2:0,2:0:0:0:
331,190,179140,6,0,P|320:236|288:271,1,96,4|0,3:2|2:0,2:0:0:0:
92,268,179353,2,0,P|126:300|172:311,1,96,4|0,3:2|2:0,2:0:0:0:
252,348,179566,5,10,2:1:0:0:
500,94,180843,6,0,B|414:75|388:156|388:156|401:217|401:217|375:287|286:270,1,345.599989453125,8|4,2:3|3:2,2:0:0:0:
11,278,182970,6,0,P|87:271|143:313,1,144,6|0,3:1|2:0,2:0:0:0:
154,313,183183,2,0,P|200:313|249:279,1,96,10|0,2:1|3:0,2:0:0:0:
199,146,183396,2,0,P|176:185|180:245,1,96,2|0,0:1|3:0,2:0:0:0:
318,265,183608,2,0,P|341:225|336:165,1,96,10|0,2:1|2:0,2:0:0:0:
234,47,183821,6,0,P|170:105|92:89,1,144,2|0,3:1|2:0,2:0:0:0:
109,94,184034,1,8,2:0:0:0:
32,61,184140,2,0,P|26:114|55:161,1,96,2|0,2:1|3:0,2:0:0:0:
90,222,184353,1,2,3:1:0:0:
90,222,184460,2,0,L|68:328,1,96,8|0,2:1|2:0,2:0:0:0:
179,384,184672,6,0,P|198:315|275:282,1,144,2|0,3:1|2:0,2:0:0:0:
268,286,184885,2,0,L|374:264,1,96,10|0,2:1|3:0,2:0:0:0:
476,117,185098,5,2,2:1:0:0:
462,51,185204,1,0,3:0:0:0:
402,20,185311,1,8,2:0:0:0:
356,19,185417,1,2,2:0:0:0:
332,38,185523,6,0,L|318:139,1,96,2|0,3:1|2:0,2:0:0:0:
361,266,185736,2,8,L|347:367,1,96,8|0,2:1|2:0,2:0:0:0:
499,196,185949,6,0,L|398:182,1,96,2|0,3:1|2:0,2:0:0:0:
271,225,186162,2,8,L|170:211,1,96,10|0,2:1|2:0,2:0:0:0:
15,139,186374,6,0,B|81:159|111:105|91:115|124:57|194:82,1,192,2|8,3:1|2:0,2:0:0:0:
258,55,186694,1,2,2:0:0:0:
257,55,186800,6,2,P|129:28|168:154,1,316.800009667969,2|0,3:1|2:1,2:1:0:0:
168,154,187225,2,0,P|208:151|243:128,1,76.8,2|0,3:2|2:0,2:0:0:0:
433,33,187438,5,8,2:0:0:0:
478,57,187545,1,2,2:0:0:0:
503,111,187651,1,0,3:0:0:0:
487,172,187757,1,2,2:1:0:0:
443,207,187864,1,8,2:1:0:0:
368,212,187970,1,2,2:1:0:0:
300,167,188077,6,0,P|281:108|334:37,1,144,6|0,3:1|2:0,2:0:0:0:
340,37,188289,2,0,P|388:37|434:71,1,96,10|0,2:1|2:0,2:0:0:0:
368,212,188502,6,0,P|316:247|231:212,1,144,6|0,3:1|2:0,2:0:0:0:
237,218,188715,2,0,P|218:166|244:110,1,96,10|0,2:1|2:0,2:0:0:0:
300,167,188928,5,2,3:2:0:0:
237,218,189034,1,8,2:0:0:0:
156,227,189140,1,8,2:0:0:0:
89,178,189247,1,8,2:0:0:0:
70,98,189353,1,8,2:0:0:0:
112,27,189460,1,8,2:0:0:0:
189,3,189566,1,8,2:0:0:0:
266,27,189672,1,8,2:0:0:0:
320,92,189779,6,0,P|351:58|336:4,1,96,6|0,3:1|2:0,2:0:0:0:
270,31,189991,1,8,2:0:0:0:
270,31,190098,2,0,P|294:122|307:228,1,192,2|0,3:1|3:0,2:0:0:0:
352,283,190417,2,0,P|386:227|367:171,1,96,8|0,2:0|2:0,2:0:0:0:
260,153,190630,2,0,P|226:209|245:265,1,96,2|0,3:1|2:0,2:0:0:0:
455,300,190843,1,8,2:0:0:0:
455,300,190949,6,0,B|361:282|382:383|277:362,1,192,2|0,3:1|3:0,2:0:0:0:
228,236,191268,2,0,P|230:189|260:153,1,96,10|0,2:1|2:0,2:0:0:0:
174,366,191481,5,2,3:1:0:0:
146,335,191587,1,0,3:0:0:0:
107,327,191694,1,8,2:0:0:0:
40,381,191800,6,0,P|94:302|72:191,1,192,2|0,3:1|3:0,2:0:0:0:
30,151,192119,2,0,P|2:204|25:254,1,96,8|0,2:0|2:0,2:0:0:0:
174,366,192332,5,10,2:1:0:0:
235,308,192438,1,8,2:0:0:0:
319,330,192545,1,8,2:0:0:0:
340,232,192651,5,10,2:1:0:0:
279,174,192757,1,8,2:0:0:0:
195,196,192864,1,8,2:0:0:0:
174,98,192970,5,10,2:1:0:0:
247,28,193077,1,8,2:0:0:0:
348,54,193183,2,0,P|416:128|508:104,1,192,6|8,3:1|2:0,2:0:0:0:
484,104,193502,1,2,2:0:0:0:
500,96,193608,2,0,P|484:40|476:-12,1,96,2|0,3:2|2:0,2:0:0:0:
392,152,193821,2,0,P|408:208|416:260,1,96,10|0,2:1|2:0,2:0:0:0:
284,363,194034,6,0,P|238:349|190:340,1,96,2|0,3:2|0:0,2:0:0:0:
304,280,194247,2,0,P|258:266|210:257,1,96,10|0,2:1|2:0,2:0:0:0:
36,184,194460,6,0,P|12:132|20:80,1,96,2|0,3:2|2:0,2:0:0:0:
100,76,194672,2,0,P|124:128|116:180,1,96,10|0,2:1|2:0,2:0:0:0:
32,340,194885,6,0,B|55:320|90:331|90:331|106:352|106:352|128:370|167:361,1,144,2|0,3:1|2:0,2:0:0:0:
168,360,195098,2,0,L|196:226,1,124.8,12|0,2:0|2:0,2:0:0:0:
396,136,195311,6,0,B|373:116|338:127|338:127|322:148|322:148|300:166|261:157,1,144,2|0,3:1|2:0,2:0:0:0:
260,156,195523,2,0,L|232:22,1,124.8,12|0,2:0|2:0,2:0:0:0:
312,4,195736,5,4,3:1:0:0:
304,84,195843,1,8,2:0:0:0:
232,112,195949,1,8,2:0:0:0:
157,74,196055,1,8,2:0:0:0:
78,96,196162,1,8,2:0:0:0:
28,159,196268,1,8,2:0:0:0:
29,239,196374,1,8,2:0:0:0:
89,293,196481,1,8,2:0:0:0:
165,296,196587,6,0,P|204:264|264:273,1,96,6|0,3:1|2:0,2:0:0:0:
277,168,196800,1,8,2:0:0:0:
277,168,196906,2,0,P|237:222|238:358,1,192,2|0,3:2|3:0,2:0:0:0:
360,196,197225,2,0,P|361:137|332:95,1,96,8|0,2:0|2:0,2:0:0:0:
104,217,197438,6,0,P|177:165|287:172,1,192,2|8,3:1|2:0,2:0:0:0:
431,137,197757,1,2,3:1:0:0:
408,45,197864,1,2,2:0:0:0:
343,106,197970,1,0,3:0:0:0:
360,196,198077,1,8,2:0:0:0:
512,352,198289,6,0,P|439:300|329:307,1,192,2|8,3:1|2:0,2:0:0:0:
261,279,198608,2,0,P|265:338|300:377,1,96,2|0,2:1|2:0,2:0:0:0:
417,325,198821,1,0,3:0:0:0:
417,325,198928,2,0,P|413:266|378:227,1,96,8|0,2:1|2:0,2:0:0:0:
304,112,199140,5,2,3:1:0:0:
237,98,199247,1,0,3:0:0:0:
280,48,199353,1,8,2:0:0:0:
267,124,199460,5,2,3:1:0:0:
244,60,199566,1,0,2:0:0:0:
310,72,199672,1,0,3:0:0:0:
273,85,199779,1,8,2:0:0:0:
104,312,199991,6,0,P|56:228|80:116,1,192,6|8,3:1|2:0,2:0:0:0:
273,85,200311,2,0,P|321:169|297:281,1,192,2|0,3:1|3:0,2:0:0:0:
383,289,200630,6,0,P|384:241|361:200,1,96,8|0,2:0|2:0,2:0:0:0:
235,231,200843,2,0,P|233:278|256:319,1,96,2|0,3:1|2:0,2:0:0:0:
309,260,201055,1,8,2:0:0:0:
309,260,201162,2,0,B|211:243|238:351|121:320,1,192,2|0,3:1|3:0,2:0:0:0:
58,384,201481,2,0,P|50:329|35:277,1,96,8|0,2:0|2:0,2:0:0:0:
51,76,201694,6,0,B|91:61|128:72|128:72|147:93|147:93|191:98|231:71,1,192,6|8,3:1|2:0,2:0:0:0:
306,35,202013,2,0,P|312:91|278:140,1,96,2|0,2:1|2:0,2:0:0:0:
217,258,202225,1,0,3:0:0:0:
217,258,202332,2,0,P|198:302|206:349,1,96,8|0,2:0|2:0,2:0:0:0:
333,323,202545,2,0,P|310:313|284:313,2,48,6|0|0,3:1|3:0|3:0,2:0:0:0:
487,230,202757,5,8,2:0:0:0:
505,145,202864,1,8,2:0:0:0:
438,89,202971,1,8,2:0:0:0:
356,116,203077,1,8,2:0:0:0:
338,202,203183,1,8,2:0:0:0:
405,259,203290,1,8,2:0:0:0:
421,173,203396,6,0,B|369:188|333:149|333:149|291:111|230:141,1,192,6|8,3:1|2:0,2:0:0:0:
172,188,203715,1,2,2:0:0:0:
172,188,203768,1,2,2:0:0:0:
172,188,203821,2,0,P|152:141|165:91,1,96,2|0,3:2|2:0,2:0:0:0:
164,88,203981,1,2,2:0:0:0:
172,80,204034,2,0,P|88:64|36:148,1,192,10|2,2:1|2:0,2:0:0:0:
84,212,204353,6,0,P|68:272|56:320,1,96,0|8,3:0|2:0,2:0:0:0:
0,384,204566,2,0,B|23:339|64:316|64:316|122:316|165:343,1,192,2|0,2:1|3:0,2:0:0:0:
248,366,204885,2,0,P|237:311|233:256,1,96,8|0,2:0|2:0,2:0:0:0:
264,18,205098,6,0,P|275:73|279:128,1,96,6|0,3:1|2:0,2:0:0:0:
207,173,205311,1,8,2:0:0:0:
301,206,205417,2,0,B|355:222|389:187|389:187|441:172|490:211,1,192,2|0,3:1|3:0,2:0:0:0:
448,362,205736,2,0,P|422:305|427:259,1,96,8|0,2:0|2:0,2:0:0:0:
367,97,205949,6,0,P|393:154|388:200,1,96,2|0,3:1|2:0,2:0:0:0:
305,307,206162,1,8,2:1:0:0:
211,281,206268,1,0,3:1:0:0:
144,352,206374,5,8,2:0:0:0:
97,362,206445,1,8,2:0:0:0:
51,349,206516,1,8,2:0:0:0:
17,316,206587,1,8,2:0:0:0:
1,271,206658,1,8,2:0:0:0:
9,224,206729,1,8,2:0:0:0:
19,213,206800,6,0,L|130:234,1,96,6|0,3:1|2:0,2:0:0:0:
232,86,207013,1,8,2:0:0:0:
183,17,207119,2,0,B|161:46|136:66|136:66|160:121|184:202,1,192,6|0,3:1|3:0,2:0:0:0:
195,263,207438,2,0,P|147:262|113:230,1,96,8|0,2:0|2:0,2:0:0:0:
305,139,207651,6,0,P|291:185|286:243,1,96,6|0,3:1|2:0,2:0:0:0:
412,347,207864,1,8,2:0:0:0:
436,265,207970,6,2,B|321:247|377:342|235:313,1,192,6|0,3:1|3:1,2:1:0:0:
185,353,208289,2,0,P|176:306|195:263,1,96,8|0,2:0|2:0,2:0:0:0:
96,96,208502,6,0,L|106:44,2,48,14|0|0,2:1|3:1|3:0,2:0:0:0:
78,178,208715,1,0,3:0:0:0:
12,126,208821,2,0,P|110:129|196:72,1,192,14|0,2:1|3:0,2:0:0:0:
292,36,209140,2,0,P|274:90|266:131,1,96,14|0,2:1|2:0,2:0:0:0:
480,348,209353,6,0,P|492:272|380:212,1,192,4|0,3:2|3:0,2:0:0:0:
408,208,209619,1,0,3:0:0:0:
408,208,209672,2,0,P|355:223|299:239,1,96,2|0,3:2|2:0,2:0:0:0:
263,346,209885,1,0,3:0:0:0:
263,346,209991,2,0,P|210:361|154:377,1,96,8|0,2:0|2:0,2:0:0:0:
24,272,210204,6,0,B|-32:247|-33:163|46:120|104:166|119:225|119:225|142:298|226:320|299:261|277:169|214:156|214:156|161:148|124:93|166:7|259:20|275:82,1,806.399975390626,6|2,3:1|2:0,2:0:0:0:
