osu file format v14

[General]
AudioFilename: audio.mp3
AudioLeadIn: 0
PreviewTime: 65523
Countdown: 0
SampleSet: Soft
StackLeniency: 0.7
Mode: 0
LetterboxInBreaks: 0
WidescreenStoryboard: 1

[Editor]
Bookmarks: 14460,26374,34885,48502,58715,65523,72332,79140,85949,92757,106374,123396,138715,145523,148928,152332,160843,167651,182970,196587,203396,210204,211906
DistanceSpacing: 0.8
BeatDivisor: 4
GridSize: 8
TimelineZoom: 1.6

[Metadata]
Title:Hey Darling!
TitleUnicode:Hey Darling!
Artist:Matsushita
ArtistUnicode:松下
Creator:Shikibe Mayu
Version:Hard
Source:ワガママハイスペックOC
Tags:Shizuku- Kazato Asa Wagamama High Spec Highspec wagahigh OC VOCAL ALBUM MDCD-0006 Shota Horie 堀江 晶太 madosoft まどそふと eroge visual novel galgame full version opening op alternator narumi toa 鳴海 兎亜 overclock over clock rock video game japanese
BeatmapID:3128033
BeatmapSetID:1525401

[Difficulty]
HPDrainRate:5
CircleSize:3.5
OverallDifficulty:6.7
ApproachRate:8
SliderMultiplier:1.28
SliderTickRate:1

[Events]
//Background and Video events
0,0,"0787.jpg",0,0
//Break Periods
2,1043,1794
2,2744,3497
2,86148,92007
2,181468,182220
//Storyboard Layer 0 (Background)
//Storyboard Layer 1 (Fail)
//Storyboard Layer 2 (Pass)
//Storyboard Layer 3 (Foreground)
//Storyboard Layer 4 (Overlay)
//Storyboard Sound Samples

[TimingPoints]
843,212.765957446809,4,2,7,60,1,0
7651,-111.111111111111,4,2,7,60,0,0
12970,-111.111111111111,4,2,7,40,0,0
14034,-100,4,2,7,60,0,0
14460,-100,4,2,7,75,0,1
18661,-100,4,2,7,5,0,1
18715,-100,4,2,7,75,0,1
21268,-125,4,2,7,60,0,0
23821,-100,4,2,7,70,0,0
24672,-100,4,2,7,75,0,0
27651,-142.857142857143,4,2,7,75,0,0
28077,-111.111111111111,4,2,7,70,0,0
34885,-142.857142857143,4,2,7,60,0,0
35204,-142.857142857143,4,2,7,60,0,0
48502,-200,4,2,7,55,0,0
55311,-166.666666666667,4,2,7,55,0,0
58715,-111.111111111111,4,2,7,60,0,0
61906,-111.111111111111,4,2,7,60,0,0
65098,-100,4,2,7,75,0,0
65523,-100,4,2,7,75,0,1
79140,-125,4,2,7,60,0,0
81694,-100,4,2,7,75,0,0
82545,-100,4,2,7,75,0,0
85949,-100,4,2,7,70,0,0
92757,-142.857142857143,4,2,7,60,0,0
106374,-200,4,2,7,50,0,0
108077,-200,4,2,7,50,0,0
113183,-166.666666666667,4,2,7,60,0,0
116587,-111.111111111111,4,2,7,60,0,0
119991,-111.111111111111,4,2,7,65,0,0
120311,-111.111111111111,4,2,7,65,0,0
123396,-100,4,2,7,75,0,1
138715,-142.857142857143,4,2,7,60,0,0
145523,-125,4,2,7,65,0,0
146162,-125,4,2,7,65,0,0
152651,-111.111111111111,4,2,7,65,0,0
160843,-142.857142857143,4,2,7,60,0,0
165949,-100,4,2,7,75,0,0
166906,-100,4,2,7,65,0,0
167651,-100,4,2,7,75,0,1
174460,-125,4,2,7,60,0,0
177013,-100,4,2,7,75,0,0
177864,-100,4,2,7,75,0,0
182970,-111.111111111111,4,2,7,75,0,0
186800,-100,4,2,7,75,0,0
187225,-100,4,2,7,75,0,0
196587,-125,4,2,7,70,0,0
206800,-100,4,2,7,70,0,0
210204,-125,4,2,7,75,0,0
211693,-125,4,2,7,30,0,0

[Colours]
Combo1 : 197,190,250
Combo2 : 159,221,211
Combo3 : 207,207,207
Combo4 : 164,208,232

[HitObjects]
256,192,843,5,6,1:0:0:0:
256,192,2544,5,6,1:0:0:0:
256,192,4247,5,6,1:0:0:0:
280,104,4672,5,2,2:0:0:0:
320,256,5098,1,2,2:0:0:0:
167,215,5523,1,2,2:0:0:0:
115,304,5736,2,0,L|73:311,2,42.6666666666667,0|0|0,3:0|3:0|3:0,0:0:0:0:
64,313,5949,6,0,P|31:258|43:198,1,128,6|0,1:2|3:0,2:0:0:0:
0,131,6268,2,0,L|134:150,1,128,2|0,1:0|3:0,2:0:0:0:
126,148,6587,1,4,1:2:0:0:
226,31,6800,5,0,3:1:0:0:
230,27,6906,2,0,P|303:41|343:89,1,128,8|0,2:0|3:0,0:0:0:0:
340,93,7225,2,0,P|313:104|294:143,2,64,8|0|0,2:0|3:0|3:0,0:0:0:0:
389,12,7545,1,0,3:0:0:0:
389,12,7651,6,0,L|421:191,1,172.799994726563,6|0,3:1|0:0,0:0:0:0:
442,203,8077,1,0,3:0:0:0:
433,235,8183,2,0,P|399:238|363:265,2,57.5999982421876,2|0|2,2:0|2:0|2:0,2:0:0:0:
512,344,8608,1,0,0:0:0:0:
512,344,8715,2,0,L|448:336,1,57.5999982421876,2|2,2:0|2:0,0:0:0:0:
423,357,8928,2,0,L|295:341,1,115.199996484375,2|2,3:2|2:0,0:0:0:0:
239,256,9353,6,0,P|287:197|275:100,1,172.799994726563,4|0,3:1|0:0,0:0:0:0:
278,105,9779,1,0,3:0:0:0:
278,105,9885,1,2,2:0:0:0:
199,32,10098,1,2,2:0:0:0:
106,92,10311,1,2,2:0:0:0:
106,92,10417,2,0,L|96:152,1,57.5999982421876,2|0,2:0|2:0,2:0:0:0:
29,200,10630,6,0,L|212:172,1,172.799994726563,0|0,3:0|0:0,2:0:0:0:
199,173,11055,1,4,3:2:0:0:
359,357,11481,5,8,2:0:0:0:
359,357,11587,1,8,2:0:0:0:
455,326,11800,2,0,L|468:211,1,115.199996484375,8|8,2:0|2:0,0:0:0:0:
451,181,12119,1,8,2:0:0:0:
470,149,12225,1,8,2:0:0:0:
457,119,12332,2,0,B|382:135|382:135|351:192|351:192|248:213,1,230.39999296875,8|4,2:0|3:1,0:0:0:0:
80,82,14034,6,0,B|32:50|32:50|63:212,1,192,12|0,2:0|0:0,2:0:0:0:
0,242,14460,6,0,P|70:241|130:271,1,128,6|10,3:1|2:0,2:0:0:0:
121,264,14779,1,0,3:0:0:0:
121,264,14885,2,0,L|112:334,2,64,2|0|8,0:1|3:0|2:0,0:0:0:0:
221,222,15311,1,2,3:1:0:0:
147,158,15523,1,8,2:0:0:0:
147,158,15630,2,0,P|115:101|121:33,1,128,2|0,2:1|3:1,2:0:0:0:
246,20,16055,5,2,2:0:0:0:
246,20,16162,2,0,P|277:76|271:144,1,128,2|8,3:1|2:0,2:0:0:0:
313,171,16481,1,0,3:0:0:0:
361,154,16587,2,0,L|497:169,1,128,2|8,2:1|2:0,0:0:0:0:
507,306,17013,6,0,B|413:288|440:369|326:350,1,192,8|8,2:0|2:0,0:0:0:0:
256,383,17438,1,8,2:0:0:0:
233,360,17544,1,8,2:0:0:0:
220,331,17650,1,8,2:0:0:0:
217,299,17757,1,8,2:0:0:0:
224,268,17863,1,2,3:1:0:0:
256,59,18289,6,0,L|115:81,1,128,12|0,2:1|0:0,2:1:0:0:
35,168,18715,6,0,P|61:231|52:289,1,128,12|0,2:0|3:0,2:0:0:0:
26,319,19034,2,0,L|152:338,1,128,12|0,2:0|3:0,2:0:0:0:
189,367,19353,2,0,L|252:357,1,64,12|0,2:0|2:0,2:0:0:0:
276,355,19566,5,4,3:2:0:0:
208,271,19779,1,4,3:2:0:0:
203,165,19991,1,4,3:2:0:0:
268,76,20204,1,4,3:2:0:0:
383,73,20417,6,0,P|438:99|506:91,1,128,8|8,2:0|2:0,0:0:0:0:
503,92,20736,1,8,2:0:0:0:
503,92,20843,2,0,L|490:156,1,64,8|8,2:0|2:0,0:0:0:0:
461,183,21055,2,0,L|474:247,1,64,8|8,2:0|2:0,0:0:0:0:
502,282,21268,6,0,P|425:277|365:329,1,153.6,4|2,3:1|2:0,0:0:0:0:
352,358,21694,1,8,2:0:0:0:
255,309,21906,1,2,2:0:0:0:
138,326,22119,2,0,B|114:330|93:347|93:347|124:204,1,153.6,0|2,3:0|2:0,0:0:0:0:
118,232,22545,1,8,2:0:0:0:
48,154,22757,1,2,2:0:0:0:
102,45,22970,6,0,B|167:83|167:83|249:68,1,153.6,2|2,3:2|2:0,0:0:0:0:
244,68,23396,1,8,2:0:0:0:
347,126,23608,1,2,2:0:0:0:
347,126,23715,1,2,2:0:0:0:
347,126,23821,2,0,L|365:-4,2,128,4|4|4,3:2|3:2|3:2,2:0:0:0:
250,208,24460,2,0,L|240:164,2,42.6666666666667,8|8|8,2:0|2:0|2:0,0:0:0:0:
253,219,24672,1,4,3:1:0:0:
239,349,24885,6,0,P|301:344|369:376,1,128,8|0,2:1|3:0,2:0:0:0:
360,369,25204,1,8,2:0:0:0:
466,328,25417,1,0,3:0:0:0:
466,328,25523,2,0,L|484:201,1,128,8|8,2:0|2:0,2:0:0:0:
512,167,25843,2,0,P|441:171|358:80,1,192,8|8,2:0|2:0,0:0:0:0:
360,90,26268,1,8,2:3:0:0:
360,90,26374,1,12,2:0:0:0:
145,44,27651,6,0,B|98:51|98:51|80:72|80:72|17:84,1,134.399995898438,12|0,2:0|0:0,2:0:0:0:
21,83,28077,6,0,P|91:98|121:143,1,115.199996484375,6|8,3:2|2:0,2:0:0:0:
124,149,28396,1,2,3:2:0:0:
63,222,28608,1,0,3:0:0:0:
63,222,28715,2,0,L|77:282,1,57.5999982421876,8|0,2:0|2:0,2:0:0:0:
50,325,28928,2,0,L|163:343,1,115.199996484375,2|8,3:2|2:0,2:0:0:0:
189,364,29247,1,0,3:0:0:0:
233,273,29460,1,0,2:0:0:0:
233,273,29566,1,8,2:0:0:0:
166,177,29779,6,0,P|138:121|147:65,1,115.199996484375,2|8,3:2|2:0,2:0:0:0:
174,51,30098,2,0,P|256:61|336:8,1,172.799994726563,0|8,3:0|2:0,0:0:0:0:
437,11,30630,2,0,B|466:41|466:41|448:127,1,115.199996484375,2|8,3:2|2:0,0:0:0:0:
425,140,30949,1,2,2:0:0:0:
468,248,31162,1,0,3:0:0:0:
468,248,31268,1,8,2:0:0:0:
416,342,31481,6,0,P|367:312|301:315,1,115.199996484375,4|8,3:2|2:0,2:0:0:0:
272,342,31800,2,0,L|295:166,1,172.799994726563,2|8,3:2|2:0,2:0:0:0:
252,57,32332,1,2,3:2:0:0:
155,98,32545,1,8,2:0:0:0:
155,98,32651,2,0,B|107:128|107:128|45:117,1,115.199996484375,0|0,3:0|3:0,0:0:0:0:
28,114,32970,1,8,2:0:0:0:
9,215,33183,6,0,L|132:235,1,115.199996484375,4|8,3:1|2:0,2:0:0:0:
155,246,33502,2,0,P|205:216|271:226,1,115.199996484375,2|0,2:0|2:0,0:0:0:0:
259,220,33821,1,8,2:0:0:0:
351,157,34034,2,0,P|346:97|375:43,1,115.199996484375,4|8,3:2|2:0,0:0:0:0:
396,34,34353,1,8,2:0:0:0:
430,40,34460,2,0,P|473:35|505:13,2,57.5999982421876,8|8|8,2:0|2:0|2:0,0:0:0:0:
474,138,34885,6,0,L|460:239,1,89.5999972656251,6|8,3:2|2:0,2:0:0:0:
484,256,35204,2,0,P|408:271|369:325,1,134.399995898438,2|8,2:0|2:0,0:0:0:0:
319,381,35736,1,2,3:2:0:0:
232,352,35949,1,8,2:0:0:0:
232,352,36055,2,0,P|200:293|210:221,1,134.399995898438,2|8,2:0|2:0,0:0:0:0:
292,146,36587,6,0,L|309:53,1,89.5999972656251,2|8,3:2|2:0,2:0:0:0:
276,32,36906,1,0,2:0:0:0:
234,51,37013,2,0,L|141:68,1,89.5999972656251,2|8,3:2|2:0,0:0:0:0:
52,20,37438,2,0,P|-7:84|5:191,1,179.19999453125,2|0,3:2|3:0,2:0:0:0:
68,236,38077,1,8,2:0:0:0:
3,323,38289,6,0,L|98:340,1,89.5999972656251,2|8,3:2|2:0,2:0:0:0:
118,358,38608,2,0,P|176:321|245:332,1,134.399995898438,2|8,2:0|2:0,2:0:0:0:
322,263,39140,6,0,P|344:303|343:360,1,89.5999972656251,2|8,3:2|2:0,2:0:0:0:
346,346,39460,1,2,2:0:0:0:
346,346,39566,2,0,L|446:359,1,89.5999972656251,0|8,3:0|2:0,0:0:0:0:
509,293,39991,6,0,P|506:242|482:197,1,89.5999972656251,2|8,3:2|2:0,2:0:0:0:
405,166,40417,2,0,P|407:115|431:70,1,89.5999972656251,2|8,3:2|2:0,2:0:0:0:
512,36,40843,6,0,P|414:36|325:-18,1,179.19999453125,2|0,3:2|2:0,2:0:0:0:
229,25,41481,1,10,2:0:0:0:
222,123,41694,6,0,L|241:231,1,89.5999972656251,4|8,3:2|2:0,2:0:0:0:
274,233,42013,2,0,P|290:303|252:368,1,134.399995898438,2|8,3:2|2:0,0:0:0:0:
170,382,42545,6,0,L|35:362,1,134.399995898438,2|2,3:2|2:0,2:0:0:0:
37,362,42970,1,2,3:2:0:0:
1,282,43183,1,8,2:0:0:0:
68,220,43396,6,0,B|115:224|115:224|166:198,1,89.5999972656251,2|8,3:2|2:0,2:0:0:0:
185,216,43715,2,0,L|204:79,1,134.399995898438,2|8,3:2|2:0,2:0:0:0:
121,43,44247,6,0,L|320:9,1,179.19999453125,2|0,3:2|3:0,2:0:0:0:
383,68,44885,1,8,2:0:0:0:
482,38,45098,6,0,P|504:87|495:140,1,89.5999972656251,2|8,3:2|2:0,2:0:0:0:
485,152,45417,1,2,3:2:0:0:
462,240,45630,1,0,3:0:0:0:
462,240,45736,1,8,2:0:0:0:
512,325,45949,2,0,L|418:340,1,89.5999972656251,2|8,3:2|2:0,2:0:0:0:
406,362,46268,1,2,3:2:0:0:
297,342,46481,1,0,3:0:0:0:
297,342,46587,2,0,P|312:284|305:244,1,89.5999972656251,8|2,2:0|3:2,2:0:0:0:
388,207,47012,5,8,2:0:0:0:
388,207,47119,2,0,P|310:195|261:132,1,134.399995898438,2|8,3:2|2:0,2:0:0:0:
198,84,47651,2,0,L|207:29,2,44.7999986328125,8|8|8,2:3|2:3|2:3,0:0:0:0:
127,152,48077,1,4,2:3:0:0:
100,155,48183,1,4,2:3:0:0:
73,159,48289,1,4,2:3:0:0:
47,163,48396,1,4,2:3:0:0:
20,167,48502,6,0,P|95:223|101:280,1,128,4|0,3:1|3:0,0:0:0:0:
197,338,49353,2,0,P|208:244|254:210,1,128,2|0,3:2|3:0,0:0:0:0:
256,99,50204,2,0,P|169:135|116:112,1,128,2|0,3:2|3:0,0:0:0:0:
122,46,50843,1,0,0:0:0:0:
122,46,51055,2,0,P|208:9|261:32,1,128,2|0,3:2|3:0,0:0:0:0:
377,66,51906,6,0,L|355:206,1,128,2|0,3:2|3:0,2:0:0:0:
465,82,52757,2,0,L|443:222,1,128,2|0,3:2|3:0,2:0:0:0:
507,290,53396,1,2,2:0:0:0:
507,290,53608,2,0,P|433:301|391:352,1,128,0|0,3:0|3:0,0:0:0:0:
241,384,54460,2,0,L|200:378,2,32,0|8|0,3:0|2:0|3:0,0:0:0:0:
298,306,54885,1,8,2:0:0:0:
230,235,55098,5,8,2:0:0:0:
230,235,55204,1,8,2:0:0:0:
230,235,55311,2,0,P|190:163|210:75,1,153.5999953125,4|0,3:1|3:0,0:0:0:0:
264,21,55949,1,2,2:0:0:0:
353,70,56162,2,0,P|393:142|373:230,1,153.5999953125,0|0,3:0|3:0,0:0:0:0:
448,276,56800,6,0,L|292:253,1,153.5999953125,2|2,2:0|2:0,0:0:0:0:
284,344,57438,2,0,L|435:366,2,153.5999953125,0|4|8,3:0|3:1|2:0,0:0:0:0:
255,337,58396,1,8,2:0:0:0:
218,343,58502,1,8,2:0:0:0:
192,361,58608,1,8,2:0:0:0:
189,371,58715,6,0,P|130:366|68:318,1,115.199996484375,4|0,3:2|3:0,2:0:0:0:
69,312,59034,1,10,2:0:0:0:
92,223,59247,1,10,2:1:0:0:
16,170,59460,2,2,L|43:0,1,172.799994726563,10|8,2:1|2:0,2:1:0:0:
223,29,60204,5,0,3:0:0:0:
153,88,60417,2,0,B|129:115|129:115|156:214,1,115.199996484375,10|0,2:1|3:0,2:0:0:0:
157,212,60736,1,8,2:0:0:0:
129,300,60949,1,10,2:0:0:0:
192,377,61162,2,2,L|353:349,1,115.199996484375,10|0,2:1|3:1,2:1:0:0:
332,353,61481,1,8,2:0:0:0:
429,381,61694,1,0,3:0:0:0:
448,359,61800,1,0,3:0:0:0:
460,334,61906,1,0,3:0:0:0:
465,305,62013,1,0,3:0:0:0:
458,276,62119,6,0,B|436:242|436:242|452:165,1,115.199996484375,14|0,2:0|3:0,0:0:0:0:
458,148,62438,1,8,2:0:0:0:
510,74,62651,2,0,L|502:17,1,57.5999982421876,8|0,2:0|3:0,0:0:0:0:
486,0,62864,1,0,3:0:0:0:
467,8,62970,2,0,P|415:28|356:28,1,115.199996484375,8|8,2:0|2:0,0:0:0:0:
291,110,63396,1,8,2:0:0:0:
186,73,63608,2,0,L|179:29,3,38.399998828125,8|8|8|12,2:0|2:0|2:0|2:0,0:0:0:0:
105,351,65098,6,0,B|54:381|54:381|83:226,1,192,12|0,2:0|0:0,2:0:0:0:
3,206,65523,6,0,P|76:205|133:153,1,128,6|10,3:1|2:0,2:0:0:0:
121,168,65843,1,0,3:0:0:0:
124,162,65949,2,0,L|108:95,2,64,2|0|8,2:0|3:0|2:1,0:0:0:0:
221,209,66374,2,0,B|258:260|258:260|239:335,1,128,2|8,3:1|2:0,2:0:0:0:
235,351,66694,1,2,3:2:0:0:
341,379,66906,1,2,3:2:0:0:
341,379,67013,2,0,L|406:364,1,64,8|2,2:0|2:0,0:0:0:0:
434,378,67225,5,2,3:1:0:0:
488,291,67438,1,8,2:1:0:0:
451,194,67651,2,0,P|388:193|325:168,1,128,2|8,3:1|2:0,2:0:0:0:
327,169,67970,1,0,2:0:0:0:
327,169,68077,1,2,3:1:0:0:
258,97,68289,2,0,L|267:33,2,64,10|0|2,2:1|2:0|3:2,2:0:0:0:
227,200,68715,1,10,2:1:0:0:
313,292,68928,6,0,P|237:299|189:347,1,128,2|8,3:2|2:0,2:0:0:0:
199,330,69247,1,0,3:0:0:0:
199,330,69353,2,2,P|101:342|22:215,1,256,2|2,2:1|3:2,2:1:0:0:
56,136,69991,1,8,2:0:0:0:
56,136,70098,1,0,3:0:0:0:
56,136,70204,2,0,L|41:69,2,64,2|0|8,0:2|3:0|2:0,2:0:0:0:
193,135,70630,6,0,P|188:69|213:13,1,128,4|8,3:1|2:0,2:0:0:0:
212,13,70949,1,4,3:2:0:0:
302,54,71162,1,0,3:0:0:0:
302,54,71268,2,0,P|304:87|292:115,1,64,12|0,2:0|0:0,2:0:0:0:
284,140,71481,2,0,L|306:271,1,128,0|8,3:0|2:0,0:0:0:0:
363,383,71906,1,8,2:0:0:0:
382,358,72012,1,8,2:0:0:0:
409,342,72118,1,8,2:0:0:0:
441,337,72225,1,8,2:0:0:0:
472,344,72332,6,0,P|499:274|488:215,1,128,6|8,3:1|2:0,2:0:0:0:
401,161,72757,1,2,0:1:0:0:
401,161,72864,1,0,3:0:0:0:
401,161,72970,1,8,2:0:0:0:
333,245,73183,2,0,L|207:270,1,128,2|8,3:1|2:0,2:0:0:0:
183,274,73502,1,2,3:2:0:0:
127,359,73715,1,2,3:2:0:0:
46,301,73928,5,2,2:0:0:0:
46,301,74034,2,0,P|17:239|25:171,1,128,2|8,3:1|2:0,2:0:0:0:
41,153,74353,1,0,2:0:0:0:
21,121,74460,2,0,L|161:144,1,128,2|8,2:1|2:0,0:0:0:0:
206,214,74885,5,8,2:0:0:0:
335,103,75204,1,8,2:0:0:0:
490,140,75523,1,8,2:0:0:0:
490,140,75736,1,10,2:1:0:0:
512,320,76162,6,0,L|312:353,1,192,4|0,3:1|2:0,2:0:0:0:
322,351,76587,1,8,2:0:0:0:
254,280,76800,1,0,3:0:0:0:
254,280,76906,2,0,P|296:225|279:163,1,128,12|0,2:0|3:0,2:0:0:0:
279,165,77225,1,8,2:0:0:0:
347,101,77438,6,0,P|267:103|199:71,1,128,6|4,3:1|3:2,2:0:0:0:
114,36,77864,1,4,3:2:0:0:
27,131,78077,1,4,3:2:0:0:
82,239,78289,6,0,L|61:368,1,128,0|8,3:1|2:0,0:0:0:0:
61,365,78608,1,8,2:0:0:0:
61,365,78715,2,0,P|91:350|135:354,1,64,8|8,2:0|2:0,0:0:0:0:
191,313,78928,1,8,2:0:0:0:
231,323,79034,1,8,2:0:0:0:
266,302,79140,6,0,L|240:133,1,153.6,6|2,3:1|2:0,0:0:0:0:
241,131,79566,1,8,2:0:0:0:
319,65,79779,1,2,2:0:0:0:
418,114,79991,2,0,P|440:168|420:225,1,102.4,0|2,3:0|2:0,0:0:0:0:
431,210,80311,1,2,2:0:0:0:
431,210,80417,2,0,L|319:232,1,102.4,8|2,2:0|2:0,0:0:0:0:
240,312,80843,6,0,B|189:302|189:302|167:277|167:277|82:260,1,153.6,2|2,3:1|2:0,2:0:0:0:
99,263,81268,1,8,2:0:0:0:
0,258,81481,5,2,2:0:0:0:
0,258,81587,1,2,2:0:0:0:
0,258,81694,2,0,L|28:433,2,128,4|4|4,3:2|3:2|3:2,2:0:0:0:
54,172,82332,2,0,P|43:150|39:128,2,42.6666666666667,8|8|8,2:0|2:0|2:0,0:0:0:0:
63,180,82545,1,6,3:1:0:0:
183,103,82757,6,0,P|131:114|110:130,1,64,8|0,2:0|2:0,2:0:0:0:
175,189,82970,1,2,3:2:0:0:
175,189,83077,2,0,L|150:315,1,128,8|0,2:0|3:0,2:0:0:0:
146,345,83396,5,8,2:0:0:0:
254,326,83608,1,4,3:2:0:0:
291,222,83821,1,4,3:2:0:0:
399,202,84034,1,4,3:2:0:0:
470,285,84247,1,14,2:0:0:0:
505,83,85311,6,0,L|498:38,2,42.6666666666667,0|0|0,3:0|3:0|3:0,0:0:0:0:
509,94,85523,2,0,B|447:87|447:87|408:204|408:204|333:191,1,256,12|4,2:0|3:1,2:0:0:0:
257,31,92757,6,0,P|220:52|161:45,1,89.5999972656251,6|8,3:1|2:0,2:0:0:0:
142,32,93077,2,0,L|111:164,1,134.399995898438,2|8,2:0|2:0,0:0:0:0:
9,216,93608,1,2,3:2:0:0:
32,320,93821,1,8,2:0:0:0:
32,320,93928,2,0,P|91:319|162:373,1,134.399995898438,2|8,3:2|2:0,2:0:0:0:
251,339,94460,6,0,P|274:296|274:232,1,89.5999972656251,2|8,3:2|2:0,2:0:0:0:
275,249,94779,1,0,3:0:0:0:
270,239,94885,2,0,L|318:231,2,44.7999986328125,2|0|8,0:2|3:0|2:0,2:0:0:0:
176,210,95311,2,0,P|126:139|142:43,1,179.19999453125,2|0,3:2|0:0,2:0:0:0:
211,4,95949,1,8,2:0:0:0:
278,64,96162,6,0,L|377:83,1,89.5999972656251,2|8,3:2|2:0,2:0:0:0:
376,82,96481,2,0,P|435:76|490:148,1,134.399995898438,2|10,3:2|2:0,2:0:0:0:
446,220,97013,2,0,L|468:316,1,89.5999972656251,2|8,3:2|2:0,2:0:0:0:
463,318,97332,1,0,2:0:0:0:
462,328,97438,2,0,L|414:339,2,44.7999986328125,2|0|8,2:0|3:0|2:0,0:0:0:0:
340,384,97864,6,0,P|321:341|321:293,1,89.5999972656251,2|8,3:2|2:0,2:0:0:0:
334,283,98183,1,0,3:0:0:0:
325,264,98289,2,0,L|341:157,1,89.5999972656251,2|8,2:0|2:0,2:0:0:0:
416,96,98715,2,0,B|372:91|372:91|345:7|345:7|285:-3,1,179.19999453125,2|0,3:2|2:0,2:0:0:0:
227,70,99353,1,8,2:0:0:0:
145,0,99566,6,0,L|50:18,1,89.5999972656251,6|8,3:2|2:0,2:0:0:0:
56,16,99885,2,0,P|22:81|40:160,1,134.399995898438,2|8,2:0|2:0,2:0:0:0:
0,244,100417,6,0,P|55:258|81:291,1,89.5999972656251,2|8,3:2|2:0,0:0:0:0:
75,281,100736,1,0,3:0:0:0:
75,281,100843,2,0,L|54:391,1,89.5999972656251,0|8,0:2|2:0,0:0:0:0:
149,384,101268,6,0,L|165:295,1,89.5999972656251,2|8,3:2|2:0,2:0:0:0:
189,279,101587,2,0,P|194:217|150:157,1,134.399995898438,2|8,2:0|2:0,2:0:0:0:
41,127,102119,6,0,P|112:127|189:33,1,179.19999453125,2|0,3:2|3:0,2:0:0:0:
272,10,102757,1,10,2:0:0:0:
352,62,102970,5,2,3:2:0:0:
440,38,103183,1,8,2:0:0:0:
440,38,103289,2,0,P|472:88|462:154,1,89.5999972656251,2|0,2:0|3:0,2:0:0:0:
469,142,103608,1,8,2:0:0:0:
508,219,103821,1,2,3:2:0:0:
393,206,104034,1,8,2:0:0:0:
393,206,104140,2,0,P|361:256|371:322,1,89.5999972656251,2|0,2:0|3:0,2:0:0:0:
371,301,104460,1,8,2:0:0:0:
418,372,104672,5,2,3:2:0:0:
312,366,104885,1,8,2:0:0:0:
312,366,104991,2,0,B|270:351|270:351|259:299|259:299|206:283,1,134.399995898438,2|8,3:2|2:0,2:0:0:0:
111,252,105523,2,0,L|60:265,2,44.7999986328125,2|8|8,3:2|2:0|2:0,2:0:0:0:
232,200,105949,1,8,2:0:0:0:
251,181,106055,1,8,2:0:0:0:
263,157,106161,1,0,3:0:0:0:
264,131,106268,1,0,3:0:0:0:
258,108,106374,6,0,P|187:109|124:58,1,128,4|0,3:1|3:0,0:0:0:0:
64,192,107225,2,0,P|135:193|198:142,1,128,2|0,3:2|3:0,0:0:0:0:
258,276,108077,6,0,P|187:277|124:226,1,128,2|0,3:2|3:0,0:0:0:0:
181,163,108715,1,2,2:0:0:0:
181,163,108928,2,0,L|161:30,1,128,0|0,3:0|3:0,0:0:0:0:
36,46,109779,6,0,L|55:172,1,128,2|0,3:2|3:0,0:0:0:0:
12,336,110630,2,0,P|64:302|127:309,1,128,0|0,3:2|3:0,0:0:0:0:
128,310,111268,1,2,2:0:0:0:
205,351,111481,6,0,P|122:372|56:394,2,128,0|0|0,3:0|3:0|3:0,2:0:0:0:
228,366,112438,1,8,2:3:0:0:
260,359,112545,1,8,2:3:0:0:
288,264,112757,1,4,2:3:0:0:
284,245,112863,1,4,2:3:0:0:
281,227,112969,1,4,2:3:0:0:
278,208,113076,1,4,2:3:0:0:
274,190,113183,6,0,P|214:232|131:224,1,153.5999953125,6|0,3:1|3:0,0:0:0:0:
59,157,113821,1,2,2:0:0:0:
96,65,114034,2,0,P|156:23|239:31,1,153.5999953125,0|0,3:0|3:2,0:0:0:0:
313,0,114672,1,2,2:0:0:0:
459,108,115098,5,2,2:0:0:0:
459,108,115311,2,0,L|448:199,1,76.7999976562501,6|0,3:2|2:0,2:0:0:0:
496,264,115736,2,0,L|490:309,2,38.399998828125,6|8|0,3:2|0:0|3:0,2:0:0:0:
384,256,116162,1,8,2:0:0:0:
369,258,116268,1,8,2:0:0:0:
355,261,116374,1,8,2:0:0:0:
341,264,116481,1,8,2:0:0:0:
327,267,116587,6,0,P|298:222|296:159,1,115.199996484375,6|0,3:1|3:0,0:0:0:0:
311,146,116906,1,8,2:0:0:0:
336,64,117119,1,8,2:0:0:0:
256,16,117332,2,2,L|72:48,1,172.799994726563,10|8,2:1|2:0,2:1:0:0:
85,45,118077,5,0,3:0:0:0:
24,131,118289,2,12,P|50:186|41:243,1,115.199996484375,12|0,2:0|3:0,2:0:0:0:
32,253,118608,1,10,2:1:0:0:
131,240,118821,1,10,2:0:0:0:
192,328,119034,2,2,L|362:298,1,172.799994726563,10|8,2:1|2:0,2:1:0:0:
448,336,119566,1,4,2:3:0:0:
463,313,119672,1,4,2:3:0:0:
466,285,119779,1,4,2:3:0:0:
457,264,119885,1,4,2:3:0:0:
452,258,119991,6,0,L|474:108,1,115.199996484375,4|8,3:1|2:0,2:0:0:0:
471,127,120311,1,4,3:1:0:0:
425,0,120523,1,0,3:0:0:0:
425,0,120630,1,8,2:0:0:0:
504,54,120843,6,0,P|441:94|383:78,1,115.199996484375,4|8,3:1|2:0,0:0:0:0:
390,85,121162,1,8,2:0:0:0:
384,95,121268,1,8,2:0:0:0:
306,21,121481,2,0,L|241:38,1,57.5999982421876,8|8,2:0|2:0,0:0:0:0:
221,19,121694,6,0,L|200:141,1,115.199996484375,6|8,3:1|2:0,0:0:0:0:
235,142,122013,2,0,L|214:264,1,115.199996484375,6|8,3:1|2:0,0:0:0:0:
235,282,122332,1,6,3:1:0:0:
178,381,122545,5,2,3:2:0:0:
104,285,122757,1,8,2:0:0:0:
76,278,122863,1,8,2:0:0:0:
47,281,122969,1,8,2:0:0:0:
21,293,123076,1,8,2:0:0:0:
0,312,123182,1,8,2:0:0:0:
70,373,123396,6,0,P|28:255|53:106,1,256,6|0,3:1|3:0,2:0:0:0:
38,13,124034,1,8,2:0:0:0:
38,13,124140,1,0,2:0:0:0:
38,13,124247,2,0,P|95:46|163:36,1,128,2|8,3:1|2:0,2:0:0:0:
164,31,124566,1,2,3:1:0:0:
242,89,124779,1,0,3:0:0:0:
242,89,124885,1,8,2:0:0:0:
182,168,125098,6,0,L|202:304,1,128,2|8,3:1|2:0,2:0:0:0:
183,328,125417,2,0,P|249:338|300:382,1,128,0|0,3:2|3:0,2:0:0:0:
295,375,125736,1,8,2:0:0:0:
376,305,125949,2,0,P|442:295|493:251,1,128,2|8,3:1|2:0,0:0:0:0:
488,257,126268,1,0,3:0:0:0:
488,257,126374,2,0,L|497:192,1,64,2|0,3:1|0:0,0:0:0:0:
432,136,126587,6,0,L|450:6,2,128,10|2|8,2:1|3:2|2:0,2:0:0:0:
408,138,127119,1,0,3:0:0:0:
375,153,127225,1,2,2:1:0:0:
356,126,127332,1,0,3:0:0:0:
323,111,127438,1,8,2:0:0:0:
230,39,127651,2,0,L|211:170,1,128,2|8,3:1|2:0,0:0:0:0:
211,165,127970,1,2,2:1:0:0:
280,237,128183,1,0,3:1:0:0:
280,237,128289,1,8,2:0:0:0:
252,335,128502,6,0,P|181:341|129:379,1,128,6|10,3:1|2:1,0:0:0:0:
135,371,128821,1,0,3:0:0:0:
135,371,128928,2,0,P|64:365|12:327,1,128,2|10,3:1|2:1,2:0:0:0:
54,241,129353,2,0,L|29:102,1,128,6|8,3:1|2:0,0:0:0:0:
79,17,129779,1,8,2:0:0:0:
105,47,129885,1,8,2:0:0:0:
142,57,129991,1,8,2:0:0:0:
175,50,130098,1,8,2:0:0:0:
188,41,130204,6,0,P|220:103|208:175,1,128,6|8,3:1|2:0,2:0:0:0:
164,241,130630,1,2,3:1:0:0:
164,241,130736,2,0,L|176:310,1,64,0|8,3:0|2:0,2:0:0:0:
162,334,130949,2,0,L|307:357,1,128,2|0,2:1|3:0,2:0:0:0:
316,373,131268,2,0,P|379:342|441:353,1,128,10|2,2:1|3:1,2:0:0:0:
504,256,131694,5,8,2:0:0:0:
504,256,131800,1,0,3:0:0:0:
504,256,131906,2,0,L|482:114,1,128,2|8,3:1|2:0,2:0:0:0:
488,104,132225,1,2,3:1:0:0:
390,118,132438,1,2,3:1:0:0:
314,54,132651,2,2,P|291:112|310:180,1,128,2|0,2:1|3:1,2:1:0:0:
331,198,132970,1,8,2:0:0:0:
336,304,133183,2,0,L|201:331,1,128,2|8,2:0|2:0,0:0:0:0:
180,322,133502,1,0,2:0:0:0:
159,342,133608,5,2,3:1:0:0:
72,384,133821,1,8,2:0:0:0:
72,384,133928,2,0,P|16:355|5:283,1,128,2|2,3:1|2:1,0:0:0:0:
9,271,134247,1,8,2:0:0:0:
88,192,134460,1,0,3:0:0:0:
88,192,134566,2,0,P|144:163|155:91,1,128,2|2,3:1|2:1,0:0:0:0:
133,80,134885,2,0,L|48:101,2,64,2|0|8,3:1|3:0|2:1,0:0:0:0:
256,40,135311,6,0,L|240:168,1,128,14|4,2:0|2:3,0:0:0:0:
224,192,135630,1,14,2:0:0:0:
237,299,135843,1,4,2:3:0:0:
237,299,135949,2,0,P|312:312|352:361,1,128,12|4,2:0|2:3,0:0:0:0:
358,380,136268,1,12,2:0:0:0:
463,359,136481,1,4,2:3:0:0:
463,359,136587,2,0,P|473:331|473:292,2,64,12|4|4,2:0|2:3|2:3,2:3:0:0:
392,256,137013,5,12,2:0:0:0:
509,221,137225,1,4,2:3:0:0:
509,221,137332,2,0,P|509:155|477:87,1,128,12|4,2:0|2:3,2:0:0:0:
485,98,137651,1,8,2:0:0:0:
432,0,137864,6,0,B|386:13|386:13|353:97|353:97|277:118,1,192,6|0,3:1|0:0,0:0:0:0:
285,91,138289,1,8,2:0:0:0:
245,77,138396,1,8,2:0:0:0:
211,91,138502,1,4,2:3:0:0:
192,122,138608,1,4,2:3:0:0:
199,158,138715,6,0,B|112:136|112:136|36:197,1,179.19999453125,6|0,3:1|3:0,2:0:0:0:
0,334,139566,1,2,3:2:0:0:
151,302,139991,1,0,3:2:0:0:
215,368,140204,5,2,2:0:0:0:
239,366,140311,1,2,2:0:0:0:
261,384,140417,2,2,L|291:207,1,179.19999453125,6|2,3:1|3:2,2:1:0:0:
259,69,141268,1,2,3:2:0:0:
405,0,141694,1,2,3:2:0:0:
512,109,142119,6,0,B|425:87|425:87|349:148,1,179.19999453125,6|2,3:1|3:2,2:0:0:0:
270,173,142757,1,2,2:0:0:0:
210,108,142970,1,2,3:2:0:0:
52,152,143396,1,2,3:2:0:0:
12,325,143821,6,0,P|57:325|105:355,1,89.5999972656251,4|0,3:1|3:0,2:0:0:0:
95,345,144140,1,8,2:0:0:0:
196,384,144353,1,0,3:0:0:0:
196,384,144460,1,8,2:0:0:0:
248,300,144672,1,2,3:1:0:0:
248,300,144779,2,0,L|233:190,1,89.5999972656251,8|0,2:0|3:0,0:0:0:0:
208,200,145098,2,0,L|193:90,1,89.5999972656251,8|0,2:0|3:0,0:0:0:0:
148,26,145523,6,2,B|238:74|238:74|346:46,1,204.8,6|0,3:1|3:1,2:1:0:0:
435,0,146162,1,2,2:0:0:0:
509,72,146374,2,0,L|487:175,1,102.4,0|2,3:0|2:0,0:0:0:0:
496,188,146694,2,0,B|454:174|424:210|424:210|396:249|328:230,1,153.6,2|2,2:0|2:0,0:0:0:0:
280,296,147225,5,0,3:0:0:0:
255,166,147545,1,2,2:0:0:0:
230,36,147864,1,2,2:0:0:0:
138,60,148077,2,0,P|90:65|33:38,1,102.4,0|2,3:0|2:0,0:0:0:0:
40,44,148396,1,0,0:0:0:0:
40,44,148502,2,0,P|16:108|28:160,1,102.4,0|2,3:0|2:0,0:0:0:0:
0,249,148928,6,0,P|59:255|102:295,1,102.4,4|0,3:1|3:0,0:0:0:0:
92,280,149247,1,0,3:0:0:0:
92,280,149353,2,0,L|76:336,2,51.2,8|0|0,2:0|3:0|3:0,0:0:0:0:
168,379,149779,2,0,P|227:373|270:333,1,102.4,8|0,2:0|3:0,0:0:0:0:
260,348,150098,1,0,3:0:0:0:
260,348,150204,2,0,L|244:292,2,51.2,8|0|0,2:0|3:0|3:0,0:0:0:0:
162,269,150630,5,14,2:0:0:0:
235,212,150842,1,0,3:0:0:0:
235,212,150949,2,0,P|259:164|246:105,1,102.4,0|0,3:0|3:0,0:0:0:0:
245,110,151268,1,0,3:0:0:0:
304,32,151481,2,0,L|430:54,1,102.4,8|8,2:0|2:0,0:0:0:0:
429,64,151800,1,8,2:0:0:0:
456,56,151906,2,0,P|456:28|466:-1,2,51.2,8|8|4,2:3|2:3|2:3,0:0:0:0:
512,136,152332,5,6,3:1:0:0:
456,208,152545,1,8,2:0:0:0:
456,208,152651,2,0,L|334:231,1,115.199996484375,2|0,2:1|3:0,2:0:0:0:
342,229,152970,1,8,2:0:0:0:
232,200,153183,2,0,P|264:280|256:328,1,115.199996484375,6|8,3:2|2:0,2:0:0:0:
272,320,153502,2,0,B|231:309|200:343|200:343|171:381|106:366,1,172.799994726563,0|8,3:0|2:0,2:0:0:0:
24,320,154034,6,0,L|48:184,1,115.199996484375,6|8,3:1|2:0,2:0:0:0:
47,193,154353,1,2,2:0:0:0:
7,118,154566,1,0,3:0:0:0:
7,118,154672,1,8,2:0:0:0:
67,43,154885,2,0,P|117:69|177:60,1,115.199996484375,6|8,3:1|2:0,2:0:0:0:
197,47,155204,2,0,P|229:96|224:161,1,115.199996484375,2|0,3:1|3:0,2:0:0:0:
217,167,155523,1,10,2:1:0:0:
280,256,155736,6,0,L|401:229,1,115.199996484375,6|8,3:1|2:0,2:0:0:0:
392,230,156055,1,4,3:2:0:0:
488,272,156268,1,0,2:0:0:0:
488,272,156374,2,0,P|512:216|504:160,1,115.199996484375,8|0,2:0|3:0,2:0:0:0:
496,152,156694,1,12,2:0:0:0:
439,74,156906,1,0,2:0:0:0:
439,74,157013,2,0,L|454:5,2,57.5999982421876,8|8|0,2:0|2:0|3:0,0:0:0:0:
334,122,157438,6,0,P|329:84|310:50,2,76.7999976562501,8|0|0,2:0|3:0|3:0,0:0:0:0:
250,153,157864,2,0,P|231:119|225:81,2,76.7999976562501,8|0|0,2:0|3:0|3:0,0:0:0:0:
176,216,158289,2,0,P|287:214|368:298,1,230.39999296875,8|8,2:0|2:0,2:0:0:0:
366,294,159140,6,0,L|448:275,2,76.7999976562501,8|0|0,2:0|3:0|3:0,0:0:0:0:
384,376,159566,2,0,L|466:357,2,76.7999976562501,8|0|0,2:0|3:0|3:0,0:0:0:0:
294,350,159991,2,0,L|335:110,1,230.39999296875,12|2,2:0|2:3,2:0:0:0:
401,17,160843,6,0,B|345:47|333:123|333:123|291:64|196:63,1,268.799991796875,4|0,3:1|2:0,2:0:0:0:
125,13,161694,1,4,3:1:0:0:
97,157,162013,1,8,2:3:0:0:
69,301,162332,1,0,3:0:0:0:
19,384,162545,6,0,P|90:333|183:342,1,179.19999453125,4|0,3:1|0:0,2:0:0:0:
256,290,163183,1,2,2:0:0:0:
334,339,163396,2,0,P|421:332|493:384,2,179.19999453125,4|4|4,3:1|3:2|3:2,2:0:0:0:
176,256,164672,2,0,B|155:196|155:196|171:148|171:148|146:63,1,179.19999453125,8|4,2:3|3:1,2:0:0:0:
63,120,165311,2,0,L|16:112,2,44.7999986328125,0|0|8,3:0|3:0|0:0,0:0:0:0:
0,224,165736,5,8,2:0:0:0:
0,224,165843,1,8,2:0:0:0:
0,224,165949,2,0,P|84:220|144:184,3,128,4|4|4|4,3:1|3:2|3:2|3:2,2:0:0:0:
168,104,166800,5,0,3:0:0:0:
252,175,167013,1,8,2:0:0:0:
352,143,167225,1,8,2:0:0:0:
372,113,167332,1,8,2:0:0:0:
401,87,167438,1,8,2:0:0:0:
442,86,167545,1,8,2:0:0:0:
472,111,167651,6,0,L|448:254,1,128,6|10,3:1|2:0,2:0:0:0:
488,336,168077,1,2,0:2:0:0:
488,336,168183,1,0,3:0:0:0:
488,336,168289,1,10,2:0:0:0:
384,384,168502,2,0,P|328:352|264:352,1,128,2|8,3:1|2:0,2:0:0:0:
265,351,168821,1,2,2:0:0:0:
232,256,169034,1,0,3:0:0:0:
320,208,169247,5,2,2:0:0:0:
320,208,169353,2,0,L|335:129,1,64,2|0,3:1|2:0,2:0:0:0:
363,68,169566,2,0,P|310:104|222:98,1,128,10|2,2:0|0:2,2:0:0:0:
247,106,169885,1,0,3:0:0:0:
247,106,169991,1,10,2:0:0:0:
168,18,170204,6,0,B|112:32|112:32|90:98|90:98|17:119,1,192,10|10,2:0|2:0,0:0:0:0:
17,118,170630,1,8,2:0:0:0:
56,208,170843,1,10,2:0:0:0:
48,240,170949,1,8,2:0:0:0:
21,257,171055,1,2,3:1:0:0:
184,376,171481,6,0,L|380:344,1,192,6|0,3:1|2:0,2:0:0:0:
408,367,171906,1,6,3:1:0:0:
467,300,172119,1,0,3:0:0:0:
467,300,172225,2,0,P|469:229|420:173,1,128,12|0,2:0|2:0,2:0:0:0:
416,170,172545,2,0,L|431:88,1,64,8|0,2:0|2:0,2:0:0:0:
431,80,172757,5,6,3:1:0:0:
310,19,172970,1,4,3:2:0:0:
228,125,173183,1,4,3:2:0:0:
296,234,173396,1,4,3:2:0:0:
228,342,173608,2,0,P|164:342|104:367,1,128,0|8,3:0|2:0,0:0:0:0:
105,366,173928,1,8,2:0:0:0:
105,366,174034,2,0,L|40:356,1,64,8|8,2:0|2:0,0:0:0:0:
14,277,174247,5,8,2:0:0:0:
26,237,174353,1,8,2:0:0:0:
0,204,174460,2,0,B|36:67|36:67|36:103|71:137,1,204.8,6|8,3:1|2:0,0:0:0:0:
130,185,175098,1,2,2:0:0:0:
221,139,175311,2,0,P|198:93|211:32,1,102.4,2|2,3:2|2:0,0:0:0:0:
241,16,175630,1,2,2:0:0:0:
291,25,175736,2,0,P|314:71|301:132,1,102.4,8|2,2:0|2:0,2:0:0:0:
287,234,176162,6,0,L|318:395,1,153.6,2|2,3:2|2:0,0:0:0:0:
316,384,176587,1,10,2:0:0:0:
428,322,176800,1,2,2:0:0:0:
428,322,176906,1,2,2:0:0:0:
428,322,177013,2,0,L|403:196,2,128,4|4|4,3:2|3:2|3:2,2:0:0:0:
316,384,177651,2,0,P|293:384|254:371,3,42.6666666666667,8|8|8|6,2:0|2:0|2:0|3:1,0:0:0:0:
135,384,178077,6,0,P|106:325|117:256,1,128,8|0,2:0|3:0,2:0:0:0:
33,218,178396,2,0,P|95:225|152:196,1,128,8|0,2:0|2:0,2:0:0:0:
169,173,178715,5,14,2:0:0:0:
245,91,178928,1,4,3:2:0:0:
366,87,179140,1,4,3:2:0:0:
438,187,179353,1,4,3:2:0:0:
402,287,179566,1,10,2:1:0:0:
402,287,180843,6,0,L|370:27,1,256,8|4,2:3|3:2,2:0:0:0:
370,32,182970,6,0,P|330:76|260:63,1,115.199996484375,6|10,3:1|2:1,2:0:0:0:
271,69,183289,1,0,3:0:0:0:
266,63,183396,2,0,L|283:-13,2,57.5999982421876,2|0|10,0:1|3:0|2:1,2:0:0:0:
165,103,183821,1,2,3:1:0:0:
101,32,184034,1,8,2:0:0:0:
101,32,184140,2,0,P|33:50|-3:94,1,115.199996484375,2|2,2:1|3:1,2:0:0:0:
54,190,184566,5,0,2:0:0:0:
59,194,184672,2,0,P|42:255|61:319,1,115.199996484375,2|10,3:1|2:1,2:0:0:0:
59,310,184991,1,0,3:0:0:0:
66,317,185098,2,0,P|33:342|18:367,2,57.5999982421876,2|0|8,2:1|3:0|2:0,0:0:0:0:
192,360,185523,6,0,L|308:335,1,115.199996484375,2|8,3:1|2:1,2:0:0:0:
304,335,185843,1,0,2:0:0:0:
304,335,185949,2,0,P|318:273|302:224,1,115.199996484375,2|10,3:1|2:1,2:0:0:0:
194,156,186374,6,0,B|137:147|137:147|106:48|106:48|35:36,2,230.39999296875,2|2|2,3:1|3:1|3:2,2:0:0:0:
259,69,187438,1,8,2:0:0:0:
368,103,187651,1,0,3:0:0:0:
370,121,187757,1,2,2:1:0:0:
373,140,187864,1,8,2:1:0:0:
376,159,187970,1,2,2:1:0:0:
379,178,188077,6,0,L|355:320,1,128,6|10,3:1|2:1,2:0:0:0:
382,384,188396,2,0,P|334:340|264:337,1,128,2|0,3:1|3:0,0:0:0:0:
228,318,188715,2,0,L|164:335,1,64,10|0,2:1|2:0,2:0:0:0:
122,366,188928,1,2,3:2:0:0:
25,335,189140,1,8,2:0:0:0:
10,221,189352,1,8,2:0:0:0:
35,200,189459,1,8,2:0:0:0:
65,190,189565,1,8,2:0:0:0:
97,192,189671,1,8,2:0:0:0:
126,205,189779,6,0,L|153:66,1,128,6|8,3:1|2:0,2:0:0:0:
153,69,190098,1,2,3:1:0:0:
252,13,190311,1,0,3:0:0:0:
252,13,190417,1,8,2:0:0:0:
333,87,190630,2,0,P|399:88|456:59,1,128,2|8,3:1|2:0,2:0:0:0:
453,61,190950,1,2,3:1:0:0:
479,179,191162,2,0,P|413:178|356:207,1,128,0|0,3:0|2:0,0:0:0:0:
350,220,191481,5,2,3:1:0:0:
332,322,191694,1,8,2:0:0:0:
324,323,191800,2,0,L|187:350,1,128,2|0,3:1|3:0,2:0:0:0:
198,347,192119,1,8,2:0:0:0:
95,324,192332,2,0,P|85:230|177:175,1,192,10|10,2:1|2:1,0:0:0:0:
184,187,192757,1,8,2:0:0:0:
290,224,192970,5,10,2:1:0:0:
332,217,193077,1,8,2:0:0:0:
356,243,193183,2,0,P|476:222|500:64,1,256,6|2,3:1|3:2,2:0:0:0:
458,22,193821,1,10,2:1:0:0:
369,84,194034,2,0,P|298:84|247:48,1,128,2|10,3:2|2:1,2:0:0:0:
248,45,194353,1,8,2:0:0:0:
244,36,194460,1,2,3:2:0:0:
157,0,194672,2,0,P|125:15|102:55,1,64,10|0,2:1|2:0,2:0:0:0:
74,54,194885,6,0,L|96:194,1,128,2|12,3:1|2:0,2:0:0:0:
211,138,195311,2,0,L|233:278,1,128,2|12,3:1|2:0,2:0:0:0:
348,222,195736,2,0,L|370:362,1,128,4|8,3:1|2:0,0:0:0:0:
367,348,196055,1,8,2:0:0:0:
367,348,196162,2,0,P|399:352|429:364,1,64,8|8,2:0|2:0,0:0:0:0:
493,315,196374,2,0,P|480:285|476:253,1,64,8|8,2:0|2:0,0:0:0:0:
423,186,196587,6,0,P|455:112|443:66,1,102.4,6|8,3:1|2:0,2:0:0:0:
452,92,196906,1,2,3:2:0:0:
399,15,197119,1,0,3:0:0:0:
399,15,197225,2,0,L|255:40,1,102.4,8|2,2:0|3:1,2:0:0:0:
213,3,197651,1,8,2:0:0:0:
213,3,197757,2,0,B|193:61|220:99|220:99|219:124|206:154,1,153.6,2|10,2:0|2:1,0:0:0:0:
258,236,198289,6,0,P|311:236|364:264,1,102.4,2|8,3:1|2:0,2:0:0:0:
355,256,198608,1,2,2:1:0:0:
334,353,198821,1,0,3:0:0:0:
334,353,198928,2,0,P|281:353|228:325,1,102.4,8|2,2:1|3:1,2:0:0:0:
148,382,199353,1,8,2:0:0:0:
148,382,199460,2,0,P|89:331|79:258,1,153.6,2|8,3:1|2:0,0:0:0:0:
6,189,199991,6,0,P|36:141|38:81,1,102.4,6|8,3:1|2:0,2:0:0:0:
22,67,200311,2,0,P|98:61|168:3,1,153.6,2|8,3:1|2:0,2:0:0:0:
246,4,200843,1,2,3:1:0:0:
274,98,201055,1,8,2:0:0:0:
274,98,201162,2,0,L|241:249,1,153.6,2|8,3:1|2:0,2:0:0:0:
178,314,201694,6,0,P|235:339|284:333,1,102.4,6|8,3:1|2:0,2:0:0:0:
307,353,202013,2,0,L|408:335,1,102.4,2|0,2:1|3:0,2:0:0:0:
444,358,202333,1,8,2:0:0:0:
498,278,202545,6,0,P|501:210|473:165,1,102.4,6|8,3:1|2:0,2:0:0:0:
482,176,202864,1,8,2:0:0:0:
478,172,202970,2,0,L|490:106,1,51.2,8|8,2:0|2:0,0:0:0:0:
443,55,203183,5,8,2:0:0:0:
410,62,203289,1,8,2:0:0:0:
383,42,203396,2,0,P|330:51|289:105,1,102.4,6|8,3:1|2:0,2:0:0:0:
329,170,203821,2,0,L|382:158,2,51.2,2|0|10,0:2|3:0|2:1,2:0:0:0:
293,257,204247,1,2,2:0:0:0:
253,346,204460,1,8,2:0:0:0:
253,346,204566,2,0,B|195:356|195:356|181:372|181:372|107:384,1,153.6,2|8,2:1|2:0,2:0:0:0:
26,343,205098,6,0,P|3:287|11:218,1,102.4,6|8,3:1|2:0,2:0:0:0:
88,184,205523,2,0,L|150:191,2,51.2,2|0|8,0:0|3:0|2:0,0:0:0:0:
48,80,205949,2,0,L|172:94,1,102.4,2|8,3:1|2:1,2:0:0:0:
248,64,206374,2,0,P|246:48|240:31,5,34.1333333333333,8|8|8|8|8|8,2:0|2:0|2:0|2:0|2:0|2:0,0:0:0:0:
264,88,206800,6,0,P|234:136|233:220,1,128,6|8,3:1|2:0,2:0:0:0:
152,264,207119,2,0,P|231:276|281:328,1,128,6|0,3:1|3:0,2:0:0:0:
266,305,207438,1,8,2:0:0:0:
368,384,207651,2,0,L|493:358,1,128,6|8,3:1|2:0,2:0:0:0:
493,357,207970,1,6,3:1:0:0:
493,357,208077,2,0,L|506:289,2,64,0|0|8,3:0|3:1|2:0,0:0:0:0:
392,264,208502,6,0,P|391:189|427:135,1,128,14|0,2:1|3:0,2:0:0:0:
416,144,208821,1,14,2:1:0:0:
512,96,209034,1,0,3:0:0:0:
512,96,209140,1,14,2:1:0:0:
440,8,209353,2,0,L|302:34,1,128,4|0,3:2|3:0,2:0:0:0:
314,31,209672,1,2,3:2:0:0:
208,0,209885,1,0,3:0:0:0:
208,0,209991,2,0,B|178:51|178:51|200:133,1,128,8|6,2:0|3:1,2:0:0:0:
256,192,210311,12,2,211694,2:0:0:0:
