osu file format v14

[General]
AudioFilename: audio.mp3
AudioLeadIn: 0
PreviewTime: 65523
Countdown: 0
SampleSet: Soft
StackLeniency: 0.7
Mode: 0
LetterboxInBreaks: 0
WidescreenStoryboard: 1

[Editor]
Bookmarks: 14460,26374,34885,48502,58715,65523,72332,79140,85949,92757,106374,123396,138715,145523,148928,152332,160843,167651,182970,196587,203396,210204,211906
DistanceSpacing: 0.8
BeatDivisor: 4
GridSize: 4
TimelineZoom: 0.8999999

[Metadata]
Title:Hey Darling!
TitleUnicode:Hey Darling!
Artist:Matsushita
ArtistUnicode:松下
Creator:Shikibe Mayu
Version:Easy
Source:ワガママハイスペックOC
Tags:Shizuku- Kazato Asa Wagamama High Spec Highspec wagahigh OC VOCAL ALBUM MDCD-0006 Shota Horie 堀江 晶太 madosoft まどそふと eroge visual novel galgame full version opening op alternator narumi toa 鳴海 兎亜 overclock over clock rock video game japanese
BeatmapID:3132601
BeatmapSetID:1525401

[Difficulty]
HPDrainRate:3
CircleSize:2.9
OverallDifficulty:3
ApproachRate:3.5
SliderMultiplier:0.48
SliderTickRate:0.5

[Events]
//Background and Video events
0,0,"0787.jpg",0,0
//Break Periods
2,86148,91377
2,138915,142441
//Storyboard Layer 0 (Background)
//Storyboard Layer 1 (Fail)
//Storyboard Layer 2 (Pass)
//Storyboard Layer 3 (Foreground)
//Storyboard Layer 4 (Overlay)
//Storyboard Sound Samples

[TimingPoints]
843,212.765957446809,4,2,7,60,1,0
7651,-100,4,2,7,60,0,0
12970,-100,4,2,7,40,0,0
14034,-100,4,2,7,60,0,0
14460,-100,4,2,7,75,0,1
18661,-100,4,2,7,5,0,1
18715,-100,4,2,7,75,0,1
21268,-100,4,2,7,60,0,0
23821,-100,4,2,7,70,0,0
24672,-100,4,2,7,75,0,0
27651,-100,4,2,7,75,0,0
28077,-100,4,2,7,70,0,0
34885,-100,4,2,7,60,0,0
35204,-100,4,2,7,60,0,0
48502,-100,4,2,7,55,0,0
55311,-100,4,2,7,55,0,0
58715,-100,4,2,7,60,0,0
61906,-100,4,2,7,60,0,0
65098,-100,4,2,7,75,0,0
65523,-100,4,2,7,75,0,1
79140,-100,4,2,7,60,0,0
81694,-100,4,2,7,75,0,0
82545,-100,4,2,7,75,0,0
85949,-100,4,2,7,70,0,0
92757,-100,4,2,7,60,0,0
106374,-100,4,2,7,50,0,0
108077,-100,4,2,7,50,0,0
113183,-100,4,2,7,60,0,0
116587,-100,4,2,7,60,0,0
119991,-100,4,2,7,65,0,0
120311,-100,4,2,7,65,0,0
123396,-100,4,2,7,75,0,1
138715,-100,4,2,7,60,0,0
145523,-100,4,2,7,65,0,0
146162,-100,4,2,7,65,0,0
152332,-100,4,2,7,65,0,0
160843,-100,4,2,7,60,0,0
165949,-100,4,2,7,75,0,0
166906,-100,4,2,7,65,0,0
167651,-100,4,2,7,75,0,1
174460,-100,4,2,7,60,0,0
177013,-100,4,2,7,75,0,0
177864,-100,4,2,7,75,0,0
182970,-100,4,2,7,75,0,0
186800,-100,4,2,7,75,0,0
187225,-100,4,2,7,75,0,0
196587,-100,4,2,7,70,0,0
206800,-100,4,2,7,70,0,0
210204,-100,4,2,7,75,0,0
211693,-100,4,2,7,30,0,0

[Colours]
Combo1 : 197,190,250
Combo2 : 159,221,211
Combo3 : 207,207,207
Combo4 : 164,208,232

[HitObjects]
96,96,843,5,6,1:0:0:0:
448,96,2545,5,6,1:0:0:0:
96,96,4247,6,0,L|115:203,2,96,6|2|2,1:0|2:0|2:0,0:0:0:0:
167,32,5523,1,2,2:0:0:0:
256,68,5949,2,0,P|303:69|350:56,1,96,6|0,1:2|0:0,2:0:0:0:
438,19,6800,2,0,L|462:171,1,144,0|0,3:1|3:0,0:0:0:0:
495,194,7651,5,6,3:1:0:0:
479,288,8077,2,0,B|381:271|405:367|296:345,1,192,0|2,3:0|3:2,0:0:0:0:
226,292,9353,1,4,3:1:0:0:
301,231,9779,2,0,P|339:136|311:51,1,192,0|0,3:0|3:0,0:0:0:0:
223,19,11055,6,0,L|107:37,1,96,4|8,3:2|2:0,0:0:0:0:
36,4,11906,2,0,L|13:199,1,192,8|4,2:0|3:1,0:0:0:0:
13,194,14034,1,12,2:0:0:0:
39,296,14460,6,0,P|92:304|131:333,1,96,6|2,3:1|3:1,2:0:0:0:
212,370,15311,2,0,L|368:341,1,144,2|8,3:1|2:0,2:0:0:0:
396,365,16162,5,2,3:1:0:0:
418,271,16587,1,2,2:1:0:0:
489,206,17013,2,0,L|471:109,2,96,8|0|2,2:0|3:0|3:1,0:0:0:0:
418,271,18289,5,12,2:1:0:0:
330,230,18715,2,0,P|326:175|302:129,1,96,12|4,2:0|3:2,2:0:0:0:
321,43,19566,2,0,P|344:39|368:34,2,48,6|6|6,3:1|3:2|3:2,0:0:0:0:
228,18,20417,1,2,3:2:0:0:
146,69,20843,1,8,0:0:0:0:
52,49,21268,5,4,3:1:0:0:
17,237,22119,1,0,3:0:0:0:
155,370,22970,2,0,L|348:331,1,192,2|4,3:2|3:2,0:0:0:0:
436,353,24247,1,4,3:2:0:0:
507,288,24672,6,0,P|525:184|307:82,1,384,4|12,3:1|2:0,2:0:0:0:
310,80,27651,1,12,2:0:0:0:
249,154,28077,6,0,L|270:287,1,96,6|0,3:2|3:0,2:0:0:0:
212,330,28928,2,0,P|152:340|107:378,1,96,2|0,3:2|3:0,2:0:0:0:
30,334,29779,2,0,P|-9:241|11:141,1,192,2|2,3:2|3:2,0:0:0:0:
85,100,31055,1,0,3:0:0:0:
173,136,31481,6,0,L|268:116,1,96,4|0,3:2|3:0,2:0:0:0:
287,210,32332,2,0,L|193:229,1,96,2|0,3:2|3:0,2:0:0:0:
144,312,33183,2,0,P|219:368|319:354,1,192,4|4,3:1|3:2,2:0:0:0:
484,271,34885,6,0,L|510:74,1,192,6|2,3:2|3:2,2:0:0:0:
437,16,36162,1,0,3:0:0:0:
348,51,36587,2,0,P|348:107|323:154,2,96,2|2|2,3:2|2:0|3:2,0:0:0:0:
400,235,38289,6,0,P|308:235|217:301,1,192,2|2,3:2|3:2,2:0:0:0:
169,365,39566,1,0,3:0:0:0:
73,366,39991,2,0,P|31:322|21:262,1,96,2|2,3:2|3:2,2:0:0:0:
50,197,40843,1,2,3:2:0:0:
9,9,41694,6,0,B|80:1|133:47|133:47|161:35|191:32,1,192,4|2,3:2|3:2,2:0:0:0:
281,4,42970,1,2,3:2:0:0:
311,95,43396,2,0,P|358:83|402:67,2,96,0|0|2,3:0|3:0|3:2,0:0:0:0:
119,85,45098,6,0,B|71:122|71:122|48:179|72:253,1,192,2|2,3:2|3:2,2:0:0:0:
22,333,46374,1,0,3:0:0:0:
104,382,46800,2,0,B|142:305|227:299|227:299|276:355|361:325,1,288,2|4,3:2|2:3,2:0:0:0:
435,368,48502,5,4,3:1:0:0:
472,179,49353,1,0,3:0:0:0:
384,8,50204,2,0,P|337:13|291:44,1,96,2|0,3:2|3:0,0:0:0:0:
321,131,51055,2,0,L|302:237,1,96,0|0,3:0|3:0,0:0:0:0:
331,317,51906,6,0,B|280:295|238:328|247:333|254:337|219:383|149:358,1,192,2|0,3:2|3:0,0:0:0:0:
65,380,53183,1,0,3:0:0:0:
6,303,53608,2,0,L|18:205,1,96,2|0,3:2|3:0,0:0:0:0:
86,140,54460,1,0,3:0:0:0:
62,47,54885,1,8,2:0:0:0:
148,4,55311,6,0,L|348:26,2,192,4|0|2,3:1|3:0|3:2,0:0:0:0:
62,47,57438,1,0,3:0:0:0:
86,140,57864,2,0,P|86:190|67:238,1,96,4|8,3:1|2:0,0:0:0:0:
22,315,58715,6,0,P|92:272|178:278,1,168,4|10,3:2|2:1,2:0:0:0:
271,348,59991,1,0,3:0:0:0:
362,318,60417,2,0,L|390:131,1,168,10|10,2:1|2:1,2:0:0:0:
338,41,61694,1,0,3:0:0:0:
246,12,62119,6,0,L|93:35,1,144,14|0,2:0|3:0,0:0:0:0:
56,40,62970,1,8,2:0:0:0:
13,126,63396,1,8,2:0:0:0:
85,189,63821,1,12,2:0:0:0:
85,189,65098,1,12,2:0:0:0:
176,218,65523,6,0,P|193:168|191:122,1,96,6|2,3:1|2:0,2:0:0:0:
215,32,66374,2,0,P|276:61|362:41,1,144,2|8,3:1|2:0,2:0:0:0:
388,20,67225,1,2,3:1:0:0:
479,49,67651,1,2,3:1:0:0:
509,140,68077,2,0,L|493:248,1,96,2|2,3:1|3:2,2:0:0:0:
429,305,68928,6,0,P|404:264|410:195,2,96,2|2|2,3:2|2:1|3:2,2:0:0:0:
368,379,70204,1,2,3:2:0:0:
274,358,70630,2,0,B|259:295|259:295|284:235|284:235|269:165,1,192,4|0,3:1|3:0,2:0:0:0:
148,25,72332,6,0,P|99:25|46:51,1,96,6|2,3:1|3:1,2:0:0:0:
77,137,73183,2,0,P|126:137|179:111,1,96,2|0,3:1|3:0,2:0:0:0:
264,119,74034,2,0,L|248:213,1,96,2|8,3:1|2:0,0:0:0:0:
172,272,74885,2,0,P|124:278|77:288,2,96,4|8|10,3:2|2:0|2:1,0:0:0:0:
225,351,76162,5,4,3:1:0:0:
318,371,76587,2,0,P|373:370|422:347,1,96,8|0,2:0|3:0,2:0:0:0:
454,265,77438,2,0,L|501:255,2,48,6|4|4,3:1|3:2|3:2,2:0:0:0:
405,182,78289,2,0,L|424:84,1,96,0|8,3:1|2:0,0:0:0:0:
357,17,79140,5,6,3:1:0:0:
319,205,79991,1,0,3:0:0:0:
233,377,80843,2,0,P|152:331|47:348,1,192,2|4,3:1|3:2,2:0:0:0:
17,255,82119,1,4,3:2:0:0:
47,163,82545,6,0,B|116:149|116:149|149:12|149:12|265:-2,1,288,6|4,3:1|3:2,2:0:0:0:
316,33,84247,1,14,2:0:0:0:
316,33,85523,2,0,L|302:130,1,96,12|4,2:0|3:1,2:0:0:0:
388,381,92757,6,0,P|319:322|211:331,1,192,6|2,3:1|3:2,2:0:0:0:
133,361,94034,1,0,3:0:0:0:
37,352,94460,2,0,L|23:250,2,96,2|2|2,3:2|3:2|3:2,0:0:0:0:
208,266,96162,6,0,B|279:251|279:251|329:272|329:272|415:257,1,192,2|2,3:2|3:2,2:0:0:0:
483,293,97438,1,2,2:0:0:0:
510,200,97864,2,0,P|507:152|491:107,1,96,2|2,3:2|2:0,2:0:0:0:
430,32,98715,1,2,3:2:0:0:
267,134,99566,6,0,L|292:327,1,192,6|2,3:2|3:2,2:0:0:0:
212,379,100843,1,0,3:0:0:0:
119,356,101268,2,0,L|94:165,1,192,2|2,3:2|3:2,2:0:0:0:
281,121,102970,6,0,P|344:166|454:141,2,192,2|2|2,3:2|3:2|3:2,2:0:0:0:
223,44,105098,1,0,0:0:0:0:
135,83,105523,2,0,P|81:84|29:105,1,96,2|8,3:2|2:0,2:0:0:0:
16,190,106374,5,4,3:1:0:0:
204,224,107225,1,2,3:2:0:0:
391,266,108077,2,0,L|486:246,2,96,2|0|2,3:2|3:0|3:2,0:0:0:0:
330,340,109353,1,0,3:0:0:0:
238,310,109779,6,0,B|262:256|232:220|232:220|229:218|229:218|198:184|215:123,1,192,2|0,3:2|3:0,0:0:0:0:
270,53,111055,1,0,3:0:0:0:
189,0,111481,2,0,P|140:22|82:22,1,96,2|0,3:2|3:0,2:0:0:0:
38,99,112332,1,8,3:0:0:0:
58,192,112757,1,4,2:3:0:0:
12,276,113183,6,0,P|81:327|181:312,1,192,6|0,3:1|3:0,0:0:0:0:
245,240,114460,1,0,3:2:0:0:
202,154,114885,2,0,P|190:106|200:54,1,96,0|6,3:0|3:2,0:0:0:0:
279,10,115736,1,6,3:2:0:0:
373,26,116162,1,8,2:0:0:0:
467,39,116587,6,0,L|496:207,1,168,6|10,3:1|2:1,0:0:0:0:
439,311,117864,1,0,3:0:0:0:
361,367,118289,2,12,P|287:356|244:258,1,168,12|10,2:0|2:1,2:0:0:0:
276,165,119566,1,0,3:0:0:0:
302,72,119991,6,0,L|473:38,2,144,4|8|8,3:1|2:0|2:0,2:0:0:0:
222,17,121694,2,0,P|178:37|124:36,1,96,6|8,3:1|0:0,0:0:0:0:
38,10,122545,1,2,3:2:0:0:
19,104,122970,1,8,0:0:0:0:
0,198,123396,6,0,B|105:177|69:272|196:244,1,192,6|2,3:1|3:1,0:0:0:0:
268,274,124672,1,0,3:0:0:0:
297,182,125098,2,0,P|296:128|262:75,1,96,2|0,3:1|3:0,2:0:0:0:
324,7,125949,1,2,3:1:0:0:
410,48,126374,2,0,L|464:36,2,48,2|10|0,3:1|2:1|3:0,0:0:0:0:
451,134,127225,6,0,L|357:154,2,96,2|2|0,2:1|3:1|3:0,0:0:0:0:
506,212,128502,2,0,P|495:258|484:306,1,96,6|2,3:1|3:1,0:0:0:0:
413,370,129353,1,6,3:1:0:0:
324,331,129779,1,8,2:0:0:0:
303,237,130204,6,0,L|285:138,1,96,6|2,3:1|3:1,2:0:0:0:
311,65,130949,2,0,P|265:28|204:28,1,120,2|2,2:1|3:1,2:0:0:0:
112,13,131906,6,0,L|103:100,1,72,2|2,3:1|3:1,2:0:0:0:
43,158,132651,2,2,P|59:189|62:237,1,72,2|8,2:1|2:0,2:1:0:0:
41,268,133183,1,2,2:0:0:0:
78,356,133608,6,0,B|144:341|144:341|197:360|197:360|271:345,1,192,2|0,3:1|3:0,0:0:0:0:
291,254,134885,1,2,3:1:0:0:
226,183,135311,6,0,B|202:141|202:141|214:93,1,96,14|0,2:0|3:0,0:0:0:0:
199,48,135949,2,0,P|268:48|336:12,1,144,12|8,0:0|0:0,0:0:0:0:
428,2,137013,1,12,2:0:0:0:
480,82,137438,1,0,3:0:0:0:
417,154,137864,2,0,P|401:247|441:333,1,192,6|6,3:1|3:1,0:0:0:0:
336,63,143821,6,0,L|491:32,2,144,4|8|8,3:1|2:0|2:0,2:0:0:0:
252,16,145523,6,0,P|288:102|282:209,1,192,6|0,3:1|3:0,0:0:0:0:
97,240,147225,2,0,P|61:154|67:47,1,192,2|0,3:2|3:0,0:0:0:0:
150,13,148502,1,0,3:0:0:0:
238,50,148928,6,0,L|191:352,1,288,4|8,3:1|2:0,0:0:0:0:
287,354,150630,2,0,L|331:69,1,288,14|8,2:0|2:3,2:0:0:0:
416,24,152332,6,0,B|481:61|481:61|507:130|448:186,1,192,6|6,3:1|3:2,2:0:0:0:
412,252,153608,1,0,3:0:0:0:
447,341,154034,2,0,P|365:291|265:309,1,192,6|6,3:1|3:1,2:0:0:0:
137,169,155736,6,0,L|161:13,2,144,6|8|8,3:1|2:0|2:0,2:0:0:0:
83,248,157438,2,0,B|132:258|132:258|156:357|156:357|226:369,1,192,8|8,2:0|2:0,0:0:0:0:
290,379,158715,1,0,0:0:0:0:
384,361,159140,2,0,L|481:345,2,96,8|8|12,2:0|2:0|2:0,0:0:0:0:
195,363,160843,6,0,P|134:291|135:171,1,192,4|4,3:1|3:1,0:0:0:0:
306,129,162545,2,0,P|367:201|366:321,1,192,4|4,3:1|3:1,2:0:0:0:
315,370,163821,1,4,3:2:0:0:
228,328,164247,6,0,L|243:227,2,96,4|8|4,3:2|2:3|3:1,0:0:0:0:
40,370,165949,2,0,P|20:327|21:259,1,96,4|4,3:1|3:2,2:0:0:0:
48,189,166800,1,0,3:0:0:0:
17,98,167225,1,8,2:0:0:0:
65,15,167651,6,0,B|165:-4|139:89|252:63,1,192,6|2,3:1|3:1,2:0:0:0:
327,22,168928,1,0,3:0:0:0:
413,63,169353,2,0,L|383:258,1,192,2|10,3:1|2:0,2:0:0:0:
417,342,170630,1,0,3:0:0:0:
330,382,171055,1,2,3:1:0:0:
244,337,171481,6,0,P|195:337|145:359,2,96,6|6|0,3:1|3:1|3:0,2:0:0:0:
327,290,172757,2,0,P|349:298|372:302,2,48,6|4|4,3:1|3:2|3:2,0:0:0:0:
275,209,173608,1,6,3:2:0:0:
303,117,174034,1,8,2:0:0:0:
232,51,174460,5,6,3:1:0:0:
44,92,175311,1,2,3:2:0:0:
56,285,176162,2,0,B|107:272|107:272|175:327|175:327|245:308,1,192,2|4,3:2|3:2,0:0:0:0:
305,365,177438,1,4,3:2:0:0:
398,343,177864,6,0,P|478:236|444:65,1,288,6|4,3:1|3:2,2:0:0:0:
384,30,179566,1,10,2:1:0:0:
384,30,180843,6,0,L|259:53,1,96,8|4,2:3|3:2,2:0:0:0:
289,47,182970,6,0,L|274:153,1,96,6|2,3:1|3:1,2:0:0:0:
321,226,183821,1,2,3:1:0:0:
307,321,184247,1,0,3:0:0:0:
228,380,184672,2,0,B|123:379|168:301|59:301,1,192,2|2,3:1|3:1,2:0:0:0:
37,208,185949,1,0,3:0:0:0:
3,118,186374,6,0,P|5:60|35:16,2,96,2|2|2,3:1|3:1|3:2,2:0:0:0:
94,87,187651,1,0,3:0:0:0:
165,150,188077,2,0,B|260:167|260:167|311:247|311:247|416:268,1,288,6|8,3:1|2:0,2:0:0:0:
493,226,189779,6,0,P|501:133|450:50,1,192,6|0,3:1|3:0,0:0:0:0:
365,11,191055,1,0,3:0:0:0:
276,48,191481,2,0,L|250:243,1,192,2|10,3:1|2:1,0:0:0:0:
301,319,192757,1,0,3:0:0:0:
226,380,193183,6,0,P|149:329|51:348,1,192,6|2,3:1|3:2,2:0:0:0:
27,253,194460,1,8,0:0:0:0:
4,160,194885,2,0,P|40:129|89:128,1,96,6|4,3:2|3:1,2:0:0:0:
181,112,195736,1,6,3:2:0:0:
251,179,196162,1,8,2:0:0:0:
337,138,196587,6,0,L|369:-6,2,144,6|8|0,3:1|0:0|3:0,2:0:0:0:
251,179,198289,2,0,P|251:276|318:354,1,192,2|2,3:1|3:1,2:0:0:0:
400,373,199566,1,0,3:0:0:0:
483,326,199991,6,0,L|504:164,1,144,6|8,3:1|2:0,2:0:0:0:
506,135,200843,2,0,P|466:156|395:147,1,96,2|8,3:1|0:0,2:0:0:0:
331,109,201694,6,0,P|327:53|298:6,2,96,6|0|6,3:1|3:0|3:1,2:0:0:0:
304,201,202970,1,8,2:0:0:0:
348,286,203396,6,0,B|295:298|295:298|248:364|248:364|179:383,1,192,6|2,3:1|2:0,2:0:0:0:
113,325,204672,1,0,3:0:0:0:
17,337,205098,2,0,P|-1:288|10:223,1,96,6|0,3:1|3:0,2:0:0:0:
56,165,205949,1,2,3:1:0:0:
145,200,206374,1,8,2:0:0:0:
227,149,206800,6,0,L|207:1,2,144,6|12|0,3:1|2:0|3:0,2:0:0:0:
238,246,208502,2,0,P|332:257|402:343,1,192,14|4,2:1|3:2,2:0:0:0:
483,364,209779,1,0,3:0:0:0:
256,192,210204,12,2,211694,2:0:0:0:
