osu file format v14

[General]
AudioFilename: audio.mp3
AudioLeadIn: 0
PreviewTime: 65523
Countdown: 0
SampleSet: Soft
StackLeniency: 0.7
Mode: 0
LetterboxInBreaks: 0
WidescreenStoryboard: 1

[Editor]
Bookmarks: 14460,26374,34885,48502,58715,65523,72332,79140,85949,92757,106374,123396,138715,145523,148928,152332,160843,167651,182970,196587,203396,210204,211906
DistanceSpacing: 1
BeatDivisor: 2
GridSize: 8
TimelineZoom: 1.8

[Metadata]
Title:Hey Darling!
TitleUnicode:Hey Darling!
Artist:Matsushita
ArtistUnicode:松下
Creator:Shikibe Mayu
Version:Advanced
Source:ワガママハイスペックOC
Tags:Shizuku- Kazato Asa Wagamama High Spec Highspec wagahigh OC VOCAL ALBUM MDCD-0006 Shota Horie 堀江 晶太 madosoft まどそふと eroge visual novel galgame full version opening op alternator narumi toa 鳴海 兎亜 overclock over clock rock video game japanese
BeatmapID:3673061
BeatmapSetID:1525401

[Difficulty]
HPDrainRate:4.5
CircleSize:3.3
OverallDifficulty:5.5
ApproachRate:6.5
SliderMultiplier:0.96
SliderTickRate:1

[Events]
//Background and Video events
0,0,"0787.jpg",0,0
//Break Periods
2,86148,91782
//Storyboard Layer 0 (Background)
//Storyboard Layer 1 (Fail)
//Storyboard Layer 2 (Pass)
//Storyboard Layer 3 (Foreground)
//Storyboard Layer 4 (Overlay)
//Storyboard Sound Samples

[TimingPoints]
843,212.765957446809,4,2,7,60,1,0
4247,-125,4,2,7,60,0,0
7651,-111.111111111111,4,2,7,60,0,0
12970,-100,4,2,7,40,0,0
14034,-100,4,2,7,60,0,0
14460,-100,4,2,7,75,0,1
18661,-100,4,2,7,5,0,1
18715,-100,4,2,7,75,0,1
21268,-111.111111111111,4,2,7,60,0,0
23821,-111.111111111111,4,2,7,70,0,0
24672,-100,4,2,7,75,0,0
27651,-100,4,2,7,75,0,0
28077,-100,4,2,7,70,0,0
34885,-100,4,2,7,60,0,0
35204,-100,4,2,7,60,0,0
48502,-111.111111111111,4,2,7,55,0,0
55311,-111.111111111111,4,2,7,55,0,0
58715,-100,4,2,7,60,0,0
61906,-100,4,2,7,60,0,0
65098,-100,4,2,7,75,0,0
65523,-100,4,2,7,75,0,1
79140,-111.111111111111,4,2,7,60,0,0
81694,-111.111111111111,4,2,7,75,0,0
82545,-100,4,2,7,75,0,0
85949,-100,4,2,7,70,0,0
92757,-100,4,2,7,60,0,0
106374,-111.111111111111,4,2,7,50,0,0
108077,-111.111111111111,4,2,7,50,0,0
113183,-111.111111111111,4,2,7,60,0,0
116587,-100,4,2,7,60,0,0
119991,-100,4,2,7,65,0,0
120311,-100,4,2,7,65,0,0
123396,-100,4,2,7,75,0,1
138715,-111.111111111111,4,2,7,60,0,0
145523,-111.111111111111,4,2,7,65,0,0
146162,-111.111111111111,4,2,7,65,0,0
148928,-105.263157894737,4,2,7,65,0,0
152332,-100,4,2,7,65,0,0
160843,-125,4,2,7,60,0,0
165949,-111.111111111111,4,2,7,75,0,0
166906,-111.111111111111,4,2,7,65,0,0
167651,-100,4,2,7,75,0,1
174460,-111.111111111111,4,2,7,60,0,0
177013,-111.111111111111,4,2,7,75,0,0
177864,-100,4,2,7,75,0,0
182970,-100,4,2,7,75,0,0
186800,-100,4,2,7,75,0,0
187225,-100,4,2,7,75,0,0
196587,-100,4,2,7,70,0,0
206800,-100,4,2,7,70,0,0
210204,-100,4,2,7,75,0,0
211693,-100,4,2,7,30,0,0

[Colours]
Combo1 : 197,190,250
Combo2 : 159,221,211
Combo3 : 207,207,207
Combo4 : 164,208,232

[HitObjects]
408,40,843,5,6,1:0:0:0:
256,360,2545,5,6,1:0:0:0:
104,40,4247,6,0,B|21:83|48:171,2,153.6,6|2|2,1:0|2:0|2:0,0:0:0:0:
181,73,5311,1,0,0:0:0:0:
254,31,5523,2,0,P|292:22|336:7,1,76.8,2|0,2:0|3:0,0:0:0:0:
405,44,5949,6,0,P|395:80|386:119,1,76.8,6|0,1:2|3:0,2:0:0:0:
410,153,6268,2,0,P|469:153|514:189,2,115.2,2|4|8,1:0|1:2|2:0,2:0:0:0:
317,239,7225,2,0,P|281:228|243:222,1,76.8,8|0,2:0|3:0,0:0:0:0:
175,290,7651,6,0,P|134:299|91:315,1,86.3999973632813,6|0,3:1|0:0,0:0:0:0:
20,266,8077,1,0,3:0:0:0:
20,266,8183,2,0,P|31:225|38:178,1,86.3999973632813,2|2,2:0|2:0,2:0:0:0:
16,97,8608,1,0,0:0:0:0:
16,97,8715,1,2,2:0:0:0:
57,21,8928,2,0,P|96:32|142:37,1,86.3999973632813,2|2,3:2|2:0,0:0:0:0:
223,9,9353,6,0,P|304:48|309:124,1,172.799994726563,4|0,3:1|3:0,0:0:0:0:
287,160,9885,1,2,2:0:0:0:
212,204,10098,2,0,P|225:249|235:289,1,86.3999973632813,2|2,2:0|2:0,2:0:0:0:
210,323,10417,2,0,P|187:314|166:309,2,43.1999986816407,2|0|0,2:0|2:0|3:0,0:0:0:0:
278,375,10843,1,0,0:0:0:0:
360,350,11055,6,0,P|420:359|493:279,1,172.799994726563,4|8,3:2|2:0,0:0:0:0:
470,246,11587,1,8,2:0:0:0:
483,160,11800,2,0,P|474:117|462:75,1,86.3999973632813,8|8,2:0|2:0,0:0:0:0:
468,33,12119,6,0,L|426:24,1,43.1999986816407,8|8,2:0|2:0,0:0:0:0:
386,4,12332,2,0,P|315:48|224:33,1,172.799994726563,8|4,2:0|3:1,0:0:0:0:
229,36,14034,2,0,L|211:130,1,96,12|0,2:0|2:0,2:0:0:0:
286,190,14460,6,0,B|330:171|330:171|377:180,2,96,6|10|2,3:1|2:0|3:1,2:0:0:0:
257,281,15098,1,8,2:0:0:0:
220,370,15311,2,0,L|120:350,1,96,2|8,3:1|2:0,2:0:0:0:
82,372,15630,2,0,P|17:347|0:281,1,144,2|8,2:1|2:0,0:0:0:0:
35,190,16162,6,0,P|85:179|129:164,1,96,2|8,3:1|2:0,2:0:0:0:
214,123,16587,1,2,2:1:0:0:
294,174,16800,1,8,2:0:0:0:
383,139,17013,2,0,P|394:71|414:-6,2,144,8|8|8,2:0|2:0|2:0,0:0:0:0:
294,174,17864,1,2,3:1:0:0:
376,346,18289,6,0,P|332:356|282:369,1,96,12|0,2:1|0:0,2:1:0:0:
197,323,18715,2,0,P|150:335|103:345,1,96,12|0,2:0|3:0,2:0:0:0:
60,366,19034,2,0,P|22:328|16:280,1,96,12|0,2:0|3:0,2:0:0:0:
30,242,19353,1,12,2:0:0:0:
0,150,19566,6,0,P|46:139|93:123,1,96,4|4,3:2|3:2,0:0:0:0:
181,88,19991,1,4,3:2:0:0:
259,143,20204,1,4,3:2:0:0:
345,101,20417,2,0,P|423:81|488:113,1,144,8|8,2:0|2:0,0:0:0:0:
510,141,20843,2,0,P|498:189|492:239,1,96,8|8,2:0|2:0,0:0:0:0:
505,320,21268,6,0,B|455:331|455:331|432:352|432:352|371:366,2,129.599996044922,4|2|2,3:1|2:0|2:0,0:0:0:0:
492,235,22119,2,0,P|425:235|362:187,1,129.599996044922,0|2,3:0|2:0,0:0:0:0:
348,167,22545,2,0,P|358:124|368:79,1,86.3999973632813,8|2,2:0|2:0,0:0:0:0:
287,48,22970,6,0,P|272:111|258:174,1,129.599996044922,2|2,3:2|2:0,0:0:0:0:
245,216,23396,1,8,2:0:0:0:
289,301,23608,1,2,2:0:0:0:
289,301,23715,1,2,2:0:0:0:
289,301,23821,2,0,P|243:325|188:329,1,86.3999973632813,4|4,3:2|3:2,2:0:0:0:
140,383,24247,2,0,P|96:355|65:309,1,86.3999973632813,4|8,3:2|2:0,0:0:0:0:
12,255,24672,6,0,P|21:207|31:159,1,96,4|8,3:1|2:1,2:0:0:0:
11,66,25098,1,0,3:0:0:0:
11,66,25204,2,0,P|69:67|122:47,1,96,8|0,2:0|3:0,2:0:0:0:
141,24,25523,1,8,2:0:0:0:
220,87,25736,1,8,2:0:0:0:
220,87,25843,2,0,L|201:187,1,96,8|8,2:0|2:0,0:0:0:0:
191,228,26162,1,8,2:0:0:0:
233,313,26374,1,12,2:0:0:0:
233,313,27651,6,0,P|277:302|326:293,1,96,12|0,2:0|0:0,2:0:0:0:
417,326,28077,6,0,P|484:310|497:257,1,96,6|8,3:2|2:0,2:0:0:0:
482,243,28396,2,0,P|492:190|512:102,1,144,2|8,3:2|2:0,2:0:0:0:
472,14,28928,2,0,P|436:41|376:47,1,96,2|8,3:2|2:0,2:0:0:0:
346,31,29247,1,0,3:0:0:0:
346,31,29353,2,0,L|325:125,1,96,2|8,2:0|2:0,0:0:0:0:
249,185,29779,6,0,L|270:279,1,96,2|8,3:2|2:0,2:0:0:0:
247,321,30098,2,0,B|201:316|201:316|160:335|160:335|94:327,1,144,0|8,3:0|2:0,0:0:0:0:
35,265,30630,2,0,P|26:213|15:165,1,96,2|8,3:2|2:0,0:0:0:0:
5,123,30949,2,0,P|54:125|105:100,1,96,2|0,2:0|3:0,0:0:0:0:
128,70,31268,1,8,2:0:0:0:
215,30,31481,6,0,P|229:79|242:130,1,96,4|8,3:2|2:0,2:0:0:0:
269,160,31800,2,0,P|201:172|164:235,1,144,2|8,3:2|2:0,2:0:0:0:
187,325,32332,2,0,P|240:333|287:346,1,96,2|8,3:2|2:0,2:0:0:0:
324,323,32651,1,0,3:0:0:0:
324,323,32757,2,0,P|370:335|417:341,1,96,2|8,0:0|2:0,0:0:0:0:
485,273,33183,6,0,P|505:222|497:181,1,96,4|8,3:1|2:0,2:0:0:0:
472,141,33502,2,0,P|407:182|327:172,1,144,2|8,2:0|2:0,0:0:0:0:
255,137,34034,1,4,3:2:0:0:
198,214,34247,2,0,L|211:263,2,48,8|8|8,2:0|2:0|2:0,0:0:0:0:
110,173,34672,5,8,2:0:0:0:
110,173,34779,1,8,2:0:0:0:
110,173,34885,2,0,B|73:209|73:209|61:244|59:306,2,144,6|2|8,3:2|2:0|2:0,0:0:0:0:
147,84,35736,2,0,B|105:78|105:78|61:54|35:0,2,144,2|2|8,3:2|2:0|2:0,0:0:0:0:
234,44,36587,6,0,P|249:89|259:136,1,96,2|8,3:2|2:0,0:0:0:0:
202,214,37013,1,2,2:0:0:0:
249,297,37225,1,8,2:0:0:0:
209,384,37438,2,0,P|286:330|379:343,1,192,2|0,3:2|0:0,2:0:0:0:
467,304,38077,1,8,2:0:0:0:
438,212,38289,6,0,L|459:107,1,96,2|8,3:2|2:0,2:0:0:0:
485,78,38608,2,0,P|416:78|355:36,1,144,2|8,2:0|2:0,2:0:0:0:
263,11,39140,2,0,P|248:60|261:117,1,96,2|8,3:2|2:0,2:0:0:0:
284,142,39460,2,0,L|265:250,1,96,2|0,2:0|3:0,0:0:0:0:
260,284,39779,1,8,2:0:0:0:
188,347,39991,6,0,P|142:366|95:363,1,96,2|8,3:2|2:0,2:0:0:0:
52,342,40311,1,2,3:2:0:0:
52,342,40417,2,0,L|0:355,2,48,0|0|8,0:0|3:0|0:0,0:0:0:0:
84,249,40843,6,0,B|137:253|183:270|183:270|267:235,1,192,2|0,3:2|3:0,0:0:0:0:
344,292,41481,1,10,2:0:0:0:
432,253,41694,6,0,P|442:205|457:156,1,96,4|8,3:2|2:0,2:0:0:0:
494,130,42013,2,0,P|506:62|456:4,1,144,2|8,3:2|2:0,0:0:0:0:
364,0,42545,2,0,P|314:14|266:25,1,96,2|8,3:2|2:0,0:0:0:0:
176,4,42970,1,2,3:2:0:0:
142,94,43183,1,8,2:0:0:0:
228,136,43396,6,0,P|278:122|326:111,1,96,2|8,3:2|2:0,2:0:0:0:
361,138,43715,2,0,P|346:209|333:279,1,144,2|8,3:2|2:0,2:0:0:0:
299,369,44247,2,0,B|257:323|191:329|191:329|172:361|130:371,1,192,2|0,3:2|3:0,0:0:0:0:
40,346,44885,1,8,2:0:0:0:
24,251,45098,6,0,P|31:200|40:156,1,96,2|8,3:2|2:0,2:0:0:0:
20,112,45417,2,0,P|79:106|126:74,1,96,2|0,3:2|3:0,0:0:0:0:
140,50,45736,2,0,L|130:1,2,48,8|2|2,2:0|2:0|3:2,0:0:0:0:
209,116,46162,1,8,2:0:0:0:
209,116,46268,2,0,L|186:210,1,96,2|0,3:2|3:0,0:0:0:0:
150,242,46587,1,8,2:0:0:0:
198,324,46800,6,0,P|125:335|55:273,2,144,2|2|8,3:2|3:2|2:0,2:0:0:0:
281,371,47651,2,0,P|329:355|374:344,1,96,8|8,2:3|2:3,0:0:0:0:
416,364,47970,1,8,2:3:0:0:
416,364,48077,1,4,2:3:0:0:
485,298,48289,1,4,2:3:0:0:
456,202,48502,6,0,B|411:209|374:177|389:163|355:135|282:159,1,172.799994726563,4|0,3:1|3:0,0:0:0:0:
229,102,49140,1,2,0:0:0:0:
144,119,49353,2,0,P|131:79|117:32,2,86.3999973632813,0|2|0,3:2|0:0|3:0,0:0:0:0:
275,238,50204,6,0,B|230:231|193:263|208:277|174:305|101:281,1,172.799994726563,2|0,3:2|3:0,0:0:0:0:
24,273,50843,1,2,0:0:0:0:
24,273,51055,2,0,P|38:313|51:362,2,86.3999973632813,0|2|0,3:0|0:0|3:0,0:0:0:0:
28,186,51694,1,2,0:0:0:0:
4,101,51906,6,0,P|47:99|86:82,1,86.3999973632813,0|2,3:0|2:0,2:0:0:0:
110,45,52225,1,2,2:0:0:0:
189,11,52438,1,2,2:0:0:0:
259,60,52651,6,0,P|241:122|229:185,1,129.599996044922,2|2,2:0|2:0,0:0:0:0:
315,184,53183,2,0,P|326:142|334:100,1,86.3999973632813,0|2,3:0|2:0,0:0:0:0:
403,47,53608,2,0,P|470:41|516:89,2,129.599996044922,0|2|2,3:0|2:0|2:0,0:0:0:0:
440,215,54672,5,0,3:0:0:0:
388,284,54885,1,8,2:0:0:0:
305,257,55098,1,8,2:0:0:0:
244,318,55311,6,0,P|163:334|69:362,1,172.799994726563,4|0,3:1|3:0,0:0:0:0:
34,191,56162,2,0,P|115:175|209:147,1,172.799994726563,0|0,3:0|3:0,0:0:0:0:
281,182,56800,6,0,P|300:86|324:8,1,172.799994726563,2|2,2:0|0:0,0:0:0:0:
407,28,57438,2,0,P|388:124|364:202,2,172.799994726563,0|4|8,3:0|3:1|2:0,0:0:0:0:
215,11,58715,6,0,P|168:27|121:36,1,96,4|0,3:2|3:0,0:0:0:0:
76,21,59034,1,10,2:0:0:0:
27,103,59247,1,10,2:1:0:0:
88,177,59460,2,0,P|135:161|182:152,1,96,10|0,2:1|3:1,0:0:0:0:
214,185,59779,2,0,P|206:231|206:280,2,96,8|0|0,2:0|3:0|3:0,0:0:0:0:
262,102,60417,6,0,P|308:89|354:73,1,96,10|0,2:1|3:0,0:0:0:0:
390,41,60736,1,8,2:0:0:0:
484,58,60949,1,10,2:0:0:0:
511,150,61162,2,0,P|497:197|488:244,1,96,10|0,2:1|3:1,0:0:0:0:
499,289,61481,1,8,2:0:0:0:
433,359,61694,1,0,3:0:0:0:
338,342,61906,1,0,3:0:0:0:
299,253,62119,6,0,P|310:203|318:159,1,96,14|0,2:0|3:0,0:0:0:0:
361,138,62438,2,0,P|377:83|365:39,1,96,8|8,2:0|2:0,0:0:0:0:
282,2,62864,2,0,P|221:18|142:33,1,144,0|8,3:0|2:0,0:0:0:0:
48,9,63396,1,8,2:0:0:0:
18,99,63608,1,8,2:0:0:0:
108,130,63821,1,12,2:0:0:0:
108,130,65098,2,0,P|123:176|133:224,1,96,12|0,2:0|2:0,2:0:0:0:
98,312,65523,6,0,B|56:295|56:295|-4:311,2,96,6|10|2,3:1|2:0|2:0,2:0:0:0:
181,361,66162,1,8,2:1:0:0:
268,323,66374,2,0,P|320:331|371:342,1,96,2|8,3:1|2:0,2:0:0:0:
401,370,66694,2,0,P|451:369|491:338,1,96,2|2,3:2|3:2,0:0:0:0:
475,247,67119,5,2,2:0:0:0:
475,247,67225,2,0,P|485:200|503:148,1,96,2|8,3:1|2:1,2:0:0:0:
460,66,67651,1,2,3:1:0:0:
365,84,67864,1,8,2:0:0:0:
365,84,67970,1,0,2:0:0:0:
365,84,68077,2,0,P|318:103|270:111,1,96,2|10,3:1|2:1,2:0:0:0:
319,194,68502,1,2,3:2:0:0:
279,281,68715,1,10,2:1:0:0:
185,301,68928,6,0,B|136:284|97:317|99:322|102:329|55:360|3:342,2,192,2|2|2,3:2|2:1|3:2,2:0:0:0:
265,352,69991,1,8,2:0:0:0:
265,352,70098,2,0,P|314:338|360:329,1,96,0|0,3:0|3:0,0:0:0:0:
403,346,70417,1,8,2:0:0:0:
470,278,70630,6,0,P|480:227|492:184,1,96,4|8,3:1|2:0,2:0:0:0:
475,139,70949,1,4,3:2:0:0:
475,139,71055,2,0,P|487:92|496:45,1,96,2|12,0:0|2:0,0:0:0:0:
406,11,71481,2,0,B|347:47|347:47|254:30,1,144,0|8,3:0|2:0,0:0:0:0:
226,22,71906,2,0,L|252:136,1,96,8|8,2:0|2:0,0:0:0:0:
326,171,72332,6,0,B|374:162|374:162|424:190,2,96,6|8|2,3:1|2:0|3:1,2:0:0:0:
256,237,72970,1,8,2:0:0:0:
235,330,73183,2,0,P|189:341|143:355,1,96,2|8,3:1|2:0,2:0:0:0:
96,370,73502,2,0,P|43:358|15:316,1,96,2|2,3:2|3:2,0:0:0:0:
43,233,73928,5,2,2:0:0:0:
43,233,74034,2,0,P|30:183|16:132,2,96,2|8|2,3:1|2:0|2:1,2:0:0:0:
145,260,74672,1,8,2:0:0:0:
145,260,74779,1,8,0:0:0:0:
145,260,74885,1,8,2:0:0:0:
274,197,75204,1,8,2:0:0:0:
360,320,75523,1,8,2:0:0:0:
450,288,75736,1,10,2:1:0:0:
450,288,76162,6,0,P|457:239|469:189,1,96,4|0,3:1|0:0,2:0:0:0:
507,106,76587,2,0,P|506:57|467:17,1,96,8|0,2:0|3:0,0:0:0:0:
432,3,76906,2,0,P|357:29|294:45,1,144,12|8,2:0|2:0,0:0:0:0:
202,17,77438,5,6,3:1:0:0:
131,81,77651,1,4,3:2:0:0:
163,171,77864,1,4,3:2:0:0:
255,196,78077,1,4,3:2:0:0:
328,134,78289,6,0,B|362:173|362:173|342:269,1,144,0|8,3:1|2:0,0:0:0:0:
371,302,78715,2,0,L|274:324,1,96,8|8,2:0|2:0,0:0:0:0:
210,378,79140,6,0,P|154:349|75:359,2,129.599996044922,6|2|2,3:1|2:0|2:0,0:0:0:0:
277,323,79991,2,0,L|303:197,1,129.599996044922,0|2,3:0|2:0,0:0:0:0:
268,170,80417,2,0,B|230:191|230:191|168:176,1,86.3999973632813,8|2,2:0|2:0,0:0:0:0:
109,216,80843,6,0,P|20:205|1:184,1,86.3999973632813,2|2,3:1|2:0,2:0:0:0:
7,170,81162,1,2,2:0:0:0:
7,170,81268,2,0,L|28:81,1,86.3999973632813,8|2,2:0|2:0,0:0:0:0:
97,35,81694,5,4,3:2:0:0:
179,60,81906,1,4,3:2:0:0:
250,11,82119,1,4,3:2:0:0:
331,40,82332,1,8,2:0:0:0:
420,26,82545,6,0,B|469:10|469:10|513:19,2,96,6|8|2,3:1|2:0|3:2,2:0:0:0:
386,115,83183,1,8,0:0:0:0:
458,178,83396,2,0,P|478:218|478:269,1,96,8|8,2:0|3:2,2:0:0:0:
463,314,83715,2,0,B|407:326|407:326|391:340|391:340|326:354,1,144,4|4,2:0|3:2,0:0:0:0:
233,374,84247,1,14,2:0:0:0:
32,208,85311,5,0,3:0:0:0:
32,208,85523,2,0,L|230:176,1,192,12|4,2:0|3:1,2:0:0:0:
470,357,92757,6,0,B|488:313|488:313|477:264,1,96,6|8,3:1|2:0,0:0:0:0:
462,219,93077,2,0,P|407:254|319:250,1,144,2|8,3:2|2:0,0:0:0:0:
242,214,93608,2,0,L|216:359,2,144,2|2|8,3:2|3:2|2:0,2:0:0:0:
198,127,94460,6,0,P|150:142|98:156,1,96,2|8,3:2|2:0,2:0:0:0:
61,135,94779,1,0,3:0:0:0:
61,135,94885,2,0,L|70:88,2,48,2|0|8,0:2|3:0|2:0,0:0:0:0:
7,215,95311,2,0,P|85:267|189:233,1,192,2|0,3:2|3:0,2:0:0:0:
261,288,95949,1,8,2:0:0:0:
337,229,96162,6,0,P|386:215|431:205,1,96,2|8,3:2|2:0,2:0:0:0:
476,217,96481,2,0,P|508:163|487:73,1,144,2|10,3:2|2:0,0:0:0:0:
431,14,97013,2,0,P|382:28|337:38,1,96,2|8,3:2|2:0,0:0:0:0:
293,18,97332,1,0,3:0:0:0:
293,18,97438,2,0,P|279:65|268:112,1,96,2|8,2:0|2:0,0:0:0:0:
335,180,97864,6,0,B|379:161|379:161|433:168,2,96,2|8|2,3:2|2:0|2:0,2:0:0:0:
245,215,98502,1,8,2:0:0:0:
175,149,98715,2,0,P|83:159|20:237,1,192,2|0,3:2|3:0,0:0:0:0:
0,325,99353,1,8,2:0:0:0:
81,376,99566,6,0,P|128:353|173:353,1,96,6|8,3:2|2:0,2:0:0:0:
215,371,99885,2,0,B|223:312|223:312|233:296|233:296|242:219,1,144,2|8,3:2|2:0,0:0:0:0:
161,174,100417,2,0,P|135:135|131:88,1,96,2|8,3:2|2:0,0:0:0:0:
181,5,100843,1,2,3:2:0:0:
272,33,101055,1,8,2:0:0:0:
361,67,101268,6,0,L|457:47,1,96,2|8,3:2|2:0,2:0:0:0:
495,73,101587,2,0,B|462:161|462:161|505:242,1,144,2|8,2:0|2:0,2:0:0:0:
504,299,102119,2,0,B|447:288|409:327|432:338|400:380|332:368,1,192,2|0,3:2|3:0,0:0:0:0:
247,336,102757,1,10,2:0:0:0:
157,371,102970,6,0,P|147:317|132:276,1,96,2|8,3:2|2:0,0:0:0:0:
98,244,103289,2,0,P|153:201|224:214,1,144,2|8,2:0|2:0,0:0:0:0:
301,268,103821,2,0,P|352:257|399:246,1,96,2|8,3:2|2:0,0:0:0:0:
438,267,104140,2,0,P|447:216|458:169,1,96,2|0,2:0|3:0,2:0:0:0:
494,141,104460,1,8,2:0:0:0:
416,85,104672,6,0,P|345:101|274:113,2,144,2|2|8,3:2|3:2|2:0,2:0:0:0:
366,2,105523,2,0,P|319:12|272:20,1,96,2|8,3:2|2:0,2:0:0:0:
225,7,105843,1,8,2:0:0:0:
225,7,105949,2,0,P|216:54|205:102,1,96,8|0,2:0|3:0,0:0:0:0:
140,157,106374,6,0,P|180:213|294:192,1,172.799994726563,4|0,3:1|3:0,0:0:0:0:
433,136,107225,2,0,P|415:227|400:315,1,172.799994726563,0|0,3:0|3:0,0:0:0:0:
342,369,107864,1,2,0:0:0:0:
259,341,108077,6,0,P|175:348|137:377,2,129.599996044922,2|0|2,3:2|0:0|2:0,0:0:0:0:
321,281,108928,2,0,B|324:185|256:208|288:91,1,172.799994726563,0|0,3:0|3:0,0:0:0:0:
351,64,109566,1,2,2:0:0:0:
277,18,109779,6,0,P|239:29|187:41,1,86.3999973632813,2|0,3:2|0:0,0:0:0:0:
159,12,110098,1,2,0:0:0:0:
72,12,110311,1,2,0:0:0:0:
9,71,110523,2,0,P|-14:131|3:202,1,129.599996044922,2|2,0:0|2:0,0:0:0:0:
68,243,111055,2,0,P|111:232|152:221,1,86.3999973632813,0|2,3:0|2:0,0:0:0:0:
235,242,111481,6,0,P|242:197|253:155,1,86.3999973632813,0|2,3:0|2:0,0:0:0:0:
269,117,111800,2,0,P|202:116|151:72,1,129.599996044922,2|2,2:0|2:0,0:0:0:0:
196,2,112332,2,0,P|238:2|281:27,1,86.3999973632813,0|8,3:0|2:3,0:0:0:0:
360,3,112757,1,4,2:3:0:0:
429,52,112970,5,4,2:3:0:0:
438,61,113077,1,4,2:3:0:0:
438,61,113183,2,0,P|421:143|406:235,1,172.799994726563,6|0,3:1|3:0,0:0:0:0:
234,216,114034,2,0,P|247:130|265:46,1,172.799994726563,0|0,3:0|3:2,0:0:0:0:
181,24,114672,6,0,P|99:38|7:56,1,172.799994726563,2|0,2:0|0:0,0:0:0:0:
31,139,115311,2,0,P|113:125|205:107,2,172.799994726563,6|6|8,3:2|3:2|2:0,2:0:0:0:
0,328,116587,6,0,P|49:325|93:350,1,96,6|0,3:1|3:0,0:0:0:0:
128,374,116906,1,8,2:0:0:0:
210,325,117119,1,8,2:0:0:0:
304,343,117332,2,0,B|339:369|390:360|390:360|411:339|446:335,1,144,10|8,2:1|2:0,0:0:0:0:
502,265,117864,1,8,2:0:0:0:
465,176,118077,1,0,3:0:0:0:
371,198,118289,6,0,P|329:216|279:216,1,96,12|0,2:0|3:0,0:0:0:0:
235,196,118608,1,10,2:1:0:0:
155,250,118821,1,10,2:0:0:0:
62,225,119034,2,0,P|50:170|39:126,1,96,10|0,2:1|3:1,0:0:0:0:
60,87,119353,2,0,P|68:47|44:-3,2,96,8|4|4,2:0|2:3|2:3,0:0:0:0:
150,117,119991,6,0,P|196:104|242:92,1,96,4|8,3:1|2:0,0:0:0:0:
290,81,120311,1,4,3:1:0:0:
337,164,120523,1,0,3:0:0:0:
264,226,120736,2,0,P|245:290|289:377,1,144,4|8,3:2|2:0,0:0:0:0:
366,372,121268,2,0,P|418:360|464:352,1,96,8|8,2:0|2:0,0:0:0:0:
478,257,121694,6,0,P|399:275|330:287,2,144,6|6|6,3:1|3:1|3:1,0:0:0:0:
506,165,122545,2,0,P|457:157|412:144,1,96,2|8,3:2|2:0,0:0:0:0:
336,84,122970,1,8,2:0:0:0:
275,158,123183,1,8,2:0:0:0:
187,118,123396,6,0,P|180:68|169:18,2,96,6|8|0,3:1|2:0|3:0,2:0:0:0:
120,186,124034,1,8,2:0:0:0:
120,186,124140,1,2,0:0:0:0:
120,186,124247,2,0,P|113:235|104:280,1,96,2|8,3:1|2:0,2:0:0:0:
90,326,124566,2,0,B|143:312|143:312|179:323|179:323|232:308,1,144,2|8,3:1|2:0,2:0:0:0:
309,361,125098,6,0,P|356:361|403:341,1,96,2|8,3:1|2:0,2:0:0:0:
446,357,125417,2,0,P|456:289|471:216,1,144,0|8,3:2|2:0,2:0:0:0:
490,121,125949,2,0,P|444:134|392:146,1,96,2|8,3:1|2:0,0:0:0:0:
351,139,126268,1,0,3:0:0:0:
351,139,126374,1,2,3:1:0:0:
359,43,126587,6,0,P|405:30|457:18,2,96,10|2|8,2:1|3:2|2:0,2:0:0:0:
268,11,127225,2,0,P|260:60|251:108,1,96,2|8,2:1|2:0,0:0:0:0:
274,148,127545,1,0,0:0:0:0:
274,148,127651,2,0,P|265:195|257:242,1,96,2|8,3:1|2:0,0:0:0:0:
278,286,127970,2,2,P|226:336|155:335,1,144,2|8,2:1|2:0,2:1:0:0:
70,376,128502,6,0,P|29:345|18:296,1,96,6|8,3:1|2:1,0:0:0:0:
21,255,128821,2,0,P|30:207|42:158,1,96,2|0,3:1|0:0,0:0:0:0:
53,114,129140,1,10,2:1:0:0:
141,152,129353,2,0,P|186:142|234:127,1,96,6|8,3:1|2:0,0:0:0:0:
275,151,129672,1,8,2:0:0:0:
275,151,129779,1,10,2:1:0:0:
237,238,129991,1,10,2:1:0:0:
279,324,130204,6,0,P|324:309|371:299,1,96,6|8,3:1|2:0,2:0:0:0:
469,326,130630,1,2,3:1:0:0:
469,326,130736,2,0,L|478:279,1,48,0|8,3:0|2:0,2:0:0:0:
509,241,130949,2,0,P|523:174|460:107,1,144,2|10,2:1|2:1,2:0:0:0:
446,26,131481,2,0,P|397:47|350:62,1,96,2|8,3:1|2:0,2:0:0:0:
315,46,131800,5,2,0:1:0:0:
315,46,131906,2,0,P|307:96|297:144,1,96,2|8,3:1|2:0,2:0:0:0:
280,185,132225,1,2,3:1:0:0:
324,270,132438,1,2,3:1:0:0:
276,352,132650,2,2,B|198:363|226:298|111:322,1,144,2|8,2:1|2:0,2:1:0:0:
53,359,133183,2,0,P|42:313|28:267,1,96,2|8,2:0|2:0,0:0:0:0:
48,172,133608,6,0,P|93:185|140:196,1,96,2|8,3:1|2:0,0:0:0:0:
184,174,133928,2,0,P|244:200|261:281,2,144,2|10|2,3:1|2:1|3:1,0:0:0:0:
156,81,134779,1,2,2:1:0:0:
156,81,134885,2,0,P|221:74|257:47,1,96,2|8,3:1|2:1,0:0:0:0:
339,36,135311,6,0,P|328:89|319:144,1,96,14|4,2:0|2:3,0:0:0:0:
350,168,135630,2,0,P|395:156|444:144,1,96,14|4,2:0|2:3,0:0:0:0:
487,162,135949,1,12,2:0:0:0:
475,260,136162,1,4,2:3:0:0:
475,260,136268,2,0,P|428:271|381:283,1,96,12|4,2:0|2:3,0:0:0:0:
347,317,136587,2,0,L|337:365,2,48,12|4|4,2:0|2:3|2:3,0:0:0:0:
270,258,137013,6,0,B|216:305|216:305|131:288,2,144,12|12|8,2:0|2:0|2:0,2:0:0:0:
268,161,137864,2,2,B|65:215|65:215|26:147,1,288,6|0,3:1|2:1,0:1:0:0:
47,62,138715,6,0,B|100:75|139:53|120:40|163:10|224:38,1,172.799994726563,6|0,3:1|3:0,2:0:0:0:
365,108,139566,2,0,L|450:90,2,86.3999973632813,2|0|2,3:2|0:0|3:2,0:0:0:0:
196,146,140417,6,2,B|163:201|163:201|191:317,1,172.799994726563,6|2,3:1|3:2,2:1:0:0:
350,367,141268,2,0,L|434:349,1,86.3999973632813,2|0,3:2|0:0,0:0:0:0:
437,262,141694,2,0,L|353:280,1,86.3999973632813,2|0,3:2|0:0,0:0:0:0:
278,235,142119,6,0,B|225:222|186:244|205:257|162:287|101:259,2,172.799994726563,6|2|2,3:2|3:2|3:2,2:0:0:0:
278,235,143821,6,0,P|286:188|295:150,1,86.3999973632813,4|0,3:1|3:0,2:0:0:0:
333,130,144140,2,0,P|363:82|328:6,1,129.599996044922,8|8,2:0|2:0,2:0:0:0:
255,6,144672,1,2,3:1:0:0:
255,6,144779,2,0,L|197:19,1,43.1999986816407,8|0,2:0|0:0,0:0:0:0:
170,7,144991,2,0,L|144:137,1,129.599996044922,0|0,3:0|3:0,0:0:0:0:
83,194,145523,6,2,P|119:246|220:246,1,172.799994726563,6|0,3:1|3:1,2:1:0:0:
297,204,146162,1,2,2:0:0:0:
352,270,146374,2,0,L|439:253,1,86.3999973632813,0|2,3:0|2:0,0:0:0:0:
479,262,146694,2,0,L|501:129,1,129.599996044922,2|2,2:0|2:0,0:0:0:0:
428,86,147225,6,0,B|376:122|376:122|303:108,2,129.599996044922,0|2|2,3:0|2:0|2:0,0:0:0:0:
398,4,148077,2,0,L|309:18,1,86.3999973632813,0|2,3:0|2:0,0:0:0:0:
235,56,148502,2,0,L|146:70,1,86.3999973632813,0|2,3:0|2:0,0:0:0:0:
64,35,148928,6,0,L|31:177,1,136.799996347046,4|0,3:1|3:0,0:0:0:0:
20,208,149353,2,0,P|67:201|108:224,1,91.1999975646973,8|0,2:0|3:0,0:0:0:0:
149,299,149778,2,0,L|239:275,1,91.1999975646973,8|0,2:0|3:0,0:0:0:0:
276,298,150097,1,0,3:0:0:0:
276,298,150204,2,0,P|285:253|300:205,1,91.1999975646973,8|0,2:0|3:0,0:0:0:0:
239,139,150630,6,0,P|231:94|248:50,1,91.1999975646973,14|0,2:0|3:0,0:0:0:0:
285,28,150949,1,0,3:0:0:0:
285,28,151055,2,0,P|328:41|373:53,1,91.1999975646973,8|0,2:0|3:0,0:0:0:0:
457,17,151481,1,8,2:0:0:0:
509,94,151694,1,8,2:0:0:0:
460,170,151906,2,0,P|472:216|480:259,1,91.1999975646973,8|4,2:3|2:3,0:0:0:0:
450,350,152332,6,0,P|410:325|363:325,1,96,6|8,3:1|2:0,0:0:0:0:
320,349,152651,2,0,P|244:337|219:279,1,144,2|8,2:1|2:0,2:0:0:0:
247,189,153183,2,0,B|308:217|308:217|430:186,1,192,6|0,3:2|3:0,2:0:0:0:
488,110,153821,1,8,2:0:0:0:
433,30,154034,6,0,B|402:44|402:44|341:28,1,96,6|8,3:1|2:0,2:0:0:0:
300,4,154353,2,0,L|157:32,1,144,2|8,2:0|2:0,0:0:0:0:
66,2,154885,2,0,P|56:50|46:97,1,96,6|8,3:1|2:0,2:0:0:0:
11,129,155204,2,0,P|8:180|35:225,1,96,2|0,3:1|3:0,2:0:0:0:
63,251,155523,1,10,2:1:0:0:
145,201,155736,6,0,P|192:188|238:178,1,96,6|8,3:1|2:0,2:0:0:0:
278,151,156055,2,0,P|336:189|416:174,2,144,4|8|12,3:2|2:0|2:0,2:0:0:0:
355,92,156906,1,0,3:0:0:0:
355,92,157012,1,8,2:0:0:0:
447,65,157225,1,0,3:0:0:0:
510,136,157438,6,0,P|483:234|467:325,2,192,8|8|8,2:0|2:0|2:0,0:0:0:0:
162,298,159140,6,0,P|170:330|176:360,2,64,8|0|0,2:0|3:0|3:0,0:0:0:0:
112,256,159566,2,0,P|120:223|126:193,2,64,8|0|0,2:0|3:0|3:0,0:0:0:0:
49,273,159991,2,0,P|-3:196|13:104,1,192,12|2,2:0|2:3,0:0:0:0:
142,20,160843,6,0,P|283:75|440:33,1,307.2,4|4,3:1|3:1,2:0:0:0:
491,149,162013,2,0,L|477:226,1,76.8,8|4,2:3|0:3,0:0:0:0:
503,310,162438,5,4,0:3:0:0:
503,310,162545,2,0,P|397:334|271:382,1,230.4,4|0,3:1|2:0,2:0:0:0:
211,332,163396,2,0,P|226:261|258:177,2,153.6,4|4|4,3:1|3:2|3:2,2:0:0:0:
46,293,164672,2,0,P|73:221|90:146,1,153.6,8|4,2:3|3:1,2:0:0:0:
74,62,165311,1,0,3:0:0:0:
147,21,165523,2,0,P|181:32|226:38,1,76.8,10|8,2:0|2:0,0:0:0:0:
299,75,165949,6,0,P|343:57|384:58,2,86.3999973632813,4|4|4,3:1|3:2|3:2,2:0:0:0:
225,120,166587,1,4,3:2:0:0:
255,200,166800,2,0,B|231:286|231:286|258:341,1,129.599996044922,0|8,3:0|2:0,0:0:0:0:
268,360,167225,2,0,P|307:348|351:338,1,86.3999973632813,8|8,2:0|2:0,0:0:0:0:
440,301,167651,6,0,P|487:315|509:358,2,96,6|10|2,3:1|2:0|3:2,2:0:0:0:
360,246,168289,1,10,2:0:0:0:
430,181,168502,2,0,P|438:135|451:87,1,96,2|8,3:1|2:0,2:0:0:0:
464,41,168821,1,0,3:0:0:0:
373,9,169034,2,0,P|330:30|282:31,1,96,0|2,3:0|0:0,0:0:0:0:
235,18,169353,6,0,P|225:71|211:118,1,96,2|10,3:1|2:0,2:0:0:0:
274,186,169779,1,2,3:2:0:0:
358,141,169991,1,10,2:0:0:0:
432,202,170204,6,0,P|420:248|411:295,1,96,10|8,2:0|2:0,0:0:0:0:
398,342,170523,2,0,P|347:356|306:370,1,96,10|8,2:0|2:0,0:0:0:0:
264,344,170843,1,10,2:0:0:0:
174,376,171055,1,2,3:1:0:0:
174,376,171481,6,0,P|125:366|79:358,1,96,6|0,3:1|0:0,2:0:0:0:
21,281,171906,6,0,B|54:280|82:269|109:246,1,96,6|0,3:1|3:0,0:0:0:0:
144,214,172225,2,0,P|203:251|280:237,1,144,12|8,2:0|2:0,0:0:0:0:
360,281,172757,5,6,3:1:0:0:
453,257,172970,1,4,3:2:0:0:
496,171,173183,1,4,3:2:0:0:
480,76,173396,1,4,3:2:0:0:
404,17,173608,2,0,P|346:56|272:49,1,144,0|8,3:0|2:0,0:0:0:0:
231,29,174034,2,0,L|211:125,1,96,8|8,2:0|2:0,0:0:0:0:
280,201,174460,6,0,B|363:179|363:179|438:205,2,129.599996044922,6|2|2,3:1|2:0|2:0,0:0:0:0:
226,268,175311,2,0,L|205:358,1,86.3999973632813,2|2,3:2|2:0,0:0:0:0:
170,375,175630,1,2,2:0:0:0:
170,375,175736,2,0,P|131:359|80:359,1,86.3999973632813,8|2,2:0|2:0,0:0:0:0:
19,302,176162,6,0,P|7:234|49:174,1,129.599996044922,2|2,3:2|2:0,0:0:0:0:
74,165,176587,1,10,2:0:0:0:
142,111,176800,1,2,2:0:0:0:
142,111,176906,1,2,2:0:0:0:
142,111,177013,2,0,L|120:21,2,86.3999973632813,4|4|4,3:2|3:2|3:2,2:0:0:0:
218,151,177651,1,8,2:0:0:0:
304,109,177864,6,0,P|313:160|294:207,1,96,6|8,3:1|2:0,2:0:0:0:
214,247,178289,1,0,3:0:0:0:
214,247,178396,2,0,P|206:315|255:378,1,144,8|14,2:0|2:0,2:0:0:0:
343,378,178928,1,4,3:2:0:0:
434,350,179140,1,4,3:2:0:0:
478,264,179353,1,4,3:2:0:0:
460,169,179566,5,10,2:1:0:0:
460,169,180843,2,0,L|275:219,1,192,8|4,2:3|3:2,2:0:0:0:
274,219,182970,6,0,P|262:263|252:314,2,96,6|10|0,3:1|2:1|3:0,2:0:0:0:
192,168,183608,1,10,2:1:0:0:
123,234,183821,2,0,P|76:240|22:210,1,96,2|8,3:1|2:0,2:0:0:0:
14,175,184140,1,2,2:1:0:0:
33,80,184353,2,0,P|80:71|126:57,1,96,2|0,3:1|2:0,0:0:0:0:
162,24,184672,5,2,3:1:0:0:
244,73,184885,1,10,2:1:0:0:
332,36,185098,2,0,P|338:92|314:144,1,96,2|8,2:1|2:0,0:0:0:0:
289,160,185417,1,0,3:0:0:0:
289,160,185523,2,0,P|300:206|310:254,1,96,2|8,0:1|2:1,2:0:0:0:
293,348,185949,1,2,3:1:0:0:
384,376,186162,1,10,2:1:0:0:
446,303,186374,6,0,B|432:251|470:221|481:222|491:231|530:187|500:121,2,192,2|2|2,3:1|3:1|3:2,2:0:0:0:
384,376,187438,1,8,2:0:0:0:
293,348,187651,6,0,P|249:364|195:376,1,96,0|8,3:0|2:1,0:0:0:0:
155,359,187970,1,2,2:1:0:0:
155,359,188077,2,0,P|100:364|59:338,1,96,6|10,3:1|2:1,2:0:0:0:
10,266,188502,1,6,3:1:0:0:
25,171,188715,1,10,2:1:0:0:
118,194,188928,6,0,P|188:199|246:159,1,144,2|8,3:2|2:0,0:0:0:0:
285,130,189353,2,0,P|338:132|379:162,1,96,8|8,2:0|2:0,0:0:0:0:
446,217,189779,6,0,P|457:170|470:125,1,96,6|8,3:1|2:0,2:0:0:0:
487,79,190098,1,2,3:1:0:0:
487,79,190204,1,0,0:0:0:0:
427,3,190417,1,10,2:1:0:0:
335,32,190630,6,0,P|293:52|244:52,1,96,2|8,3:1|2:0,0:0:0:0:
199,33,190949,2,0,L|176:130,1,96,2|0,3:1|3:0,2:0:0:0:
241,197,191374,1,0,2:0:0:0:
241,197,191481,2,0,B|285:177|285:177|332:187,1,96,2|8,3:1|2:0,0:0:0:0:
372,161,191800,1,2,3:1:0:0:
372,161,191906,2,0,L|395:254,1,96,0|8,0:0|2:0,0:0:0:0:
336,330,192332,6,0,B|289:317|289:317|243:330,1,96,10|8,2:1|2:0,0:0:0:0:
211,366,192651,2,0,P|144:354|66:340,1,144,10|10,2:1|2:1,0:0:0:0:
10,264,193183,6,2,B|-13:220|10:157|73:154|116:199,1,192,6|2,3:1|3:1,2:1:0:0:
201,154,193821,1,10,2:1:0:0:
268,223,194034,2,0,B|314:209|366:197,1,96,2|10,3:2|2:1,2:0:0:0:
406,214,194353,1,0,2:0:0:0:
406,214,194460,2,0,P|416:166|430:122,1,96,2|10,3:2|2:1,2:0:0:0:
391,33,194885,6,0,P|439:22|486:7,2,96,2|12|2,3:1|2:0|3:1,0:0:0:0:
298,6,195523,1,12,2:0:0:0:
222,66,195736,2,0,P|211:115|199:163,1,96,4|8,3:1|2:0,0:0:0:0:
230,196,196055,1,8,2:0:0:0:
230,196,196162,2,0,L|217:251,2,48,8|8|8,2:0|2:0|2:0,0:0:0:0:
322,169,196587,6,0,B|359:220|350:287|350:287|320:304|303:339,1,192,6|0,3:1|3:0,2:0:0:0:
218,379,197225,1,8,2:0:0:0:
140,321,197438,2,0,P|93:332|47:346,1,96,2|8,3:1|2:0,2:0:0:0:
3,324,197757,2,0,P|-4:249|46:191,1,144,2|10,3:2|2:1,0:0:0:0:
105,131,198289,6,0,P|93:80|73:25,2,96,2|8|0,3:1|2:0|3:0,2:0:0:0:
182,188,198928,1,8,2:1:0:0:
257,129,199140,2,0,P|309:125|354:148,1,96,2|8,3:1|2:0,0:0:0:0:
378,181,199460,2,0,P|364:226|372:280,1,96,2|0,3:1|3:0,0:0:0:0:
398,312,199779,1,8,2:0:0:0:
486,276,199991,6,0,P|498:204|515:120,2,144,6|2|8,3:1|3:1|2:0,2:0:0:0:
463,369,200843,6,0,P|421:351|369:351,1,96,2|8,3:1|2:0,0:0:0:0:
326,369,201162,2,0,P|261:355|237:280,1,144,2|8,3:1|2:0,0:0:0:0:
275,200,201694,6,0,P|319:191|370:175,2,96,6|8|0,3:1|2:0|3:0,2:0:0:0:
183,170,202332,1,8,2:0:0:0:
115,237,202545,2,0,P|68:231|35:197,1,96,6|8,3:1|2:0,2:0:0:0:
24,150,202864,1,8,2:0:0:0:
24,150,202970,2,0,L|13:98,2,48,8|8|8,2:0|2:0|2:0,0:0:0:0:
103,94,203396,6,0,P|155:107|198:116,1,96,6|8,3:1|2:0,2:0:0:0:
240,96,203715,1,2,3:2:0:0:
240,96,203821,2,0,L|253:48,2,48,0|0|10,0:0|3:0|2:1,0:0:0:0:
221,190,204247,2,0,P|234:239|244:283,1,96,2|8,3:1|2:0,0:0:0:0:
216,323,204566,2,0,P|287:318|345:358,1,144,2|8,2:1|2:0,2:0:0:0:
435,327,205098,6,0,B|465:288|458:234,1,96,6|8,3:1|2:0,2:0:0:0:
424,201,205417,1,2,3:1:0:0:
424,201,205523,2,0,L|328:225,1,96,0|8,0:0|2:0,0:0:0:0:
244,181,205949,2,0,P|193:191|163:224,1,96,2|8,3:1|2:1,2:0:0:0:
133,259,206268,1,0,3:1:0:0:
133,259,206374,2,0,P|82:249|52:216,1,96,8|8,2:0|2:0,0:0:0:0:
14,129,206800,6,0,P|24:81|34:34,1,96,6|8,3:1|2:0,2:0:0:0:
75,10,207119,2,0,P|147:16|192:67,1,144,6|8,3:1|2:0,2:0:0:0:
254,140,207651,1,6,3:1:0:0:
226,234,207864,1,8,2:0:0:0:
226,234,207970,2,2,P|221:306|270:371,1,144,6|8,3:1|2:0,2:1:0:0:
351,337,208502,6,2,P|356:265|307:200,2,144,14|14|14,2:1|2:1|2:1,2:1:0:0:
438,376,209353,1,4,3:2:0:0:
504,306,209566,1,0,3:0:0:0:
504,306,209672,2,0,L|474:155,1,144,2|8,3:2|2:0,0:0:0:0:
449,72,210204,5,6,3:1:0:0:
256,192,210311,12,2,211694,2:0:0:0:
