osu file format v14

[General]
AudioFilename: audio.mp3
AudioLeadIn: 0
PreviewTime: 66227
Countdown: 0
SampleSet: Soft
StackLeniency: 0.7
Mode: 3
LetterboxInBreaks: 0
SpecialStyle: 0
WidescreenStoryboard: 1

[Editor]
DistanceSpacing: 1
BeatDivisor: 4
GridSize: 8
TimelineZoom: 2.999999

[Metadata]
Title:Hey Darling!
TitleUnicode:Hey Darling!
Artist:Matsushita
ArtistUnicode:Matsushita
Creator:Reyzra
Version:NM
Source:ワガママハイスペックOC
Tags:wagamama high spec oc overclock opening game Visual Novel VN Madosoft Eroge
BeatmapID:1554926
BeatmapSetID:728165

[Difficulty]
HPDrainRate:7.4
CircleSize:4
OverallDifficulty:7.4
ApproachRate:10
SliderMultiplier:1.4
SliderTickRate:1

[Events]
//Background and Video events
Video,30,"vid.avi"
0,0,"BG5.jpg",0,0
//Break Periods
//Storyboard Layer 0 (Background)
//Storyboard Layer 1 (Fail)
//Storyboard Layer 2 (Pass)
//Storyboard Layer 3 (Foreground)
//Storyboard Layer 4 (Overlay)
//Storyboard Sound Samples

[TimingPoints]
56,212.765957446809,4,2,2,50,1,0
15375,-100,4,2,2,50,0,1
27290,-100,4,2,2,50,0,0
59630,-100,4,2,2,50,0,0
66438,-100,4,2,2,50,0,1
86864,-100,4,2,2,50,0,0

[HitObjects]
448,192,1545,128,2,1758:0:0:0:0:
64,192,1758,1,4,0:0:0:0:
192,192,1758,1,8,0:0:0:0:
64,192,3247,128,0,3460:0:0:0:0:
320,192,3460,1,4,0:0:0:0:
448,192,3460,1,8,0:0:0:0:
192,192,5162,1,8,0:0:0:0:
320,192,5162,1,4,0:0:0:0:
448,192,5587,1,0,0:0:0:0:
448,192,6013,1,0,0:0:0:0:
448,192,6438,1,0,0:0:0:0:
192,192,6651,128,2,6864:0:0:0:0:
64,192,6864,1,4,0:0:0:0:
320,192,6864,1,8,0:0:0:0:
192,192,7183,1,8,0:0:0:0:
448,192,7183,1,0,0:0:0:0:
320,192,7502,1,8,0:0:0:0:
448,192,7502,1,0,0:0:0:0:
64,192,7715,128,8,8141:0:0:0:0:
192,192,7715,1,0,0:0:0:0:
320,192,8141,1,8,0:0:0:0:
448,192,8141,128,0,8566:0:0:0:0:
64,192,8566,1,2,0:0:0:0:
192,192,8566,1,4,0:0:0:0:
320,192,8779,1,0,0:0:0:0:
64,192,8992,1,2,0:0:0:0:
448,192,8992,1,0,0:0:0:0:
192,192,9204,1,0,0:0:0:0:
320,192,9417,1,2,0:0:0:0:
448,192,9417,1,0,0:0:0:0:
64,192,9630,1,0,0:0:0:0:
192,192,9843,128,2,10268:0:0:0:0:
320,192,9843,1,0,0:0:0:0:
448,192,10056,128,0,10268:0:0:0:0:
64,192,10268,1,2,0:0:0:0:
320,192,10268,1,4,0:0:0:0:
192,192,10481,1,0,0:0:0:0:
64,192,10694,1,2,0:0:0:0:
448,192,10694,1,0,0:0:0:0:
320,192,10907,1,0,0:0:0:0:
64,192,11119,1,2,0:0:0:0:
192,192,11119,1,0,0:0:0:0:
448,192,11332,1,0,0:0:0:0:
192,192,11545,1,2,0:0:0:0:
320,192,11545,128,0,11970:0:0:0:0:
64,192,11758,128,0,11970:0:0:0:0:
192,192,11970,1,2,0:0:0:0:
448,192,11970,1,4,0:0:0:0:
64,192,12396,1,8,0:0:0:0:
320,192,12396,1,0,0:0:0:0:
192,192,12609,1,8,0:0:0:0:
448,192,12609,1,0,0:0:0:0:
320,192,12821,1,8,0:0:0:0:
448,192,12821,1,0,0:0:0:0:
192,192,13034,1,8,0:0:0:0:
320,192,13034,1,0,0:0:0:0:
64,192,13247,1,8,0:0:0:0:
192,192,13247,1,0,0:0:0:0:
320,192,13460,1,8,3:0:0:0:
448,192,13460,128,0,13673:0:0:0:0:
64,192,13673,1,4,0:0:0:0:
192,192,13779,1,0,0:0:0:0:
320,192,13992,1,0,0:0:0:0:
448,192,14204,1,0,0:0:0:0:
64,192,14417,1,0,0:0:0:0:
192,192,14630,1,0,0:0:0:0:
320,192,14736,128,0,14949:0:0:0:0:
64,192,14949,128,8,15375:0:0:0:0:
448,192,14949,128,0,15375:0:0:0:0:
192,192,15375,1,4,0:0:0:0:
320,192,15375,1,2,0:0:0:0:
64,192,15587,1,8,0:0:0:0:
320,192,15694,1,2,0:0:0:0:
448,192,15907,1,2,0:0:0:0:
192,192,16013,1,8,0:0:0:0:
64,192,16226,1,2,0:0:0:0:
320,192,16226,1,0,0:0:0:0:
448,192,16438,1,8,0:0:0:0:
192,192,16545,1,2,0:0:0:0:
64,192,16758,1,2,0:0:0:0:
320,192,16864,1,8,0:0:0:0:
64,192,17077,1,2,0:0:0:0:
192,192,17077,1,0,0:0:0:0:
448,192,17290,1,8,0:0:0:0:
192,192,17396,1,2,0:0:0:0:
64,192,17609,1,2,0:0:0:0:
448,192,17715,1,8,0:0:0:0:
64,192,17928,128,8,18247:0:0:0:0:
320,192,17928,1,0,0:0:0:0:
192,192,18247,128,8,18566:0:0:0:0:
448,192,18247,1,0,0:0:0:0:
64,192,18566,1,8,0:0:0:0:
320,192,18566,128,0,18779:0:0:0:0:
192,192,18779,1,2,0:0:0:0:
448,192,18779,128,4,18992:0:0:0:0:
64,192,19204,128,2,19630:0:0:0:0:
192,192,19204,1,4,0:0:0:0:
320,192,19630,128,2,19949:0:0:0:0:
448,192,19630,1,4,0:0:0:0:
64,192,19949,1,8,0:0:0:0:
192,192,19949,128,8,20268:0:0:0:0:
320,192,20268,1,8,0:0:0:0:
448,192,20268,128,0,20481:0:0:0:0:
64,192,20481,1,4,0:0:0:0:
192,192,20481,1,2,0:0:0:0:
64,192,20694,1,2,0:0:0:0:
320,192,20694,1,4,0:0:0:0:
192,192,20907,1,4,0:0:0:0:
448,192,20907,1,2,0:0:0:0:
320,192,21119,1,2,0:0:0:0:
448,192,21119,1,4,0:0:0:0:
64,192,21332,128,8,21758:0:0:0:0:
192,192,21332,1,0,0:0:0:0:
320,192,21758,128,8,22183:0:0:0:0:
448,192,21758,1,0,0:0:0:0:
64,192,22183,1,2,0:0:0:0:
448,192,22183,1,4,0:0:0:0:
192,192,22396,1,0,0:0:0:0:
64,192,22609,1,8,0:0:0:0:
448,192,22609,1,0,0:0:0:0:
320,192,22821,1,2,0:0:0:0:
64,192,23034,1,2,0:0:0:0:
192,192,23034,1,0,0:0:0:0:
320,192,23247,1,0,0:0:0:0:
64,192,23460,1,8,0:0:0:0:
448,192,23460,1,0,0:0:0:0:
192,192,23673,1,2,0:0:0:0:
320,192,23885,1,2,0:0:0:0:
448,192,23885,1,0,0:0:0:0:
192,192,24098,1,0,0:0:0:0:
64,192,24311,1,8,0:0:0:0:
448,192,24311,1,0,0:0:0:0:
320,192,24524,1,2,0:0:0:0:
64,192,24736,1,2,0:0:0:0:
192,192,24736,1,4,0:0:0:0:
64,192,24949,1,0,0:0:0:0:
320,192,24949,1,0,0:0:0:0:
192,192,25162,1,8,0:0:0:0:
448,192,25162,128,0,25587:0:0:0:0:
192,192,25375,1,8,0:0:0:0:
64,192,25587,1,2,0:0:0:0:
320,192,25587,1,4,0:0:0:0:
192,192,25800,1,8,0:0:0:0:
448,192,25800,1,0,0:0:0:0:
320,192,25907,1,2,0:0:0:0:
64,192,26119,1,8,0:0:0:0:
448,192,26119,1,0,0:0:0:0:
192,192,26226,1,2,0:0:0:0:
320,192,26438,128,4,26864:0:0:0:0:
448,192,26438,1,2,0:0:0:0:
64,192,26864,128,8,27290:0:0:0:0:
192,192,26864,1,0,0:0:0:0:
320,192,27290,1,8,0:0:0:0:
448,192,27290,1,2,0:0:0:0:
192,192,28566,128,2,28992:0:0:0:0:
320,192,28566,128,0,28992:0:0:0:0:
64,192,28992,1,4,0:0:0:0:
448,192,28992,1,2,0:0:0:0:
192,192,29204,1,8,0:0:0:0:
320,192,29311,1,2,0:0:0:0:
448,192,29524,1,2,0:0:0:0:
192,192,29630,1,8,0:0:0:0:
64,192,29843,1,2,0:0:0:0:
448,192,29843,1,0,0:0:0:0:
320,192,30056,1,8,0:0:0:0:
192,192,30162,1,2,0:0:0:0:
64,192,30375,1,2,0:0:0:0:
320,192,30481,1,8,0:0:0:0:
192,192,30694,1,2,0:0:0:0:
448,192,30694,1,0,0:0:0:0:
64,192,30907,1,8,0:0:0:0:
320,192,31013,1,2,0:0:0:0:
192,192,31226,1,2,0:0:0:0:
448,192,31332,1,8,0:0:0:0:
64,192,31545,1,2,0:0:0:0:
320,192,31545,1,0,0:0:0:0:
192,192,31758,1,8,0:0:0:0:
64,192,31864,1,2,0:0:0:0:
320,192,32077,1,2,0:0:0:0:
448,192,32183,1,8,0:0:0:0:
64,192,32396,1,2,0:0:0:0:
192,192,32396,1,4,0:0:0:0:
448,192,32609,1,8,0:0:0:0:
320,192,32715,1,2,0:0:0:0:
64,192,32928,1,2,0:0:0:0:
448,192,33034,1,8,0:0:0:0:
192,192,33247,1,2,0:0:0:0:
320,192,33247,1,0,0:0:0:0:
64,192,33460,1,8,0:0:0:0:
192,192,33566,1,2,0:0:0:0:
448,192,33779,1,2,0:0:0:0:
64,192,33885,1,8,0:0:0:0:
320,192,34098,1,2,0:0:0:0:
448,192,34098,1,0,0:0:0:0:
192,192,34311,1,8,0:0:0:0:
64,192,34417,1,2,0:0:0:0:
320,192,34630,1,2,0:0:0:0:
448,192,34736,1,8,0:0:0:0:
64,192,34949,128,2,35268:0:0:0:0:
192,192,34949,1,4,0:0:0:0:
192,192,35268,128,8,35587:0:0:0:0:
320,192,35268,1,0,0:0:0:0:
64,192,35587,1,8,0:0:0:0:
448,192,35587,128,0,35800:0:0:0:0:
192,192,35800,1,4,0:0:0:0:
320,192,35800,1,2,0:0:0:0:
64,192,36013,1,8,0:0:0:0:
448,192,36119,1,2,0:0:0:0:
192,192,36332,1,2,0:0:0:0:
448,192,36438,1,8,0:0:0:0:
64,192,36651,1,2,0:0:0:0:
192,192,36651,1,0,0:0:0:0:
320,192,36864,1,8,0:0:0:0:
192,192,36970,1,2,0:0:0:0:
64,192,37183,1,2,0:0:0:0:
192,192,37290,1,8,0:0:0:0:
320,192,37502,1,2,0:0:0:0:
448,192,37502,1,0,0:0:0:0:
64,192,37715,1,8,0:0:0:0:
192,192,37928,1,0,0:0:0:0:
320,192,38141,1,8,0:0:0:0:
64,192,38353,1,2,0:0:0:0:
448,192,38353,128,0,38673:0:0:0:0:
192,192,38566,1,8,0:0:0:0:
320,192,38673,1,2,0:0:0:0:
64,192,38885,1,2,0:0:0:0:
320,192,38992,1,8,0:0:0:0:
192,192,39204,1,2,0:0:0:0:
448,192,39204,1,0,0:0:0:0:
64,192,39417,1,8,0:0:0:0:
320,192,39524,1,2,0:0:0:0:
448,192,39736,1,2,0:0:0:0:
192,192,39843,1,8,0:0:0:0:
320,192,40056,1,2,0:0:0:0:
448,192,40056,1,0,0:0:0:0:
64,192,40268,1,8,0:0:0:0:
192,192,40375,1,2,0:0:0:0:
320,192,40481,1,0,0:0:0:0:
448,192,40587,1,2,0:0:0:0:
64,192,40694,1,8,0:0:0:0:
192,192,40907,1,2,0:0:0:0:
320,192,40907,1,0,0:0:0:0:
448,192,41119,1,8,0:0:0:0:
320,192,41332,1,0,0:0:0:0:
192,192,41545,1,8,0:0:0:0:
64,192,41758,128,2,42077:0:0:0:0:
448,192,41758,1,0,0:0:0:0:
192,192,41970,1,8,0:0:0:0:
320,192,42077,1,2,0:0:0:0:
448,192,42290,1,2,0:0:0:0:
192,192,42396,1,8,0:0:0:0:
64,192,42609,1,2,0:0:0:0:
448,192,42609,1,4,0:0:0:0:
320,192,42821,1,8,0:0:0:0:
192,192,42928,1,2,0:0:0:0:
320,192,43141,1,2,0:0:0:0:
448,192,43247,1,8,0:0:0:0:
64,192,43460,1,2,0:0:0:0:
192,192,43460,1,0,0:0:0:0:
320,192,43673,1,8,0:0:0:0:
448,192,43779,1,2,0:0:0:0:
64,192,43992,1,2,0:0:0:0:
192,192,44098,1,8,0:0:0:0:
320,192,44311,1,2,0:0:0:0:
448,192,44311,1,0,0:0:0:0:
192,192,44524,1,8,0:0:0:0:
64,192,44630,1,2,0:0:0:0:
448,192,44843,1,2,0:0:0:0:
192,192,44949,1,8,0:0:0:0:
64,192,45162,1,2,0:0:0:0:
320,192,45162,1,0,0:0:0:0:
448,192,45375,1,8,0:0:0:0:
192,192,45481,1,2,0:0:0:0:
64,192,45694,1,2,0:0:0:0:
320,192,45800,1,8,0:0:0:0:
192,192,46013,1,2,0:0:0:0:
448,192,46013,1,0,0:0:0:0:
64,192,46226,1,8,0:0:0:0:
320,192,46332,1,2,0:0:0:0:
448,192,46545,1,2,0:0:0:0:
64,192,46651,1,8,0:0:0:0:
192,192,46864,1,2,0:0:0:0:
320,192,46864,1,0,0:0:0:0:
448,192,47077,1,8,0:0:0:0:
64,192,47183,1,2,0:0:0:0:
192,192,47396,1,2,0:0:0:0:
320,192,47502,1,8,0:0:0:0:
64,192,47715,1,2,0:0:0:0:
448,192,47715,1,0,0:0:0:0:
320,192,47928,1,8,0:0:0:0:
192,192,48034,1,2,0:0:0:0:
320,192,48247,1,2,0:0:0:0:
448,192,48353,1,8,0:0:0:0:
64,192,48566,1,2,0:0:0:0:
192,192,48566,128,0,48992:0:0:0:0:
320,192,48992,128,8,49204:0:0:0:0:
448,192,48992,1,0,0:0:0:0:
64,192,49204,1,8,3:0:0:0:
192,192,49311,1,8,3:0:0:0:
320,192,49417,1,4,0:0:0:0:
448,192,49417,128,2,49843:0:0:0:0:
64,192,49843,1,8,1:0:0:0:
192,192,49843,1,0,0:0:0:0:
64,192,50268,128,2,50694:0:0:0:0:
320,192,50268,1,0,0:0:0:0:
192,192,50694,1,8,1:0:0:0:
448,192,50694,1,0,0:0:0:0:
192,192,51119,1,2,0:0:0:0:
320,192,51119,128,0,51545:0:0:0:0:
64,192,51545,1,8,1:0:0:0:
448,192,51545,1,0,0:0:0:0:
192,192,51970,128,2,52396:0:0:0:0:
320,192,51970,1,0,0:0:0:0:
64,192,52396,1,8,1:0:0:0:
448,192,52396,1,0,0:0:0:0:
192,192,52821,1,2,0:0:0:0:
448,192,52821,128,0,53247:0:0:0:0:
64,192,53247,1,8,1:0:0:0:
320,192,53247,1,0,0:0:0:0:
192,192,53673,1,2,0:0:0:0:
320,192,53673,128,0,54098:0:0:0:0:
64,192,54098,1,8,1:0:0:0:
448,192,54098,1,0,0:0:0:0:
64,192,54524,128,2,54949:0:0:0:0:
192,192,54524,1,0,0:0:0:0:
320,192,54949,1,8,1:0:0:0:
448,192,54949,1,0,0:0:0:0:
192,192,55375,1,0,0:0:0:0:
64,192,55481,1,0,0:0:0:0:
448,192,55481,1,0,0:0:0:0:
64,192,55800,1,8,0:0:0:0:
192,192,55800,1,0,0:0:0:0:
320,192,56119,1,8,0:0:0:0:
448,192,56119,1,0,0:0:0:0:
64,192,56226,128,4,57077:0:0:0:0:
192,192,56226,1,2,0:0:0:0:
320,192,56651,1,2,0:0:0:0:
192,192,57077,1,2,0:0:0:0:
448,192,57077,128,0,57928:0:0:0:0:
320,192,57502,1,2,0:0:0:0:
64,192,57928,128,2,58353:0:0:0:0:
192,192,57928,1,0,0:0:0:0:
192,192,58353,128,2,58779:0:0:0:0:
448,192,58353,1,0,0:0:0:0:
64,192,58779,1,2,0:0:0:0:
448,192,58779,128,0,59630:0:0:0:0:
320,192,58992,1,8,0:0:0:0:
64,192,59204,1,8,0:0:0:0:
192,192,59417,1,8,0:0:0:0:
64,192,59630,1,8,0:0:0:0:
320,192,59630,1,4,0:0:0:0:
192,192,59843,1,2,0:0:0:0:
320,192,59949,1,8,0:0:0:0:
448,192,59949,1,0,0:0:0:0:
192,192,60162,1,8,0:0:0:0:
320,192,60162,1,0,0:0:0:0:
64,192,60375,128,8,60694:0:0:0:0:
192,192,60375,1,0,0:0:0:0:
448,192,60694,1,8,0:0:0:0:
192,192,60800,1,8,0:0:0:0:
320,192,60907,1,8,0:0:0:0:
64,192,61013,1,8,0:0:0:0:
448,192,61119,1,8,0:0:0:0:
192,192,61226,1,8,0:0:0:0:
64,192,61332,1,8,0:0:0:0:
448,192,61332,1,0,0:0:0:0:
320,192,61545,1,2,0:0:0:0:
64,192,61651,1,8,0:0:0:0:
192,192,61651,1,0,0:0:0:0:
192,192,61864,1,8,0:0:0:0:
320,192,61864,1,0,0:0:0:0:
320,192,62077,1,8,0:0:0:0:
448,192,62077,128,0,62396:0:0:0:0:
64,192,62290,1,8,0:0:0:0:
320,192,62396,1,8,0:0:0:0:
192,192,62502,1,8,0:0:0:0:
448,192,62609,1,8,0:0:0:0:
320,192,62715,1,8,0:0:0:0:
64,192,62821,1,8,0:0:0:0:
192,192,62928,1,8,0:0:0:0:
320,192,63034,1,0,0:0:0:0:
448,192,63034,1,0,0:0:0:0:
192,192,63247,1,8,0:0:0:0:
64,192,63353,1,8,0:0:0:0:
448,192,63353,1,0,0:0:0:0:
320,192,63566,1,8,0:0:0:0:
192,192,63673,1,8,0:0:0:0:
64,192,63779,1,2,0:0:0:0:
192,192,64098,1,8,0:0:0:0:
320,192,64204,1,8,0:0:0:0:
64,192,64311,1,8,0:0:0:0:
448,192,64311,128,0,64736:0:0:0:0:
64,192,64736,1,4,0:0:0:0:
192,192,64736,1,2,0:0:0:0:
320,192,64949,1,0,0:0:0:0:
192,192,65162,1,0,0:0:0:0:
448,192,65375,1,0,0:0:0:0:
64,192,65587,128,0,66013:0:0:0:0:
192,192,66013,128,8,66438:0:0:0:0:
320,192,66013,128,0,66438:0:0:0:0:
64,192,66438,1,4,1:0:0:0:
448,192,66438,1,4,0:0:0:0:
192,192,66651,1,8,0:0:0:0:
320,192,66758,1,2,0:0:0:0:
192,192,66970,1,2,0:0:0:0:
448,192,67077,1,8,0:0:0:0:
64,192,67290,1,2,0:0:0:0:
192,192,67290,1,0,0:0:0:0:
320,192,67502,1,8,0:0:0:0:
448,192,67609,1,2,0:0:0:0:
320,192,67821,1,2,0:0:0:0:
64,192,67928,1,8,0:0:0:0:
192,192,68141,1,2,0:0:0:0:
448,192,68141,1,0,0:0:0:0:
64,192,68353,1,8,0:0:0:0:
320,192,68460,1,2,0:0:0:0:
448,192,68673,1,2,0:0:0:0:
192,192,68779,1,8,0:0:0:0:
64,192,68992,1,2,0:0:0:0:
448,192,68992,1,0,0:0:0:0:
320,192,69098,1,0,0:0:0:0:
192,192,69204,1,8,0:0:0:0:
192,192,69417,1,2,0:0:0:0:
320,192,69524,1,2,0:0:0:0:
448,192,69630,1,8,0:0:0:0:
64,192,69843,1,2,0:0:0:0:
192,192,69843,1,0,0:0:0:0:
320,192,70056,1,8,0:0:0:0:
64,192,70162,1,2,0:0:0:0:
192,192,70375,1,2,0:0:0:0:
448,192,70481,1,8,0:0:0:0:
64,192,70694,1,2,0:0:0:0:
320,192,70694,1,0,0:0:0:0:
448,192,70907,1,8,0:0:0:0:
192,192,71013,1,2,0:0:0:0:
320,192,71226,1,2,0:0:0:0:
64,192,71332,1,8,0:0:0:0:
192,192,71545,1,2,0:0:0:0:
448,192,71545,1,0,0:0:0:0:
320,192,71758,1,8,0:0:0:0:
64,192,71864,1,2,0:0:0:0:
448,192,71864,1,0,0:0:0:0:
192,192,72077,1,2,0:0:0:0:
320,192,72183,1,8,0:0:0:0:
448,192,72183,1,0,0:0:0:0:
64,192,72396,128,8,72821:0:0:0:0:
192,192,72396,1,0,0:0:0:0:
320,192,72821,1,8,0:0:0:0:
448,192,72821,128,0,73247:0:0:0:0:
64,192,73247,1,4,0:0:0:0:
192,192,73247,1,2,0:0:0:0:
320,192,73460,1,8,0:0:0:0:
448,192,73566,1,2,0:0:0:0:
192,192,73779,1,2,0:0:0:0:
64,192,73885,1,8,0:0:0:0:
320,192,74098,1,2,0:0:0:0:
448,192,74098,1,0,0:0:0:0:
64,192,74311,1,8,0:0:0:0:
192,192,74417,1,2,0:0:0:0:
448,192,74630,1,2,0:0:0:0:
320,192,74736,1,8,0:0:0:0:
64,192,74949,1,2,0:0:0:0:
448,192,74949,1,0,0:0:0:0:
192,192,75162,1,8,0:0:0:0:
320,192,75268,1,2,0:0:0:0:
448,192,75481,1,2,0:0:0:0:
64,192,75587,1,8,0:0:0:0:
192,192,75800,1,2,0:0:0:0:
448,192,75800,128,4,76119:0:0:0:0:
64,192,76119,1,8,0:0:0:0:
320,192,76119,128,0,76438:0:0:0:0:
192,192,76438,128,8,76651:0:0:0:0:
448,192,76438,1,0,0:0:0:0:
64,192,76651,128,4,76864:0:0:0:0:
320,192,76651,1,2,0:0:0:0:
192,192,77077,1,4,0:0:0:0:
448,192,77077,128,2,77502:0:0:0:0:
64,192,77502,1,8,0:0:0:0:
320,192,77502,128,4,77821:0:0:0:0:
192,192,77821,128,8,78141:0:0:0:0:
448,192,77821,1,4,0:0:0:0:
64,192,78141,1,8,0:0:0:0:
320,192,78141,128,0,78353:0:0:0:0:
192,192,78353,1,2,0:0:0:0:
448,192,78353,128,4,78566:0:0:0:0:
64,192,78566,128,2,78779:0:0:0:0:
320,192,78566,1,4,0:0:0:0:
192,192,78779,128,2,78992:0:0:0:0:
448,192,78779,1,4,0:0:0:0:
64,192,78992,1,2,0:0:0:0:
320,192,78992,128,4,79204:0:0:0:0:
192,192,79204,1,8,0:0:0:0:
448,192,79204,128,0,80056:0:0:0:0:
320,192,79417,1,8,0:0:0:0:
64,192,79630,1,8,0:0:0:0:
192,192,79843,1,8,0:0:0:0:
64,192,80056,128,4,80481:0:0:0:0:
320,192,80056,1,2,0:0:0:0:
192,192,80481,1,8,0:0:0:0:
448,192,80481,1,0,0:0:0:0:
64,192,80907,1,2,0:0:0:0:
320,192,80907,128,0,81332:0:0:0:0:
192,192,81332,1,8,0:0:0:0:
448,192,81332,1,0,0:0:0:0:
192,192,81758,128,2,82183:0:0:0:0:
320,192,81758,1,0,0:0:0:0:
64,192,82183,1,8,0:0:0:0:
448,192,82183,1,0,0:0:0:0:
192,192,82609,1,2,0:0:0:0:
448,192,82609,128,4,83034:0:0:0:0:
192,192,82821,1,2,0:0:0:0:
64,192,83034,1,8,0:0:0:0:
320,192,83034,1,0,0:0:0:0:
192,192,83247,128,8,83460:0:0:0:0:
64,192,83460,1,2,0:0:0:0:
448,192,83460,1,4,0:0:0:0:
320,192,83673,1,8,0:0:0:0:
448,192,83673,1,0,0:0:0:0:
192,192,83779,1,2,0:0:0:0:
64,192,83992,1,8,0:0:0:0:
320,192,83992,1,0,0:0:0:0:
448,192,84098,1,2,0:0:0:0:
64,192,84311,1,8,0:0:0:0:
192,192,84311,1,0,0:0:0:0:
192,192,84524,1,2,0:0:0:0:
320,192,84524,1,0,0:0:0:0:
320,192,84736,1,2,0:0:0:0:
448,192,84736,1,0,0:0:0:0:
192,192,84949,1,2,0:0:0:0:
448,192,84949,1,0,0:0:0:0:
64,192,85162,1,4,0:0:0:0:
320,192,85162,1,8,0:0:0:0:
192,192,86226,128,2,86438:0:0:0:0:
64,192,86438,128,8,86864:0:0:0:0:
448,192,86438,128,4,86864:0:0:0:0:
192,192,86864,1,4,0:0:0:0:
320,192,86864,1,2,0:0:0:0:
64,192,87077,1,8,0:0:0:0:
448,192,87183,1,2,0:0:0:0:
320,192,87396,1,2,0:0:0:0:
64,192,87502,1,8,0:0:0:0:
320,192,87715,1,2,0:0:0:0:
448,192,87715,1,0,0:0:0:0:
192,192,87928,1,8,0:0:0:0:
448,192,88034,1,2,0:0:0:0:
64,192,88247,1,2,0:0:0:0:
320,192,88353,1,8,0:0:0:0:
64,192,88566,1,2,0:0:0:0:
192,192,88566,1,0,0:0:0:0:
448,192,88779,1,8,0:0:0:0:
320,192,88885,1,2,0:0:0:0:
64,192,89098,1,2,0:0:0:0:
192,192,89204,1,8,0:0:0:0:
64,192,89417,1,2,0:0:0:0:
448,192,89417,1,0,0:0:0:0:
320,192,89630,1,8,0:0:0:0:
192,192,89736,1,2,0:0:0:0:
448,192,89949,1,2,0:0:0:0:
64,192,90056,1,8,0:0:0:0:
192,192,90268,1,2,0:0:0:0:
320,192,90268,1,4,0:0:0:0:
448,192,90481,1,8,0:0:0:0:
64,192,90587,1,2,0:0:0:0:
192,192,90800,1,2,0:0:0:0:
448,192,90907,1,8,0:0:0:0:
64,192,91119,1,2,0:0:0:0:
320,192,91119,1,0,0:0:0:0:
192,192,91332,1,8,0:0:0:0:
448,192,91438,1,2,0:0:0:0:
64,192,91651,1,2,0:0:0:0:
320,192,91758,1,8,0:0:0:0:
192,192,91970,1,2,0:0:0:0:
448,192,91970,1,4,0:0:0:0:
320,192,92183,1,8,0:0:0:0:
64,192,92290,1,2,0:0:0:0:
192,192,92290,1,4,0:0:0:0:
448,192,92502,1,2,0:0:0:0:
192,192,92609,1,8,0:0:0:0:
320,192,92609,1,4,0:0:0:0:
320,192,92821,1,2,0:0:0:0:
448,192,92821,128,4,93673:0:0:0:0:
64,192,93034,1,8,0:0:0:0:
192,192,93247,1,0,0:0:0:0:
320,192,93460,1,8,0:0:0:0:
64,192,93673,128,4,95375:0:0:0:0:
192,192,93673,128,4,95375:1:0:0:0:
