osu file format v14

[General]
AudioFilename: audio.mp3
AudioLeadIn: 0
PreviewTime: 66380
Countdown: 0
SampleSet: Soft
StackLeniency: 0.7
Mode: 0
LetterboxInBreaks: 0
WidescreenStoryboard: 1

[Editor]
DistanceSpacing: 1.05
BeatDivisor: 4
GridSize: 32
TimelineZoom: 1.2

[Metadata]
Title:Hey Darling!
TitleUnicode:Hey Darling!
Artist:Matsushita
ArtistUnicode:松下
Creator:Lasse
Version:Normal
Source:ワガママハイスペックOC
Tags:Wagamama High Spec OC OverClock Wagahigh opening eroge visual novel Madosoft Mir
BeatmapID:1448828
BeatmapSetID:684242

[Difficulty]
HPDrainRate:3
CircleSize:3.2
OverallDifficulty:4
ApproachRate:5
SliderMultiplier:0.600000005960464
SliderTickRate:1

[Events]
//Background and Video events
0,0,"needsmoreass.jpg",0,0
Video,-10,"optc.flv"
//Break Periods
//Storyboard Layer 0 (Background)
//Storyboard Layer 1 (Fail)
//Storyboard Layer 2 (Pass)
//Storyboard Layer 3 (Foreground)
//Storyboard Sound Samples

[TimingPoints]
955,212.765957446809,4,2,1,50,1,0
6912,-100,4,2,1,60,0,0
7763,-100,4,2,1,70,0,0
8614,-100,4,2,1,65,0,0
12869,-100,4,2,1,70,0,0
13720,-100,4,2,1,40,0,0
14997,-100,4,2,1,100,0,0
15210,-100,4,2,1,40,0,0
15423,-100,4,2,1,75,0,1
19252,-100,4,2,1,75,0,1
19678,-100,4,2,1,75,0,1
22231,-100,4,2,1,65,0,0
24784,-100,4,2,1,75,0,0
25635,-100,4,2,1,70,0,0
25848,-100,4,2,1,70,0,0
26486,-100,4,2,1,75,0,0
28614,-100,4,2,1,70,0,0
28827,-100,4,2,1,40,0,0
29040,-100,4,2,1,70,0,0
35848,-111.111111111111,4,2,1,60,0,0
49465,-125,4,2,1,50,0,0
56274,-111.111111111111,4,2,1,60,0,0
59678,-100,4,2,1,65,0,0
63082,-100,4,2,1,70,0,0
66061,-100,4,2,1,100,0,0
66274,-100,4,2,1,40,0,0
66486,-100,4,2,1,75,0,1
71593,-100,4,2,1,75,0,1
72444,-100,4,2,1,75,0,0
73295,-100,4,2,1,75,0,1
77125,-100,4,2,1,75,0,1
77550,-100,4,2,1,75,0,1
80103,-100,4,2,1,65,0,0
82657,-100,4,2,1,75,0,0
83508,-100,4,2,1,70,0,0
83720,-100,4,2,1,70,0,0
84359,-100,4,2,1,70,0,0
86912,-100,4,2,1,70,0,0
92018,-100,4,2,1,72,0,0
92231,-100,4,2,1,70,0,0
92337,-100,4,2,1,74,0,0
92550,-100,4,2,1,70,0,0
92657,-100,4,2,1,76,0,0
92763,-100,4,2,1,70,0,0
92869,-100,4,2,1,78,0,0
92976,-100,4,2,1,70,0,0
93082,-100,4,2,1,76,0,0
93720,-117.647058823529,4,2,1,78,0,0
93774,-100,4,2,1,20,0,0
95210,-100,4,2,1,10,0,0

[Colours]
Combo1 : 250,190,230
Combo2 : 130,200,230
Combo3 : 255,230,140
Combo4 : 170,245,170

[HitObjects]
131,40,1806,5,14,0:0:0:0:
281,340,3508,1,14,0:0:0:0:
438,43,5210,1,6,0:0:0:0:
163,245,6912,6,0,L|59:238,1,90.0000008940696,14|10,0:0|0:0,0:0:0:0:
14,170,7550,1,10,0:0:0:0:
250,54,8614,6,0,P|291:44|380:60,1,120.000001192093,6|2,0:0|0:0,0:0:0:0:
464,124,9465,1,10,0:3:0:0:
453,243,9891,1,10,0:3:0:0:
344,292,10316,6,0,L|217:283,1,120.000001192093,6|10,0:0|0:3,0:0:0:0:
164,179,11167,2,0,B|155:154|154:131|154:131|167:93|149:46,1,120.000001192093,10|10,0:3|0:3,0:0:0:0:
40,21,12018,5,6,0:0:0:0:
29,140,12444,2,0,B|23:251,1,90.0000008940696,10|10,0:0|0:0,0:0:0:0:
80,299,13082,2,0,P|115:292|155:292,1,60.0000005960464,8|10,0:0|0:0,0:0:0:0:
241,353,13720,5,2,0:0:0:0:
479,89,14997,1,12,0:2:0:0:
362,57,15423,6,0,B|303:34|300:67|241:45,1,120.000001192093,14|2,0:3|0:0,0:0:0:0:
189,22,16061,1,10,0:0:0:0:
136,50,16274,2,0,L|126:240,1,180.000001788139,10|8,0:3|0:0,0:0:0:0:
154,281,17125,2,0,L|220:288,1,60.0000005960464,10|10,0:3|0:0,0:0:0:0:
268,314,17550,2,0,L|333:320,1,60.0000005960464,2|10,0:0|0:0,0:0:0:0:
373,279,17976,2,0,L|376:171,2,90.0000008940696,14|10|10,0:0|0:0|0:0,0:0:0:0:
415,321,18827,5,14,0:3:0:0:
502,240,19252,1,14,0:3:0:0:
454,129,19678,2,0,P|411:103|345:104,2,90.0000008940696,14|8|10,0:3|0:0|0:0,0:0:0:0:
427,182,20529,2,0,P|367:182|308:168,1,120.000001192093,6|10,0:0|0:3,0:0:0:0:
254,142,21167,1,10,0:3:0:0:
215,95,21380,2,0,P|156:81|96:81,1,120.000001192093,10|8,0:2|0:2,0:0:0:0:
7,161,22231,5,14,0:3:0:0:
175,331,23082,1,10,0:3:0:0:
215,95,23933,1,10,0:3:0:0:
356,288,24784,6,0,P|410:294|474:260,1,120.000001192093,14|10,0:3|0:3,0:0:0:0:
477,206,25423,1,10,0:0:0:0:
450,152,25635,2,0,B|428:127|395:123|395:123|391:52|315:21,1,180.000001788139,14|10,0:3|0:3,0:0:0:0:
281,58,26486,2,0,L|157:46,1,120.000001192093,12|8,0:2|0:0,0:0:0:0:
102,56,27125,1,8,0:0:0:0:
56,94,27337,5,14,0:0:0:0:
326,338,28614,1,8,0:3:0:0:
398,242,29040,6,0,B|409:200|409:200|395:132,2,90.0000008940696,14|10|10,0:3|0:3|0:0,0:0:0:0:
340,260,29891,2,0,L|158:247,1,180.000001788139,10|10,0:3|0:0,0:0:0:0:
106,274,30742,1,10,0:3:0:0:
67,192,31061,1,10,0:3:0:0:
144,63,31593,2,0,B|203:57|203:57|260:78|260:78|324:70,1,180.000001788139,10|10,0:3|0:0,0:0:0:0:
372,98,32444,6,0,L|470:83,2,90.0000008940696,14|10|10,0:3|0:3|0:0,0:0:0:0:
337,147,33295,2,0,B|305:201|305:201|166:173,1,180.000001788139,10|10,0:3|0:0,0:0:0:0:
158,121,34146,2,0,B|79:73|79:73|-7:137,1,180.000001788139,10|10,0:3|0:0,0:0:0:0:
0,184,34997,1,14,0:3:0:0:
39,297,35423,1,8,0:0:0:0:
158,294,35848,6,0,P|229:275|321:290,1,161.999996665478,14|10,0:3|0:0,0:0:0:0:
357,321,36699,2,0,L|372:160,1,161.999996665478,10|10,0:3|0:0,0:0:0:0:
408,119,37550,1,10,0:3:0:0:
365,20,37976,1,2,0:0:0:0:
257,30,38401,2,0,L|90:21,1,161.999996665478,10|10,0:3|0:2,0:0:0:0:
47,46,39252,6,0,P|10:109|46:209,1,161.999996665478,10|10,0:3|0:0,0:0:0:0:
78,214,40103,2,0,L|245:223,1,161.999996665478,10|10,0:3|0:2,0:0:0:0:
293,219,40955,1,10,0:3:0:0:
371,292,41380,1,2,0:0:0:0:
298,370,41806,2,0,L|131:361,1,161.999996665478,10|10,0:3|0:2,0:0:0:0:
82,354,42657,6,0,P|61:260|108:189,1,161.999996665478,14|10,0:3|0:0,0:0:0:0:
141,189,43508,1,10,0:3:0:0:
244,220,43933,1,2,2:0:0:0:
336,163,44359,2,0,L|434:169,2,80.9999983327389,10|10|10,0:3|0:3|0:0,0:0:0:0:
298,124,45210,2,0,P|234:85|140:90,1,161.999996665478,10|10,0:3|0:0,0:0:0:0:
109,123,46061,6,0,L|100:289,1,161.999996665478,10|10,0:3|0:0,0:0:0:0:
126,332,46912,1,8,0:3:0:0:
201,293,47231,1,10,0:3:0:0:
271,340,47550,1,10,0:0:0:0:
484,94,48827,2,0,L|489:23,2,53.9999988884926,10|10|10,0:0|0:0|0:3,0:0:0:0:
458,134,49465,6,0,P|392:144|351:122,1,96.0000009536742,14|8,0:3|0:3,0:0:0:0:
292,72,50316,2,0,P|251:47|203:48,1,96.0000009536742,10|8,0:3|0:3,0:0:0:0:
111,74,51167,1,10,0:3:0:0:
89,168,51593,1,8,0:3:0:0:
159,234,52018,2,0,L|262:231,1,96.0000009536742,10|10,0:3|0:3,0:0:0:0:
349,249,52869,6,0,P|362:295|346:354,1,96.0000009536742,10|8,0:3|0:3,0:0:0:0:
259,364,53720,2,0,L|156:361,1,96.0000009536742,10|8,0:3|0:3,0:0:0:0:
68,379,54571,1,10,0:3:0:0:
22,295,54997,1,8,0:3:0:0:
87,225,55423,2,0,L|96:118,1,96.0000009536742,10|10,0:3|0:0,0:0:0:0:
134,92,56061,1,10,0:0:0:0:
187,81,56274,6,0,L|300:75,1,107.999997776985,14|10,0:3|0:3,0:0:0:0:
396,37,57125,1,8,0:3:0:0:
464,122,57550,1,10,0:3:0:0:
403,211,57976,2,0,L|288:221,1,107.999997776985,8|10,0:3|0:3,0:0:0:0:
233,308,58827,1,14,0:3:0:0:
136,259,59252,1,10,0:0:0:0:
129,205,59465,1,10,0:0:0:0:
122,144,59678,6,0,P|164:119|277:144,1,150.000001490116,14|10,0:3|0:0,0:0:0:0:
311,163,60423,2,0,P|353:175|409:155,1,90.0000008940696,10|10,0:0|0:2,0:0:0:0:
458,60,61167,1,10,0:0:0:0:
402,37,61380,2,0,L|245:28,1,150.000001490116,10|10,0:3|0:0,0:0:0:0:
202,62,62125,2,0,L|100:64,1,90.0000008940696,10|8,0:2|0:2,0:0:0:0:
30,151,62869,1,10,0:3:0:0:
82,180,63082,6,0,B|125:221|125:221|97:262|113:307,1,150.000001490116,14|10,0:3|0:0,0:0:0:0:
159,345,63827,2,0,L|322:334,1,150.000001490116,10|10,0:0|0:3,0:0:0:0:
363,359,64572,1,10,0:0:0:0:
413,327,64784,1,14,0:0:0:0:
345,43,66061,1,12,0:0:0:0:
246,111,66487,6,0,P|181:114|133:88,1,120.000001192093,14|2,0:3|0:0,0:0:0:0:
93,44,67125,1,10,0:0:0:0:
39,71,67338,2,0,B|23:126|23:126|44:181|44:181|29:261,1,180.000001788139,10|8,0:3|0:0,0:0:0:0:
41,303,68189,2,0,P|85:316|113:307,1,60.0000005960464,10|10,0:3|0:0,0:0:0:0:
154,293,68614,2,0,P|181:280|210:282,1,60.0000005960464,2|10,0:0|0:2,0:0:0:0:
250,327,69040,2,0,P|303:348|384:334,1,120.000001192093,10|10,0:3|0:3,0:0:0:0:
415,310,69678,1,10,0:0:0:0:
475,311,69891,5,10,0:3:0:0:
501,194,70316,2,0,L|500:71,1,120.000001192093,2|10,0:0|0:3,0:0:0:0:
450,38,70955,2,0,P|394:21|328:25,1,120.000001192093,10|10,0:0|0:0,0:0:0:0:
310,79,71593,2,0,L|323:180,2,90.0000008940696,14|14|14,0:3|0:3|0:0,0:0:0:0:
258,47,72444,2,0,P|198:44|141:61,1,120.000001192093,10|10,0:0|0:0,0:0:0:0:
58,148,73295,6,0,B|57:230|57:230|87:259,1,120.000001192093,14|2,0:3|0:0,0:0:0:0:
134,290,73933,1,10,0:0:0:0:
180,252,74146,2,0,B|239:239|239:239|295:257|295:257|362:248,1,180.000001788139,10|8,0:3|0:0,0:0:0:0:
410,272,74997,2,0,P|422:311|416:351,1,60.0000005960464,10|10,0:3|0:0,0:0:0:0:
373,365,75423,2,0,L|285:368,1,60.0000005960464,2|10,0:0|0:0,0:0:0:0:
260,337,75848,2,0,L|156:341,2,90.0000008940696,14|10|10,0:0|0:0|0:0,0:0:0:0:
293,287,76699,5,14,0:3:0:0:
411,304,77124,1,14,0:3:0:0:
447,189,77550,2,0,L|448:79,2,90.0000008940696,14|8|10,0:3|0:0|0:0,0:0:0:0:
390,209,78401,2,0,P|336:189|271:195,1,120.000001192093,6|10,0:0|0:3,0:0:0:0:
225,228,79039,1,10,0:3:0:0:
183,271,79252,2,0,P|123:276|67:255,1,120.000001192093,10|8,0:2|0:2,0:0:0:0:
7,161,80103,5,14,0:3:0:0:
208,30,80954,1,10,0:3:0:0:
220,269,81806,1,10,0:3:0:0:
450,204,82656,6,0,P|466:144|434:69,1,120.000001192093,14|10,0:3|0:3,0:0:0:0:
396,61,83295,1,10,0:0:0:0:
337,73,83507,2,0,B|305:71|281:48|281:48|223:90|171:59,1,180.000001788139,14|10,0:3|0:3,0:0:0:0:
113,42,84358,2,0,B|77:25|39:29|39:29|15:81,1,120.000001192093,12|8,0:3|0:3,0:0:0:0:
27,128,84997,1,8,0:3:0:0:
30,187,85210,5,14,0:0:0:0:
343,363,86486,1,8,0:0:0:0:
419,270,86912,6,0,B|434:231|434:231|416:170,2,90.0000008940696,14|10|10,0:3|0:3|0:0,0:0:0:0:
359,277,87763,2,0,B|301:265|301:265|245:284|245:284|174:279,1,180.000001788139,10|10,0:3|0:0,0:0:0:0:
130,307,88614,1,10,0:3:0:0:
54,258,88933,1,10,0:3:0:0:
94,113,89465,2,0,B|152:101|152:101|208:120|208:120|279:115,1,180.000001788139,10|10,0:3|0:0,0:0:0:0:
325,93,90316,6,0,L|332:-4,2,90.0000008940696,14|10|10,0:3|0:3|0:0,0:0:0:0:
366,136,91167,2,0,B|370:158|385:181|385:181|337:237|367:311,1,180.000001788139,10|10,0:3|0:0,0:0:0:0:
408,344,92018,2,0,L|507:344,2,90.0000008940696,14|14|10,0:3|0:3|0:0,0:0:0:0:
361,382,92869,1,10,0:3:0:0:
256,322,93295,1,10,0:0:0:0:
151,382,93720,6,0,B|127:368|97:348|97:348|112:268|64:206|64:206|69:115|159:85,1,357.000010355711,14|2,0:0|0:0,0:0:0:0:
