osu file format v14

[General]
AudioFilename: audio.mp3
AudioLeadIn: 0
PreviewTime: 66380
Countdown: 0
SampleSet: Soft
StackLeniency: 0.4
Mode: 0
LetterboxInBreaks: 0
WidescreenStoryboard: 1

[Editor]
Bookmarks: 13720,15423,29040,35848,42657,49465,55423,66486,73295,86912
DistanceSpacing: 1.3
BeatDivisor: 4
GridSize: 32
TimelineZoom: 3.199999

[Metadata]
Title:Hey Darling!
TitleUnicode:Hey Darling!
Artist:Matsushita
ArtistUnicode:松下
Creator:Lasse
Version:Mir's Insane
Source:ワガママハイスペックOC
Tags:Wagamama High Spec OC OverClock Wagahigh opening eroge visual novel Madosoft Mir
BeatmapID:1448672
BeatmapSetID:684242

[Difficulty]
HPDrainRate:5
CircleSize:4
OverallDifficulty:8
ApproachRate:9.2
SliderMultiplier:1.6
SliderTickRate:1

[Events]
//Background and Video events
0,0,"needsmoreass.jpg",0,0
Video,-10,"optc.flv"
//Break Periods
//Storyboard Layer 0 (Background)
//Storyboard Layer 1 (Fail)
//Storyboard Layer 2 (Pass)
//Storyboard Layer 3 (Foreground)
//Storyboard Sound Samples

[TimingPoints]
955,212.765957446809,4,2,1,50,1,0
4465,-133.333333333333,4,2,1,40,0,0
4784,-133.333333333333,4,2,1,35,0,0
5210,-100,4,2,1,50,0,0
6433,-100,4,2,1,5,0,0
6486,-100,4,2,1,50,0,0
6912,-100,4,2,1,60,0,0
7763,-100,4,2,1,70,0,0
8614,-100,4,2,1,65,0,0
12869,-100,4,2,1,70,0,0
13720,-100,4,2,1,40,0,0
14997,-100,4,2,1,100,0,0
15210,-100,4,2,1,40,0,0
15423,-100,4,2,1,75,0,0
19252,-200,4,2,1,75,0,0
19997,-133.333333333333,4,2,1,75,0,0
20529,-100,4,2,1,75,0,0
22231,-125,4,2,1,65,0,0
24784,-83.3333333333333,4,2,1,75,0,0
25635,-100,4,2,1,70,0,0
26486,-100,4,2,1,75,0,0
28614,-100,4,2,1,70,0,0
28827,-100,4,2,1,40,0,0
29040,-100,4,2,1,70,0,0
35848,-100,4,2,1,60,0,0
49465,-133.333333333333,4,2,1,50,0,0
56274,-111.111111111111,4,2,1,60,0,0
59678,-100,4,2,1,65,0,0
63082,-100,4,2,1,70,0,0
66061,-100,4,2,1,100,0,0
66274,-100,4,2,1,40,0,0
66486,-83.3333333333333,4,2,1,75,0,1
73224,-83.3333333333333,4,2,1,75,0,0
73295,-83.3333333333333,4,2,1,75,0,1
76699,-83.3333333333333,4,2,1,75,0,0
77125,-133.333333333333,4,2,1,75,0,0
79252,-83.3333333333333,4,2,1,75,0,0
80103,-100,4,2,1,65,0,1
82657,-100,4,2,1,75,0,1
83508,-100,4,2,1,70,0,1
85210,-100,4,2,1,70,0,0
86486,-200,4,2,1,70,0,0
86912,-100,4,2,1,70,0,0
92018,-100,4,2,1,72,0,0
92231,-100,4,2,1,70,0,0
92337,-100,4,2,1,74,0,0
92550,-100,4,2,1,70,0,0
92657,-100,4,2,1,76,0,0
92763,-100,4,2,1,70,0,0
92869,-100,4,2,1,78,0,0
92976,-100,4,2,1,70,0,0
93082,-100,4,2,1,76,0,0
93720,-100,4,2,1,78,0,0
93774,-100,4,2,1,20,0,0
95210,-100,4,2,1,10,0,0

[Colours]
Combo1 : 250,190,230
Combo2 : 130,200,230
Combo3 : 255,230,140
Combo4 : 170,245,170

[HitObjects]
160,96,1593,5,8,0:3:0:0:
163,122,1664,1,8,0:3:0:0:
165,148,1735,1,8,0:3:0:0:
169,198,1806,6,0,B|282:191|282:191|219:223,1,160,14|0,0:0|0:0,0:0:0:0:
160,96,3295,5,2,0:0:0:0:
163,122,3401,1,2,0:0:0:0:
169,198,3508,6,0,B|282:191|282:191|219:223,1,160,14|0,0:0|0:0,0:0:0:0:
240,212,4465,5,2,0:0:0:0:
251,233,4572,2,2,P|305:244|322:242,1,60.0000022888184
327,64,4784,1,2,0:0:0:0:
309,80,4891,1,2,0:0:0:0:
299,101,4997,2,0,P|293:152|306:180,1,60.0000022888184,2|0,0:0|0:0,0:0:0:0:
169,198,5210,6,0,B|282:191|282:191|219:223,1,160,6|0,0:0|0:0,0:0:0:0:
119,266,5635,5,2,0:2:0:0:
82,193,6061,5,2,0:2:0:0:
136,120,6274,6,0,P|145:78|95:7,1,120,2|0,0:0|0:0,0:0:0:0:
96,35,6486,6,0,P|171:45|264:36,1,160,2|8,0:0|0:3,0:0:0:0:
275,32,6770,1,8,0:3:0:0:
295,26,6841,1,8,0:3:0:0:
314,17,6912,6,0,L|308:125,1,80,14|0,0:0|0:0,0:0:0:0:
370,150,7125,1,8,0:3:0:0:
386,177,7231,2,0,L|380:285,1,80,10|0,0:0|0:0,0:0:0:0:
246,157,7444,1,8,0:3:0:0:
230,184,7550,2,0,L|236:292,1,80,10|8,0:0|0:3,0:0:0:0:
214,344,7763,5,10,0:3:0:0:
190,322,7869,1,8,0:0:0:0:
158,314,7976,1,8,0:0:0:0:
126,316,8082,1,8,0:0:0:0:
49,325,8189,6,0,L|51:392,2,53.3333333333333,10|8|8,0:3|0:3|0:3,0:0:0:0:
3,251,8401,2,0,L|1:197,2,53.3333333333333,10|8|8,0:3|0:3|0:3,0:0:0:0:
91,194,8614,6,0,P|106:134|60:46,1,160,6|0,0:0|0:0,0:0:0:0:
151,22,8933,1,0,0:0:0:0:
172,45,9040,2,0,P|231:61|276:53,2,80,2|2|0,0:0|0:0|0:0,0:0:0:0:
319,16,9359,6,0,B|355:93|286:105|333:193,1,160,2|0,0:0|0:0,0:0:0:0:
477,155,9678,1,2,0:0:0:0:
489,125,9784,1,2,0:0:0:0:
478,94,9891,6,0,P|438:107|399:138,1,80,10|0,0:3|0:0,0:0:0:0:
330,200,10103,2,0,P|370:213|409:244,1,80,2|0,0:0|0:0,0:0:0:0:
502,330,10316,6,0,B|288:316,1,160,6|0,0:0|0:0,0:0:0:0:
241,321,10635,1,0,0:0:0:0:
214,339,10742,2,0,B|178:352|178:352|121:348,2,80,10|2|0,0:3|0:0|0:0,0:0:0:0:
161,267,11061,6,0,B|140:197|140:197|168:116,1,160,2|0,0:0|0:0,0:0:0:0:
349,68,11380,1,2,0:0:0:0:
320,55,11486,1,2,0:0:0:0:
292,40,11593,6,0,B|256:42|234:28|234:28|189:59|186:18|106:46,1,160,10|0,0:3|0:0,0:0:0:0:
53,55,11912,1,2,0:0:0:0:
168,115,12018,6,0,B|190:202|190:202|155:285,1,160,6|0,0:0|0:0,0:0:0:0:
162,266,12444,6,0,L|259:258,1,80,10|10,0:0|0:3,0:0:0:0:
275,183,12657,2,0,L|354:190,1,80,8|10,0:0|0:0,0:0:0:0:
468,259,12869,6,0,L|388:266,1,80,10|8,0:2|0:0,0:0:0:0:
485,83,13082,2,0,B|498:122|498:122|495:195,1,80,8|8,0:0|0:0,0:0:0:0:
468,259,13295,2,0,L|464:322,2,53.3333333333333,10|0|8,0:0|0:0|0:0,0:0:0:0:
388,266,13508,5,8,0:0:0:0:
371,279,13579,1,8,0:3:0:0:
360,297,13650,1,8,0:3:0:0:
354,317,13720,1,2,0:0:0:0:
163,105,14997,6,0,B|162:75|89:58|51:103|63:182|126:233|186:217,1,240,12|0,0:2|0:0,0:0:0:0:
226,169,15423,6,0,L|315:161,1,80,14|0,0:3|0:0,0:0:0:0:
371,105,15635,2,0,L|450:112,1,80,10|8,0:0|0:3,0:0:0:0:
482,202,15848,2,0,L|402:194,1,80,2|8,0:0|0:3,0:0:0:0:
250,256,16061,2,0,L|329:248,1,80,10|0,0:0|0:0,0:0:0:0:
473,278,16274,6,0,P|486:216|471:182,1,80,10|0,0:3|0:0,0:0:0:0:
329,248,16486,1,10,0:0:0:0:
311,276,16593,2,0,P|305:315|319:352,1,80,10|0,0:3|0:0,0:0:0:0:
485,288,16806,2,0,P|498:250|493:211,1,80,10|8,0:3|0:0,0:0:0:0:
472,89,17018,1,2,0:0:0:0:
450,112,17125,6,0,P|381:128|356:125,1,80,10|0,0:3|0:0,0:0:0:0:
242,63,17337,2,0,P|311:47|336:50,1,80,10|8,0:0|0:3,0:0:0:0:
372,127,17550,2,0,L|355:205,1,80,2|8,0:0|0:3,0:0:0:0:
271,279,17763,2,0,L|252:190,1,80,10|0,0:0|0:0,0:0:0:0:
92,165,17976,5,14,0:0:0:0:
86,134,18082,1,8,0:0:0:0:
91,103,18189,1,8,0:0:0:0:
175,95,18295,5,10,0:0:0:0:
220,111,18401,1,8,0:0:0:0:
268,108,18508,1,8,0:0:0:0:
311,32,18614,5,10,0:0:0:0:
363,20,18721,1,8,0:0:0:0:
448,33,18827,5,14,0:3:0:0:
448,33,19252,2,0,L|428:168,1,80,14|0,0:3|0:0,0:0:0:0:
356,180,19678,2,0,L|344:100,1,80,14|8,0:3|0:3,0:0:0:0:
456,202,19997,6,0,L|446:277,1,60.0000022888184,8|2,0:0|0:0,0:0:0:0:
381,335,20210,1,8,0:3:0:0:
361,321,20316,2,0,L|353:261,1,60.0000022888184,10|0,0:0|0:0,0:0:0:0:
273,172,20529,6,0,P|185:175|160:198,1,80,6|0,0:0|0:0,0:0:0:0:
63,245,20742,2,0,P|101:252|140:242,1,80,10|0,0:3|0:0,0:0:0:0:
104,166,20955,2,0,L|112:86,1,80,10|0,0:3|0:0,0:0:0:0:
228,252,21167,2,0,L|219:331,1,80,10|0,0:3|0:0,0:0:0:0:
185,87,21380,5,10,0:2:0:0:
161,87,21486,1,8,0:2:0:0:
136,86,21593,1,8,0:2:0:0:
112,86,21699,1,8,0:2:0:0:
44,32,21806,5,8,0:2:0:0:
26,67,21912,1,8,0:2:0:0:
28,106,22018,1,8,0:2:0:0:
43,143,22125,1,8,0:2:0:0:
95,218,22231,6,0,P|201:223|235:199,1,128,14|0,0:3|0:0,0:0:0:0:
261,143,22550,1,10,0:3:0:0:
281,157,22657,2,0,L|457:148,1,128,8|2,0:0|0:0,0:0:0:0:
433,355,23082,6,0,P|453:256|428:208,1,128,10|0,0:3|0:0,0:0:0:0:
408,150,23401,2,0,P|401:67|409:41,2,64,10|8|0,0:3|0:0|0:0,0:0:0:0:
444,233,23720,2,0,P|405:239|373:232,1,64,2|0,0:0|0:0,0:0:0:0:
270,95,23933,6,0,L|397:87,1,128,10|0,0:3|0:0,0:0:0:0:
266,180,24252,2,0,P|236:173|209:156,2,64,10|8|0,0:3|0:0|0:0,0:0:0:0:
311,259,24572,1,2,0:0:0:0:
315,284,24678,1,2,0:0:0:0:
250,338,24784,6,0,B|205:352|205:352|150:339,1,95.9999970703126,14|0,0:3|0:0,0:0:0:0:
67,224,24997,2,0,B|112:210|112:210|167:223,1,95.9999970703126,10|0,0:0|0:0,0:0:0:0:
251,357,25210,2,0,B|206:371|206:371|151:358,1,95.9999970703126,10|0,0:3|0:0,0:0:0:0:
67,224,25423,2,0,B|53:197|53:197|58:158,2,63.9999980468751,10|8|8,0:0|0:2|0:2,0:0:0:0:
93,74,25635,6,0,L|203:70,1,80,14|0,0:3|0:0,0:0:0:0:
338,34,25848,1,10,0:0:0:0:
360,56,25955,2,0,P|371:95|360:152,1,80,8|2,0:3|0:0,0:0:0:0:
248,239,26167,1,8,0:3:0:0:
226,217,26274,2,0,P|215:178|226:121,1,80,10|0,0:3|0:0,0:0:0:0:
430,198,26486,6,0,P|346:224|331:220,1,80,12|8,0:2|0:2,0:0:0:0:
133,158,26699,1,8,0:0:0:0:
153,189,26806,2,0,P|186:210|225:216,1,80,8|8,0:0|0:0,0:0:0:0:
330,304,27018,1,8,0:0:0:0:
291,285,27125,1,8,0:0:0:0:
246,296,27231,1,8,0:0:0:0:
282,372,27337,5,14,0:0:0:0:
385,107,28614,6,0,B|456:88|456:88|275:106,1,240,8|0,0:3|0:0,0:0:0:0:
211,66,29040,6,0,B|201:106|201:106|216:166,1,80,14|0,0:3|0:0,0:0:0:0:
286,205,29252,1,8,0:0:0:0:
301,233,29359,2,0,B|311:273|311:273|296:333,1,80,10|0,0:3|0:0,0:0:0:0:
117,306,29572,1,8,0:3:0:0:
135,280,29678,2,0,L|239:277,1,80,10|0,0:0|0:0,0:0:0:0:
421,348,29891,5,10,0:3:0:0:
402,321,29997,1,2,0:0:0:0:
395,289,30103,1,10,0:0:0:0:
410,260,30210,2,0,P|425:220|424:162,1,80,10|0,0:3|0:0,0:0:0:0:
355,137,30423,1,10,0:3:0:0:
340,108,30530,2,0,P|325:68|326:10,1,80,10|0,0:0|0:0,0:0:0:0:
121,105,30742,6,0,P|163:115|239:87,1,80,10|0,0:3|0:0,0:0:0:0:
46,35,30955,1,8,0:0:0:0:
32,63,31061,2,0,P|23:104|38:159,1,80,10|0,0:3|0:0,0:0:0:0:
97,192,31274,1,10,0:3:0:0:
111,220,31380,2,0,P|120:261|105:316,1,80,10|0,0:0|0:0,0:0:0:0:
35,373,31593,5,10,0:3:0:0:
66,373,31699,1,2,0:0:0:0:
98,373,31806,1,10,0:0:0:0:
129,373,31912,2,0,L|218:374,1,80,10|0,0:3|0:0,0:0:0:0:
295,375,32125,1,10,0:3:0:0:
326,375,32231,2,0,L|415:376,1,80,10|0,0:0|0:0,0:0:0:0:
276,152,32444,6,0,P|237:249|276:316,1,160,14|8,0:3|0:0,0:0:0:0:
406,238,32763,2,0,L|310:236,1,80,10|0,0:3|0:0,0:0:0:0:
255,295,32976,1,8,0:3:0:0:
223,293,33082,2,0,L|127:291,1,80,10|0,0:0|0:0,0:0:0:0:
102,102,33295,5,10,0:3:0:0:
118,129,33401,1,2,0:0:0:0:
123,160,33508,1,10,0:0:0:0:
113,190,33614,2,0,P|85:207|16:192,1,80,10|0,0:3|0:0,0:0:0:0:
102,102,33827,1,10,0:3:0:0:
112,72,33933,2,0,P|140:55|209:70,1,80,10|0,0:0|0:0,0:0:0:0:
420,82,34146,6,0,B|433:120|433:120|421:225,1,80,10|0,0:3|0:0,0:0:0:0:
346,173,34359,1,8,0:0:0:0:
323,195,34465,2,0,B|310:233|310:233|322:338,1,80,10|0,0:3|0:0,0:0:0:0:
457,244,34678,1,10,0:3:0:0:
480,266,34784,2,0,B|493:304|493:304|481:409,1,80,10|0,0:0|0:0,0:0:0:0:
305,295,34997,2,0,L|225:296,1,80,14|0,0:3|0:0,0:0:0:0:
177,24,35210,5,8,0:0:0:0:
186,54,35316,1,8,0:0:0:0:
212,127,35423,2,0,L|208:219,1,80,8|8,0:0|0:0,0:0:0:0:
149,314,35635,5,8,0:0:0:0:
140,284,35741,1,8,0:0:0:0:
114,211,35848,6,0,P|70:249|96:358,1,160,14|8,0:3|0:0,0:0:0:0:
173,334,36167,2,0,P|212:340|263:333,1,80,10|0,0:3|0:0,0:0:0:0:
417,250,36380,1,8,0:3:0:0:
393,270,36486,2,0,P|354:276|303:269,1,80,10|0,0:0|0:0,0:0:0:0:
371,50,36699,6,0,P|390:149|338:199,1,160,10|8,0:3|0:0,0:0:0:0:
226,123,37018,2,0,L|321:116,1,80,10|0,0:3|0:0,0:0:0:0:
371,50,37231,1,8,0:3:0:0:
402,55,37337,2,0,L|481:60,1,80,10|0,0:0|0:0,0:0:0:0:
506,231,37550,6,0,P|503:270|492:308,1,80,10|0,0:3|0:0,0:0:0:0:
329,236,37763,2,0,P|331:275|342:313,1,80,10|8,0:0|0:3,0:0:0:0:
506,216,37976,6,0,P|514:255|512:294,1,80,2|8,0:0|0:3,0:0:0:0:
326,226,38189,2,0,P|317:265|319:304,1,80,10|0,0:2|0:0,0:0:0:0:
420,366,38401,6,0,L|415:179,1,160,10|8,0:3|0:0,0:0:0:0:
254,111,38720,2,0,P|337:135|410:77,1,160,8|8,0:3|0:3,0:0:0:0:
471,41,39040,2,0,P|487:83|483:131,1,80,10|0,0:2|0:0,0:0:0:0:
316,49,39252,6,0,B|271:28|271:28|128:35,1,160,10|10,0:3|0:0,0:0:0:0:
0,40,39572,2,0,L|101:37,1,80,10|0,0:3|0:0,0:0:0:0:
163,115,39784,1,8,0:3:0:0:
130,116,39891,2,0,L|50:118,1,80,10|0,0:0|0:0,0:0:0:0:
10,245,40103,6,0,P|47:248|117:232,1,80,10|0,0:3|0:0,0:0:0:0:
206,188,40316,1,10,0:0:0:0:
189,215,40423,1,10,0:3:0:0:
183,246,40529,2,0,L|199:339,1,80,2|8,0:0|0:3,0:0:0:0:
293,384,40742,2,0,L|306:305,1,80,10|0,0:2|0:0,0:0:0:0:
396,183,40955,6,0,P|438:184|483:194,1,80,10|0,0:3|0:0,0:0:0:0:
285,179,41167,2,0,P|243:180|198:190,1,80,10|8,0:0|0:3,0:0:0:0:
400,162,41380,6,0,P|440:173|481:195,1,80,2|8,0:0|0:3,0:0:0:0:
280,158,41593,2,0,P|239:169|198:191,1,80,10|0,0:0|0:0,0:0:0:0:
384,78,41806,6,0,P|331:24|307:88,1,160,10|8,0:3|0:0,0:0:0:0:
341,226,42125,2,0,L|341:396,1,160,8|8,0:3|0:3,0:0:0:0:
183,330,42444,2,0,P|224:318|290:335,1,80,10|0,0:2|0:0,0:0:0:0:
500,223,42657,6,0,L|291:226,1,160,14|8,0:3|0:0,0:0:0:0:
245,140,42976,2,0,P|250:167|231:247,1,80,10|0,0:3|0:0,0:0:0:0:
183,330,43189,1,8,0:3:0:0:
156,312,43295,2,0,P|149:272|154:233,1,80,10|0,0:0|0:0,0:0:0:0:
245,140,43508,6,0,P|159:135|90:68,1,160,10|8,0:3|0:0,0:0:0:0:
36,17,43827,1,8,0:3:0:0:
18,43,43933,2,0,L|25:141,1,80,2|8,2:0|2:3,0:0:0:0:
74,196,44146,2,0,L|67:294,1,80,10|0,0:0|0:0,0:0:0:0:
6,379,44359,6,0,P|93:356|217:381,1,160,10|8,0:3|0:0,0:0:0:0:
256,382,44678,2,0,P|339:384|362:377,1,80,10|0,0:3|0:0,0:0:0:0:
420,302,44891,1,8,0:3:0:0:
397,279,44997,2,0,P|357:275|317:281,1,80,10|0,0:0|0:0,0:0:0:0:
484,367,45210,6,0,P|511:277|451:211,1,160,10|8,0:3|0:0,0:0:0:0:
392,188,45529,2,0,L|399:64,1,80,8|0,0:3|0:0,0:0:0:0:
456,0,45742,1,8,0:3:0:0:
432,21,45848,2,0,P|385:25|329:12,1,80,10|0,0:0|0:0,0:0:0:0:
236,28,46061,6,0,P|262:65|251:131,1,80,10|0,0:3|0:0,0:0:0:0:
85,106,46274,1,10,0:0:0:0:
103,80,46380,2,0,P|148:75|199:118,2,80,10|0|8,0:3|0:0|0:3,0:0:0:0:
70,187,46699,1,10,0:0:0:0:
62,218,46806,1,2,0:0:0:0:
121,272,46912,6,0,P|204:269|223:265,1,80,8|0,0:3|0:0,0:0:0:0:
339,186,47125,1,10,0:0:0:0:
319,210,47231,2,0,P|291:277|331:380,1,160,10|10,0:3|0:3,0:0:0:0:
470,284,47550,2,0,P|387:287|368:291,1,80,10|0,0:0|0:0,0:0:0:0:
339,186,47763,6,0,L|342:16,1,160,8|8,0:3|0:0,0:0:0:0:
251,73,48082,2,0,P|170:90|86:55,1,160,8|8,0:3|0:3,0:0:0:0:
14,25,48401,2,0,L|21:140,1,80,8|0,0:0|0:0,0:0:0:0:
77,182,48614,5,8,0:0:0:0:
60,214,48720,2,0,L|55:266,2,40,8|8|10,0:0|0:0|0:0,0:0:0:0:
148,244,48933,1,8,0:0:0:0:
178,252,49040,1,10,0:0:0:0:
208,260,49146,1,8,0:0:0:0:
258,322,49252,5,10,0:3:0:0:
289,316,49359,1,8,0:3:0:0:
371,303,49465,6,0,P|388:217|371:173,1,120.000004577637,14|0,0:3|0:0,0:0:0:0:
326,128,49784,1,2,0:0:0:0:
306,142,49891,2,0,L|152:144,1,120.000004577637,8|0,0:3|0:0,0:0:0:0:
117,71,50210,1,2,0:0:0:0:
50,131,50316,6,0,P|34:208|56:268,1,120.000004577637,10|0,0:3|0:0,0:0:0:0:
96,320,50635,2,0,P|9:333|2:330,2,60.0000022888184,2|8|0,0:0|0:3|0:0,0:0:0:0:
154,248,50955,1,2,0:0:0:0:
175,238,51061,1,0,0:0:0:0:
197,230,51167,6,0,B|243:228|243:228|349:278,1,120.000004577637,10|0,0:3|0:0,0:0:0:0:
411,257,51486,2,0,P|407:228|394:201,2,60.0000022888184,2|8|2,0:0|0:3|0:0,0:0:0:0:
313,162,51806,1,2,0:0:0:0:
315,138,51912,1,2,0:0:0:0:
316,114,52018,6,0,L|191:120,1,120.000004577637,10|0,0:3|0:0,0:0:0:0:
113,125,52337,2,0,B|84:120|84:120|123:111,2,60.0000022888184,2|8|0,0:0|0:3|0:0,0:0:0:0:
161,202,52657,1,2,0:0:0:0:
163,225,52763,1,2,0:0:0:0:
164,248,52869,6,0,P|76:280|38:264,1,120.000004577637,10|0,0:3|0:0,0:0:0:0:
22,196,53189,2,0,L|17:121,1,60.0000022888184,2|8,0:0|0:3,0:0:0:0:
117,66,53401,2,0,L|113:125,1,60.0000022888184,2|0,0:0|0:0,0:0:0:0:
221,177,53614,1,2,0:0:0:0:
238,193,53720,6,0,P|331:195|378:152,1,120.000004577637,10|0,0:3|0:0,0:0:0:0:
294,21,54040,1,2,0:0:0:0:
281,0,54146,2,0,L|289:139,1,120.000004577637,10|0,0:3|0:0,0:0:0:0:
351,182,54465,1,2,0:0:0:0:
427,124,54572,6,0,P|448:197|411:257,1,120.000004577637,10|2,0:3|0:0,0:0:0:0:
356,272,54891,2,0,L|356:352,1,60.0000022888184,2|8,0:0|0:3,0:0:0:0:
281,381,55103,1,2,0:0:0:0:
211,324,55210,2,0,L|211:264,1,60.0000022888184,2|0,0:0|0:0,0:0:0:0:
104,177,55423,5,10,0:3:0:0:
95,276,55529,1,10,0:3:0:0:
95,276,55848,6,0,L|16:281,1,60.0000022888184,10|10,0:0|0:0,0:0:0:0:
44,173,56061,2,0,L|123:178,1,60.0000022888184,10|10,0:0|0:0,0:0:0:0:
229,35,56274,6,0,B|196:94|196:94|207:190,1,143.999995605469,14|0,0:3|0:0,0:0:0:0:
273,218,56593,1,0,0:0:0:0:
299,207,56699,2,0,L|425:210,1,71.9999978027344,10|0,0:3|0:0,0:0:0:0:
372,120,56912,2,0,L|246:123,1,71.9999978027344,2|0,0:0|0:0,0:0:0:0:
204,169,57125,6,0,P|195:253|261:302,1,143.999995605469,8|2,0:3|0:0,0:0:0:0:
324,300,57444,1,0,0:0:0:0:
348,314,57550,2,0,L|342:398,1,71.9999978027344,10|0,0:3|0:0,0:0:0:0:
232,292,57763,2,0,L|238:376,1,71.9999978027344,2|0,0:0|0:0,0:0:0:0:
117,364,57976,6,0,B|13:364|13:364|62:334,1,143.999995605469,8|0,0:3|0:0,0:0:0:0:
95,263,58295,1,0,0:0:0:0:
90,234,58401,2,0,L|102:155,1,71.9999978027344,10|0,0:3|0:0,0:0:0:0:
27,32,58614,2,0,L|37:103,1,71.9999978027344,2|0,0:0|0:0,0:0:0:0:
128,75,58827,5,14,0:3:0:0:
135,47,58933,1,8,0:0:0:0:
142,19,59040,1,10,0:0:0:0:
305,15,59252,5,10,0:0:0:0:
311,57,59359,1,8,0:0:0:0:
317,99,59465,1,10,0:0:0:0:
323,141,59572,1,8,0:0:0:0:
330,186,59678,6,0,P|409:192|439:181,1,80,14|0,0:3|0:0,0:0:0:0:
336,75,59891,1,8,0:3:0:0:
311,57,59997,2,0,P|232:51|202:62,1,80,10|0,0:0|0:3,0:0:0:0:
157,108,60210,2,0,P|78:114|48:103,1,80,10|8,0:0|0:3,0:0:0:0:
209,193,60423,6,0,P|250:126|232:50,1,160,10|8,0:0|0:0,0:0:0:0:
78,114,60742,5,10,0:2:0:0:
76,146,60848,1,8,0:2:0:0:
76,179,60955,1,8,0:2:0:0:
75,210,61061,1,8,0:2:0:0:
52,289,61167,5,10,0:0:0:0:
67,326,61274,1,0,0:0:0:0:
121,384,61380,6,0,P|215:366|258:380,1,80,10|0,0:3|0:0,0:0:0:0:
278,343,61593,1,8,0:3:0:0:
298,365,61699,2,0,P|400:353|408:344,1,80,10|8,0:0|0:3,0:0:0:0:
503,294,61912,2,0,P|463:287|426:298,1,80,10|8,0:0|0:3,0:0:0:0:
344,267,62125,6,0,L|340:104,1,160,10|8,0:2|0:2,0:0:0:0:
268,32,62444,5,8,0:2:0:0:
220,30,62550,1,8,0:2:0:0:
171,28,62657,1,8,0:2:0:0:
123,27,62763,1,8,0:2:0:0:
64,78,62869,5,10,0:3:0:0:
54,108,62976,1,8,0:3:0:0:
125,159,63082,6,0,L|120:263,1,80,14|8,0:3|0:0,0:0:0:0:
173,363,63295,1,10,0:0:0:0:
202,351,63401,2,0,L|205:271,1,80,10|8,0:0|0:3,0:0:0:0:
291,159,63614,2,0,L|287:238,1,80,10|8,0:0|0:0,0:0:0:0:
345,306,63827,1,10,0:0:0:0:
345,306,63933,1,8,0:3:0:0:
334,82,64146,6,0,P|295:73|241:87,1,80,10|8,0:0|0:0,0:0:0:0:
168,103,64359,2,8,P|145:106|100:111,3,40,10|8|8|8,0:3|0:0|0:0|0:0,0:0:0:0:
140,27,64572,5,10,0:0:0:0:
119,28,64642,1,8,0:0:0:0:
97,29,64713,1,8,0:0:0:0:
75,31,64784,5,14,0:0:0:0:
432,250,66061,6,0,P|472:194|357:192,1,240,12|0,0:0|0:0,0:0:0:0:
340,268,66486,6,0,P|255:276|205:256,1,95.9999970703126,14|0,0:3|0:0,0:0:0:0:
85,191,66699,2,0,P|170:199|220:179,1,95.9999970703126,10|8,0:0|0:3,0:0:0:0:
283,96,66912,2,0,P|198:104|148:84,1,95.9999970703126,2|8,0:0|0:3,0:0:0:0:
49,24,67125,2,0,P|134:32|184:12,1,95.9999970703126,10|0,0:0|0:0,0:0:0:0:
283,96,67337,6,0,L|275:234,1,95.9999970703126,10|0,0:3|0:0,0:0:0:0:
340,268,67550,1,10,0:0:0:0:
362,299,67657,2,0,P|407:304|466:281,1,95.9999970703126,10|0,0:3|0:0,0:0:0:0:
498,187,67869,2,0,P|453:182|394:205,1,95.9999970703126,10|8,0:3|0:0,0:0:0:0:
221,271,68082,1,2,0:0:0:0:
199,302,68189,6,0,P|154:307|95:284,1,95.9999970703126,10|0,0:3|0:3,0:0:0:0:
0,213,68401,2,0,P|45:218|104:195,1,95.9999970703126,10|8,0:0|0:3,0:0:0:0:
248,149,68614,2,0,P|203:154|144:131,1,95.9999970703126,2|8,0:0|0:3,0:0:0:0:
32,61,68827,1,10,0:2:0:0:
69,53,68933,1,2,0:0:0:0:
107,46,69040,6,0,L|231:47,1,95.9999970703126,10|8,0:3|0:3,0:0:0:0:
343,148,69252,2,0,L|219:149,1,95.9999970703126,10|0,0:0|0:0,0:0:0:0:
424,84,69465,2,0,P|452:159|431:198,1,95.9999970703126,10|8,0:3|0:3,0:0:0:0:
318,234,69678,2,0,P|316:186|342:147,1,95.9999970703126,10|0,0:0|0:0,0:0:0:0:
394,283,69891,6,0,P|309:325|228:276,1,191.999994140625,10|8,0:3|0:0,0:0:0:0:
162,232,70210,2,0,B|106:209|106:209|16:210|16:210|63:233,1,191.999994140625,8|0,0:3|0:0,0:0:0:0:
158,323,70529,2,0,P|148:277|161:231,1,95.9999970703126,8|0,0:2|0:0,0:0:0:0:
219,68,70742,6,0,P|163:125|53:90,1,191.999994140625,10|10,0:3|0:0,0:0:0:0:
184,32,71061,1,8,0:3:0:0:
219,68,71167,2,0,L|323:62,1,95.9999970703126,2|8,0:0|0:3,0:0:0:0:
474,15,71380,2,0,L|370:9,1,95.9999970703126,10|0,0:0|0:0,0:0:0:0:
399,186,71593,6,0,P|405:109|371:69,1,95.9999970703126,14|0,0:3|0:0,0:0:0:0:
326,257,71806,1,8,0:0:0:0:
423,269,71912,2,0,P|481:218|485:166,1,95.9999970703126,14|0,0:3|0:0,0:0:0:0:
326,257,72125,1,8,0:3:0:0:
378,342,72231,2,0,P|455:348|494:314,1,95.9999970703126,14|0,0:0|0:0,0:0:0:0:
326,257,72444,5,10,0:0:0:0:
282,294,72550,1,8,0:0:0:0:
224,297,72657,1,8,0:0:0:0:
171,272,72763,1,8,0:0:0:0:
125,200,72869,5,10,0:0:0:0:
181,189,72976,1,8,0:0:0:0:
237,177,73082,1,8,0:0:0:0:
293,165,73189,1,8,0:0:0:0:
349,153,73295,6,0,P|349:79|342:42,1,95.9999970703126,14|0,0:3|0:0,0:0:0:0:
237,177,73508,2,0,P|239:224|233:272,1,95.9999970703126,10|8,0:0|0:3,0:0:0:0:
145,121,73720,2,0,P|142:73|148:25,1,95.9999970703126,2|8,0:0|0:3,0:0:0:0:
43,174,73933,2,0,P|43:248|50:285,1,95.9999970703126,10|0,0:0|0:0,0:0:0:0:
205,362,74146,6,0,P|287:349|322:247,1,191.999994140625,10|10,0:3|0:0,0:0:0:0:
343,177,74465,2,0,L|451:185,1,95.9999970703126,10|0,0:3|0:0,0:0:0:0:
510,258,74678,2,0,L|402:266,1,95.9999970703126,10|8,0:3|0:0,0:0:0:0:
343,177,74891,1,2,0:0:0:0:
357,141,74997,6,0,P|367:67|363:33,1,95.9999970703126,10|0,0:3|0:0,0:0:0:0:
256,199,75210,2,0,P|265:245|264:293,1,95.9999970703126,10|8,0:0|0:3,0:0:0:0:
154,140,75423,2,0,P|145:94|146:46,1,95.9999970703126,2|8,0:0|0:3,0:0:0:0:
54,199,75636,2,0,P|44:273|48:307,1,95.9999970703126,10|0,0:0|0:0,0:0:0:0:
144,363,75848,6,0,L|361:348,1,191.999994140625,14|8,0:0|0:0,0:0:0:0:
425,299,76167,1,10,0:0:0:0:
452,247,76274,1,8,0:0:0:0:
454,189,76380,1,8,0:0:0:0:
423,115,76486,5,10,0:0:0:0:
346,98,76593,1,8,0:0:0:0:
291,152,76699,5,14,0:3:0:0:
291,152,77125,2,0,B|221:152|221:152|178:127|178:127|91:128,1,180.000006866455,14|0,0:3|0:0,0:0:0:0:
35,166,77550,6,0,P|28:136|30:107,1,60.0000022888184,14|0,0:3|0:0,0:0:0:0:
99,218,77763,1,8,0:3:0:0:
117,127,77869,2,0,P|110:97|111:67,1,60.0000022888184,8|2,0:0|0:0,0:0:0:0:
180,178,78082,1,8,0:3:0:0:
205,96,78189,2,0,P|198:66|199:36,1,60.0000022888184,10|0,0:0|0:0,0:0:0:0:
337,62,78401,5,6,0:0:0:0:
285,300,78614,1,10,0:3:0:0:
205,96,78827,1,10,0:3:0:0:
406,206,79040,1,10,0:3:0:0:
169,285,79252,5,10,0:2:0:0:
117,311,79359,1,8,0:2:0:0:
59,305,79465,1,8,0:2:0:0:
13,269,79572,1,8,0:2:0:0:
49,186,79678,5,8,0:2:0:0:
51,128,79784,1,8,0:2:0:0:
53,70,79891,1,8,0:2:0:0:
57,12,79997,1,8,0:2:0:0:
138,61,80103,6,0,P|248:67|299:21,1,160,14|0,0:3|0:0,0:0:0:0:
366,76,80423,1,10,0:3:0:0:
343,101,80529,2,0,L|337:269,1,160,8|2,0:0|0:0,0:0:0:0:
384,335,80848,1,0,0:0:0:0:
291,334,80955,6,0,B|200:336|200:336|140:284,1,160,10|0,0:3|0:0,0:0:0:0:
96,222,81274,1,10,0:3:0:0:
117,198,81380,2,0,P|140:124|79:35,1,160,8|2,0:0|0:0,0:0:0:0:
96,222,81806,6,0,B|189:185|175:263|297:189,1,160,10|0,0:3|0:0,0:0:0:0:
316,147,82125,1,10,0:3:0:0:
294,125,82231,2,0,P|274:35|311:-19,1,160,8|2,0:0|0:0,0:0:0:0:
414,141,82550,1,2,0:0:0:0:
435,118,82657,6,0,P|457:28|447:2,1,80,14|0,0:3|0:0,0:0:0:0:
459,192,82869,2,0,P|437:102|447:76,1,80,10|0,0:0|0:0,0:0:0:0:
434,266,83082,2,0,P|456:176|446:150,1,80,10|0,0:3|0:0,0:0:0:0:
388,331,83295,2,0,L|394:383,2,53.3333333333333,10|8|8,0:0|0:2|0:2,0:0:0:0:
274,242,83508,6,0,P|378:256|417:240,1,80,14|0,0:3|0:0,0:0:0:0:
188,203,83720,2,0,L|172:320,1,80,10|8,0:0|0:3,0:0:0:0:
262,156,83933,2,0,L|251:76,1,80,2|8,0:0|0:3,0:0:0:0:
177,0,84146,2,0,L|166:79,1,80,10|0,0:3|0:0,0:0:0:0:
87,197,84359,5,12,0:3:0:0:
251,76,84572,1,8,0:3:0:0:
217,324,84784,1,8,0:3:0:0:
61,53,84997,1,8,0:3:0:0:
402,173,85210,5,14,0:0:0:0:
402,173,86274,5,8,0:3:0:0:
404,194,86345,1,8,0:3:0:0:
406,214,86415,1,8,0:3:0:0:
408,235,86486,6,0,P|358:251|274:216,1,120,8|0,0:0|0:0,0:0:0:0:
223,164,86912,6,0,P|196:251|240:320,1,160,14|8,0:3|0:0,0:0:0:0:
317,358,87231,2,0,L|444:352,1,80,10|0,0:3|0:0,0:0:0:0:
499,303,87444,1,8,0:3:0:0:
477,279,87550,2,0,P|463:239|483:173,1,80,10|0,0:0|0:0,0:0:0:0:
500,94,87763,6,0,L|276:84,1,160,10|8,0:3|0:0,0:0:0:0:
210,27,88082,2,0,L|348:20,1,80,10|0,0:3|0:0,0:0:0:0:
174,101,88295,1,10,0:3:0:0:
157,128,88401,2,0,L|77:131,1,80,10|0,0:0|0:0,0:0:0:0:
7,234,88614,6,0,B|8:366|8:366|51:313,1,160,10|8,0:3|0:0,0:0:0:0:
99,268,88933,2,0,B|140:260|140:260|201:270,1,80,10|0,0:3|0:0,0:0:0:0:
320,335,89146,1,10,0:3:0:0:
294,353,89252,2,0,B|253:361|253:361|192:351,1,80,10|0,0:0|0:0,0:0:0:0:
261,219,89465,6,0,L|492:215,1,160,10|8,0:3|0:0,0:0:0:0:
512,291,89784,2,0,L|432:292,1,80,10|0,0:3|0:0,0:0:0:0:
393,139,89997,1,10,0:3:0:0:
427,140,90103,2,0,L|506:141,1,80,10|0,0:0|0:0,0:0:0:0:
335,54,90316,6,0,B|243:48|243:48|147:99,1,160,14|8,0:3|0:0,0:0:0:0:
108,124,90635,2,0,P|96:88|112:28,1,80,10|0,0:3|0:0,0:0:0:0:
184,163,90848,1,8,0:3:0:0:
197,192,90955,2,0,P|202:231|190:268,1,80,10|0,0:0|0:0,0:0:0:0:
121,319,91167,6,0,P|217:298|302:354,1,160,10|8,0:3|0:0,0:0:0:0:
336,379,91486,2,0,P|379:379|434:363,1,80,10|0,0:3|0:0,0:0:0:0:
460,282,91699,1,10,0:3:0:0:
436,260,91806,2,0,P|421:222|428:159,1,80,10|0,0:0|0:0,0:0:0:0:
151,185,92018,6,0,B|215:180|215:180|253:186|253:186|331:181,1,160,14|8,0:3|0:0,0:0:0:0:
89,260,92337,2,0,B|61:189|61:189|95:95,1,160,14|8,0:3|0:3,0:0:0:0:
181,110,92657,2,0,L|151:184,1,80,10|0,0:0|0:0,0:0:0:0:
89,260,92869,6,0,P|192:319|260:309,1,160,10|10,0:3|0:0,0:0:0:0:
318,282,93189,1,8,0:0:0:0:
334,268,93295,2,0,L|346:132,1,106.666666666667,10|8,0:0|0:0,0:0:0:0:
345,134,93508,5,8,0:0:0:0:
348,107,93579,1,8,0:0:0:0:
349,80,93650,1,8,0:0:0:0:
356,29,93720,5,14,0:0:0:0:
256,192,93774,12,2,95210,0:0:0:0:
