osu file format v14

[General]
AudioFilename: audio.mp3
AudioLeadIn: 0
PreviewTime: 66380
Countdown: 0
SampleSet: Soft
StackLeniency: 0.7
Mode: 0
LetterboxInBreaks: 0
WidescreenStoryboard: 0

[Editor]
DistanceSpacing: 1.4
BeatDivisor: 4
GridSize: 32
TimelineZoom: 1.6

[Metadata]
Title:Hey Darling!
TitleUnicode:Hey Darling!
Artist:Matsushita
ArtistUnicode:松下
Creator:Lasse
Version:Hard
Source:ワガママハイスペックOC
Tags:Wagamama High Spec OC OverClock Wagahigh opening eroge visual novel Madosoft Mir
BeatmapID:1449753
BeatmapSetID:684242

[Difficulty]
HPDrainRate:4
CircleSize:3.6
OverallDifficulty:6
ApproachRate:7.5
SliderMultiplier:0.800000005960464
SliderTickRate:1

[Events]
//Background and Video events
0,0,"needsmoreass.jpg",0,0
Video,-10,"optc.flv"
//Break Periods
//Storyboard Layer 0 (Background)
//Storyboard Layer 1 (Fail)
//Storyboard Layer 2 (Pass)
//Storyboard Layer 3 (Foreground)
//Storyboard Sound Samples

[TimingPoints]
955,212.765957446809,4,2,1,50,1,0
6912,-111.111111111111,4,2,1,60,0,0
7763,-111.111111111111,4,2,1,70,0,0
8614,-111.111111111111,4,2,1,65,0,0
12869,-111.111111111111,4,2,1,70,0,0
13720,-111.111111111111,4,2,1,40,0,0
14997,-71.4285714285714,4,2,1,100,0,0
15210,-111.111111111111,4,2,1,40,0,0
15423,-90.9090909090909,4,2,1,75,0,1
19252,-76.9230769230769,4,2,1,75,0,1
19678,-90.9090909090909,4,2,1,75,0,1
22231,-100,4,2,1,65,0,0
24784,-100,4,2,1,75,0,0
25635,-100,4,2,1,70,0,0
25848,-100,4,2,1,70,0,0
26486,-100,4,2,1,75,0,0
28614,-83.3333333333333,4,2,1,70,0,0
28827,-100,4,2,1,40,0,0
29040,-100,4,2,1,70,0,0
35848,-111.111111111111,4,2,1,60,0,0
49465,-125,4,2,1,50,0,0
56274,-111.111111111111,4,2,1,60,0,0
59678,-100,4,2,1,65,0,0
63082,-100,4,2,1,70,0,0
66061,-71.4285714285714,4,2,1,100,0,0
66274,-100,4,2,1,40,0,0
66486,-90.9090909090909,4,2,1,75,0,1
71593,-90.9090909090909,4,2,1,75,0,1
72444,-90.9090909090909,4,2,1,75,0,0
73295,-90.9090909090909,4,2,1,75,0,1
77125,-76.9230769230769,4,2,1,75,0,1
77550,-90.9090909090909,4,2,1,75,0,1
80103,-100,4,2,1,65,0,0
82657,-100,4,2,1,75,0,0
83508,-100,4,2,1,70,0,0
83720,-100,4,2,1,70,0,0
84359,-100,4,2,1,70,0,0
86912,-100,4,2,1,70,0,0
92018,-90.9090909090909,4,2,1,72,0,0
92231,-90.9090909090909,4,2,1,70,0,0
92337,-90.9090909090909,4,2,1,74,0,0
92550,-90.9090909090909,4,2,1,70,0,0
92657,-90.9090909090909,4,2,1,76,0,0
92763,-90.9090909090909,4,2,1,70,0,0
92869,-90.9090909090909,4,2,1,78,0,0
92976,-90.9090909090909,4,2,1,70,0,0
93082,-90.9090909090909,4,2,1,76,0,0
93720,-117.647058823529,4,2,1,78,0,0
93774,-100,4,2,1,20,0,0
95210,-100,4,2,1,10,0,0

[Colours]
Combo1 : 250,190,230
Combo2 : 130,200,230
Combo3 : 255,230,140
Combo4 : 170,245,170

[HitObjects]
142,34,1593,5,8,0:3:0:0:
167,126,1806,1,14,0:0:0:0:
369,24,3295,5,2,0:0:0:0:
344,116,3508,1,14,0:0:0:0:
155,324,5210,5,6,0:0:0:0:
155,324,5635,1,2,0:2:0:0:
155,324,6061,1,2,0:2:0:0:
155,324,6486,2,0,L|163:227,1,80.0000005960464,2|8,0:0|0:3,0:0:0:0:
237,189,6912,6,0,P|281:180|321:189,1,71.9999983391762,14|8,0:0|0:3,0:0:0:0:
346,203,7231,2,0,P|390:212|430:203,1,71.9999983391762,10|8,0:0|0:3,0:0:0:0:
456,190,7550,1,10,0:0:0:0:
470,95,7763,6,0,P|447:84|419:79,1,35.9999991695881,10|8,0:3|0:0,0:0:0:0:
393,87,7976,2,0,P|373:81|355:71,1,35.9999991695881,8|8,0:0|0:0,0:0:0:0:
323,50,8189,2,0,L|222:40,1,71.9999983391762,10|10,0:3|0:3,0:0:0:0:
147,89,8614,6,0,L|51:85,1,71.9999983391762,6|0,0:0|0:0,0:0:0:0:
21,154,9040,2,0,P|17:188|30:225,1,71.9999983391762,2|0,0:0|0:0,0:0:0:0:
68,243,9359,2,0,L|162:239,1,71.9999983391762,2|0,0:0|0:0,0:0:0:0:
186,267,9678,1,2,0:0:0:0:
186,267,9784,1,2,0:0:0:0:
186,267,9891,2,0,L|280:271,1,71.9999983391762,10|0,0:3|0:0,0:0:0:0:
314,169,10316,6,0,B|320:138|320:138|317:117|317:117|319:97,1,71.9999983391762,6|0,0:0|0:0,0:0:0:0:
379,33,10742,2,0,P|414:28|449:34,1,71.9999983391762,10|0,0:3|0:0,0:0:0:0:
480,65,11061,2,0,B|486:96|486:96|483:117|483:117|485:136,1,71.9999983391762,2|0,0:0|0:0,0:0:0:0:
466,178,11380,1,2,0:0:0:0:
466,178,11486,1,2,0:0:0:0:
466,178,11593,2,0,B|460:209|460:209|463:230|463:230|461:249,1,71.9999983391762,10|0,0:3|0:0,0:0:0:0:
378,330,12018,6,0,L|285:322,1,71.9999983391762,6|0,0:0|0:0,0:0:0:0:
232,277,12444,2,0,L|225:205,1,71.9999983391762,10|8,0:0|0:0,0:0:0:0:
258,178,12763,1,10,0:0:0:0:
258,178,12869,2,0,L|263:120,1,35.9999991695881,10|8,0:2|0:0,0:0:0:0:
247,101,13082,2,0,L|252:43,1,35.9999991695881,8|8,0:0|0:0,0:0:0:0:
216,37,13295,2,0,P|174:16|135:21,1,71.9999983391762,10|8,0:0|0:0,0:0:0:0:
72,54,13720,5,2,0:0:0:0:
72,54,14997,6,0,B|84:74|84:74|76:94|76:94|76:170,1,111.999997416496,12|0,0:2|0:0,0:0:0:0:
130,252,15423,6,0,P|175:241|228:249,1,88.000003341198,14|10,0:3|0:0,0:0:0:0:
310,292,15848,2,0,P|353:295|396:285,1,88.000003341198,2|10,0:0|0:0,0:0:0:0:
464,204,16274,5,10,0:3:0:0:
391,136,16486,1,10,0:0:0:0:
391,136,16593,2,0,P|347:132|304:142,1,88.000003341198,10|10,0:3|0:3,0:0:0:0:
226,213,17018,1,2,0:0:0:0:
226,213,17125,6,0,L|222:119,1,88.000003341198,10|10,0:3|0:0,0:0:0:0:
167,34,17550,2,0,P|117:24|69:39,1,88.000003341198,2|10,0:0|0:0,0:0:0:0:
4,135,17976,6,0,B|9:165|9:165|-3:189|-3:189|0:229,1,88.000003341198,14|8,0:0|0:0,0:0:0:0:
46,244,18295,2,0,B|65:268|65:268|57:289|57:289|69:344,1,88.000003341198,10|8,0:0|0:0,0:0:0:0:
111,347,18614,2,0,L|174:349,1,44.000001670599,10|8,0:0|0:0,0:0:0:0:
202,371,18827,1,14,0:3:0:0:
435,326,19252,6,0,B|419:292|436:258|436:258|407:211,1,103.999996014118,14|0,0:3|0:0,0:0:0:0:
308,197,19678,6,0,L|202:190,1,88.000003341198,14|8,0:3|0:3,0:0:0:0:
175,162,19997,2,0,P|160:120|172:79,1,88.000003341198,8|8,0:0|0:3,0:0:0:0:
210,42,20316,2,0,L|253:39,1,44.000001670599,10|0,0:0|0:0,0:0:0:0:
301,63,20529,6,0,L|395:61,1,88.000003341198,6|10,0:0|0:3,0:0:0:0:
484,108,20955,1,10,0:3:0:0:
396,168,21167,1,10,0:3:0:0:
501,247,21380,6,2,L|495:353,1,88.000003341198,10|8,0:2|0:2,0:0:0:0:
449,360,21699,1,8,0:2:0:0:
449,360,21806,2,0,P|405:345|348:349,1,88.000003341198,8|8,0:2|0:2,0:0:0:0:
242,358,22231,6,0,L|142:353,1,80.0000005960464,14|0,0:3|0:0,0:0:0:0:
116,339,22550,1,10,0:3:0:0:
116,339,22657,2,0,P|105:291|127:246,1,80.0000005960464,8|2,0:0|0:0,0:0:0:0:
208,243,23082,6,0,L|308:238,1,80.0000005960464,10|0,0:3|0:0,0:0:0:0:
334,224,23401,1,10,0:3:0:0:
334,224,23508,2,0,P|345:176|323:131,1,80.0000005960464,8|2,0:0|0:0,0:0:0:0:
242,126,23933,6,0,L|142:121,1,80.0000005960464,10|0,0:3|0:0,0:0:0:0:
116,107,24252,1,10,0:3:0:0:
116,107,24359,2,0,P|105:59|127:14,1,80.0000005960464,8|2,0:0|0:0,0:0:0:0:
232,9,24784,5,14,0:3:0:0:
265,99,24997,1,10,0:0:0:0:
361,96,25210,1,10,0:3:0:0:
394,187,25423,1,10,0:0:0:0:
299,255,25635,6,0,L|196:247,1,80.0000005960464,14|10,0:3|0:0,0:0:0:0:
123,264,26061,2,0,L|20:256,1,80.0000005960464,2|10,0:0|0:3,0:0:0:0:
6,169,26486,6,0,L|2:124,3,40.0000002980232,12|8|8|8,0:2|0:2|0:0|0:0,0:0:0:0:
31,90,26912,2,0,L|35:45,3,40.0000002980232,8|8|8|8,0:0|0:0|0:0|0:0,0:0:0:0:
73,22,27337,5,14,0:0:0:0:
73,22,28614,6,0,B|93:34|93:34|113:26|113:26|189:26,1,95.9999977855682,8|0,0:3|0:0,0:0:0:0:
264,71,29040,6,0,B|296:73|296:73|315:66|315:66|366:72,1,80.0000005960464,14|8,0:3|0:0,0:0:0:0:
387,86,29359,2,0,L|395:196,1,80.0000005960464,10|8,0:3|0:3,0:0:0:0:
422,204,29678,1,10,0:0:0:0:
493,272,29891,1,10,0:3:0:0:
426,340,30103,1,10,0:0:0:0:
426,340,30210,2,0,B|385:329|385:329|343:333|343:333|296:325,1,120.00000089407,10|10,0:3|0:0,0:0:0:0:
219,260,30742,6,0,B|217:228|217:228|224:209|224:209|218:158,1,80.0000005960464,10|8,0:3|0:0,0:0:0:0:
198,138,31061,2,0,B|200:106|200:106|193:87|193:87|199:36,1,80.0000005960464,10|10,0:3|0:3,0:0:0:0:
172,17,31380,1,10,0:0:0:0:
74,24,31593,1,10,0:3:0:0:
47,119,31806,1,10,0:0:0:0:
47,119,31912,2,0,B|52:161|52:161|43:202|43:202|46:249,1,120.00000089407,10|10,0:3|0:0,0:0:0:0:
123,318,32444,6,0,B|155:320|155:320|174:313|174:313|225:319,1,80.0000005960464,14|8,0:3|0:0,0:0:0:0:
241,343,32763,2,0,L|320:340,1,80.0000005960464,10|8,0:3|0:3,0:0:0:0:
365,359,33082,1,10,0:0:0:0:
449,313,33295,1,10,0:3:0:0:
401,236,33508,1,10,0:0:0:0:
401,236,33614,2,0,B|395:201|395:201|399:159|399:159|388:118,1,120.00000089407,10|10,0:3|0:0,0:0:0:0:
318,51,34146,6,0,B|286:48|286:48|266:55|266:55|216:48,1,80.0000005960464,10|8,0:3|0:0,0:0:0:0:
207,87,34465,2,0,B|209:119|209:119|202:138|202:138|208:189,1,80.0000005960464,10|10,0:3|0:3,0:0:0:0:
204,213,34784,1,10,0:0:0:0:
157,296,34997,1,14,0:3:0:0:
70,254,35210,1,8,0:0:0:0:
66,250,35316,1,8,0:0:0:0:
62,246,35423,2,0,L|58:189,3,40.0000002980232,8|8|8|8,0:0|0:0|0:0|0:0,0:0:0:0:
33,171,35848,6,0,P|30:121|37:63,2,107.999997508764,14|10|10,0:3|0:3|0:0,0:0:0:0:
99,224,36699,2,0,P|134:218|170:218,1,71.9999983391762,10|8,0:3|0:0,0:0:0:0:
212,244,37018,1,10,0:3:0:0:
212,244,37125,2,0,P|247:244|283:237,1,71.9999983391762,0|10,0:0|0:0,0:0:0:0:
365,209,37550,6,0,L|373:133,1,71.9999983391762,10|10,0:3|0:0,0:0:0:0:
347,54,37976,2,0,P|311:47|275:46,1,71.9999983391762,2|10,0:0|0:2,0:0:0:0:
192,70,38401,2,0,P|156:69|120:62,1,71.9999983391762,10|8,0:3|0:0,0:0:0:0:
83,79,38720,1,8,0:3:0:0:
83,79,38827,2,0,L|76:158,1,71.9999983391762,0|10,0:0|0:2,0:0:0:0:
136,212,39252,6,0,P|194:202|244:213,2,107.999997508764,10|10|10,0:3|0:3|0:0,0:0:0:0:
62,258,40103,2,0,P|54:295|59:336,1,71.9999983391762,10|10,0:3|0:0,0:0:0:0:
98,356,40423,1,10,0:3:0:0:
98,356,40529,2,0,L|169:349,1,71.9999983391762,2|10,0:0|0:2,0:0:0:0:
256,358,40955,6,0,L|327:351,1,71.9999983391762,10|10,0:3|0:0,0:0:0:0:
398,301,41380,2,0,P|405:266|402:230,1,71.9999983391762,2|10,0:0|0:0,0:0:0:0:
331,181,41806,2,0,L|260:174,1,71.9999983391762,10|8,0:3|0:0,0:0:0:0:
223,195,42125,1,8,0:3:0:0:
223,195,42231,2,0,L|152:188,1,71.9999983391762,0|10,0:0|0:2,0:0:0:0:
74,112,42657,6,0,B|43:85|43:85|37:7,2,107.999997508764,14|10|10,0:3|0:3|0:0,0:0:0:0:
153,79,43508,2,0,P|188:73|224:73,1,71.9999983391762,10|8,0:3|0:0,0:0:0:0:
295,122,43933,2,0,L|299:193,1,71.9999983391762,2|10,2:0|0:0,0:0:0:0:
363,253,44359,6,0,P|398:253|434:247,1,71.9999983391762,10|8,0:3|0:0,0:0:0:0:
473,214,44678,1,10,0:3:0:0:
473,214,44784,2,0,L|477:143,1,71.9999983391762,0|10,0:0|0:0,0:0:0:0:
437,64,45210,2,0,P|401:57|365:57,1,71.9999983391762,10|8,0:3|0:0,0:0:0:0:
328,76,45529,1,8,0:3:0:0:
328,76,45635,2,0,L|244:69,1,71.9999983391762,0|10,0:0|0:0,0:0:0:0:
181,26,46061,6,0,L|97:33,1,71.9999983391762,10|10,0:3|0:0,0:0:0:0:
77,61,46380,2,0,P|66:110|76:138,1,71.9999983391762,10|8,0:3|0:3,0:0:0:0:
110,169,46699,1,10,0:0:0:0:
110,169,46806,1,2,0:0:0:0:
110,169,46912,2,0,P|121:202|115:237,1,71.9999983391762,8|10,0:3|0:0,0:0:0:0:
80,266,47231,2,0,P|59:314|75:366,1,107.999997508764,10|10,0:3|0:0,0:0:0:0:
145,321,47763,6,0,L|252:330,2,107.999997508764,8|8|8,0:3|0:3|0:0,0:0:0:0:
77,260,48614,2,0,P|74:207|86:176,1,71.9999983391762,8|10,0:0|0:0,0:0:0:0:
153,144,49040,2,0,L|190:139,1,35.9999991695881,10|8,0:0|0:0,0:0:0:0:
230,148,49252,2,0,L|267:143,1,35.9999991695881,10|8,0:3|0:3,0:0:0:0:
307,152,49465,6,0,L|441:147,1,128.000000953674,14|8,0:3|0:3,0:0:0:0:
489,84,50103,1,2,0:0:0:0:
420,36,50316,2,0,L|286:31,1,128.000000953674,10|8,0:3|0:3,0:0:0:0:
127,59,51167,6,0,P|73:43|27:41,2,96.0000007152557,10|2|2,0:3|0:0|0:0,0:0:0:0:
186,117,52018,2,0,P|240:133|286:135,2,96.0000007152557,10|2|2,0:3|0:0|0:0,0:0:0:0:
107,144,52869,6,0,P|80:205|84:272,1,128.000000953674,10|8,0:3|0:3,0:0:0:0:
222,354,53720,2,0,L|356:349,1,128.000000953674,10|8,0:3|0:3,0:0:0:0:
433,339,54359,1,2,0:0:0:0:
382,273,54572,6,0,L|386:167,2,96.0000007152557,10|2|2,0:3|0:0|0:0,0:0:0:0:
349,349,55423,2,0,L|278:333,1,64.0000004768371,10|10,0:3|0:3,0:0:0:0:
206,356,55848,2,0,L|135:340,1,64.0000004768371,10|10,0:0|0:0,0:0:0:0:
107,320,56167,1,10,0:0:0:0:
107,320,56274,6,0,B|70:243|116:180|116:180|184:149,1,215.999995017529,14|2,0:3|0:0,0:0:0:0:
347,183,57337,2,0,L|433:174,1,71.9999983391762,2|10,0:0|0:3,0:0:0:0:
497,138,57763,2,0,B|532:91|482:35|482:35|459:58|423:62|423:62|377:37|317:46,1,287.999993356705,2|2,0:0|0:0,0:0:0:0:
223,92,58827,6,0,L|212:175,1,71.9999983391762,14|10,0:3|0:0,0:0:0:0:
143,214,59252,2,0,L|105:203,2,35.9999991695881,10|8|10,0:0|0:0|0:0,0:0:0:0:
220,292,59678,6,0,L|301:297,1,80.0000005960464,14|8,0:3|0:3,0:0:0:0:
346,284,59997,2,0,L|427:289,1,80.0000005960464,10|10,0:0|0:0,0:0:0:0:
489,216,60423,2,0,P|502:177|494:135,1,80.0000005960464,10|8,0:0|0:0,0:0:0:0:
467,100,60742,2,0,L|469:57,2,40.0000002980232,10|8|8,0:2|0:2|0:2,0:0:0:0:
373,124,61167,1,10,0:0:0:0:
294,68,61380,6,0,L|203:56,1,80.0000005960464,10|8,0:3|0:3,0:0:0:0:
168,71,61699,2,0,P|154:114|150:158,1,80.0000005960464,10|10,0:0|0:0,0:0:0:0:
223,211,62125,6,0,L|314:223,1,80.0000005960464,10|8,0:2|0:2,0:0:0:0:
345,200,62444,2,0,L|353:159,2,40.0000002980232,8|8|8,0:2|0:2|0:2,0:0:0:0:
363,294,62869,1,10,0:3:0:0:
269,352,63082,6,0,P|229:345|175:345,1,80.0000005960464,14|10,0:3|0:0,0:0:0:0:
141,339,63401,2,0,L|133:244,1,80.0000005960464,10|10,0:0|0:0,0:0:0:0:
161,166,63827,2,0,P|219:152|278:159,1,120.00000089407,10|10,0:0|0:0,0:0:0:0:
347,226,64359,1,10,0:3:0:0:
424,169,64572,1,10,0:0:0:0:
470,290,64784,5,14,0:0:0:0:
470,290,66061,6,0,B|458:270|458:270|466:250|466:250|466:174,1,111.999997416496,12|0,0:0|0:0,0:0:0:0:
422,86,66486,6,0,P|377:75|324:83,1,88.000003341198,14|10,0:3|0:0,0:0:0:0:
264,156,66912,2,0,P|220:158|177:148,1,88.000003341198,2|10,0:0|0:0,0:0:0:0:
84,98,67337,5,10,0:3:0:0:
25,185,67550,1,10,0:0:0:0:
25,185,67657,2,0,L|19:289,1,88.000003341198,10|10,0:3|0:3,0:0:0:0:
99,342,68082,1,2,0:0:0:0:
99,342,68189,6,0,P|149:332|197:347,1,88.000003341198,10|10,0:3|0:0,0:0:0:0:
287,365,68614,1,2,0:0:0:0:
382,317,68827,1,10,0:2:0:0:
382,317,68933,1,2,0:0:0:0:
382,317,69040,6,0,B|389:222,1,88.000003341198,10|10,0:3|0:0,0:0:0:0:
299,171,69465,2,0,B|213:212,1,88.000003341198,10|10,0:3|0:0,0:0:0:0:
214,315,69891,2,0,B|292:368,1,88.000003341198,10|8,0:3|0:0,0:0:0:0:
382,317,70316,6,0,B|410:281|410:281|389:229|389:229|394:138,1,176.000006682396,2|10,0:0|0:3,0:0:0:0:
453,66,70955,1,10,0:0:0:0:
347,59,71167,1,2,0:0:0:0:
241,52,71380,1,10,0:0:0:0:
160,131,71593,6,0,L|150:229,1,88.000003341198,14|8,0:3|0:0,0:0:0:0:
94,243,71912,2,0,B|58:251|58:251|14:221|29:150,1,132.000005011797,14|14,0:3|0:2,0:0:0:0:
67,51,72444,6,0,P|101:41|159:49,1,88.000003341198,10|8,0:0|0:0,0:0:0:0:
204,74,72763,1,8,0:0:0:0:
204,74,72869,2,0,L|296:72,1,88.000003341198,10|8,0:0|0:0,0:0:0:0:
411,27,73295,6,0,P|400:72|408:125,1,88.000003341198,14|10,0:3|0:0,0:0:0:0:
470,195,73720,2,0,P|480:237|477:281,1,88.000003341198,2|10,0:0|0:0,0:0:0:0:
390,342,74146,5,10,0:3:0:0:
302,294,74359,1,10,0:0:0:0:
302,294,74465,2,0,P|259:284|215:288,1,88.000003341198,10|10,0:3|0:3,0:0:0:0:
124,338,74891,1,2,0:0:0:0:
124,338,74997,6,0,L|120:244,1,88.000003341198,10|10,0:3|0:0,0:0:0:0:
61,161,75423,2,0,L|57:67,1,88.000003341198,2|10,0:0|0:0,0:0:0:0:
174,34,75848,6,0,B|204:39|204:39|228:27|228:27|268:30,1,88.000003341198,14|8,0:0|0:0,0:0:0:0:
300,61,76167,2,0,B|324:80|324:80|345:72|345:72|400:84,1,88.000003341198,10|8,0:0|0:0,0:0:0:0:
410,122,76486,2,0,L|412:185,1,44.000001670599,10|8,0:0|0:0,0:0:0:0:
437,212,76699,1,14,0:3:0:0:
239,340,77125,6,0,B|254:311|254:311|235:278|245:241,1,103.999996014118,14|0,0:3|0:0,0:0:0:0:
299,141,77550,6,0,P|316:98|302:46,1,88.000003341198,14|8,0:3|0:3,0:0:0:0:
262,32,77869,2,0,L|160:28,1,88.000003341198,8|8,0:0|0:3,0:0:0:0:
124,47,78189,2,0,L|81:44,1,44.000001670599,10|0,0:0|0:0,0:0:0:0:
33,69,78401,6,0,P|16:109|23:152,1,88.000003341198,6|10,0:0|0:3,0:0:0:0:
74,245,78827,1,10,0:3:0:0:
172,209,79040,1,10,0:3:0:0:
261,306,79252,6,0,L|367:312,1,88.000003341198,10|8,0:2|0:2,0:0:0:0:
403,330,79572,1,8,0:2:0:0:
403,330,79678,2,0,P|418:286|414:229,1,88.000003341198,8|8,0:2|0:2,0:0:0:0:
370,161,80103,6,0,L|270:156,1,80.0000005960464,14|0,0:3|0:0,0:0:0:0:
254,188,80423,1,10,0:3:0:0:
254,188,80529,2,0,L|154:183,1,80.0000005960464,8|2,0:0|0:0,0:0:0:0:
93,130,80955,6,0,P|84:94|101:50,1,80.0000005960464,10|0,0:3|0:0,0:0:0:0:
142,32,81274,1,10,0:3:0:0:
142,32,81380,2,0,L|221:35,1,80.0000005960464,8|2,0:0|0:0,0:0:0:0:
308,76,81806,6,0,L|408:81,1,80.0000005960464,10|0,0:3|0:0,0:0:0:0:
433,109,82125,1,10,0:3:0:0:
433,109,82231,2,0,P|446:146|437:184,1,80.0000005960464,8|2,0:0|0:0,0:0:0:0:
344,260,82657,5,14,0:3:0:0:
260,212,82869,1,10,0:0:0:0:
188,277,83082,1,10,0:3:0:0:
103,228,83295,1,10,0:0:0:0:
168,136,83508,6,0,P|182:92|172:44,1,80.0000005960464,14|10,0:3|0:0,0:0:0:0:
82,48,83933,2,0,P|68:92|78:140,1,80.0000005960464,2|10,0:0|0:3,0:0:0:0:
103,228,84359,6,0,L|92:321,2,80.0000005960464,12|8|8,0:3|0:3|0:3,0:0:0:0:
168,136,84997,1,8,0:3:0:0:
215,238,85210,5,14,0:0:0:0:
215,238,86274,5,8,0:3:0:0:
234,144,86486,1,8,0:0:0:0:
381,20,86912,6,0,B|413:22|413:22|432:15|432:15|483:21,1,80.0000005960464,14|8,0:3|0:0,0:0:0:0:
486,58,87231,2,0,L|492:143,1,80.0000005960464,10|8,0:3|0:3,0:0:0:0:
478,184,87550,1,10,0:0:0:0:
496,278,87763,1,10,0:3:0:0:
408,312,87976,1,10,0:0:0:0:
408,312,88082,2,0,B|367:301|367:301|325:305|325:305|278:297,1,120.00000089407,10|10,0:3|0:0,0:0:0:0:
205,343,88614,6,0,B|173:345|173:345|154:338|154:338|103:344,1,80.0000005960464,10|8,0:3|0:0,0:0:0:0:
84,316,88933,2,0,B|72:279|72:279|90:222,1,80.0000005960464,10|10,0:3|0:3,0:0:0:0:
123,211,89252,1,10,0:0:0:0:
213,244,89465,1,10,0:3:0:0:
298,201,89678,1,10,0:0:0:0:
298,201,89784,2,0,B|340:196|340:196|381:205|381:205|428:202,1,120.00000089407,10|10,0:3|0:0,0:0:0:0:
498,122,90316,6,0,B|496:90|496:90|503:71|503:71|499:43,1,80.0000005960464,14|8,0:3|0:0,0:0:0:0:
460,15,90635,2,0,L|381:12,1,80.0000005960464,10|8,0:3|0:3,0:0:0:0:
340,39,90955,1,10,0:0:0:0:
244,24,91167,1,10,0:3:0:0:
283,118,91380,1,10,0:0:0:0:
283,118,91486,2,0,B|277:153|277:153|281:195|281:195|270:236,1,120.00000089407,10|10,0:3|0:0,0:0:0:0:
180,323,92018,6,0,B|148:320|148:320|128:327|128:327|82:321,1,88.000003341198,14|8,0:3|0:0,0:0:0:0:
60,284,92337,2,0,B|62:252|62:252|55:233|55:233|57:183,1,88.000003341198,14|8,0:3|0:3,0:0:0:0:
98,163,92657,1,10,0:0:0:0:
199,191,92869,6,0,L|298:189,2,88.000003341198,10|10|10,0:3|0:0|0:0,0:0:0:0:
178,86,93508,1,8,0:0:0:0:
98,163,93720,5,14,0:0:0:0:
256,192,93774,12,2,95210,0:0:0:0:
