osu file format v14

[General]
AudioFilename: audio.mp3
AudioLeadIn: 0
PreviewTime: 66380
Countdown: 0
SampleSet: Soft
StackLeniency: 0.7
Mode: 0
LetterboxInBreaks: 0
WidescreenStoryboard: 1

[Editor]
DistanceSpacing: 1
BeatDivisor: 2
GridSize: 32
TimelineZoom: 1.1

[Metadata]
Title:Hey Darling!
TitleUnicode:Hey Darling!
Artist:Matsushita
ArtistUnicode:松下
Creator:Lasse
Version:Easy
Source:ワガママハイスペックOC
Tags:Wagamama High Spec OC OverClock Wagahigh opening eroge visual novel Madosoft Mir
BeatmapID:1448152
BeatmapSetID:684242

[Difficulty]
HPDrainRate:2
CircleSize:3
OverallDifficulty:2.5
ApproachRate:3.5
SliderMultiplier:0.500000005960464
SliderTickRate:1

[Events]
//Background and Video events
0,0,"needsmoreass.jpg",0,0
Video,-10,"optc.flv"
//Break Periods
//Storyboard Layer 0 (Background)
//Storyboard Layer 1 (Fail)
//Storyboard Layer 2 (Pass)
//Storyboard Layer 3 (Foreground)
//Storyboard Sound Samples

[TimingPoints]
955,212.765957446809,4,2,1,50,1,0
6912,-100,4,2,1,60,0,0
7763,-100,4,2,1,70,0,0
8614,-100,4,2,1,65,0,0
12869,-100,4,2,1,70,0,0
13720,-100,4,2,1,40,0,0
14997,-100,4,2,1,100,0,0
15210,-100,4,2,1,40,0,0
15423,-100,4,2,1,75,0,1
19252,-100,4,2,1,75,0,1
19678,-100,4,2,1,75,0,1
22231,-100,4,2,1,65,0,0
24784,-100,4,2,1,75,0,0
25635,-100,4,2,1,70,0,0
25848,-100,4,2,1,70,0,0
26486,-100,4,2,1,75,0,0
28614,-100,4,2,1,70,0,0
28827,-100,4,2,1,40,0,0
29040,-100,4,2,1,70,0,0
35848,-100,4,2,1,60,0,0
49465,-100,4,2,1,50,0,0
56274,-100,4,2,1,60,0,0
59678,-100,4,2,1,65,0,0
63082,-100,4,2,1,70,0,0
66061,-100,4,2,1,100,0,0
66274,-100,4,2,1,40,0,0
66486,-100,4,2,1,75,0,1
71593,-100,4,2,1,75,0,1
72444,-100,4,2,1,75,0,0
73295,-100,4,2,1,75,0,1
77125,-100,4,2,1,75,0,1
77550,-100,4,2,1,75,0,1
80103,-100,4,2,1,65,0,0
82657,-100,4,2,1,75,0,0
83508,-100,4,2,1,70,0,0
83720,-100,4,2,1,70,0,0
84359,-100,4,2,1,70,0,0
86912,-100,4,2,1,70,0,0
92018,-100,4,2,1,72,0,0
92231,-100,4,2,1,70,0,0
92337,-100,4,2,1,74,0,0
92550,-100,4,2,1,70,0,0
92657,-100,4,2,1,76,0,0
92763,-100,4,2,1,70,0,0
92869,-100,4,2,1,78,0,0
92976,-100,4,2,1,70,0,0
93082,-100,4,2,1,76,0,0
93720,-111.111111111111,4,2,1,78,0,0
93774,-100,4,2,1,20,0,0
95210,-100,4,2,1,10,0,0

[Colours]
Combo1 : 250,190,230
Combo2 : 130,200,230
Combo3 : 255,230,140
Combo4 : 170,245,170

[HitObjects]
105,78,1806,5,14,0:0:0:0:
310,335,3508,1,14,0:0:0:0:
420,34,5210,1,6,0:0:0:0:
131,178,6912,6,0,P|99:117|146:49,2,150.000001788139,14|10|10,0:0|0:0|0:3,0:0:0:0:
220,222,8614,6,0,L|329:210,1,100.000001192093,6|2,0:0|0:0,0:0:0:0:
417,192,9465,1,10,0:3:0:0:
465,279,9891,1,10,0:3:0:0:
397,351,10316,6,0,L|287:346,1,100.000001192093,6|10,0:0|0:3,0:0:0:0:
199,367,11167,1,10,0:3:0:0:
35,251,12018,5,6,0:0:0:0:
131,223,12444,2,0,B|206:203|206:203|257:218|257:218|344:202,1,200.000002384186,10|10,0:0|0:0,0:0:0:0:
376,119,13720,5,2,0:0:0:0:
82,57,14997,1,12,0:2:0:0:
149,130,15423,6,0,P|163:166|166:299,1,150.000001788139,14|10,0:3|0:0,0:0:0:0:
200,316,16274,2,0,L|360:323,1,150.000001788139,10|8,0:3|0:0,0:0:0:0:
394,344,17125,1,10,0:3:0:0:
437,254,17550,1,2,0:0:0:0:
358,189,17976,2,0,B|341:149|341:149|339:126|339:126|318:100|318:100|335:38|407:45,1,200.000002384186,14|14,0:0|0:3,0:0:0:0:
465,112,19252,5,14,0:3:0:0:
447,210,19678,2,0,L|464:298,2,75.0000008940696,14|8|10,0:3|0:0|0:2,0:0:0:0:
402,187,20529,2,0,P|336:173|249:184,1,150.000001788139,6|10,0:0|0:3,0:0:0:0:
227,224,21380,1,10,0:2:0:0:
129,244,21806,1,8,0:2:0:0:
53,178,22231,5,14,0:3:0:0:
186,28,23082,1,10,0:3:0:0:
227,224,23933,1,10,0:3:0:0:
418,166,24784,6,0,B|408:116|408:116|425:71|425:71|407:30|407:30|330:14,2,200.000002384186,14|14|12,0:3|0:3|0:2,0:0:0:0:
335,347,27337,5,14,0:0:0:0:
35,322,28614,1,8,0:3:0:0:
102,245,29040,6,0,B|134:177|134:177|101:109,1,150.000001788139,14|10,0:3|0:0,0:0:0:0:
71,71,29891,2,0,L|235:58,1,150.000001788139,10|10,0:3|0:0,0:0:0:0:
264,83,30742,2,0,L|428:70,1,150.000001788139,10|10,0:3|0:0,0:0:0:0:
454,99,31593,1,10,0:3:0:0:
267,170,32444,6,0,L|103:183,1,150.000001788139,14|10,0:3|0:0,0:0:0:0:
72,204,33295,2,0,B|39:271|39:271|72:339,1,150.000001788139,10|10,0:3|0:0,0:0:0:0:
120,357,34146,2,0,L|269:345,1,150.000001788139,10|10,0:3|0:0,0:0:0:0:
317,359,34997,1,14,0:3:0:0:
414,382,35423,1,8,0:0:0:0:
470,300,35848,6,0,P|487:226|444:163,1,150.000001788139,14|10,0:3|0:0,0:0:0:0:
400,154,36699,1,10,0:3:0:0:
220,242,37550,2,0,L|58:234,1,150.000001788139,10|10,0:3|0:2,0:0:0:0:
21,247,38401,1,10,0:3:0:0:
23,47,39252,6,0,L|185:39,1,150.000001788139,10|10,0:3|0:0,0:0:0:0:
211,71,40103,1,10,0:3:0:0:
270,262,40955,1,10,0:3:0:0:
398,109,41806,1,10,0:3:0:0:
501,280,42657,6,0,P|426:297|363:254,1,150.000001788139,14|10,0:3|0:0,0:0:0:0:
333,222,43508,1,10,0:3:0:0:
182,353,44359,2,0,L|20:345,1,150.000001788139,10|10,0:3|0:0,0:0:0:0:
5,303,45210,1,10,0:3:0:0:
19,103,46061,6,0,L|181:95,1,150.000001788139,10|10,0:3|0:0,0:0:0:0:
218,104,46912,1,8,0:3:0:0:
396,12,47763,1,8,0:3:0:0:
463,198,48614,2,0,L|459:309,1,100.000001192093,8|10,0:0|0:0,0:0:0:0:
368,339,49465,6,0,B|280:288|266:380|178:329,2,200.000002384186,14|10|10,0:3|0:3|0:3,0:0:0:0:
462,162,52018,1,10,0:3:0:0:
291,57,52869,6,0,B|203:6|189:98|101:47,2,200.000002384186,10|10|10,0:3|0:3|0:3,0:0:0:0:
462,162,55423,2,0,L|477:268,1,100.000001192093,10|10,0:3|0:0,0:0:0:0:
418,343,56274,5,14,0:3:0:0:
296,184,57125,1,8,0:3:0:0:
220,370,57976,1,8,0:3:0:0:
96,211,58827,2,0,L|83:106,1,100.000001192093,14|10,0:3|0:0,0:0:0:0:
160,48,59678,6,0,B|219:44|219:44|270:67|270:67|345:58,2,175.000002086162,14|10|10,0:3|0:0|0:0,0:0:0:0:
127,86,61380,2,0,B|123:145|123:145|146:196|146:196|137:271,2,175.000002086162,10|10|10,0:3|0:2|0:3,0:0:0:0:
102,42,63082,5,14,0:3:0:0:
41,232,63933,1,8,0:3:0:0:
237,189,64784,1,14,0:0:0:0:
482,16,66061,1,12,0:0:0:0:
444,110,66486,6,0,B|436:153|436:153|451:184|451:184|446:256,1,150.000001788139,14|10,0:3|0:0,0:0:0:0:
407,287,67337,2,0,L|247:294,1,150.000001788139,10|8,0:3|0:0,0:0:0:0:
211,314,68189,1,10,0:3:0:0:
120,272,68614,1,2,0:0:0:0:
118,171,69040,2,0,B|131:143|124:122|124:122|139:95|139:95|138:60|138:60|174:43|229:73,1,200.000002384186,10|10,0:3|0:3,0:0:0:0:
305,117,70316,6,0,L|419:104,1,100.000001192093,2|10,0:0|0:3,0:0:0:0:
492,147,71167,1,2,0:0:0:0:
451,238,71593,2,0,L|460:317,2,75.0000008940696,14|14|14,0:3|0:3|0:0,0:0:0:0:
402,224,72444,1,10,0:0:0:0:
342,304,72869,1,10,0:0:0:0:
220,275,73295,6,0,B|172:264|172:264|123:280|123:280|62:269,1,150.000001788139,14|10,0:3|0:0,0:0:0:0:
42,233,74146,2,0,L|36:76,1,150.000001788139,10|8,0:3|0:0,0:0:0:0:
62,40,74997,1,10,0:3:0:0:
143,97,75423,1,2,0:0:0:0:
231,49,75848,2,0,B|272:43|272:43|294:47|294:47|330:32|330:32|384:53|379:107,1,200.000002384186,14|14,0:0|0:3,0:0:0:0:
333,195,77125,5,14,0:3:0:0:
241,234,77550,2,0,L|153:217,2,75.0000008940696,14|8|10,0:3|0:0|0:0,0:0:0:0:
268,276,78401,2,0,B|298:314|298:314|349:321|349:321|390:288,1,150.000001788139,6|10,0:0|0:3,0:0:0:0:
412,246,79252,1,10,0:2:0:0:
458,157,79678,1,8,0:2:0:0:
400,75,80103,5,14,0:3:0:0:
252,209,80955,1,10,0:3:0:0:
86,96,81806,1,10,0:3:0:0:
283,67,82657,6,0,B|333:63|333:63|376:85|376:85|419:72|419:72|437:19,2,200.000002384186,14|14|12,0:3|0:3|0:3,0:0:0:0:
147,214,85210,5,14,0:0:0:0:
419,340,86486,1,8,0:0:0:0:
463,250,86912,6,0,B|495:182|495:182|462:114,1,150.000001788139,14|10,0:3|0:0,0:0:0:0:
425,80,87763,2,0,L|261:67,1,150.000001788139,10|10,0:3|0:0,0:0:0:0:
227,52,88614,2,0,L|63:39,1,150.000001788139,10|10,0:3|0:0,0:0:0:0:
28,28,89465,1,10,0:3:0:0:
194,138,90316,6,0,L|358:151,1,150.000001788139,14|10,0:3|0:0,0:0:0:0:
389,168,91167,2,0,B|422:236|422:236|380:302,1,150.000001788139,10|10,0:3|0:0,0:0:0:0:
342,329,92018,2,0,L|269:302,2,75.0000008940696,14|14|10,0:3|0:3|0:0,0:0:0:0:
356,376,92869,1,10,0:3:0:0:
486,225,93720,6,0,B|478:177|423:162|423:162|311:205|332:121|200:153,1,314.999994142055,14|2,0:0|0:0,0:0:0:0:
