osu file format v14

[General]
AudioFilename: audio.mp3
AudioLeadIn: 0
PreviewTime: 66380
Countdown: 0
SampleSet: Soft
StackLeniency: 0.7
Mode: 0
LetterboxInBreaks: 0
WidescreenStoryboard: 0

[Editor]
DistanceSpacing: 1.5
BeatDivisor: 4
GridSize: 8
TimelineZoom: 2.1

[Metadata]
Title:Hey Darling!
TitleUnicode:Hey Darling!
Artist:Matsushita
ArtistUnicode:松下
Creator:Lasse
Version:Insane
Source:ワガママハイスペックOC
Tags:Wagamama High Spec OC OverClock Wagahigh opening eroge visual novel Madosoft Mir
BeatmapID:1449913
BeatmapSetID:684242

[Difficulty]
HPDrainRate:5
CircleSize:3.8
OverallDifficulty:7.5
ApproachRate:9
SliderMultiplier:1.20000000596046
SliderTickRate:1

[Events]
//Background and Video events
0,0,"needsmoreass.jpg",0,0
Video,-10,"optc.flv"
//Break Periods
//Storyboard Layer 0 (Background)
//Storyboard Layer 1 (Fail)
//Storyboard Layer 2 (Pass)
//Storyboard Layer 3 (Foreground)
//Storyboard Sound Samples

[TimingPoints]
955,212.765957446809,4,2,1,50,1,0
6912,-111.111111111111,4,2,1,60,0,0
7763,-111.111111111111,4,2,1,70,0,0
8614,-111.111111111111,4,2,1,65,0,0
12869,-111.111111111111,4,2,1,70,0,0
13720,-111.111111111111,4,2,1,40,0,0
14997,-62.5,4,2,1,100,0,0
15210,-111.111111111111,4,2,1,40,0,0
15423,-90.9090909090909,4,2,1,75,0,1
19252,-76.9230769230769,4,2,1,75,0,1
19678,-90.9090909090909,4,2,1,75,0,1
22231,-100,4,2,1,65,0,0
24784,-76.9230769230769,4,2,1,75,0,0
25635,-100,4,2,1,70,0,0
25848,-100,4,2,1,70,0,0
26486,-100,4,2,1,75,0,0
28614,-83.3333333333333,4,2,1,70,0,0
28827,-100,4,2,1,40,0,0
29040,-100,4,2,1,70,0,0
35848,-111.111111111111,4,2,1,60,0,0
49465,-125,4,2,1,50,0,0
56274,-111.111111111111,4,2,1,60,0,0
59678,-100,4,2,1,65,0,0
63082,-100,4,2,1,70,0,0
66061,-62.5,4,2,1,100,0,0
66274,-100,4,2,1,40,0,0
66486,-90.9090909090909,4,2,1,75,0,1
71593,-71.4285714285714,4,2,1,75,0,1
72444,-90.9090909090909,4,2,1,75,0,0
73295,-90.9090909090909,4,2,1,75,0,1
77125,-76.9230769230769,4,2,1,75,0,1
77550,-90.9090909090909,4,2,1,75,0,1
80103,-100,4,2,1,65,0,0
82657,-76.9230769230769,4,2,1,75,0,0
83508,-100,4,2,1,70,0,0
83720,-100,4,2,1,70,0,0
84359,-100,4,2,1,70,0,0
86912,-100,4,2,1,70,0,0
92018,-90.9090909090909,4,2,1,72,0,0
92231,-90.9090909090909,4,2,1,70,0,0
92337,-83.3333333333333,4,2,1,74,0,0
92550,-90.9090909090909,4,2,1,70,0,0
92657,-76.9230769230769,4,2,1,76,0,0
92763,-90.9090909090909,4,2,1,70,0,0
92869,-71.4285714285714,4,2,1,78,0,0
92976,-90.9090909090909,4,2,1,70,0,0
93082,-90.9090909090909,4,2,1,76,0,0
93720,-117.647058823529,4,2,1,78,0,0
93774,-100,4,2,1,20,0,0
95210,-100,4,2,1,10,0,0

[Colours]
Combo1 : 250,190,230
Combo2 : 130,200,230
Combo3 : 255,230,140
Combo4 : 170,245,170

[HitObjects]
171,85,1593,5,8,0:3:0:0:
172,94,1663,1,8,0:3:0:0:
173,103,1735,1,8,0:3:0:0:
174,112,1806,1,14,0:0:0:0:
176,330,3295,5,2,0:0:0:0:
179,291,3401,1,2,0:0:0:0:
182,251,3508,1,14,0:0:0:0:
182,251,5210,5,6,0:0:0:0:
312,110,5635,1,2,0:2:0:0:
369,293,6061,1,2,0:2:0:0:
312,110,6486,6,0,P|275:71|197:86,1,120.000000596046,2|8,0:0|0:3,0:0:0:0:
209,86,6770,1,8,0:3:0:0:
207,97,6841,1,8,0:3:0:0:
205,107,6912,6,0,L|85:90,1,107.999997240543,14|8,0:0|0:3,0:0:0:0:
35,143,7231,2,0,P|12:201|34:261,1,107.999997240543,10|8,0:0|0:3,0:0:0:0:
91,291,7550,2,0,L|159:292,1,53.9999986202715,10|8,0:0|0:3,0:0:0:0:
248,332,7763,5,10,0:3:0:0:
284,328,7869,1,8,0:0:0:0:
322,324,7976,1,8,0:0:0:0:
359,320,8082,1,8,0:0:0:0:
397,316,8189,6,0,L|449:309,2,35.999999080181,10|8|8,0:3|0:3|0:3,0:0:0:0:
411,235,8401,2,0,L|463:228,2,35.999999080181,10|8|8,0:3|0:3|0:3,0:0:0:0:
349,174,8614,6,0,P|335:121|345:50,1,107.999997240543,6|0,0:0|0:0,0:0:0:0:
181,29,9040,1,2,0:0:0:0:
193,47,9146,2,0,P|195:81|184:118,1,53.9999986202715,2|0,0:0|0:0,0:0:0:0:
140,164,9359,1,2,0:0:0:0:
127,181,9465,6,0,L|69:175,1,53.9999986202715,10|0,0:3|0:0,0:0:0:0:
18,235,9678,1,2,0:0:0:0:
13,256,9784,1,2,0:0:0:0:
8,277,9891,2,0,B|0:388,1,107.999997240543,10|0,0:3|0:0,0:0:0:0:
183,287,10316,6,0,P|250:262|300:257,1,107.999997240543,6|0,0:0|0:0,0:0:0:0:
407,344,10742,1,10,0:3:0:0:
423,330,10848,2,0,L|428:260,1,53.9999986202715,2|0,0:0|0:0,0:0:0:0:
472,208,11061,1,2,0:0:0:0:
491,197,11167,6,0,L|486:127,1,53.9999986202715,10|0,0:3|0:0,0:0:0:0:
437,78,11380,1,2,0:0:0:0:
416,72,11486,1,2,0:0:0:0:
395,66,11593,2,0,B|334:77|334:77|276:56,1,107.999997240543,10|0,0:3|0:0,0:0:0:0:
111,23,12018,6,0,B|141:59|141:59|148:189,1,161.999995860815,6|0,0:0|0:0,0:0:0:0:
149,255,12444,1,10,0:0:0:0:
167,265,12550,2,0,L|240:253,1,53.9999986202715,10|8,0:3|0:0,0:0:0:0:
304,331,12763,1,10,0:0:0:0:
286,341,12869,6,0,L|213:329,1,53.9999986202715,10|8,0:2|0:0,0:0:0:0:
334,255,13082,1,8,0:0:0:0:
355,251,13189,1,8,0:0:0:0:
375,243,13295,6,0,L|380:121,1,107.999997240543,10|8,0:0|0:0,0:0:0:0:
209,33,13720,5,2,0:0:0:0:
108,306,14997,6,0,B|69:332|69:332|7:269|64:203,1,192.000000953674,12|0,0:2|0:0,0:0:0:0:
254,259,15423,6,0,P|293:258|333:238,1,66.0000023419855,14|0,0:3|0:0,0:0:0:0:
371,165,15635,2,0,P|370:126|350:86,1,66.0000023419855,10|8,0:0|0:3,0:0:0:0:
277,48,15848,2,0,P|238:49|198:69,1,66.0000023419855,2|8,0:0|0:3,0:0:0:0:
160,142,16061,2,0,P|161:181|181:221,1,66.0000023419855,10|0,0:0|0:0,0:0:0:0:
254,258,16274,6,0,P|232:201|169:207,1,132.000004683971,10|10,0:3|0:0,0:0:0:0:
249,343,16593,2,0,P|282:339|312:326,1,66.0000023419855,10|0,0:3|0:0,0:0:0:0:
177,291,16806,2,0,P|144:295|114:308,1,66.0000023419855,10|8,0:3|0:0,0:0:0:0:
40,357,17018,1,2,0:0:0:0:
18,344,17125,6,0,L|13:261,1,66.0000023419855,10|0,0:3|0:0,0:0:0:0:
84,208,17337,2,0,L|89:125,1,66.0000023419855,10|8,0:0|0:3,0:0:0:0:
141,58,17550,2,0,P|165:44|223:47,1,66.0000023419855,2|8,0:0|0:3,0:0:0:0:
297,71,17763,2,0,P|323:79|380:67,1,66.0000023419855,10|0,0:0|0:0,0:0:0:0:
484,59,17976,5,14,0:0:0:0:
492,83,18082,1,8,0:0:0:0:
501,107,18189,1,8,0:0:0:0:
483,142,18295,5,10,0:0:0:0:
482,168,18401,1,8,0:0:0:0:
479,193,18508,1,8,0:0:0:0:
452,241,18614,5,10,0:0:0:0:
458,268,18720,1,8,0:0:0:0:
495,296,18827,6,0,P|432:296|401:351,1,132.000004683971,14|0,0:3|0:0,0:0:0:0:
401,351,19252,6,0,B|357:336|357:336|302:362|302:362|255:347,1,155.999993633747,14|0,0:3|0:0,0:0:0:0:
256,347,19678,6,0,L|262:187,1,132.000004683971,14|8,0:3|0:3,0:0:0:0:
352,175,19997,1,8,0:0:0:0:
373,160,20103,2,0,L|393:92,1,66.0000023419855,2|8,0:0|0:3,0:0:0:0:
279,118,20316,2,0,L|281:47,1,66.0000023419855,10|0,0:0|0:0,0:0:0:0:
186,159,20529,6,0,L|170:90,1,66.0000023419855,6|0,0:0|0:0,0:0:0:0:
157,30,20742,2,0,L|172:98,1,66.0000023419855,10|0,0:3|0:0,0:0:0:0:
162,171,20955,6,0,L|146:102,1,66.0000023419855,10|0,0:3|0:0,0:0:0:0:
133,42,21167,2,0,L|148:110,1,66.0000023419855,10|0,0:3|0:0,0:0:0:0:
72,163,21380,5,10,0:2:0:0:
56,180,21486,1,8,0:2:0:0:
45,203,21593,1,8,0:2:0:0:
41,227,21699,1,8,0:2:0:0:
11,243,21806,5,8,0:2:0:0:
24,264,21912,1,8,0:2:0:0:
29,289,22018,1,8,0:2:0:0:
27,313,22125,1,8,0:2:0:0:
52,336,22231,6,0,L|194:325,1,120.000000596046,14|0,0:3|0:0,0:0:0:0:
261,320,22550,1,10,0:3:0:0:
280,335,22657,2,0,L|422:324,1,120.000000596046,8|2,0:0|0:0,0:0:0:0:
483,166,23082,6,0,L|341:155,1,120.000000596046,10|0,0:3|0:0,0:0:0:0:
274,150,23401,1,10,0:3:0:0:
255,165,23508,2,0,L|184:159,1,60.000000298023,8|0,0:0|0:0,0:0:0:0:
111,192,23720,2,0,L|40:186,1,60.000000298023,2|0,0:0|0:0,0:0:0:0:
163,265,23933,6,0,P|198:218|194:159,1,120.000000596046,10|0,0:3|0:0,0:0:0:0:
122,105,24252,1,10,0:3:0:0:
100,94,24359,2,0,L|94:21,1,60.000000298023,8|0,0:0|0:0,0:0:0:0:
205,70,24572,1,2,0:0:0:0:
226,59,24678,1,2,0:0:0:0:
247,48,24784,6,0,B|313:64|313:64|412:56,1,155.999993633747,14|10,0:3|0:0,0:0:0:0:
194,159,25210,2,0,B|128:143|128:143|29:151,1,155.999993633747,10|10,0:3|0:0,0:0:0:0:
40,160,25494,1,8,0:2:0:0:
40,170,25564,1,8,0:2:0:0:
40,180,25635,6,0,L|37:251,1,60.000000298023,14|0,0:3|0:0,0:0:0:0:
97,307,25848,2,0,P|161:284|205:286,1,60.000000298023,10|8,0:0|0:3,0:0:0:0:
241,300,26061,2,0,P|267:313|296:321,1,60.000000298023,2|8,0:0|0:3,0:0:0:0:
385,303,26274,2,0,P|411:289|440:281,1,60.000000298023,10|0,0:3|0:0,0:0:0:0:
492,198,26486,5,12,0:2:0:0:
492,179,26593,1,8,0:2:0:0:
492,161,26699,1,8,0:0:0:0:
492,142,26806,1,8,0:0:0:0:
465,118,26912,5,8,0:0:0:0:
465,100,27018,1,8,0:0:0:0:
465,81,27125,1,8,0:0:0:0:
466,63,27231,1,8,0:0:0:0:
438,37,27337,5,14,0:0:0:0:
425,300,28614,6,0,B|395:319|395:319|354:276|372:219,1,143.999996320724,8|0,0:3|0:0,0:0:0:0:
290,57,29040,6,0,L|154:39,1,120.000000596046,14|8,0:3|0:0,0:0:0:0:
86,73,29359,2,0,P|65:119|81:205,1,120.000000596046,10|8,0:3|0:3,0:0:0:0:
131,254,29678,2,0,P|137:284|135:338,1,60.000000298023,10|0,0:0|0:0,0:0:0:0:
221,372,29891,6,0,P|222:342|228:313,1,60.000000298023,10|0,0:3|0:0,0:0:0:0:
299,258,30103,1,10,0:0:0:0:
299,258,30210,2,0,P|304:228|305:198,1,60.000000298023,10|0,0:3|0:0,0:0:0:0:
255,130,30423,1,10,0:3:0:0:
255,130,30529,2,0,P|250:100|249:70,1,60.000000298023,10|0,0:0|0:0,0:0:0:0:
365,57,30742,6,0,P|311:76|245:69,1,120.000000596046,10|8,0:3|0:0,0:0:0:0:
164,102,31061,2,0,P|128:88|93:86,1,60.000000298023,10|0,0:3|0:0,0:0:0:0:
34,140,31274,1,10,0:3:0:0:
34,140,31380,2,0,L|27:206,1,60.000000298023,10|0,0:0|0:0,0:0:0:0:
127,261,31593,6,0,P|163:247|198:245,1,60.000000298023,10|0,0:3|0:0,0:0:0:0:
274,277,31806,1,10,0:0:0:0:
274,277,31912,2,0,P|332:288|391:282,1,120.000000596046,10|10,0:3|0:3,0:0:0:0:
472,239,32231,2,0,L|479:175,1,60.000000298023,10|0,0:0|0:0,0:0:0:0:
372,56,32444,6,0,P|312:60|256:82,1,120.000000596046,14|8,0:3|0:0,0:0:0:0:
230,170,32763,2,0,P|262:208|268:296,1,120.000000596046,10|8,0:3|0:3,0:0:0:0:
207,338,33082,2,0,L|123:354,1,60.000000298023,10|0,0:0|0:0,0:0:0:0:
294,365,33295,6,0,L|364:361,1,60.000000298023,10|0,0:3|0:0,0:0:0:0:
446,349,33508,1,10,0:0:0:0:
446,349,33614,2,0,P|451:319|452:289,1,60.000000298023,10|0,0:3|0:0,0:0:0:0:
393,227,33827,1,10,0:3:0:0:
393,227,33933,2,0,P|388:197|387:167,1,60.000000298023,10|0,0:0|0:0,0:0:0:0:
313,75,34146,6,0,P|254:65|204:32,1,120.000000596046,10|8,0:3|0:0,0:0:0:0:
124,74,34465,2,0,P|89:65|53:62,1,60.000000298023,10|0,0:3|0:0,0:0:0:0:
8,132,34678,1,10,0:3:0:0:
8,132,34784,2,0,L|1:198,1,60.000000298023,10|0,0:0|0:0,0:0:0:0:
119,234,34997,6,0,P|155:220|190:218,1,60.000000298023,14|0,0:3|0:0,0:0:0:0:
258,261,35210,1,8,0:0:0:0:
280,262,35316,1,8,0:0:0:0:
303,262,35423,1,8,0:0:0:0:
325,263,35529,1,8,0:0:0:0:
347,264,35635,1,8,0:0:0:0:
370,265,35742,1,8,0:0:0:0:
392,266,35848,6,0,P|416:220|399:160,1,107.999997240543,14|8,0:3|0:0,0:0:0:0:
325,107,36167,2,0,P|352:150|413:166,1,107.999997240543,10|8,0:3|0:3,0:0:0:0:
470,119,36486,2,0,L|479:43,1,53.9999986202715,10|0,0:0|0:0,0:0:0:0:
379,27,36699,6,0,L|263:19,1,107.999997240543,10|8,0:3|0:0,0:0:0:0:
199,57,37018,2,0,P|180:125|191:171,1,107.999997240543,10|8,0:3|0:3,0:0:0:0:
223,233,37337,2,0,P|230:256|232:308,1,53.9999986202715,10|0,0:0|0:0,0:0:0:0:
136,354,37550,6,0,L|66:347,1,53.9999986202715,10|0,0:3|0:0,0:0:0:0:
56,271,37763,2,0,L|11:216,1,53.9999986202715,10|8,0:0|0:3,0:0:0:0:
58,155,37976,2,0,L|65:85,1,53.9999986202715,2|8,0:0|0:3,0:0:0:0:
141,74,38189,2,0,L|195:29,1,53.9999986202715,10|0,0:2|0:0,0:0:0:0:
290,83,38401,6,0,P|333:88|403:52,1,107.999997240543,10|8,0:3|0:0,0:0:0:0:
493,44,38720,2,0,P|450:39|380:75,1,107.999997240543,8|8,0:3|0:3,0:0:0:0:
417,141,39040,2,0,L|408:217,1,53.9999986202715,10|0,0:2|0:0,0:0:0:0:
320,261,39252,6,0,P|312:237|294:207,1,53.9999986202715,10|0,0:3|0:0,0:0:0:0:
220,186,39465,1,10,0:0:0:0:
220,186,39572,2,0,L|110:180,1,107.999997240543,10|8,0:3|0:3,0:0:0:0:
39,142,39891,2,0,P|25:118|16:93,1,53.9999986202715,10|0,0:0|0:0,0:0:0:0:
104,11,40103,6,0,P|117:34|126:59,1,53.9999986202715,10|0,0:3|0:0,0:0:0:0:
209,100,40316,1,10,0:0:0:0:
209,100,40423,1,10,0:3:0:0:
209,100,40529,2,0,P|217:74|231:51,1,53.9999986202715,2|8,0:0|0:3,0:0:0:0:
309,29,40742,2,0,L|370:25,1,53.9999986202715,10|0,0:2|0:0,0:0:0:0:
483,80,40955,6,0,P|457:72|430:70,1,53.9999986202715,10|0,0:3|0:0,0:0:0:0:
357,104,41167,2,0,P|337:122|322:145,1,53.9999986202715,10|8,0:0|0:3,0:0:0:0:
314,225,41380,2,0,P|320:251|332:275,1,53.9999986202715,2|8,0:0|0:3,0:0:0:0:
397,322,41593,2,0,P|422:329|449:331,1,53.9999986202715,10|0,0:0|0:0,0:0:0:0:
324,354,41806,6,0,L|204:349,1,107.999997240543,10|8,0:3|0:0,0:0:0:0:
138,324,42125,2,0,P|119:277|127:207,1,107.999997240543,8|8,0:3|0:3,0:0:0:0:
172,156,42444,2,0,L|176:85,1,53.9999986202715,10|0,0:2|0:0,0:0:0:0:
277,89,42657,6,0,P|209:111|166:97,1,107.999997240543,14|8,0:3|0:0,0:0:0:0:
74,116,42976,2,0,P|142:94|185:108,1,107.999997240543,10|8,0:3|0:3,0:0:0:0:
246,184,43295,2,0,L|256:263,1,53.9999986202715,10|0,0:0|0:0,0:0:0:0:
344,302,43508,6,0,P|396:310|445:288,1,107.999997240543,10|8,0:3|0:0,0:0:0:0:
474,212,43827,1,8,0:3:0:0:
474,212,43933,2,0,L|478:151,1,53.9999986202715,2|8,2:0|2:3,0:0:0:0:
426,94,44146,2,0,L|422:33,1,53.9999986202715,10|0,0:0|0:0,0:0:0:0:
349,123,44359,6,0,P|296:130|249:106,1,107.999997240543,10|8,0:3|0:0,0:0:0:0:
149,89,44678,2,0,P|201:81|248:105,1,107.999997240543,10|8,0:3|0:3,0:0:0:0:
225,196,44997,2,0,L|223:268,1,53.9999986202715,10|0,0:0|0:0,0:0:0:0:
141,326,45210,6,0,P|88:333|41:309,1,107.999997240543,10|8,0:3|0:0,0:0:0:0:
13,232,45529,2,0,L|8:114,1,107.999997240543,8|8,0:3|0:3,0:0:0:0:
59,60,45848,2,0,P|86:47|116:18,1,53.9999986202715,10|0,0:0|0:0,0:0:0:0:
196,117,46061,6,0,P|221:107|248:104,1,53.9999986202715,10|0,0:3|0:0,0:0:0:0:
330,133,46274,1,10,0:0:0:0:
330,133,46380,2,0,P|390:135|444:107,1,107.999997240543,10|8,0:3|0:3,0:0:0:0:
470,19,46699,1,10,0:0:0:0:
470,19,46806,1,2,0:0:0:0:
470,19,46912,6,0,P|438:69|435:130,1,107.999997240543,8|10,0:3|0:0,0:0:0:0:
499,197,47231,2,0,P|471:144|420:111,1,107.999997240543,10|10,0:3|0:3,0:0:0:0:
330,133,47550,2,0,L|265:128,1,53.9999986202715,10|0,0:0|0:0,0:0:0:0:
177,96,47763,6,0,P|235:102|285:138,1,107.999997240543,8|8,0:3|0:0,0:0:0:0:
199,198,48082,2,0,P|175:142|181:82,1,107.999997240543,8|8,0:3|0:3,0:0:0:0:
261,29,48401,2,0,L|325:21,1,53.9999986202715,8|0,0:0|0:0,0:0:0:0:
383,86,48614,5,8,0:0:0:0:
385,112,48720,1,8,0:0:0:0:
387,139,48827,1,10,0:0:0:0:
389,166,48933,1,8,0:0:0:0:
391,193,49040,1,10,0:0:0:0:
393,220,49146,1,8,0:0:0:0:
414,248,49252,5,10,0:3:0:0:
416,275,49359,1,8,0:3:0:0:
388,304,49465,6,0,L|278:295,1,96.0000004768368,14|0,0:3|0:0,0:0:0:0:
226,333,49784,1,2,0:0:0:0:
226,333,49891,2,0,L|116:324,1,96.0000004768368,8|2,0:3|0:0,0:0:0:0:
72,182,50316,6,0,L|167:174,1,96.0000004768368,10|0,0:3|0:0,0:0:0:0:
211,110,50635,2,0,L|217:52,2,48.0000002384184,2|8|0,0:0|0:3|0:0,0:0:0:0:
244,180,50955,2,0,L|250:238,1,48.0000002384184,2|0,0:0|0:0,0:0:0:0:
322,290,51167,6,0,L|417:282,1,96.0000004768368,10|0,0:3|0:0,0:0:0:0:
478,234,51486,2,0,P|490:183|480:127,1,96.0000004768368,2|2,0:0|0:0,0:0:0:0:
446,72,51806,2,0,L|389:67,1,48.0000002384184,2|0,0:0|0:0,0:0:0:0:
301,29,52018,6,0,L|206:21,1,96.0000004768368,10|0,0:3|0:0,0:0:0:0:
142,65,52337,2,0,P|130:111|135:158,1,96.0000004768368,2|0,0:0|0:0,0:0:0:0:
170,228,52657,2,0,P|177:255|169:285,1,48.0000002384184,2|0,0:0|0:0,0:0:0:0:
81,283,52869,6,0,P|126:267|172:274,1,96.0000004768368,10|0,0:3|0:0,0:0:0:0:
232,324,53189,2,0,L|300:328,1,48.0000002384184,2|8,0:0|0:3,0:0:0:0:
351,353,53401,2,0,L|419:357,1,48.0000002384184,2|0,0:0|0:0,0:0:0:0:
477,377,53614,1,0,0:0:0:0:
477,377,53720,6,0,L|480:263,1,96.0000004768368,10|0,0:3|0:0,0:0:0:0:
439,214,54040,1,2,0:0:0:0:
439,214,54146,2,0,P|391:196|325:201,1,96.0000004768368,8|2,0:3|0:0,0:0:0:0:
232,324,54572,6,0,P|184:323|139:305,1,96.0000004768368,10|2,0:3|0:0,0:0:0:0:
85,251,54891,2,0,L|79:189,1,48.0000002384184,2|8,0:0|0:3,0:0:0:0:
113,134,55103,1,2,0:0:0:0:
113,134,55210,2,0,L|119:72,1,48.0000002384184,2|0,0:0|0:0,0:0:0:0:
207,34,55423,5,10,0:3:0:0:
221,46,55529,1,10,0:3:0:0:
236,57,55635,2,0,P|288:68|340:55,1,96.0000004768368,10|10,0:3|0:0,0:0:0:0:
498,7,56061,1,10,0:0:0:0:
482,17,56167,1,10,0:0:0:0:
468,29,56274,6,0,P|450:62|450:100,1,53.9999986202715,14|0,0:3|0:0,0:0:0:0:
482,151,56486,2,0,L|486:265,1,107.999997240543,2|10,0:0|0:3,0:0:0:0:
344,340,56912,2,0,L|340:226,1,107.999997240543,2|8,0:0|0:3,0:0:0:0:
238,80,57337,5,2,0:0:0:0:
180,231,57550,1,10,0:3:0:0:
51,131,57763,2,0,L|47:17,1,107.999997240543,2|8,0:0|0:3,0:0:0:0:
4,257,58189,5,2,0:0:0:0:
131,157,58401,1,10,0:3:0:0:
168,314,58614,1,2,0:0:0:0:
340,232,58827,6,0,L|349:158,1,53.9999986202715,14|8,0:3|0:0,0:0:0:0:
388,108,59040,2,0,L|379:34,1,53.9999986202715,10|8,0:0|0:3,0:0:0:0:
307,21,59252,5,10,0:0:0:0:
285,19,59359,1,8,0:0:0:0:
263,17,59465,1,10,0:0:0:0:
241,15,59572,1,8,0:0:0:0:
169,45,59678,6,0,P|143:98|155:161,1,120.000000596046,14|8,0:3|0:3,0:0:0:0:
237,188,59997,2,0,L|314:183,1,60.000000298023,10|0,0:0|0:3,0:0:0:0:
382,212,60210,2,0,P|396:241|398:293,1,60.000000298023,10|8,0:0|0:3,0:0:0:0:
312,329,60423,6,0,L|244:318,2,60.000000298023,10|8|8,0:0|0:3|0:0,0:0:0:0:
386,360,60742,1,10,0:2:0:0:
409,362,60848,1,8,0:2:0:0:
432,365,60955,2,0,P|456:340|486:324,1,60.000000298023,8|8,0:2|0:2,0:0:0:0:
486,238,61167,2,0,L|473:166,1,60.000000298023,10|0,0:0|0:0,0:0:0:0:
407,93,61380,6,0,P|342:99|281:65,1,120.000000596046,10|8,0:3|0:3,0:0:0:0:
215,30,61699,2,0,P|172:23|144:28,1,60.000000298023,10|8,0:0|0:3,0:0:0:0:
78,71,61912,2,0,L|70:137,1,60.000000298023,10|8,0:0|0:3,0:0:0:0:
90,217,62125,6,0,L|22:206,2,60.000000298023,10|8|8,0:2|0:3|0:2,0:0:0:0:
164,248,62444,1,8,0:2:0:0:
187,250,62550,1,8,0:2:0:0:
210,253,62657,2,0,P|221:296|224:329,1,60.000000298023,8|8,0:2|0:2,0:0:0:0:
301,355,62869,1,10,0:3:0:0:
324,353,62976,1,8,0:3:0:0:
347,350,63082,6,0,P|358:307|361:274,1,60.000000298023,14|8,0:3|0:0,0:0:0:0:
322,209,63295,1,10,0:0:0:0:
298,205,63401,2,0,P|287:162|284:129,1,60.000000298023,10|8,0:0|0:3,0:0:0:0:
358,93,63614,1,10,0:0:0:0:
381,91,63720,1,8,0:0:0:0:
404,88,63827,2,0,P|415:45|418:12,1,60.000000298023,10|8,0:0|0:3,0:0:0:0:
182,72,64146,6,0,P|171:29|168:-4,1,60.000000298023,10|8,0:0|0:0,0:0:0:0:
161,149,64359,2,0,P|129:180|102:199,1,60.000000298023,10|8,0:3|0:3,0:0:0:0:
239,129,64572,2,0,P|281:140|311:154,2,40.000000198682,10|8|8,0:0|0:0|0:0,0:0:0:0:
218,207,64784,5,14,0:0:0:0:
404,306,66061,6,0,B|443:332|443:332|505:269|448:203,1,192.000000953674,12|0,0:0|0:0,0:0:0:0:
230,278,66486,6,0,L|153:269,1,66.0000023419855,14|0,0:3|0:0,0:0:0:0:
85,209,66699,2,0,L|69:133,1,66.0000023419855,10|8,0:0|0:3,0:0:0:0:
105,49,66912,2,0,L|171:10,1,66.0000023419855,2|8,0:0|0:3,0:0:0:0:
263,18,67125,2,0,L|319:69,1,66.0000023419855,10|0,0:0|0:0,0:0:0:0:
300,178,67337,6,0,P|279:117|311:62,1,132.000004683971,10|10,0:3|0:0,0:0:0:0:
420,117,67657,2,0,P|388:126|356:125,1,66.0000023419855,10|0,0:3|0:0,0:0:0:0:
442,41,67869,2,0,P|470:57|492:81,1,66.0000023419855,10|8,0:3|0:0,0:0:0:0:
468,188,68081,1,2,0:0:0:0:
452,209,68189,6,0,L|449:284,1,66.0000023419855,10|0,0:3|0:3,0:0:0:0:
375,340,68401,2,0,P|328:336|304:320,1,66.0000023419855,10|8,0:0|0:3,0:0:0:0:
218,361,68614,2,0,P|188:347|155:348,1,66.0000023419855,2|8,0:0|0:3,0:0:0:0:
58,371,68827,1,10,0:2:0:0:
54,344,68933,1,2,0:0:0:0:
50,317,69040,6,0,L|54:243,1,66.0000023419855,10|8,0:3|0:3,0:0:0:0:
170,251,69252,2,0,L|166:177,1,66.0000023419855,10|0,0:0|0:0,0:0:0:0:
60,152,69465,2,0,L|64:78,1,66.0000023419855,10|8,0:3|0:3,0:0:0:0:
180,86,69677,2,0,L|176:12,1,66.0000023419855,10|0,0:0|0:0,0:0:0:0:
298,55,69891,6,0,P|244:91|180:86,1,132.000004683971,10|8,0:3|0:0,0:0:0:0:
63,86,70210,1,8,0:3:0:0:
60,60,70316,2,0,P|124:52|179:86,1,132.000004683971,2|8,0:0|0:2,0:0:0:0:
270,291,70742,6,0,L|350:293,1,66.0000023419855,10|0,0:3|0:0,0:0:0:0:
420,346,70955,2,0,P|434:312|435:276,1,66.0000023419855,10|8,0:0|0:3,0:0:0:0:
378,202,71167,2,0,P|364:168|363:132,1,66.0000023419855,2|8,0:0|0:3,0:0:0:0:
448,89,71380,2,0,P|462:55|463:19,1,66.0000023419855,10|0,0:0|0:0,0:0:0:0:
351,35,71593,6,0,B|295:28|295:28|236:45|236:45|186:38,1,167.999995707511,14|8,0:3|0:0,0:0:0:0:
113,143,71912,2,0,B|168:149|168:149|227:132|227:132|277:139,1,167.999995707511,14|8,0:3|0:3,0:0:0:0:
378,202,72231,2,0,B|360:231|360:231|344:294,1,83.9999978537557,14|0,0:0|0:0,0:0:0:0:
280,359,72444,5,8,0:0:0:0:
278,347,72550,1,8,0:0:0:0:
276,335,72657,1,8,0:0:0:0:
274,323,72763,1,8,0:0:0:0:
234,305,72869,5,10,0:0:0:0:
236,293,72975,1,8,0:0:0:0:
238,281,73082,1,8,0:0:0:0:
240,269,73188,1,8,0:0:0:0:
203,245,73295,6,0,P|171:234|139:234,1,66.0000023419855,14|0,0:3|0:0,0:0:0:0:
87,148,73508,2,0,P|98:116|98:84,1,66.0000023419855,10|8,0:0|0:3,0:0:0:0:
184,32,73720,2,0,P|216:43|248:43,1,66.0000023419855,2|8,0:0|0:3,0:0:0:0:
300,129,73933,2,0,P|289:161|289:193,1,66.0000023419855,10|0,0:0|0:0,0:0:0:0:
397,221,74146,6,0,P|350:178|281:200,1,132.000004683971,10|10,0:3|0:0,0:0:0:0:
357,296,74465,2,0,P|389:307|421:307,1,66.0000023419855,10|0,0:3|0:0,0:0:0:0:
483,229,74678,2,0,P|481:195|470:165,1,66.0000023419855,10|8,0:3|0:0,0:0:0:0:
399,96,74890,1,2,0:0:0:0:
375,83,74997,6,0,L|301:77,1,66.0000023419855,10|0,0:3|0:0,0:0:0:0:
216,41,75210,2,0,L|142:35,1,66.0000023419855,10|8,0:0|0:3,0:0:0:0:
70,93,75422,2,0,P|87:133|90:180,1,66.0000023419855,2|8,0:0|0:3,0:0:0:0:
171,212,75635,2,0,P|154:252|151:299,1,66.0000023419855,10|0,0:0|0:0,0:0:0:0:
247,327,75848,5,14,0:0:0:0:
271,321,75954,1,8,0:0:0:0:
296,315,76061,1,8,0:0:0:0:
329,336,76167,5,10,0:0:0:0:
355,340,76273,1,8,0:0:0:0:
379,345,76380,1,8,0:0:0:0:
424,377,76486,5,10,0:0:0:0:
452,374,76592,1,8,0:0:0:0:
483,340,76699,6,0,L|489:188,1,132.000004683971,14|0,0:3|0:0,0:0:0:0:
488,208,77125,6,0,B|444:193|444:193|389:219|389:219|342:204,1,155.999993633747,14|0,0:3|0:0,0:0:0:0:
342,204,77550,6,0,L|336:52,1,132.000004683971,14|8,0:3|0:3,0:0:0:0:
242,41,77869,1,8,0:0:0:0:
222,58,77975,2,0,L|156:46,1,66.0000023419855,2|8,0:0|0:3,0:0:0:0:
83,115,78189,2,0,L|17:103,1,66.0000023419855,10|0,0:0|0:0,0:0:0:0:
117,207,78401,6,0,P|143:197|185:192,1,66.0000023419855,6|0,0:0|0:0,0:0:0:0:
245,178,78614,2,0,P|219:187|177:192,1,66.0000023419855,10|0,0:3|0:0,0:0:0:0:
166,128,78827,6,0,P|176:154|181:196,1,66.0000023419855,10|0,0:3|0:0,0:0:0:0:
196,256,79040,2,0,P|186:230|181:188,1,66.0000023419855,10|0,0:3|0:0,0:0:0:0:
243,90,79252,5,10,0:2:0:0:
265,97,79358,1,8,0:2:0:0:
290,96,79465,1,8,0:2:0:0:
314,89,79571,1,8,0:2:0:0:
341,109,79678,5,8,0:2:0:0:
354,87,79784,1,8,0:2:0:0:
374,72,79890,1,8,0:2:0:0:
397,62,79997,1,8,0:2:0:0:
439,80,80103,6,0,L|447:213,1,120.000000596046,14|0,0:3|0:0,0:0:0:0:
487,281,80423,1,10,0:3:0:0:
478,303,80530,2,0,P|412:288|336:292,1,120.000000596046,8|0,0:0|0:0,0:0:0:0:
192,356,80955,6,0,P|132:355|73:341,1,120.000000596046,10|0,0:3|0:0,0:0:0:0:
32,260,81274,1,10,0:3:0:0:
47,241,81381,2,0,L|41:169,1,60.000000298023,8|0,0:0|0:0,0:0:0:0:
100,112,81593,2,0,L|106:41,1,60.000000298023,2|0,0:0|0:0,0:0:0:0:
209,96,81806,6,0,P|267:99|314:64,1,120.000000596046,10|0,0:3|0:0,0:0:0:0:
402,88,82125,1,10,0:3:0:0:
413,66,82232,2,0,L|486:60,1,60.000000298023,8|0,0:0|0:0,0:0:0:0:
490,189,82445,1,2,0:0:0:0:
473,171,82551,1,2,0:0:0:0:
457,154,82657,6,0,B|431:167|431:167|399:164|399:164|356:191|372:258,1,155.999993633747,14|10,0:3|0:0,0:0:0:0:
211,357,83082,2,0,B|185:344|185:344|153:347|153:347|110:320|123:263,1,155.999993633747,10|10,0:3|0:0,0:0:0:0:
123,254,83367,1,8,0:2:0:0:
123,244,83437,1,8,0:2:0:0:
123,234,83508,6,0,P|120:195|106:167,1,60.000000298023,14|0,0:3|0:0,0:0:0:0:
65,99,83720,2,0,P|68:60|82:32,1,60.000000298023,10|8,0:0|0:3,0:0:0:0:
166,29,83934,2,0,P|192:42|221:50,1,60.000000298023,2|8,0:0|0:3,0:0:0:0:
312,45,84147,2,0,P|338:31|367:23,1,60.000000298023,10|0,0:3|0:0,0:0:0:0:
461,54,84359,5,12,0:3:0:0:
303,194,84572,1,8,0:3:0:0:
312,45,84784,1,8,0:3:0:0:
452,203,84997,1,8,0:3:0:0:
461,54,85210,5,14,0:0:0:0:
461,54,86274,5,8,0:3:0:0:
460,63,86344,1,8,0:3:0:0:
459,72,86416,1,8,0:3:0:0:
458,81,86487,1,8,0:0:0:0:
389,325,86912,6,0,L|253:307,1,120.000000596046,14|8,0:3|0:0,0:0:0:0:
188,349,87231,2,0,L|52:331,1,120.000000596046,10|8,0:3|0:3,0:0:0:0:
7,266,87550,2,0,P|1:236|0:206,1,60.000000298023,10|0,0:0|0:0,0:0:0:0:
98,162,87763,6,0,P|103:132|104:102,1,60.000000298023,10|0,0:3|0:0,0:0:0:0:
179,50,87975,1,10,0:0:0:0:
179,50,88082,2,0,L|243:45,1,60.000000298023,10|0,0:3|0:0,0:0:0:0:
323,91,88295,1,10,0:3:0:0:
323,91,88402,2,0,L|387:96,1,60.000000298023,10|0,0:0|0:0,0:0:0:0:
463,25,88614,6,0,P|408:43|382:95,1,120.000000596046,10|8,0:3|0:0,0:0:0:0:
345,178,88933,2,0,P|352:201|351:252,1,60.000000298023,10|0,0:3|0:0,0:0:0:0:
281,292,89146,1,10,0:3:0:0:
281,292,89252,2,0,P|246:288|218:288,1,60.000000298023,10|0,0:0|0:0,0:0:0:0:
366,327,89465,6,0,P|401:331|429:331,1,60.000000298023,10|0,0:3|0:0,0:0:0:0:
489,266,89678,1,10,0:0:0:0:
489,266,89784,2,0,L|495:138,1,120.000000596046,10|10,0:3|0:3,0:0:0:0:
455,64,90103,2,0,P|422:51|395:43,1,60.000000298023,10|0,0:0|0:0,0:0:0:0:
287,76,90316,6,0,P|227:72|171:50,1,120.000000596046,14|8,0:3|0:0,0:0:0:0:
94,98,90635,2,0,P|115:153|119:213,1,120.000000596046,10|8,0:3|0:3,0:0:0:0:
62,283,90954,2,0,P|53:314|58:347,1,60.000000298023,10|0,0:0|0:0,0:0:0:0:
167,365,91167,6,0,P|197:356|237:352,1,60.000000298023,10|0,0:3|0:0,0:0:0:0:
314,365,91380,1,10,0:0:0:0:
314,365,91486,2,0,P|343:360|372:352,1,60.000000298023,10|0,0:3|0:0,0:0:0:0:
410,272,91699,1,10,0:3:0:0:
410,272,91805,2,0,P|405:242|404:212,1,60.000000298023,10|0,0:0|0:0,0:0:0:0:
484,144,92018,6,0,P|425:134|370:82,1,132.000004683971,14|8,0:3|0:0,0:0:0:0:
308,174,92337,6,0,P|273:125|279:32,1,143.999996320724,14|8,0:3|0:3,0:0:0:0:
373,87,92657,6,0,P|385:47|376:4,1,77.9999968168734,10|0,0:0|0:0,0:0:0:0:
274,44,92869,6,0,L|183:28,1,83.9999978537557,10|0,0:3|0:0,0:0:0:0:
90,45,93082,5,10,0:0:0:0:
95,77,93188,1,8,0:0:0:0:
100,109,93295,2,0,L|85:224,1,88.0000031226474,10|8,0:0|0:0,0:0:0:0:
53,262,93508,2,0,L|1:262,2,44.0000015613237,8|8|8,0:0|0:0|0:0,0:0:0:0:
120,298,93720,5,14,0:0:0:0:
256,192,93774,12,2,95210,0:0:0:0:
