osu file format v14

[General]
AudioFilename: audio.mp3
AudioLeadIn: 0
PreviewTime: 66380
Countdown: 0
SampleSet: Soft
StackLeniency: 0.4
Mode: 0
LetterboxInBreaks: 0
WidescreenStoryboard: 1

[Editor]
DistanceSpacing: 1
BeatDivisor: 4
GridSize: 32
TimelineZoom: 1.5

[Metadata]
Title:Hey Darling!
TitleUnicode:Hey Darling!
Artist:Matsushita
ArtistUnicode:松下
Creator:Lasse
Version:Expert
Source:ワガママハイスペックOC
Tags:Wagamama High Spec OC OverClock Wagahigh opening eroge visual novel Madosoft Mir
BeatmapID:1448070
BeatmapSetID:684242

[Difficulty]
HPDrainRate:6
CircleSize:3.7
OverallDifficulty:8.7
ApproachRate:9.3
SliderMultiplier:1.6
SliderTickRate:1

[Events]
//Background and Video events
0,0,"needsmoreass.jpg",0,0
Video,-10,"optc.flv"
//Break Periods
//Storyboard Layer 0 (Background)
//Storyboard Layer 1 (Fail)
//Storyboard Layer 2 (Pass)
//Storyboard Layer 3 (Foreground)
//Storyboard Sound Samples

[TimingPoints]
955,212.765957446809,4,2,1,50,1,0
6912,-100,4,2,1,60,0,0
7763,-100,4,2,1,70,0,0
8614,-111.111111111111,4,2,1,65,0,0
12869,-111.111111111111,4,2,1,70,0,0
13720,-200,4,2,1,40,0,0
14997,-50,4,2,1,100,0,0
15210,-50,4,2,1,40,0,0
15423,-83.3333333333333,4,2,1,75,0,1
19252,-71.4285714285714,4,2,1,75,0,1
19678,-83.3333333333333,4,2,1,75,0,1
22231,-111.111111111111,4,2,1,65,0,0
24784,-55.5555555555556,4,2,1,75,0,0
25635,-71.4285714285714,4,2,1,70,0,0
25848,-100,4,2,1,70,0,0
26486,-100,4,2,1,75,0,0
28614,-71.4285714285714,4,2,1,70,0,0
28827,-71.4285714285714,4,2,1,40,0,0
29040,-90.9090909090909,4,2,1,70,0,0
35848,-100,4,2,1,60,0,0
47763,-87.719298245614,4,2,1,60,0,0
48082,-86.9565217391304,4,2,1,60,0,0
49465,-111.111111111111,4,2,1,50,0,0
56274,-105.263157894737,4,2,1,60,0,0
59678,-100,4,2,1,65,0,0
63082,-90.9090909090909,4,2,1,70,0,0
66061,-50,4,2,1,100,0,0
66274,-50,4,2,1,40,0,0
66486,-83.3333333333333,4,2,1,75,0,1
71593,-62.5,4,2,1,75,0,1
72444,-71.4285714285714,4,2,1,75,0,0
73295,-83.3333333333333,4,2,1,75,0,1
77125,-71.4285714285714,4,2,1,75,0,1
77550,-83.3333333333333,4,2,1,75,0,1
80103,-111.111111111111,4,2,1,65,0,0
82657,-50,4,2,1,75,0,0
83508,-71.4285714285714,4,2,1,70,0,0
83720,-100,4,2,1,70,0,0
84359,-71.4285714285714,4,2,1,70,0,0
86912,-90.9090909090909,4,2,1,70,0,0
92018,-71.4285714285714,4,2,1,72,0,0
92231,-71.4285714285714,4,2,1,70,0,0
92337,-62.5,4,2,1,74,0,0
92550,-62.5,4,2,1,70,0,0
92657,-55.5555555555556,4,2,1,76,0,0
92763,-55.5555555555556,4,2,1,70,0,0
92869,-50,4,2,1,78,0,0
92976,-50,4,2,1,70,0,0
93082,-76.9230769230769,4,2,1,76,0,0
93295,-66.6666666666667,4,2,1,76,0,0
93720,-76.9230769230769,4,2,1,78,0,0
93774,-50,4,2,1,20,0,0
95210,-50,4,2,1,10,0,0

[Colours]
Combo1 : 250,190,230
Combo2 : 130,200,230
Combo3 : 255,230,140
Combo4 : 170,245,170

[HitObjects]
109,60,1593,5,8,0:3:0:0:
151,92,1664,1,8,0:3:0:0:
174,140,1735,1,8,0:3:0:0:
172,192,1806,1,14,0:0:0:0:
109,60,3295,5,2,0:0:0:0:
109,60,3401,1,2,0:0:0:0:
172,192,3508,1,14,0:0:0:0:
172,192,5210,5,6,0:0:0:0:
327,80,5635,1,2,0:2:0:0:
346,270,6061,1,2,0:2:0:0:
346,270,6486,6,0,P|383:231|480:258,1,160,2|8,0:0|0:3,0:0:0:0:
454,276,6770,1,8,0:3:0:0:
422,271,6841,1,8,0:3:0:0:
401,246,6912,1,14,0:0:0:0:
470,29,7125,5,8,0:3:0:0:
403,214,7231,1,10,0:0:0:0:
481,58,7444,5,8,0:3:0:0:
414,185,7550,2,0,L|323:164,1,79.9999999999999,10|8,0:0|0:3,0:0:0:0:
253,23,7763,5,10,0:3:0:0:
184,100,7869,1,8,0:0:0:0:
235,189,7976,1,8,0:0:0:0:
336,167,8082,1,8,0:0:0:0:
346,64,8189,6,0,L|418:51,2,53.3333333333333,10|8|8,0:3|0:3|0:3,0:0:0:0:
184,100,8401,2,0,L|112:113,2,53.3333333333333,10|8|8,0:3|0:3|0:3,0:0:0:0:
336,167,8614,6,0,L|505:161,1,143.999995605469,6|0,0:0|0:0,0:0:0:0:
327,358,9040,1,2,0:0:0:0:
303,341,9146,2,0,L|294:270,1,71.9999978027344,2|0,0:0|0:0,0:0:0:0:
449,253,9359,1,2,0:0:0:0:
470,233,9465,6,0,L|483:139,1,71.9999978027344,10|0,0:3|0:0,0:0:0:0:
439,49,9678,1,2,0:0:0:0:
452,74,9784,1,2,0:0:0:0:
351,92,9891,2,0,B|310:82|310:82|260:113|205:79,1,143.999995605469,10|0,0:3|0:0,0:0:0:0:
213,83,10316,6,0,P|237:148|245:231,1,143.999995605469,6|0,0:0|0:0,0:0:0:0:
69,334,10742,1,10,0:3:0:0:
57,307,10848,2,0,P|55:260|59:233,1,71.9999978027344,2|0,0:0|0:0,0:0:0:0:
146,155,11061,1,2,0:0:0:0:
174,151,11167,6,0,P|219:163|243:175,1,71.9999978027344,10|0,0:3|0:0,0:0:0:0:
314,272,11380,1,2,0:0:0:0:
286,265,11486,1,2,0:0:0:0:
182,293,11593,2,0,B|223:326|286:303|286:303|261:280,1,143.999995605469,10|0,0:3|0:0,0:0:0:0:
261,280,12018,6,0,L|273:109,1,143.999995605469,6|0,0:0|0:0,0:0:0:0:
454,201,12444,1,10,0:0:0:0:
365,230,12550,2,0,P|401:232|436:223,1,71.9999978027344,10|8,0:3|0:0,0:0:0:0:
302,48,12763,1,10,0:0:0:0:
271,136,12869,6,0,P|268:100|277:65,1,71.9999978027344,10|8,0:2|0:0,0:0:0:0:
383,118,13082,1,8,0:0:0:0:
402,96,13189,1,8,0:0:0:0:
510,88,13295,6,0,P|468:67|422:75,1,95.9999970703126,10|8,0:0|0:0,0:0:0:0:
454,201,13508,2,0,L|458:150,2,47.9999985351563,8|8|8,0:0|0:3|0:3,0:0:0:0:
443,307,13720,5,2,0:0:0:0:
130,335,14997,6,0,B|75:305|65:244|76:196|111:164|143:149|170:156|207:178|211:215|190:249,1,320,12|0,0:2|0:0,0:0:0:0:
194,242,15423,6,0,P|240:252|283:234,1,95.9999970703126,14|0,0:3|0:0,0:0:0:0:
392,96,15635,2,0,P|348:114|324:154,1,95.9999970703126,10|8,0:0|0:3,0:0:0:0:
317,330,15848,2,0,P|341:289|337:242,1,95.9999970703126,2|8,0:0|0:3,0:0:0:0:
239,95,16061,2,0,P|243:142|274:177,1,95.9999970703126,10|0,0:0|0:0,0:0:0:0:
439,239,16274,6,0,P|408:203|362:192,1,95.9999970703126,10|0,0:3|0:0,0:0:0:0:
156,209,16486,1,10,0:0:0:0:
156,301,16593,2,0,P|202:292|235:257,1,95.9999970703126,10|0,0:3|0:0,0:0:0:0:
108,43,16806,2,0,P|92:87|106:133,1,95.9999970703126,10|8,0:3|0:0,0:0:0:0:
362,191,17018,5,2,0:0:0:0:
287,103,17125,2,0,L|176:94,1,95.9999970703126,10|0,0:3|0:0,0:0:0:0:
362,191,17337,2,0,L|457:198,1,95.9999970703126,10|8,0:0|0:3,0:0:0:0:
234,257,17550,2,0,L|123:248,1,95.9999970703126,2|8,0:0|0:3,0:0:0:0:
309,345,17763,2,0,L|404:352,1,95.9999970703126,10|0,0:0|0:0,0:0:0:0:
493,30,17976,5,14,0:0:0:0:
475,114,18082,1,8,0:0:0:0:
457,198,18189,1,8,0:0:0:0:
377,259,18295,5,10,0:0:0:0:
364,172,18401,1,8,0:0:0:0:
352,86,18508,1,8,0:0:0:0:
262,26,18614,5,10,0:0:0:0:
223,113,18720,1,8,0:0:0:0:
147,39,18827,6,0,P|55:29|1:103,1,191.999994140625,14|0,0:3|0:0,0:0:0:0:
1,102,19252,6,0,P|90:115|99:233,1,223.999993164063,14|0,0:3|0:0,0:0:0:0:
100,231,19678,6,0,P|29:287|56:374,1,191.999994140625,14|8,0:3|0:3,0:0:0:0:
190,265,19997,1,8,0:0:0:0:
279,326,20103,6,0,P|233:317|198:284,1,95.9999970703126,2|8,0:0|0:3,0:0:0:0:
270,125,20316,2,0,P|224:138|193:174,1,95.9999970703126,10|0,0:0|0:0,0:0:0:0:
362,289,20529,6,0,P|324:319|278:325,1,95.9999970703126,6|0,0:0|0:0,0:0:0:0:
355,157,20742,2,0,P|316:129|269:125,1,95.9999970703126,10|0,0:3|0:0,0:0:0:0:
457,294,20955,6,0,L|362:289,1,95.9999970703126,10|0,0:3|0:0,0:0:0:0:
450,145,21167,2,0,L|354:157,1,95.9999970703126,10|0,0:3|0:0,0:0:0:0:
30,175,21380,5,10,0:2:0:0:
43,97,21486,1,8,0:2:0:0:
107,41,21593,1,8,0:2:0:0:
197,39,21699,1,8,0:2:0:0:
272,98,21806,1,8,0:2:0:0:
287,197,21912,1,8,0:2:0:0:
226,280,22018,1,8,0:2:0:0:
120,297,22125,1,8,0:2:0:0:
44,220,22231,6,0,P|110:230|121:297,1,143.999995605469,14|0,0:3|0:0,0:0:0:0:
0,291,22550,1,10,0:3:0:0:
0,291,22657,2,0,L|70:274,1,71.9999978027344,8|0,0:0|0:0,0:0:0:0:
138,214,22869,2,0,L|207:196,1,71.9999978027344,2|0,0:0|0:0,0:0:0:0:
301,189,23082,6,0,P|235:179|224:112,1,143.999995605469,10|0,0:3|0:0,0:0:0:0:
345,118,23401,1,10,0:3:0:0:
345,118,23508,2,0,L|275:135,1,71.9999978027344,8|0,0:0|0:0,0:0:0:0:
208,196,23720,2,0,L|139:214,1,71.9999978027344,2|0,0:0|0:0,0:0:0:0:
45,220,23933,6,0,P|111:230|122:297,1,143.999995605469,10|0,0:3|0:0,0:0:0:0:
1,291,24252,1,10,0:3:0:0:
1,291,24359,2,0,L|71:274,1,71.9999978027344,8|0,0:0|0:0,0:0:0:0:
267,134,24572,1,2,0:0:0:0:
243,80,24678,1,2,0:0:0:0:
215,28,24784,6,0,B|200:134|200:134|245:194|245:194|230:299,3,287.999991210938,14|10|10|10,0:3|0:0|0:3|0:0,0:0:0:0:
324,338,25494,1,8,0:2:0:0:
331,345,25564,1,8,0:2:0:0:
338,352,25636,6,0,P|389:327|480:318,1,111.999996582031,14|0,0:3|0:0,0:0:0:0:
336,235,25848,6,0,L|329:156,1,80,10|8,0:0|0:3,0:0:0:0:
348,62,26061,2,0,L|346:142,1,80,2|8,0:0|0:3,0:0:0:0:
356,235,26274,2,0,L|362:156,1,80,10|0,0:3|0:0,0:0:0:0:
494,150,26486,5,12,0:2:0:0:
487,138,26593,1,8,0:2:0:0:
429,79,26699,5,8,0:0:0:0:
433,63,26806,1,8,0:0:0:0:
348,62,26912,5,8,0:0:0:0:
337,32,27018,1,8,0:0:0:0:
246,58,27125,5,8,0:0:0:0:
198,2,27231,1,8,0:0:0:0:
125,81,27337,5,14,0:0:0:0:
114,81,28614,6,0,B|105:59|115:32|140:19|164:20|191:29|206:51|213:84|206:126|171:145,1,223.999993164063,8|0,0:3|0:0,0:0:0:0:
174,143,29040,6,0,L|379:117,1,176.000005371094,14|8,0:3|0:0,0:0:0:0:
202,311,29359,2,0,P|185:270|190:227,2,88.000002685547,10|0|8,0:3|0:0|0:3,0:0:0:0:
349,293,29678,2,0,P|355:249|340:209,1,88.000002685547,10|0,0:0|0:0,0:0:0:0:
174,143,29891,6,0,L|52:133,1,88.000002685547,10|0,0:3|0:0,0:0:0:0:
266,116,30103,1,10,0:0:0:0:
266,116,30210,2,0,L|292:26,1,88.000002685547,10|0,0:3|0:0,0:0:0:0:
411,164,30423,1,10,0:3:0:0:
470,99,30529,2,0,L|425:23,1,88.000002685547,10|0,0:0|0:0,0:0:0:0:
446,234,30742,6,0,P|377:185|295:211,1,176.000005371094,10|8,0:3|0:0,0:0:0:0:
351,364,31061,2,0,P|363:323|362:279,1,88.000002685547,10|0,0:3|0:0,0:0:0:0:
253,373,31274,1,10,0:3:0:0:
172,317,31380,2,0,P|181:274|205:238,1,88.000002685547,10|0,0:0|0:0,0:0:0:0:
27,134,31593,6,0,P|58:103|79:64,1,88.000002685547,10|0,0:3|0:0,0:0:0:0:
31,329,31806,1,10,0:0:0:0:
31,329,31912,2,0,P|22:286|0:249,1,88.000002685547,10|0,0:3|0:0,0:0:0:0:
190,142,32125,1,10,0:3:0:0:
206,238,32231,2,0,P|163:234|123:216,1,88.000002685547,10|0,0:0|0:0,0:0:0:0:
323,182,32444,6,0,P|363:104|349:11,1,176.000005371094,14|8,0:3|0:0,0:0:0:0:
447,259,32763,2,0,P|431:215|437:175,2,88.000002685547,10|0|8,0:3|0:0|0:3,0:0:0:0:
315,348,33082,2,0,P|342:312|349:270,1,88.000002685547,10|0,0:0|0:0,0:0:0:0:
162,284,33295,6,0,L|249:276,1,88.000002685547,10|0,0:3|0:0,0:0:0:0:
66,237,33508,1,10,0:0:0:0:
66,237,33614,2,0,L|36:154,1,88.000002685547,10|0,0:3|0:0,0:0:0:0:
230,98,33827,1,10,0:3:0:0:
171,27,33933,2,0,L|92:65,1,88.000002685547,10|0,0:0|0:0,0:0:0:0:
162,284,34146,6,0,B|201:242|175:160|175:160|97:138,1,176.000005371094,10|8,0:3|0:0,0:0:0:0:
60,322,34465,2,0,P|53:279|65:237,1,88.000002685547,10|0,0:3|0:0,0:0:0:0:
134,374,34678,1,10,0:3:0:0:
221,365,34784,2,0,P|252:335|271:296,1,88.000002685547,10|0,0:0|0:0,0:0:0:0:
265,45,34997,6,0,P|242:82|238:125,1,88.000002685547,14|0,0:3|0:0,0:0:0:0:
386,245,35210,5,8,0:0:0:0:
396,162,35316,1,8,0:0:0:0:
369,252,35423,5,8,0:0:0:0:
349,157,35529,1,8,0:0:0:0:
352,260,35635,5,8,0:0:0:0:
307,169,35742,1,8,0:0:0:0:
254,253,35848,6,0,P|177:243|134:178,1,160,14|8,0:3|0:0,0:0:0:0:
15,104,36167,2,0,P|92:114|135:179,1,160,10|8,0:3|0:3,0:0:0:0:
30,275,36486,2,0,P|29:235|43:197,1,80,10|0,0:0|0:0,0:0:0:0:
239,83,36699,6,0,P|209:154|135:179,1,160,10|8,0:3|0:0,0:0:0:0:
30,275,37018,2,0,P|61:204|135:179,1,160,10|8,0:3|0:3,0:0:0:0:
184,321,37337,2,0,P|149:302|122:273,1,80,10|0,0:0|0:0,0:0:0:0:
296,309,37550,6,0,P|317:275|326:236,1,80,10|0,0:3|0:0,0:0:0:0:
169,335,37763,2,0,P|140:307|121:272,1,80,10|8,0:0|0:3,0:0:0:0:
316,314,37976,2,0,P|327:275|326:235,1,80,2|8,0:0|0:3,0:0:0:0:
151,345,38189,2,0,P|130:311|121:272,1,80,10|0,0:2|0:0,0:0:0:0:
226,69,38401,6,0,P|198:98|163:116,1,80,10|0,0:3|0:0,0:0:0:0:
57,25,38614,1,8,0:0:0:0:
57,25,38720,2,0,P|132:46|163:117,1,160,8|8,0:3|0:3,0:0:0:0:
62,198,39040,2,0,P|60:158|72:120,1,80,10|0,0:2|0:0,0:0:0:0:
191,302,39252,6,0,P|151:292|118:270,1,80,10|0,0:3|0:0,0:0:0:0:
327,252,39465,1,10,0:0:0:0:
327,252,39572,2,0,P|249:249|191:302,1,160,10|8,0:3|0:3,0:0:0:0:
382,307,39891,2,0,P|359:274|326:251,1,80,10|0,0:0|0:0,0:0:0:0:
206,132,40103,6,0,P|241:149|281:152,1,80,10|0,0:3|0:0,0:0:0:0:
451,162,40316,1,10,0:0:0:0:
464,152,40423,1,10,0:3:0:0:
429,58,40529,2,0,P|397:81|374:114,1,80,2|8,0:0|0:3,0:0:0:0:
484,228,40742,2,0,P|481:189|465:153,1,80,10|0,0:2|0:0,0:0:0:0:
392,293,40955,6,0,P|355:278|326:251,1,80,10|0,0:3|0:0,0:0:0:0:
484,228,41167,2,0,P|491:189|485:150,1,80,10|8,0:0|0:3,0:0:0:0:
392,293,41380,2,0,P|353:287|318:270,1,80,2|8,0:0|0:3,0:0:0:0:
484,228,41593,2,0,P|500:192|505:153,1,80,10|0,0:0|0:0,0:0:0:0:
414,4,41806,6,0,P|417:43|433:79,1,80,10|0,0:3|0:0,0:0:0:0:
285,71,42018,1,8,0:0:0:0:
285,71,42125,2,0,P|320:54|438:85,1,160,8|8,0:3|0:3,0:0:0:0:
298,168,42444,2,0,P|258:164|222:147,1,80,10|0,0:2|0:0,0:0:0:0:
32,39,42657,6,0,P|103:68|128:142,1,160,14|8,0:3|0:0,0:0:0:0:
225,245,42976,2,0,P|153:215|128:141,1,160,10|8,0:3|0:3,0:0:0:0:
256,78,43295,2,0,P|248:116|222:147,1,80,10|0,0:0|0:0,0:0:0:0:
1,207,43508,6,0,P|50:147|128:142,1,160,10|8,0:3|0:0,0:0:0:0:
256,78,43827,1,8,0:3:0:0:
269,86,43933,2,0,P|253:122|222:146,1,80,2|8,2:0|2:3,2:0:0:0:
99,31,44146,2,0,P|137:40|170:63,1,80,10|0,0:0|0:0,0:0:0:0:
365,86,44359,6,0,P|293:116|269:190,1,160,10|8,0:3|0:0,0:0:0:0:
173,295,44678,2,0,P|244:264|269:190,1,160,10|8,0:3|0:3,0:0:0:0:
127,141,44997,2,0,P|146:176|175:203,1,80,10|0,0:0|0:0,0:0:0:0:
347,179,45210,6,0,P|306:178|269:190,1,80,10|0,0:3|0:0,0:0:0:0:
457,281,45423,1,8,0:0:0:0:
457,281,45529,2,0,P|417:212|346:179,1,160,8|8,0:3|0:3,0:0:0:0:
443,358,45848,2,0,P|456:320|456:280,1,80,10|0,0:0|0:0,0:0:0:0:
268,305,46061,6,0,P|305:292|345:293,1,80,10|0,0:3|0:0,0:0:0:0:
185,370,46274,1,10,0:0:0:0:
185,370,46380,2,0,P|161:295|197:226,1,160,10|8,0:3|0:3,0:0:0:0:
334,178,46699,1,10,0:0:0:0:
324,197,46806,1,2,0:0:0:0:
249,159,46912,6,0,P|223:129|210:91,1,80,8|0,0:3|0:0,0:0:0:0:
252,5,47125,1,10,0:0:0:0:
345,16,47231,2,0,P|332:54|306:84,1,80,10|0,0:3|0:0,0:0:0:0:
210,91,47444,1,10,0:3:0:0:
174,5,47550,2,0,P|212:-2|252:5,1,80,10|0,0:0|0:0,0:0:0:0:
249,159,47763,6,0,P|209:80|253:5,1,182.399997773438,8|8,0:3|0:0,0:0:0:0:
461,86,48082,2,0,P|382:127|306:83,1,184.000003509522,8|8,0:3|0:3,0:0:0:0:
306,284,48401,2,0,P|322:248|327:189,1,92.0000017547608,8|0,0:0|0:0,0:0:0:0:
201,313,48614,5,8,0:0:0:0:
182,313,48720,2,0,P|168:331|150:358,1,46.0000008773804,8|8,0:0|0:0,0:0:0:0:
96,281,48827,5,10,0:0:0:0:
94,250,48933,1,8,0:0:0:0:
48,173,49040,5,10,0:0:0:0:
62,143,49146,1,8,0:0:0:0:
100,67,49252,5,10,0:3:0:0:
97,39,49359,1,8,0:3:0:0:
178,102,49465,6,0,P|213:108|311:54,1,143.999995605469,14|0,0:3|0:0,0:0:0:0:
389,101,49784,2,0,P|406:71|437:53,2,71.9999978027344,2|8|0,0:0|0:3|0:0,0:0:0:0:
382,195,50103,2,0,P|400:225|431:243,1,71.9999978027344,2|0,0:0|0:0,0:0:0:0:
305,276,50316,6,0,P|361:234|431:244,1,143.999995605469,10|0,0:3|0:0,0:0:0:0:
434,375,50635,2,0,P|415:345|385:326,2,71.9999978027344,2|8|0,0:0|0:3|0:0,0:0:0:0:
306,371,50955,2,0,P|270:365|240:346,1,71.9999978027344,2|0,0:0|0:0,0:0:0:0:
206,222,51167,6,0,P|249:277|240:346,1,143.999995605469,10|0,0:3|0:0,0:0:0:0:
105,348,51486,2,0,P|127:320|159:304,1,71.9999978027344,2|8,0:0|0:3,0:0:0:0:
152,177,51699,1,2,0:0:0:0:
152,177,51806,2,0,P|183:193|205:221,1,71.9999978027344,2|0,0:0|0:0,0:0:0:0:
241,346,52018,6,0,P|197:290|206:221,1,143.999995605469,10|0,0:3|0:0,0:0:0:0:
339,218,52337,1,2,0:0:0:0:
339,218,52444,2,0,P|316:245|285:262,1,71.9999978027344,10|0,0:3|0:0,0:0:0:0:
352,127,52657,2,0,P|378:103|413:93,1,71.9999978027344,2|0,0:0|0:0,0:0:0:0:
473,224,52869,6,0,P|440:238|332:212,1,143.999995605469,10|0,0:3|0:0,0:0:0:0:
267,155,53189,2,0,P|248:125|217:107,1,71.9999978027344,2|8,0:0|0:3,0:0:0:0:
129,125,53401,2,0,P|94:124|62:107,2,71.9999978027344,2|0|0,0:0|0:0|0:0,0:0:0:0:
97,250,53720,6,0,P|139:194|129:124,1,143.999995605469,10|0,0:3|0:0,0:0:0:0:
63,0,54040,2,0,P|85:27|118:41,1,71.9999978027344,2|8,0:0|0:3,0:0:0:0:
259,47,54252,1,2,0:0:0:0:
259,47,54359,2,0,P|223:52|194:72,1,71.9999978027344,2|0,0:0|0:0,0:0:0:0:
401,83,54572,6,0,P|367:96|332:92,1,71.9999978027344,10|0,0:3|0:0,0:0:0:0:
287,221,54784,1,2,0:0:0:0:
287,221,54891,2,0,P|309:193|341:177,1,71.9999978027344,2|8,0:0|0:3,0:0:0:0:
417,302,55103,1,2,0:0:0:0:
417,302,55210,2,0,P|395:274|363:258,1,71.9999978027344,2|0,0:0|0:0,0:0:0:0:
166,363,55423,5,10,0:3:0:0:
176,361,55529,1,10,0:3:0:0:
192,354,55635,1,10,0:3:0:0:
210,327,55742,1,10,0:3:0:0:
217,288,55848,5,10,0:0:0:0:
198,223,55955,1,10,0:0:0:0:
208,141,56061,1,10,0:0:0:0:
284,93,56167,1,10,0:0:0:0:
389,139,56274,6,0,P|437:136|472:113,1,75.9999979705811,14|0,0:3|0:0,0:0:0:0:
421,6,56486,2,0,B|388:30|388:30|367:83|390:142,1,151.999995941162,2|10,0:0|0:3,0:0:0:0:
440,367,56912,2,0,B|472:342|472:342|494:290|471:233,1,151.999995941162,2|8,0:0|0:3,0:0:0:0:
284,93,57337,5,2,0:0:0:0:
210,327,57550,1,10,0:3:0:0:
90,51,57763,6,0,B|122:75|122:75|144:128|121:184,1,151.999995941162,2|8,0:0|0:3,0:0:0:0:
0,384,58189,1,2,0:0:0:0:
22,129,58401,1,10,0:3:0:0:
210,327,58614,1,2,0:0:0:0:
275,43,58827,6,0,L|262:123,1,75.9999979705811,14|8,0:3|0:0,0:0:0:0:
129,236,59040,2,0,L|116:156,1,75.9999979705811,10|8,0:0|0:3,0:0:0:0:
70,58,59252,5,10,0:0:0:0:
22,129,59359,1,8,0:0:0:0:
57,40,59465,5,10,0:0:0:0:
35,147,59572,1,8,0:0:0:0:
44,22,59678,6,0,P|115:11|199:75,1,160,14|8,0:3|0:3,0:0:0:0:
271,197,59997,2,0,L|262:117,1,80,10|0,0:0|0:3,0:0:0:0:
132,268,60210,2,0,L|137:186,1,80,10|8,0:0|0:3,0:0:0:0:
419,323,60423,6,0,L|500:315,2,80,10|8|8,0:0|0:3|0:0,0:0:0:0:
339,329,60742,1,10,0:2:0:0:
259,336,60848,1,8,0:2:0:0:
179,343,60955,1,8,0:2:0:0:
100,350,61061,1,8,0:2:0:0:
20,357,61167,2,0,P|-5:313|-1:269,1,80,10|0,0:0|0:0,0:0:0:0:
80,132,61380,6,0,P|151:101|180:28,1,160,10|8,0:3|0:3,0:0:0:0:
217,186,61699,2,0,L|296:201,1,80,10|8,0:0|0:3,0:0:0:0:
452,87,61912,2,0,L|363:71,1,80,10|8,0:0|0:3,0:0:0:0:
498,315,62125,6,0,P|510:278|512:238,2,80,10|8|8,0:2|0:3|0:2,0:0:0:0:
408,323,62444,1,8,0:2:0:0:
322,331,62550,1,8,0:2:0:0:
234,339,62657,1,8,0:2:0:0:
145,346,62763,1,8,0:2:0:0:
57,353,62869,2,0,P|35:319|23:281,1,80,10|8,0:3|0:3,0:0:0:0:
185,234,63082,6,0,P|200:192|199:146,1,88.000002685547,14|8,0:3|0:0,0:0:0:0:
323,114,63295,1,10,0:0:0:0:
347,219,63401,2,0,P|321:183|310:137,1,88.000002685547,10|8,0:0|0:3,0:0:0:0:
172,67,63614,5,10,0:0:0:0:
106,149,63720,1,8,0:0:0:0:
12,99,63827,2,0,L|4:9,1,88.000002685547,10|8,0:0|0:3,0:0:0:0:
248,329,64146,6,0,L|256:236,1,88.000002685547,10|8,0:0|0:0,0:0:0:0:
414,139,64359,2,0,L|406:46,1,88.000002685547,10|8,0:3|0:3,0:0:0:0:
400,44,64518,1,8,0:0:0:0:
392,36,64572,2,0,L|311:29,2,58.6666684570313,10|8|8,0:0|0:0|0:0,0:0:0:0:
437,333,64784,5,14,0:0:0:0:
437,333,66061,6,0,B|492:303|502:242|491:194|456:162|424:147|397:154|360:176|356:213|373:239,1,320,12|0,0:0|0:0,0:0:0:0:
372,238,66486,6,0,P|326:248|283:230,1,95.9999970703126,14|0,0:3|0:0,0:0:0:0:
249,60,66699,2,0,P|259:106|241:149,1,95.9999970703126,10|8,0:0|0:3,0:0:0:0:
71,183,66912,2,0,P|117:172|160:191,1,95.9999970703126,2|8,0:0|0:3,0:0:0:0:
194,361,67125,2,0,P|184:315|202:272,1,95.9999970703126,10|0,0:0|0:0,0:0:0:0:
268,64,67337,6,0,P|268:111|241:149,1,95.9999970703126,10|0,0:3|0:0,0:0:0:0:
91,259,67550,1,10,0:0:0:0:
75,165,67657,2,0,P|122:163|160:191,1,95.9999970703126,10|0,0:3|0:0,0:0:0:0:
177,357,67869,2,0,P|176:309|203:271,1,95.9999970703126,10|8,0:3|0:0,0:0:0:0:
439,291,68082,5,2,0:0:0:0:
472,192,68189,2,0,L|479:80,1,95.9999970703126,10|0,0:3|0:3,0:0:0:0:
274,159,68401,2,0,L|267:47,1,95.9999970703126,10|8,0:0|0:3,0:0:0:0:
74,164,68614,2,0,L|53:54,1,95.9999970703126,2|8,0:0|0:3,0:0:0:0:
203,271,68827,5,10,0:2:0:0:
167,367,68933,1,2,0:0:0:0:
111,285,69040,2,0,P|155:268|207:272,1,95.9999970703126,10|8,0:3|0:3,0:0:0:0:
390,290,69252,2,0,P|345:307|298:305,1,95.9999970703126,10|0,0:0|0:0,0:0:0:0:
110,260,69465,6,0,P|158:255|207:273,1,95.9999970703126,10|8,0:3|0:3,0:0:0:0:
391,315,69677,2,0,P|344:320|298:305,1,95.9999970703126,10|0,0:0|0:0,0:0:0:0:
177,85,69891,6,0,P|261:119|267:210,1,191.999994140625,10|8,0:3|0:0,0:0:0:0:
126,370,70210,1,8,0:3:0:0:
21,300,70316,2,0,P|27:209|112:175,1,191.999994140625,2|8,0:0|0:2,0:0:0:0:
112,175,70742,6,0,L|-19:160,1,95.9999970703126,10|0,0:3|0:0,0:0:0:0:
268,99,70955,2,0,P|214:84|161:61,1,95.9999970703126,10|8,0:0|0:3,0:0:0:0:
256,278,71167,2,0,P|199:278|142:287,1,95.9999970703126,2|8,0:0|0:3,0:0:0:0:
427,177,71380,2,0,L|331:187,1,95.9999970703126,10|0,0:0|0:0,0:0:0:0:
126,370,71593,6,0,P|227:341|225:188,1,256,14|8,0:3|0:0,0:0:0:0:
446,23,71912,2,0,P|345:52|347:205,1,256,14|8,0:3|0:3,0:0:0:0:
454,375,72231,2,0,P|476:315|440:237,1,128,14|0,0:0|0:0,0:0:0:0:
230,269,72444,5,8,0:0:0:0:
235,237,72550,1,8,0:0:0:0:
240,206,72657,1,8,0:0:0:0:
245,174,72763,1,8,0:0:0:0:
331,186,72869,5,10,0:0:0:0:
319,134,72975,1,8,0:0:0:0:
308,83,73082,1,8,0:0:0:0:
297,33,73188,1,8,0:0:0:0:
209,91,73295,6,0,L|102:76,1,95.9999970703126,14|0,0:3|0:0,0:0:0:0:
331,186,73508,2,0,L|438:201,1,95.9999970703126,10|8,0:0|0:3,0:0:0:0:
187,244,73720,2,0,L|80:229,1,95.9999970703126,2|8,0:0|0:3,0:0:0:0:
309,339,73933,2,0,L|416:354,1,95.9999970703126,10|0,0:0|0:0,0:0:0:0:
489,93,74146,6,0,P|399:103|376:190,1,191.999994140625,10|10,0:3|0:0,0:0:0:0:
217,341,74465,2,0,P|222:292|200:227,1,95.9999970703126,10|0,0:3|0:0,0:0:0:0:
65,88,74678,2,0,P|108:68|154:16,1,95.9999970703126,10|8,0:3|0:0,0:0:0:0:
377,191,74890,5,2,0:0:0:0:
346,102,74997,2,0,P|305:76|274:39,1,95.9999970703126,10|0,0:3|0:0,0:0:0:0:
36,178,75210,2,0,P|58:135|66:88,1,95.9999970703126,10|8,0:0|0:3,0:0:0:0:
377,191,75423,2,0,P|354:148|346:100,1,95.9999970703126,2|8,0:0|0:3,0:0:0:0:
54,270,75635,2,0,P|52:221|35:177,1,95.9999970703126,10|0,0:0|0:0,0:0:0:0:
254,365,75848,5,14,0:0:0:0:
327,318,75954,1,8,0:0:0:0:
408,352,76061,1,8,0:0:0:0:
505,308,76167,5,10,0:0:0:0:
480,216,76273,1,8,0:0:0:0:
395,168,76380,1,8,0:0:0:0:
292,205,76486,5,10,0:0:0:0:
298,112,76592,1,8,0:0:0:0:
395,168,76699,6,0,P|462:103|452:11,1,191.999994140625,14|0,0:3|0:0,0:0:0:0:
452,11,77125,6,0,P|392:80|285:7,1,223.999993164063,14|0,0:3|0:0,0:0:0:0:
290,26,77550,6,0,P|375:80|397:168,1,191.999994140625,14|8,0:3|0:3,0:0:0:0:
280,204,77869,1,8,0:0:0:0:
192,143,77975,6,0,P|238:152|273:185,1,95.9999970703126,2|8,0:0|0:3,0:0:0:0:
200,343,78188,2,0,P|246:330|277:294,1,95.9999970703126,10|0,0:0|0:0,0:0:0:0:
114,191,78401,6,0,P|147:156|192:143,1,95.9999970703126,6|0,0:0|0:0,0:0:0:0:
119,300,78614,2,0,P|153:333|199:343,1,95.9999970703126,10|0,0:3|0:0,0:0:0:0:
20,173,78827,6,0,L|113:191,1,95.9999970703126,10|0,0:3|0:0,0:0:0:0:
25,318,79039,2,0,L|120:300,1,95.9999970703126,10|0,0:3|0:0,0:0:0:0:
366,173,79252,5,10,0:2:0:0:
357,91,79358,1,8,0:2:0:0:
293,35,79465,1,8,0:2:0:0:
203,33,79571,1,8,0:2:0:0:
128,92,79678,1,8,0:2:0:0:
113,191,79784,1,8,0:2:0:0:
174,274,79890,1,8,0:2:0:0:
280,291,79997,1,8,0:2:0:0:
357,214,80103,6,0,P|291:224|280:291,1,143.999995605469,14|0,0:3|0:0,0:0:0:0:
401,285,80422,1,10,0:3:0:0:
401,285,80529,2,0,L|331:268,1,71.9999978027344,8|0,0:0|0:0,0:0:0:0:
263,208,80741,2,0,L|194:190,1,71.9999978027344,2|0,0:0|0:0,0:0:0:0:
100,183,80954,6,0,P|166:173|177:106,1,143.999995605469,10|0,0:3|0:0,0:0:0:0:
56,112,81273,1,10,0:3:0:0:
56,112,81380,2,0,L|126:129,1,71.9999978027344,8|0,0:0|0:0,0:0:0:0:
193,190,81592,2,0,L|262:208,1,71.9999978027344,2|0,0:0|0:0,0:0:0:0:
356,214,81805,6,0,P|290:224|279:291,1,143.999995605469,10|0,0:3|0:0,0:0:0:0:
401,285,82125,1,10,0:3:0:0:
401,285,82232,2,0,L|331:268,1,71.9999978027344,8|0,0:0|0:0,0:0:0:0:
176,105,82444,1,2,0:0:0:0:
192,68,82550,1,2,0:0:0:0:
209,32,82657,6,0,B|276:187|125:179|193:335,3,320,14|10|10|10,0:3|0:0|0:3|0:0,0:0:0:0:
318,324,83366,1,8,0:2:0:0:
325,331,83436,1,8,0:2:0:0:
332,338,83508,6,0,P|390:326|472:330,1,111.999996582031,14|0,0:3|0:0,0:0:0:0:
366,232,83720,6,0,L|373:153,1,80,10|8,0:0|0:3,0:0:0:0:
354,59,83933,2,0,L|356:139,1,80,2|8,0:0|0:3,0:0:0:0:
346,232,84146,2,0,L|340:153,1,80,10|0,0:3|0:0,0:0:0:0:
136,43,84359,5,12,0:3:0:0:
281,349,84572,1,8,0:3:0:0:
257,20,84784,1,8,0:3:0:0:
149,370,84997,1,8,0:3:0:0:
15,14,85209,5,14,0:0:0:0:
15,14,86274,5,8,0:3:0:0:
57,46,86345,1,8,0:3:0:0:
80,94,86416,1,8,0:3:0:0:
78,146,86487,1,8,0:0:0:0:
78,146,86912,6,0,L|284:130,1,176.000005371094,14|8,0:3|0:0,0:0:0:0:
84,317,87231,2,0,P|69:275|76:232,2,88.000002685547,10|0|8,0:3|0:0|0:3,0:0:0:0:
278,303,87550,2,0,P|286:259|273:218,1,88.000002685547,10|0,0:0|0:0,0:0:0:0:
78,146,87763,6,0,L|39:51,1,88.000002685547,10|0,0:3|0:0,0:0:0:0:
257,137,87975,1,10,0:0:0:0:
257,137,88082,2,0,L|243:35,1,88.000002685547,10|0,0:3|0:0,0:0:0:0:
386,270,88295,1,10,0:3:0:0:
432,174,88401,2,0,L|444:71,1,88.000002685547,10|0,0:0|0:0,0:0:0:0:
499,357,88614,6,0,P|470:279|387:270,1,176.000005371094,10|8,0:3|0:0,0:0:0:0:
235,360,88933,2,0,P|277:369|319:355,1,88.000002685547,10|0,0:3|0:0,0:0:0:0:
432,174,89146,1,10,0:3:0:0:
330,185,89252,2,0,P|297:214|283:255,1,88.000002685547,10|0,0:0|0:0,0:0:0:0:
166,91,89465,6,0,P|199:120|213:161,1,88.000002685547,10|0,0:3|0:0,0:0:0:0:
338,31,89678,1,10,0:0:0:0:
338,31,89784,2,0,P|305:60|291:101,1,88.000002685547,10|0,0:3|0:0,0:0:0:0:
104,162,89997,1,10,0:3:0:0:
83,75,90103,2,0,P|126:71|165:90,1,88.000002685547,10|0,0:0|0:0,0:0:0:0:
105,313,90316,6,0,P|66:237|105:161,1,176.000005371094,14|8,0:3|0:0,0:0:0:0:
263,244,90635,2,0,L|176:239,2,88.000002685547,10|0|8,0:3|0:0|0:3,0:0:0:0:
372,333,90955,2,0,L|459:338,1,88.000002685547,10|0,0:0|0:0,0:0:0:0:
263,244,91167,6,0,L|268:156,1,88.000002685547,10|0,0:3|0:0,0:0:0:0:
409,49,91380,1,10,0:0:0:0:
409,49,91486,2,0,L|329:87,1,88.000002685547,10|0,0:3|0:0,0:0:0:0:
146,130,91699,1,10,0:3:0:0:
167,21,91806,2,0,L|240:69,1,88.000002685547,10|0,0:0|0:0,0:0:0:0:
404,351,92018,6,0,B|386:306|328:281|275:297|275:297|306:319|310:356,1,223.999993164063,14|8,0:3|0:0,0:0:0:0:
21,226,92337,6,0,B|41:174|108:145|168:164|168:164|133:189|127:232,1,256,14|8,0:3|0:3,0:0:0:0:
451,149,92657,6,0,P|360:152|283:206,1,143.999995605469,10|0,0:0|0:0,0:0:0:0:
88,22,92869,6,0,P|175:48|237:139,1,160,10|0,0:3|0:0,0:0:0:0:
310,356,93082,5,10,0:0:0:0:
243,245,93188,1,8,0:0:0:0:
161,347,93295,6,0,B|116:358|116:358|56:346|55:266,1,160.000006103516,10|8,0:0|0:0,0:0:0:0:
91,194,93508,5,8,0:0:0:0:
122,139,93579,1,8,0:0:0:0:
121,76,93650,1,8,0:0:0:0:
88,22,93720,5,14,0:0:0:0:
256,192,93774,12,2,95210,0:0:0:0:
