osu file format v14

[General]
AudioFilename: audio.mp3
AudioLeadIn: 0
PreviewTime: 66433
Countdown: 0
SampleSet: Soft
StackLeniency: 0.7
Mode: 2
LetterboxInBreaks: 0
EpilepsyWarning: 1
WidescreenStoryboard: 1

[Editor]
DistanceSpacing: 1.1
BeatDivisor: 4
GridSize: 32
TimelineZoom: 3.699998

[Metadata]
Title:Hey Darling!
TitleUnicode:Hey Darling!
Artist:Matsushita
ArtistUnicode:松下
Creator:-Joakh
Version:Rain
Source:ワガママハイスペックOC
Tags:Ymiir Fii -wwwww -Luminate -MomoX Greaper Syamu amulet-pp Lasse Wagamama High Spec OC OverClock Wagahigh opening videogame video game japanese eroge visual novel Madosoft
BeatmapID:2892823
BeatmapSetID:1288040

[Difficulty]
HPDrainRate:5
CircleSize:3.8
OverallDifficulty:9.1
ApproachRate:9.1
SliderMultiplier:1.5
SliderTickRate:2

[Events]
//Background and Video events
0,0,"BG.jpg",0,0
Video,-10,"video.flv"
//Break Periods
//Storyboard Layer 0 (Background)
//Storyboard Layer 1 (Fail)
//Storyboard Layer 2 (Pass)
//Storyboard Layer 3 (Foreground)
//Storyboard Layer 4 (Overlay)
//Storyboard Sound Samples

[TimingPoints]
955,212.765957446809,4,2,1,50,1,0
4465,-100,4,2,1,40,0,0
4784,-100,4,2,1,35,0,0
5210,-100,4,2,1,50,0,0
6912,-100,4,2,1,60,0,0
7763,-100,4,2,1,70,0,0
8614,-100,4,2,1,65,0,0
13720,-100,4,2,1,40,0,0
14997,-83.3333333333333,4,2,1,100,0,0
15210,-100,4,2,1,40,0,0
15423,-90.9090909090909,4,2,1,75,0,1
22231,-100,4,2,1,65,0,0
24784,-100,4,2,1,75,0,0
25635,-100,4,2,1,70,0,0
25848,-100,4,2,1,70,0,0
26486,-100,4,2,1,75,0,0
29040,-100,4,2,1,70,0,0
35848,-100,4,2,1,60,0,0
49465,-100,4,2,1,50,0,0
56274,-100,4,2,1,60,0,0
59678,-100,4,2,1,65,0,0
63082,-100,4,2,1,70,0,0
66061,-83.3333333333333,4,2,1,100,0,0
66274,-100,4,2,1,40,0,0
66486,-86.9565217391304,4,2,1,75,0,1
80103,-100,4,2,1,65,0,0
82657,-100,4,2,1,75,0,0
83508,-100,4,2,1,70,0,0
83720,-100,4,2,1,70,0,0
84359,-90.9090909090909,4,2,1,70,0,0
85210,-100,4,2,1,70,0,0
93720,-200,4,2,1,78,0,0

[Colours]
Combo1 : 255,255,128
Combo2 : 255,43,159
Combo3 : 255,128,192
Combo4 : 255,128,128

[HitObjects]
174,220,1593,6,0,L|117:214,2,50,8|8|8,0:3|0:3|0:3,0:0:0:0:
340,226,1806,1,14,0:0:0:0:
343,135,3295,2,0,L|342:234,1,75,2|2,0:0|0:0,0:0:0:0:
173,223,3508,1,14,0:0:0:0:
347,290,4465,5,8,3:0:0:0:
260,290,4572,2,0,P|214:241|264:195,1,150,8|8,3:0|3:0,0:0:0:0:
347,195,4891,1,0,0:0:0:0:
426,199,4997,2,0,L|427:113,1,75,8|0,3:0|0:0,0:0:0:0:
195,101,5210,5,6,0:0:0:0:
433,118,5635,1,2,0:2:0:0:
208,124,6061,1,2,0:2:0:0:
332,118,6274,6,0,L|343:222,1,75
235,212,6486,2,0,P|188:259|238:304,1,150,2|8,0:0|0:3,0:0:0:0:
288,293,6770,1,8,0:3:0:0:
336,279,6841,1,8,0:3:0:0:
173,215,6912,6,0,P|103:203|93:134,1,150,14|8,0:0|0:3,0:0:0:0:
322,116,7231,2,0,P|369:68|319:13,1,150,10|8,0:0|0:3,0:0:0:0:
157,41,7550,1,14,0:0:0:0:
278,49,7763,5,10,0:3:0:0:
341,72,7869,1,8,0:0:0:0:
365,136,7975,1,8,0:0:0:0:
332,195,8082,1,8,0:0:0:0:
165,168,8189,2,0,L|104:176,2,50,10|8|8,0:3|0:3|0:3,0:0:0:0:
311,157,8401,2,0,L|371:160,2,50,10|8|8,0:3|0:3|0:3,0:0:0:0:
178,165,8614,6,0,P|134:112|185:67,1,150,6|0,0:0|0:0,0:0:0:0:
274,68,8933,1,0,0:0:0:0:
344,83,9039,1,2,0:0:0:0:
372,150,9145,1,2,0:0:0:0:
334,211,9252,1,0,0:0:0:0:
251,223,9359,6,0,P|202:270|245:322,1,150,2|0,0:0|0:0,0:0:0:0:
329,322,9678,2,0,L|333:247,1,75,2|2,0:0|0:0,0:0:0:0:
160,224,9891,2,0,P|109:183|160:142,1,150,10|0,0:3|0:0,0:0:0:0:
250,141,10210,1,0,0:0:0:0:
428,142,10316,6,0,P|473:196|428:249,1,150,6|0,0:0|0:0,0:0:0:0:
347,255,10635,1,0,0:0:0:0:
264,260,10742,2,0,L|174:291,2,75,10|2|0,0:3|0:0|0:0,0:0:0:0:
345,244,11061,6,0,P|393:196|345:147,1,150,2|0,0:0|0:0,0:0:0:0:
263,147,11380,2,0,L|236:217,1,75,2|2,0:0|0:0,0:0:0:0:
402,235,11593,2,0,P|447:283|395:326,1,150,10|0,0:3|0:0,0:0:0:0:
296,324,11912,1,0,0:0:0:0:
120,313,12018,6,0,P|73:265|121:216,1,150,6|0,0:0|0:0,0:0:0:0:
302,208,12444,2,0,L|303:131,1,75,10|10,0:0|0:3,0:0:0:0:
212,130,12657,2,0,L|137:128,1,75,8|10,0:0|0:0,0:0:0:0:
327,302,12869,5,10,0:2:0:0:
403,299,12976,1,8,0:0:0:0:
402,224,13082,1,8,0:0:0:0:
325,219,13189,1,8,0:0:0:0:
144,192,13295,2,0,L|144:105,1,75,10|8,0:0|0:3,0:0:0:0:
331,110,13508,2,0,L|392:108,2,50,8|8|8,0:0|0:3|0:3,0:0:0:0:
187,96,13720,5,2,0:0:0:0:
388,126,14997,2,0,P|478:201|384:273,1,269.999991760254,12|0,0:2|0:0,0:0:0:0:
171,271,15423,6,0,P|115:224|171:177,1,165.000005035401,14|10,0:3|0:0,0:0:0:0:
351,174,15848,2,0,L|423:212,2,82.5000025177003,2|8|10,0:0|0:3|0:0,0:0:0:0:
140,163,16274,6,0,P|87:213|143:260,1,165.000005035401,10|10,0:3|0:0,0:0:0:0:
242,253,16593,2,0,L|247:143,1,82.5000025177003,10|0,0:3|0:0,0:0:0:0:
154,165,16806,2,0,L|147:53,1,82.5000025177003,10|8,0:3|0:0,0:0:0:0:
239,77,17018,1,2,0:0:0:0:
416,93,17125,6,0,P|470:142|415:189,1,165.000005035401,10|10,0:3|0:0,0:0:0:0:
322,186,17444,1,8,0:3:0:0:
232,195,17550,2,0,L|226:284,1,82.5000025177003,2|8,0:0|0:3,0:0:0:0:
317,270,17763,2,0,L|322:360,1,82.5000025177003,10|0,0:0|0:0,0:0:0:0:
128,345,17976,6,0,L|29:349,2,82.5000025177003,14|8|8,0:0|0:0|0:0,0:0:0:0:
298,342,18295,2,0,L|390:346,2,82.5000025177003,10|8|8,0:0|0:0|0:0,0:0:0:0:
125,164,18614,2,0,L|221:165,1,82.5000025177003,10|8,0:0|0:0,0:0:0:0:
376,100,18827,6,0,P|432:144|374:186,1,165.000005035401,14|0,0:3|0:0,0:0:0:0:
152,195,19252,2,0,L|152:372,1,165.000005035401,14|0,0:3|0:0,0:0:0:0:
354,338,19678,6,0,P|407:287|353:237,1,165.000005035401,14|8,0:3|0:3,0:0:0:0:
168,234,19997,2,0,P|98:197|92:118,1,165.000005035401,8|8,0:0|0:3,0:0:0:0:
192,112,20316,1,10,0:0:0:0:
469,136,20529,5,6,0:0:0:0:
287,140,20742,1,10,0:3:0:0:
471,238,20955,1,10,0:3:0:0:
290,240,21167,1,10,0:3:0:0:
107,305,21380,5,10,0:2:0:0:
35,248,21486,1,8,0:2:0:0:
38,156,21593,1,8,0:2:0:0:
127,145,21699,1,8,0:2:0:0:
321,137,21806,1,8,0:2:0:0:
401,147,21912,1,8,0:2:0:0:
442,215,22018,1,8,0:2:0:0:
414,290,22125,1,8,0:2:0:0:
241,316,22231,6,0,L|71:309,1,150,14|0,0:3|0:0,0:0:0:0:
174,310,22550,1,10,0:3:0:0:
256,309,22657,2,0,P|303:258|260:205,1,150,8|2,0:0|0:0,0:0:0:0:
91,204,23082,6,0,L|258:200,1,150,10|0,0:3|0:0,0:0:0:0:
323,197,23401,1,10,0:3:0:0:
240,200,23508,2,0,P|192:156|245:118,1,150,8|2,0:0|0:0,0:0:0:0:
417,118,23933,6,0,P|461:172|417:226,1,150,10|0,0:3|0:0,0:0:0:0:
334,228,24252,1,10,0:3:0:0:
251,228,24359,2,0,L|242:311,1,75,8|0,0:0|0:0,0:0:0:0:
411,246,24572,2,0,L|440:338,1,75,2|2,0:0|0:0,0:0:0:0:
226,293,24784,6,0,L|57:290,1,150,14|10,0:3|0:0,0:0:0:0:
372,228,25210,2,0,P|419:180|372:131,1,150,10|10,0:3|0:0,0:0:0:0:
320,130,25494,1,8,0:2:0:0:
270,129,25564,1,8,0:2:0:0:
116,132,25635,6,0,P|65:174|115:217,1,150,14|10,0:3|0:0,0:0:0:0:
214,216,25955,2,0,P|262:264|214:312,1,150,8|8,0:3|0:3,0:0:0:0:
116,317,26274,2,0,L|113:237,1,75,10|0,0:3|0:0,0:0:0:0:
306,309,26486,5,12,0:2:0:0:
396,311,26593,2,0,L|427:335,2,37.5,8|0|8,0:2|0:0|0:0,0:0:0:0:
313,309,26806,2,0,L|228:306,1,75,8|8,0:0|0:0,0:0:0:0:
155,301,27018,2,0,L|156:191,1,75,8|8,0:0|0:0,0:0:0:0:
238,221,27231,1,8,0:0:0:0:
426,209,27337,5,14,0:0:0:0:
107,150,28614,2,0,P|36:218|118:273,1,225,8|0,0:3|0:0,0:0:0:0:
324,261,29040,6,0,P|397:246|454:198,1,150,14|8,0:3|0:0,0:0:0:0:
364,184,29359,2,0,P|294:161|258:97,1,150,10|8,0:3|0:3,0:0:0:0:
340,89,29678,2,0,L|340:171,1,75,10|0,0:0|0:0,0:0:0:0:
165,182,29891,6,0,P|116:227|167:270,1,150,10|10,0:3|0:0,0:0:0:0:
249,267,30210,2,0,P|299:223|250:179,1,150,10|10,0:3|0:3,0:0:0:0:
165,182,30529,2,0,L|162:86,1,75,10|0,0:0|0:0,0:0:0:0:
343,101,30742,6,0,P|412:122|429:192,1,150,10|8,0:3|0:0,0:0:0:0:
346,196,31061,2,0,L|196:195,1,150,10|10,0:3|0:3,0:0:0:0:
278,194,31380,2,0,L|366:193,1,75,10|0,0:0|0:0,0:0:0:0:
160,235,31593,6,0,P|116:181|165:133,1,150,10|10,0:3|0:0,0:0:0:0:
246,134,31912,2,0,P|312:161|311:231,1,150,10|10,0:3|0:3,0:0:0:0:
228,239,32231,2,0,L|137:239,1,75,10|0,0:0|0:0,0:0:0:0:
373,277,32444,6,0,P|422:233|369:194,1,150,14|8,0:3|0:0,0:0:0:0:
288,195,32763,2,0,P|239:149|288:103,1,150,10|8,0:3|0:3,0:0:0:0:
370,99,33082,2,0,L|371:189,1,75,10|0,0:0|0:0,0:0:0:0:
191,186,33295,6,0,L|37:186,1,150,10|10,0:3|0:0,0:0:0:0:
126,222,33614,2,0,P|191:250|192:321,1,150,10|10,0:3|0:3,0:0:0:0:
108,321,33933,2,0,L|186:320,1,75,10|0,0:0|0:0,0:0:0:0:
368,303,34146,6,0,P|392:233|370:163,1,150,10|8,0:3|0:0,0:0:0:0:
287,170,34465,2,0,L|137:170,1,150,10|10,0:3|0:3,0:0:0:0:
223,111,34784,2,0,L|297:109,1,75,10|0,0:0|0:0,0:0:0:0:
98,146,34997,6,0,P|52:196|104:239,1,150,14|8,0:3|0:0,0:0:0:0:
185,233,35316,1,8,0:0:0:0:
357,235,35423,2,0,L|356:146,1,75,8|8,0:0|0:0,0:0:0:0:
273,158,35635,2,0,L|198:155,1,75,8|8,0:0|0:0,0:0:0:0:
404,156,35848,6,0,P|449:207|404:259,1,150,14|8,0:3|0:0,0:0:0:0:
320,262,36167,2,0,L|170:262,1,150,10|8,0:3|0:3,0:0:0:0:
252,258,36486,2,0,L|254:172,1,75,10|0,0:0|0:0,0:0:0:0:
148,192,36699,6,0,P|100:141|142:85,1,150,10|8,0:3|0:0,0:0:0:0:
223,82,37018,2,0,P|289:108|300:179,1,150,10|8,0:3|0:3,0:0:0:0:
216,181,37337,2,0,L|138:181,1,75,10|0,0:0|0:0,0:0:0:0:
334,193,37550,6,0,L|337:273,1,75,10|0,0:3|0:0,0:0:0:0:
254,279,37763,2,0,L|253:368,1,75,10|8,0:0|0:3,0:0:0:0:
336,351,37976,2,0,L|431:354,1,75,2|8,0:0|0:3,0:0:0:0:
326,297,38189,2,0,L|251:297,1,75,10|0,0:2|0:0,0:0:0:0:
72,295,38401,6,0,P|24:247|74:202,1,150,10|8,0:3|0:0,0:0:0:0:
163,198,38720,2,0,L|313:198,1,150,8|8,0:3|0:3,0:0:0:0:
404,198,39040,1,10,0:2:0:0:
125,127,39252,6,0,P|118:197|180:232,1,150,10|10,0:3|0:0,0:0:0:0:
264,242,39572,2,0,P|316:284|268:332,1,150,10|8,0:3|0:3,0:0:0:0:
186,333,39891,2,0,L|104:334,1,75,10|0,0:0|0:0,0:0:0:0:
309,336,40103,6,0,P|378:323|389:254,1,150,10|10,0:3|0:0,0:0:0:0:
304,250,40423,2,0,L|208:248,2,75,10|2|8,0:3|0:0|0:3,0:0:0:0:
388,253,40742,2,0,L|387:149,1,75,10|0,0:2|0:0,0:0:0:0:
193,171,40955,6,0,L|106:171,1,75,10|0,0:3|0:0,0:0:0:0:
202,252,41167,2,0,L|289:251,1,75,10|8,0:0|0:3,0:0:0:0:
359,253,41380,2,0,L|358:174,1,75,2|8,0:0|0:3,0:0:0:0:
275,181,41593,2,0,L|188:181,1,75,10|0,0:0|0:0,0:0:0:0:
405,127,41806,6,0,P|453:174|404:220,1,150,10|8,0:3|0:0,0:0:0:0:
321,227,42125,2,0,P|252:242|244:312,1,150,8|8,0:3|0:3,0:0:0:0:
334,311,42444,1,10,0:2:0:0:
56,288,42657,6,0,P|63:217|130:193,1,150,14|8,0:3|0:0,0:0:0:0:
220,189,42976,2,0,P|271:146|220:103,1,150,10|8,0:3|0:3,0:0:0:0:
131,105,43295,2,0,L|130:183,1,75,10|0,0:0|0:0,0:0:0:0:
320,184,43508,6,0,P|389:202|406:272,1,150,10|8,0:3|0:0,0:0:0:0:
323,279,43827,1,8,0:3:0:0:
240,282,43933,2,0,L|238:191,1,75,2|8,2:0|2:3,0:0:0:0:
321,204,44146,2,0,L|321:108,1,75,10|0,0:0|0:0,0:0:0:0:
117,138,44359,6,0,P|69:184|120:226,1,150,10|8,0:3|0:0,0:0:0:0:
203,222,44678,2,0,L|356:222,1,150,10|8,0:3|0:3,0:0:0:0:
443,221,44997,1,10,0:0:0:0:
162,335,45210,6,0,P|92:317|75:248,1,150,10|8,0:3|0:0,0:0:0:0:
157,239,45529,2,0,P|223:214|232:143,1,150,8|8,0:3|0:3,0:0:0:0:
141,146,45848,2,0,L|138:50,1,75,10|0,0:0|0:0,0:0:0:0:
316,140,46061,6,0,P|386:155|401:224,1,150,10|10,0:3|0:0,0:0:0:0:
318,233,46380,1,10,0:3:0:0:
236,240,46486,2,0,L|228:335,1,75,0|8,0:0|0:3,0:0:0:0:
312,322,46699,2,0,L|406:326,1,75,10|2,0:0|0:0,0:0:0:0:
147,327,46912,6,0,P|97:285|149:246,1,150,8|10,0:3|0:0,0:0:0:0:
318,252,47231,2,0,P|355:234|301:163,1,150,10|10,0:3|0:3,0:0:0:0:
223,162,47550,1,10,0:0:0:0:
387,162,47763,6,0,P|385:233|319:257,1,150,8|8,0:3|0:0,0:0:0:0:
228,260,48082,2,0,P|160:281|155:352,1,150,8|8,0:3|0:3,0:0:0:0:
244,352,48401,2,0,L|339:351,1,75,8|0,0:0|0:0,0:0:0:0:
133,340,48614,5,8,0:0:0:0:
62,325,48720,1,8,0:0:0:0:
27,262,48826,1,10,0:0:0:0:
53,194,48933,1,8,0:0:0:0:
254,175,49040,2,0,L|344:175,1,75,10|8,0:0|0:0,0:0:0:0:
247,175,49252,2,0,L|172:175,1,75,10|8,0:3|0:3,0:0:0:0:
358,241,49465,6,0,P|408:285|361:332,1,150,14|0,0:3|0:0,0:0:0:0:
277,336,49784,1,2,0:0:0:0:
194,334,49891,2,0,P|203:264|272:251,1,150,8|2,0:3|0:0,0:0:0:0:
437,266,50316,6,0,L|436:110,1,150,10|0,0:3|0:0,0:0:0:0:
353,116,50635,1,2,0:0:0:0:
270,115,50742,2,0,L|263:193,1,75,8|0,0:3|0:0,0:0:0:0:
345,201,50955,2,0,L|249:192,1,75,2|0,0:0|0:0,0:0:0:0:
166,208,51167,6,0,P|169:278|236:298,1,150,10|0,0:3|0:0,0:0:0:0:
327,294,51486,2,0,P|394:274|397:204,1,150,2|2,0:0|0:0,0:0:0:0:
305,198,51806,2,0,L|223:198,1,75,2|0,0:0|0:0,0:0:0:0:
327,116,52018,6,0,L|492:116,1,150,10|0,0:3|0:0,0:0:0:0:
389,223,52337,2,0,L|231:223,1,150,2|0,0:0|0:0,0:0:0:0:
325,267,52657,2,0,L|325:353,1,75,2|0,0:0|0:0,0:0:0:0:
155,339,52869,6,0,P|109:287|157:238,1,150,10|0,0:3|0:0,0:0:0:0:
246,230,53189,2,0,L|246:150,1,75,2|8,0:0|0:3,0:0:0:0:
159,178,53401,2,0,L|157:94,1,75,2|0,0:0|0:0,0:0:0:0:
247,100,53614,1,0,0:0:0:0:
352,99,53720,6,0,L|184:98,1,150,10|0,0:3|0:0,0:0:0:0:
118,102,54040,1,2,0:0:0:0:
202,98,54146,2,0,P|253:139|202:179,1,150,8|2,0:3|0:0,0:0:0:0:
118,183,54465,1,0,0:0:0:0:
287,251,54572,6,0,P|355:265|359:335,1,150,10|2,0:3|0:0,0:0:0:0:
268,341,54891,2,0,L|115:341,1,150,2|2,0:0|0:0,0:0:0:0:
117,230,55210,2,0,L|208:231,1,75,2|0,0:0|0:0,0:0:0:0:
363,237,55423,5,10,0:3:0:0:
437,232,55529,1,10,0:3:0:0:
432,157,55635,1,10,0:3:0:0:
356,153,55742,1,10,0:3:0:0:
180,141,55848,1,10,0:0:0:0:
105,140,55954,1,10,0:0:0:0:
105,53,56060,1,10,0:0:0:0:
181,50,56167,1,10,0:0:0:0:
369,56,56274,6,0,P|417:106|373:158,1,150,14|2,0:3|0:0,0:0:0:0:
208,161,56699,2,0,L|357:160,1,150,10|2,0:3|0:0,0:0:0:0:
192,211,57125,6,0,P|123:227|113:297,1,150,8|2,0:3|0:0,0:0:0:0:
292,305,57550,1,10,0:3:0:0:
127,308,57763,2,0,P|27:221|128:137,1,300,2|2,0:0|0:0,0:0:0:0:
308,135,58401,1,10,0:3:0:0:
143,135,58614,1,2,0:0:0:0:
424,178,58827,6,0,P|474:222|423:264,1,150,14|10,0:3|0:0,0:0:0:0:
340,267,59146,1,8,0:3:0:0:
174,291,59252,2,0,L|173:209,1,75,10|8,0:0|0:0,0:0:0:0:
269,215,59465,2,0,L|270:137,1,75,10|8,0:0|0:0,0:0:0:0:
100,155,59678,6,0,P|116:86|186:77,1,150,14|8,0:3|0:3,0:0:0:0:
268,79,59997,2,0,L|277:180,1,75,10|0,0:0|0:3,0:0:0:0:
192,165,60210,2,0,L|189:255,1,75,10|8,0:0|0:3,0:0:0:0:
360,253,60423,6,0,L|436:257,2,75,10|8|8,0:0|0:3|0:0,0:0:0:0:
269,255,60742,2,0,L|262:333,1,75,10|8,0:2|0:2,0:0:0:0:
352,331,60955,1,8,0:2:0:0:
427,329,61061,1,8,0:2:0:0:
427,254,61167,1,10,0:0:0:0:
351,248,61274,1,0,0:0:0:0:
161,195,61380,6,0,P|117:144|172:107,1,150,10|8,0:3|0:3,0:0:0:0:
261,105,61699,2,0,L|341:105,1,75,10|8,0:0|0:3,0:0:0:0:
250,158,61912,2,0,L|162:154,1,75,10|8,0:0|0:3,0:0:0:0:
354,275,62125,6,0,L|437:276,2,75,10|8|8,0:2|0:3|0:2,0:0:0:0:
263,280,62444,2,0,L|255:200,1,75,8|8,0:2|0:2,0:0:0:0:
345,198,62657,2,0,L|350:116,1,75,8|8,0:2|0:2,0:0:0:0:
260,129,62869,2,0,L|169:128,1,75,10|8,0:3|0:3,0:0:0:0:
353,225,63082,6,0,P|403:271|353:316,1,150,14|10,0:3|0:0,0:0:0:0:
264,323,63401,2,0,L|259:235,1,75,10|8,0:0|0:3,0:0:0:0:
349,237,63614,2,0,L|353:133,1,75,10|8,0:0|0:0,0:0:0:0:
183,164,63827,5,10,0:0:0:0:
99,166,63933,2,0,L|248:155,1,150,8|10,0:3|0:0,0:0:0:0:
340,155,64252,1,8,0:0:0:0:
249,155,64359,2,0,L|244:236,1,75,10|8,0:3|0:3,0:0:0:0:
415,245,64572,2,0,L|423:331,1,75,10|0,0:0|0:0,0:0:0:0:
202,334,64784,5,14,0:0:0:0:
376,299,66061,2,0,P|466:221|374:145,1,269.999991760254,12|0,0:0|0:0,0:0:0:0:
117,255,66486,6,0,P|63:200|122:149,1,172.500003290176,14|10,0:3|0:0,0:0:0:0:
314,150,66912,1,2,0:0:0:0:
382,149,67018,1,8,0:3:0:0:
451,146,67125,1,10,0:0:0:0:
242,266,67337,6,0,L|60:265,1,172.500003290176,10|10,0:3|0:0,0:0:0:0:
156,259,67657,2,0,L|161:167,1,86.2500016450882,10|0,0:3|0:0,0:0:0:0:
75,186,67869,2,0,L|67:89,1,86.2500016450882,10|8,0:3|0:0,0:0:0:0:
154,102,68082,1,2,0:0:0:0:
356,80,68189,6,0,P|413:128|353:174,1,172.500003290176,10|10,0:3|0:0,0:0:0:0:
265,179,68508,1,8,0:3:0:0:
179,185,68614,2,0,P|121:236|176:291,1,172.500003290176,2|10,0:0|0:2,0:0:0:0:
261,287,68933,1,2,0:0:0:0:
432,294,69040,6,0,L|431:101,1,172.500003290176,10|10,0:3|0:0,0:0:0:0:
241,120,69465,1,10,0:3:0:0:
162,118,69572,1,8,0:3:0:0:
84,114,69678,1,10,0:0:0:0:
391,300,69891,6,0,P|446:250|384:209,1,172.500003290176,10|8,0:3|0:0,0:0:0:0:
287,217,70210,2,0,P|226:176|286:134,1,172.500003290176,8|0,0:3|0:0,0:0:0:0:
381,130,70529,2,0,L|380:222,1,86.2500016450882,8|0,0:2|0:0,0:0:0:0:
191,232,70742,6,0,P|130:278|186:330,1,172.500003290176,10|10,0:3|0:0,0:0:0:0:
279,325,71061,1,8,0:3:0:0:
373,324,71167,2,0,L|369:223,1,86.2500016450882,2|8,0:0|0:3,0:0:0:0:
274,241,71380,2,0,L|181:240,1,86.2500016450882,10|0,0:0|0:0,0:0:0:0:
423,195,71593,6,0,P|477:141|419:91,1,172.500003290176,14|8,0:3|0:0,0:0:0:0:
212,98,72018,2,0,L|24:98,1,172.500003290176,2|14,0:0|0:0,0:0:0:0:
365,196,72444,5,8,0:0:0:0:
445,212,72550,1,8,0:0:0:0:
470,291,72656,1,8,0:0:0:0:
413,350,72763,1,8,0:0:0:0:
216,352,72869,1,10,0:0:0:0:
134,334,72975,1,8,0:0:0:0:
88,264,73081,1,8,0:0:0:0:
104,182,73188,1,8,0:0:0:0:
285,168,73295,6,0,P|365:155|372:75,1,172.500003290176,14|10,0:3|0:0,0:0:0:0:
182,79,73720,2,0,L|79:125,2,86.2500016450882,2|8|10,0:0|0:3|0:0,0:0:0:0:
384,76,74146,6,0,P|439:130|381:180,1,172.500003290176,10|10,0:3|0:0,0:0:0:0:
285,186,74465,2,0,L|280:291,1,86.2500016450882,10|0,0:3|0:0,0:0:0:0:
376,273,74678,2,0,L|386:379,1,86.2500016450882,10|8,0:3|0:0,0:0:0:0:
288,364,74891,1,2,0:0:0:0:
94,353,74997,6,0,P|38:302|100:258,1,172.500003290176,10|10,0:3|0:0,0:0:0:0:
194,260,75316,1,8,0:3:0:0:
289,256,75423,2,0,L|292:150,1,86.2500016450882,2|8,0:0|0:3,0:0:0:0:
197,177,75635,2,0,L|110:175,1,86.2500016450882,10|0,0:0|0:0,0:0:0:0:
329,173,75848,5,14,0:0:0:0:
415,170,75955,1,8,0:0:0:0:
421,75,76061,1,8,0:0:0:0:
203,67,76167,2,0,L|107:77,2,86.2500016450882,10|8|8,0:0|0:0|0:0,0:0:0:0:
382,51,76486,2,0,L|387:141,1,86.2500016450882,10|8,0:0|0:0,0:0:0:0:
207,159,76699,6,0,P|135:199|148:280,1,172.500003290176,14|0,0:3|0:0,0:0:0:0:
327,271,77125,2,0,L|137:282,1,172.500003290176,14|0,0:3|0:0,0:0:0:0:
342,95,77550,6,0,P|424:107|458:186,1,172.500003290176,14|8,0:3|0:3,0:0:0:0:
363,191,77869,1,8,0:0:0:0:
187,191,77976,2,0,L|180:286,1,86.2500016450882,2|8,0:0|0:3,0:0:0:0:
274,276,78189,2,0,L|357:231,1,86.2500016450882,10|0,0:0|0:0,0:0:0:0:
156,332,78401,6,0,P|73:329|17:258,2,172.500003290176,6|10|10,0:0|0:3|0:3,0:0:0:0:
329,329,79040,1,10,0:3:0:0:
145,303,79252,6,0,L|64:363,1,86.2500016450882,10|8,0:2|0:2,0:0:0:0:
157,230,79465,2,0,L|237:268,1,86.2500016450882,8|8,0:2|0:2,0:0:0:0:
423,215,79678,1,8,0:2:0:0:
424,131,79784,1,8,0:2:0:0:
361,76,79890,1,8,0:2:0:0:
278,87,79997,1,8,0:2:0:0:
101,265,80103,6,0,P|51:221|104:182,1,150,14|0,0:3|0:0,0:0:0:0:
185,178,80422,1,10,0:3:0:0:
267,178,80529,2,0,P|316:226|269:275,1,150,8|2,0:0|0:0,0:0:0:0:
115,216,80954,6,0,L|289:217,1,150,10|0,0:3|0:0,0:0:0:0:
347,216,81273,1,10,0:3:0:0:
264,216,81380,2,0,P|216:172|269:135,1,150,8|2,0:0|0:0,0:0:0:0:
465,133,81805,6,0,L|315:131,1,150,10|0,0:3|0:0,0:0:0:0:
232,134,82124,1,10,0:3:0:0:
315,131,82231,2,0,L|316:214,1,75,8|0,0:0|0:0,0:0:0:0:
143,247,82444,2,0,L|68:247,1,75,2|2,0:0|0:0,0:0:0:0:
292,304,82656,6,0,P|336:252|286:206,1,150,14|10,0:3|0:0,0:0:0:0:
107,231,83082,2,0,P|59:182|107:133,1,150,10|10,0:3|0:0,0:0:0:0:
163,130,83366,1,8,0:2:0:0:
217,127,83436,1,8,0:2:0:0:
374,125,83507,6,0,P|424:166|375:210,1,150,14|10,0:3|0:0,0:0:0:0:
281,217,83827,2,0,P|213:240|236:318,1,150,8|8,0:3|0:3,0:0:0:0:
311,303,84146,1,10,0:3:0:0:
35,184,84359,5,12,0:3:0:0:
200,181,84572,1,8,0:3:0:0:
364,184,84784,1,8,0:3:0:0:
200,181,84997,1,8,0:3:0:0:
489,177,85210,5,14,0:0:0:0:
248,202,86274,2,0,L|238:297,1,75,8|0,0:3|0:0,0:0:0:0:
329,283,86486,2,0,P|405:221|329:159,1,225,12|0,0:0|0:0,0:0:0:0:
143,271,86912,6,0,P|93:227|145:187,1,150,14|8,0:3|0:0,0:0:0:0:
234,183,87231,2,0,P|304:160|340:96,1,150,10|8,0:3|0:3,0:0:0:0:
250,83,87550,2,0,L|175:83,1,75,10|0,0:0|0:0,0:0:0:0:
359,186,87763,6,0,P|408:231|357:274,1,150,10|10,0:3|0:0,0:0:0:0:
266,274,88082,2,0,P|216:230|265:186,1,150,10|10,0:3|0:3,0:0:0:0:
355,191,88401,2,0,L|358:95,1,75,10|0,0:0|0:0,0:0:0:0:
154,101,88614,6,0,P|85:122|68:192,1,150,10|8,0:3|0:0,0:0:0:0:
158,196,88933,2,0,L|308:195,1,150,10|10,0:3|0:3,0:0:0:0:
227,250,89252,2,0,L|139:249,1,75,10|0,0:0|0:0,0:0:0:0:
359,241,89465,6,0,P|403:187|354:139,1,150,10|10,0:3|0:0,0:0:0:0:
265,145,89784,2,0,P|199:172|200:242,1,150,10|10,0:3|0:3,0:0:0:0:
291,234,90103,2,0,L|382:234,1,75,10|0,0:0|0:0,0:0:0:0:
126,334,90316,6,0,P|99:265|126:197,1,150,14|8,0:3|0:0,0:0:0:0:
215,193,90635,2,0,P|264:147|215:101,1,150,10|8,0:3|0:3,0:0:0:0:
124,98,90954,2,0,L|123:188,1,75,10|0,0:0|0:0,0:0:0:0:
306,186,91167,6,0,L|460:186,1,150,10|10,0:3|0:0,0:0:0:0:
365,219,91486,2,0,P|300:247|299:318,1,150,10|10,0:3|0:3,0:0:0:0:
388,303,91805,2,0,L|389:387,1,75,10|0,0:0|0:0,0:0:0:0:
202,365,92018,6,0,P|158:312|207:265,1,150,14|8,0:3|0:0,0:0:0:0:
378,257,92337,2,0,P|428:211|378:166,1,150,14|8,0:3|0:3,0:0:0:0:
199,163,92657,2,0,L|105:162,1,75,10|0,0:0|0:0,0:0:0:0:
325,146,92869,5,10,0:3:0:0:
397,148,92975,1,0,0:0:0:0:
446,202,93081,1,10,0:0:0:0:
440,275,93188,1,8,0:0:0:0:
211,291,93295,2,0,L|136:289,1,75,10|8,0:0|0:0,0:0:0:0:
352,264,93508,2,0,L|403:308,2,50,8|8|8,0:0|0:0|0:0,0:0:0:0:
136,239,93720,5,14,0:0:0:0:
256,192,93933,12,2,95210,0:0:0:0:
