osu file format v14

[General]
AudioFilename: audio.mp3
AudioLeadIn: 0
PreviewTime: 66433
Countdown: 0
SampleSet: Soft
StackLeniency: 0.7
Mode: 2
LetterboxInBreaks: 0
EpilepsyWarning: 1
WidescreenStoryboard: 1

[Editor]
DistanceSpacing: 1.2
BeatDivisor: 4
GridSize: 32
TimelineZoom: 5.799996

[Metadata]
Title:Hey Darling!
TitleUnicode:Hey Darling!
Artist:Matsushita
ArtistUnicode:松下
Creator:-Joakh
Version:Delight
Source:ワガママハイスペックOC
Tags:Ymiir Fii -wwwww -Luminate -MomoX Greaper Syamu amulet-pp Lasse Wagamama High Spec OC OverClock Wagahigh opening videogame video game japanese eroge visual novel Madosoft
BeatmapID:2674197
BeatmapSetID:1288040

[Difficulty]
HPDrainRate:6
CircleSize:4.3
OverallDifficulty:9.7
ApproachRate:9.7
SliderMultiplier:1.7
SliderTickRate:2

[Events]
//Background and Video events
Video,-10,"video.flv"
0,0,"BG.jpg",0,0
//Break Periods
//Storyboard Layer 0 (Background)
//Storyboard Layer 1 (Fail)
//Storyboard Layer 2 (Pass)
//Storyboard Layer 3 (Foreground)
//Storyboard Layer 4 (Overlay)
//Storyboard Sound Samples

[TimingPoints]
955,212.765957446809,4,2,1,50,1,0
4465,-100,4,2,1,40,0,0
4784,-100,4,2,1,35,0,0
5157,-100,4,2,1,5,0,0
5210,-100,4,2,1,50,0,0
6912,-100,4,2,1,60,0,0
7763,-100,4,2,1,70,0,0
8614,-100,4,2,1,65,0,0
13720,-100,4,2,1,40,0,0
14997,-41.6666666666667,4,2,1,100,0,0
15210,-100,4,2,1,40,0,0
15423,-83.3333333333333,4,2,1,75,0,1
22231,-100,4,2,1,65,0,0
24784,-100,4,2,1,75,0,0
25635,-100,4,2,1,70,0,0
25848,-100,4,2,1,70,0,0
26486,-100,4,2,1,75,0,0
29040,-100,4,2,1,70,0,0
35848,-100,4,2,1,60,0,0
49465,-100,4,2,1,50,0,0
56274,-100,4,2,1,60,0,0
59678,-100,4,2,1,65,0,0
63082,-90.9090909090909,4,2,1,70,0,0
66061,-41.6666666666667,4,2,1,100,0,0
66274,-100,4,2,1,40,0,0
66486,-83.3333333333333,4,2,1,75,0,1
71593,-50,4,2,1,75,0,1
72125,-83.3333333333333,4,2,1,75,0,1
80103,-100,4,2,1,65,0,0
82657,-100,4,2,1,75,0,0
83508,-100,4,2,1,70,0,0
83720,-100,4,2,1,70,0,0
84359,-90.9090909090909,4,2,1,70,0,0
85210,-100,4,2,1,70,0,0
93720,-200,4,2,1,78,0,0

[Colours]
Combo1 : 255,255,128
Combo2 : 255,43,159
Combo3 : 255,128,192
Combo4 : 255,128,128

[HitObjects]
294,178,1593,6,0,L|356:157,2,56.6666666666667,8|8|8,0:3|0:3|0:3,0:0:0:0:
66,125,1806,1,14,0:0:0:0:
317,246,3295,6,0,L|343:151,1,85,2|2,0:0|0:0,0:0:0:0:
110,142,3508,1,14,0:0:0:0:
329,142,4465,1,8,3:0:0:0:
223,139,4572,2,0,L|225:247,1,85,8|8,3:0|3:0,0:0:0:0:
328,222,4784,2,0,L|208:222,1,85,8|0,3:0|0:0,0:0:0:0:
359,254,4997,2,0,P|401:295|343:309,1,127.5,8|0,3:0|0:0,0:0:0:0:
133,167,5210,1,6,0:0:0:0:
343,212,5635,5,2,0:2:0:0:
145,215,6061,1,2,0:2:0:0:
296,198,6274,2,0,L|311:102,1,85
118,175,6486,2,0,P|81:129|124:89,1,127.5,2|0,0:0|0:0,0:0:0:0:
323,118,6699,1,8,0:3:0:0:
368,115,6770,1,8,0:3:0:0:
323,118,6841,1,8,0:3:0:0:
104,121,6912,6,0,P|50:168|115:221,1,170,14|8,0:0|0:3,0:0:0:0:
342,222,7231,2,0,P|258:211|174:213,1,170,10|8,0:0|0:3,0:0:0:0:
392,217,7550,2,0,L|401:106,1,85,14|8,0:0|0:3,0:0:0:0:
214,122,7763,6,0,L|115:122,1,85,10|8,0:3|0:0,0:0:0:0:
212,182,7976,2,0,L|108:183,1,85,8|8,0:0|0:0,0:0:0:0:
338,152,8189,2,0,L|393:138,2,56.6666666666667,10|8|8,0:3|0:3|0:3,0:0:0:0:
174,162,8401,1,10,0:3:0:0:
104,163,8472,2,0,L|106:77,1,56.6666666666667,8|8,0:3|0:3,0:0:0:0:
387,289,8614,6,0,P|463:249|356:153,1,255,6|0,0:0|0:0,0:0:0:0:
275,143,9040,1,2,0:0:0:0:
385,141,9146,1,2,0:0:0:0:
275,143,9252,1,0,0:0:0:0:
108,158,9359,5,2,0:0:0:0:
211,156,9465,2,0,L|211:241,1,85,10|0,0:3|0:0,0:0:0:0:
112,249,9678,2,0,L|207:249,1,85,2|2,0:0|0:0,0:0:0:0:
395,228,9891,2,0,P|312:212|227:210,1,170,10|0,0:3|0:0,0:0:0:0:
315,213,10210,1,0,0:0:0:0:
121,238,10316,6,0,P|62:196|122:156,1,170,6|0,0:0|0:0,0:0:0:0:
308,138,10635,2,0,L|190:138,1,85,0|10,0:0|0:3,0:0:0:0:
317,101,10848,2,0,L|425:102,1,85,2|0,0:0|0:0,0:0:0:0:
133,281,11061,5,2,0:0:0:0:
221,280,11167,2,0,L|132:280,1,85,10|0,0:3|0:0,0:0:0:0:
332,278,11380,2,0,L|341:188,1,85,2|2,0:0|0:0,0:0:0:0:
130,186,11593,2,0,P|219:178|303:173,1,170,10|0,0:3|0:0,0:0:0:0:
216,179,11912,1,0,0:0:0:0:
414,179,12018,6,0,P|472:229|419:285,1,170,6|0,0:0|0:0,0:0:0:0:
323,250,12337,1,0,0:0:0:0:
145,288,12444,2,0,L|60:288,1,85,10|10,0:0|0:3,0:0:0:0:
265,290,12657,2,0,L|266:186,1,85,8|10,0:0|0:0,0:0:0:0:
164,206,12869,1,10,0:2:0:0:
267,205,12976,1,8,0:0:0:0:
73,160,13082,6,0,L|174:159,1,85,8|8,0:0|0:0,0:0:0:0:
371,156,13295,2,0,L|378:256,1,85,10|8,0:0|0:3,0:0:0:0:
317,251,13455,1,8,0:3:0:0:
168,259,13508,1,8,0:0:0:0:
90,268,13579,2,0,L|88:179,1,56.6666666666667,8|8,0:3|0:3,0:0:0:0:
330,116,13720,6,0,L|428:116,1,85,10|10,3:0|3:0,0:0:0:0:
209,199,14040,2,0,P|292:195|352:123,2,170,2|0|2,0:0|0:0|0:0,0:0:0:0:
53,213,14678,2,0,L|162:202,1,85,2|2,0:0|0:0,0:0:0:0:
487,91,14997,2,0,B|79:74|79:74|24:155|24:155|24:277|24:277|65:353,1,713.99997821045,12|0,0:2|0:0,0:0:0:0:
350,301,15423,6,0,P|397:252|344:210,1,152.999995330811,14|0,0:3|0:0,0:0:0:0:
116,198,15635,2,0,P|65:155|118:114,1,152.999995330811,10|8,0:0|3:0,0:0:0:0:
281,184,15848,2,0,L|397:183,1,101.999996887207,2|8,0:0|0:3,0:0:0:0:
278,113,16061,2,0,L|398:111,1,101.999996887207,10|0,0:0|0:0,0:0:0:0:
168,263,16274,6,0,L|66:263,1,101.999996887207,10|0,0:3|0:0,0:0:0:0:
306,217,16486,1,10,0:0:0:0:
72,193,16593,2,0,L|174:193,1,101.999996887207,10|0,0:3|0:0,0:0:0:0:
401,166,16806,2,0,L|404:271,1,101.999996887207,10|8,0:3|0:0,0:0:0:0:
175,278,17018,5,2,0:0:0:0:
284,276,17125,1,10,0:3:0:0:
175,278,17231,1,0,0:0:0:0:
386,249,17337,2,0,L|391:145,1,101.999996887207,10|8,0:0|0:3,0:0:0:0:
191,145,17550,2,0,L|305:147,1,101.999996887207,2|8,0:0|0:3,0:0:0:0:
98,149,17763,2,0,L|210:150,1,101.999996887207,10|0,0:0|0:0,0:0:0:0:
422,146,17976,5,14,0:0:0:0:
319,147,18082,1,8,0:0:0:0:
422,136,18189,1,8,0:0:0:0:
319,137,18295,1,10,0:0:0:0:
126,175,18401,2,0,L|123:285,1,101.999996887207,8|8,0:0|0:0,0:0:0:0:
344,280,18614,1,10,0:0:0:0:
123,276,18720,1,8,0:0:0:0:
371,277,18827,6,0,P|440:221|369:167,1,203.999993774414,14|0,0:3|0:0,0:0:0:0:
165,203,19252,2,0,L|148:92,1,101.999996887207,14|0,0:3|0:0,0:0:0:0:
271,117,19465,2,0,L|275:10,1,101.999996887207
77,137,19678,6,0,P|14:204|84:263,1,203.999993774414,14|8,0:3|0:3,0:0:0:0:
205,252,19997,1,8,0:0:0:0:
394,262,20103,2,0,L|395:142,1,101.999996887207,2|8,0:0|0:3,0:0:0:0:
284,133,20316,2,0,L|407:133,1,101.999996887207,10|0,0:0|0:0,0:0:0:0:
171,163,20529,6,0,L|55:164,1,101.999996887207,6|0,0:0|0:0,0:0:0:0:
256,167,20742,2,0,L|254:279,1,101.999996887207,10|0,0:3|0:0,0:0:0:0:
58,271,20955,2,0,L|186:269,1,101.999996887207,10|0,0:3|0:0,0:0:0:0:
354,275,21167,2,0,L|354:173,1,101.999996887207,10|0,0:3|0:0,0:0:0:0:
136,193,21380,6,0,L|34:193,1,101.999996887207,10|8,0:2|0:2,0:0:0:0:
133,129,21593,2,0,L|265:128,1,101.999996887207,8|8,0:2|0:2,0:0:0:0:
459,127,21806,1,8,0:2:0:0:
288,128,21912,1,8,0:2:0:0:
119,129,22018,1,8,0:2:0:0:
288,128,22124,1,8,0:2:0:0:
121,133,22231,6,0,P|61:178|115:230,1,170,14|0,0:3|0:0,0:0:0:0:
209,230,22550,1,10,0:3:0:0:
402,208,22657,2,0,L|402:317,1,85,8|0,0:0|0:0,0:0:0:0:
299,292,22869,1,2,0:0:0:0:
402,293,22976,1,0,0:0:0:0:
146,308,23082,6,0,P|71:282|76:203,1,170,10|0,0:3|0:0,0:0:0:0:
169,190,23401,1,10,0:3:0:0:
340,138,23508,1,8,0:0:0:0:
433,136,23614,1,0,0:0:0:0:
330,138,23720,1,2,0:0:0:0:
424,137,23827,1,0,0:0:0:0:
191,203,23933,6,0,P|114:225|114:305,1,170,10|0,0:3|0:0,0:0:0:0:
216,298,24252,1,10,0:3:0:0:
416,255,24359,2,0,L|305:255,1,85,8|0,0:0|0:0,0:0:0:0:
106,245,24572,1,2,0:0:0:0:
331,255,24678,1,2,0:0:0:0:
115,171,24784,6,0,L|229:170,1,85,14|0,0:3|0:0,0:0:0:0:
400,157,24997,2,0,L|400:257,1,85,10|0,0:0|0:0,0:0:0:0:
184,231,25210,2,0,L|99:231,1,85,10|0,0:3|0:0,0:0:0:0:
285,167,25423,1,10,0:0:0:0:
222,163,25494,1,8,0:2:0:0:
160,160,25564,1,8,0:2:0:0:
358,233,25635,6,0,L|462:233,1,85,14|0,0:3|0:0,0:0:0:0:
240,219,25848,2,0,L|240:316,1,85,10|8,0:0|0:3,0:0:0:0:
343,310,26061,2,0,L|236:308,1,85,2|8,0:0|0:3,0:0:0:0:
78,239,26274,2,0,L|191:239,1,85,10|0,0:3|0:0,0:0:0:0:
342,238,26486,6,0,L|443:238,1,85,12|8,0:2|0:2,0:0:0:0:
239,164,26699,2,0,L|344:164,1,85,8|8,0:0|0:0,0:0:0:0:
138,147,26912,2,0,L|135:246,1,85,8|8,0:0|0:0,0:0:0:0:
332,221,27125,1,8,0:0:0:0:
136,231,27231,1,8,0:0:0:0:
420,213,27337,5,14,0:0:0:0:
66,272,28614,2,0,P|15:169|118:120,1,255,8|0,0:3|0:0,0:0:0:0:
343,126,29040,6,0,L|429:128,2,85,14|0|8,0:3|0:0|0:0,0:0:0:0:
230,125,29359,2,0,P|169:159|231:192,1,170,10|8,0:3|0:3,0:0:0:0:
423,182,29678,2,0,L|425:275,1,85,10|0,0:0|0:0,0:0:0:0:
199,286,29891,5,10,0:3:0:0:
292,283,29997,1,0,0:0:0:0:
385,279,30103,1,10,0:0:0:0:
277,258,30210,2,0,P|197:232|112:229,1,170,10|10,0:3|0:3,0:0:0:0:
278,106,30529,2,0,L|187:105,1,85,10|0,0:0|0:0,0:0:0:0:
380,137,30742,6,0,L|392:225,1,85,10|0,0:3|0:0,0:0:0:0:
291,242,30955,1,8,0:0:0:0:
401,240,31061,2,0,P|458:288|398:332,1,170,10|10,0:3|0:3,0:0:0:0:
207,338,31380,2,0,L|304:339,1,85,10|0,0:0|0:0,0:0:0:0:
120,200,31593,6,0,L|34:204,2,85,10|0|10,0:3|0:0|0:0,0:0:0:0:
231,201,31912,2,0,P|291:237|232:276,1,170,10|10,0:3|0:3,0:0:0:0:
57,292,32231,2,0,L|154:283,1,85,10|0,0:0|0:0,0:0:0:0:
367,202,32444,5,14,0:3:0:0:
265,200,32550,1,0,0:0:0:0:
162,197,32657,1,8,0:0:0:0:
271,206,32763,2,0,P|345:237|352:318,1,170,10|8,0:3|0:3,0:0:0:0:
157,332,33082,2,0,L|54:327,1,85,10|0,0:0|0:0,0:0:0:0:
281,256,33295,6,0,L|278:159,1,85,10|0,0:3|0:0,0:0:0:0:
175,174,33508,1,10,0:0:0:0:
284,166,33614,2,0,P|367:150|451:159,1,170,10|10,0:3|0:3,0:0:0:0:
272,31,33933,2,0,L|378:28,1,85,10|0,0:0|0:0,0:0:0:0:
185,79,34146,6,0,L|177:167,1,85,10|0,0:3|0:0,0:0:0:0:
279,166,34359,1,8,0:0:0:0:
168,170,34465,2,0,P|93:195|100:273,1,170,10|10,0:3|0:3,0:0:0:0:
317,252,34784,2,0,L|409:251,1,85,10|0,0:0|0:0,0:0:0:0:
136,118,34997,6,0,L|40:116,1,85,14|0,0:3|0:0,0:0:0:0:
260,188,35210,1,8,0:0:0:0:
441,186,35316,1,8,0:0:0:0:
248,106,35423,1,8,0:0:0:0:
146,104,35529,1,8,0:0:0:0:
358,105,35635,1,8,0:0:0:0:
146,104,35742,1,8,0:0:0:0:
397,309,35848,6,0,P|442:250|375:217,1,170,14|8,0:3|0:0,0:0:0:0:
259,216,36167,2,0,P|205:166|269:123,1,170,10|8,0:3|0:3,0:0:0:0:
385,122,36486,2,0,L|277:124,1,85,10|0,0:0|0:0,0:0:0:0:
117,324,36699,2,0,L|286:319,1,170,10|8,0:3|0:0,0:0:0:0:
170,280,37018,2,0,P|95:254|98:175,1,170,10|8,0:3|0:3,0:0:0:0:
311,192,37337,6,0,L|319:86,1,85,10|0,0:0|0:0,0:0:0:0:
206,109,37550,2,0,L|200:195,1,85,10|0,0:3|0:0,0:0:0:0:
310,205,37763,2,0,L|394:207,1,85,10|8,0:0|0:3,0:0:0:0:
222,88,37976,2,0,L|137:88,1,85,2|8,0:0|0:3,0:0:0:0:
314,148,38189,2,0,L|429:146,1,85,10|0,0:2|0:0,0:0:0:0:
184,178,38401,6,0,P|127:215|198:268,1,170,10|8,0:3|0:0,0:0:0:0:
301,286,38720,2,0,P|223:253|138:254,1,170,8|8,0:3|0:3,0:0:0:0:
259,208,39040,2,0,L|343:210,1,85,10|0,0:2|0:0,0:0:0:0:
165,126,39252,6,0,L|74:125,2,85,10|0|10,0:3|0:0|0:0,0:0:0:0:
347,138,39572,2,0,P|422:162|419:241,1,170,10|8,0:3|0:3,0:0:0:0:
243,266,39891,2,0,L|328:266,1,85,10|0,0:0|0:0,0:0:0:0:
441,220,40103,2,0,L|350:218,1,85,10|0,0:3|0:0,0:0:0:0:
188,143,40316,6,0,L|273:143,1,85,10|10,0:0|0:3,0:0:0:0:
84,153,40529,2,0,L|78:244,1,85,2|8,0:0|0:3,0:0:0:0:
201,239,40742,2,0,L|196:344,1,85,10|0,0:2|0:0,0:0:0:0:
375,311,40955,6,0,L|287:310,1,85,10|0,0:3|0:0,0:0:0:0:
178,308,41167,2,0,L|277:308,1,85,10|8,0:0|0:3,0:0:0:0:
451,216,41380,2,0,L|366:216,1,85,2|8,0:0|0:3,0:0:0:0:
169,214,41593,2,0,L|173:129,1,85,10|0,0:0|0:0,0:0:0:0:
359,160,41806,5,10,0:3:0:0:
257,161,41912,1,0,0:0:0:0:
359,160,42018,1,8,0:0:0:0:
101,290,42125,2,0,P|44:242|103:199,1,170,8|8,0:3|0:3,0:0:0:0:
292,193,42444,2,0,L|376:188,1,85,10|0,0:2|0:0,0:0:0:0:
183,305,42657,6,0,P|130:253|193:214,1,170,14|8,0:3|0:0,0:0:0:0:
312,212,42976,2,0,P|366:161|303:122,1,170,10|8,0:3|0:3,0:0:0:0:
184,133,43295,2,0,L|99:132,1,85,10|0,0:0|0:0,0:0:0:0:
271,198,43508,6,0,P|345:231|351:312,1,170,10|8,0:3|0:0,0:0:0:0:
240,322,43827,1,8,0:3:0:0:
419,152,43933,2,0,L|420:243,1,85,2|8,2:0|2:3,0:0:0:0:
309,240,44146,2,0,L|393:239,1,85,10|0,0:0|0:0,0:0:0:0:
192,188,44359,6,0,P|274:170|358:180,1,170,10|8,0:3|0:0,0:0:0:0:
181,222,44678,2,0,P|106:254|102:334,1,170,10|8,0:3|0:3,0:0:0:0:
212,327,44997,2,0,L|296:325,1,85,10|0,0:0|0:0,0:0:0:0:
121,185,45210,5,10,0:3:0:0:
222,186,45316,1,0,0:0:0:0:
121,185,45423,1,8,0:0:0:0:
335,274,45529,2,0,P|252:262|167:266,1,170,8|8,0:3|0:3,0:0:0:0:
285,216,45848,2,0,L|382:209,1,85,10|0,0:0|0:0,0:0:0:0:
175,324,46061,6,0,L|282:323,1,85,10|0,0:3|0:0,0:0:0:0:
434,315,46274,1,10,0:0:0:0:
260,246,46380,2,0,P|182:227|180:148,1,170,10|8,0:3|0:3,0:0:0:0:
281,155,46699,1,10,0:0:0:0:
181,149,46806,1,2,0:0:0:0:
363,211,46912,6,0,L|366:300,1,85,8|0,0:3|0:0,0:0:0:0:
189,299,47125,1,10,0:0:0:0:
365,295,47231,2,0,L|449:293,2,85,10|0|10,0:3|0:0|0:3,0:0:0:0:
192,246,47550,2,0,L|104:240,1,85,10|0,0:0|0:0,0:0:0:0:
357,96,47763,6,0,P|415:143|361:196,1,170,8|8,0:3|0:0,0:0:0:0:
241,205,48082,2,0,P|324:192|409:202,1,170,8|8,0:3|0:3,0:0:0:0:
230,314,48401,2,0,L|118:326,1,85,8|0,0:0|0:0,0:0:0:0:
318,220,48614,5,8,0:0:0:0:
149,202,48720,2,0,L|100:171,1,42.5,8|8,0:0|0:0,0:0:0:0:
287,177,48827,2,0,L|343:144,1,42.5,10|8,0:0|0:0,0:0:0:0:
136,306,48933,2,0,L|135:204,1,85,8|10,0:0|0:0,0:0:0:0:
382,153,49146,1,8,0:0:0:0:
280,155,49252,1,10,0:3:0:0:
382,153,49359,1,8,0:3:0:0:
127,165,49465,5,14,0:3:0:0:
297,167,49678,2,0,L|304:269,1,85,2|0,0:0|0:0,0:0:0:0:
184,268,49891,2,0,L|190:359,1,85,10|0,0:3|0:0,0:0:0:0:
308,356,50103,2,0,L|397:349,1,85,2|0,0:0|0:0,0:0:0:0:
215,152,50316,6,0,P|140:177|142:256,1,170,10|2,0:3|0:0,0:0:0:0:
329,278,50742,2,0,L|333:365,1,85,10|2,0:3|0:0,0:0:0:0:
213,369,50955,2,0,L|209:279,1,85,2|2,0:0|0:0,0:0:0:0:
396,280,51167,6,0,P|451:228|392:182,1,170,10|0,0:3|0:0,0:0:0:0:
280,181,51486,2,0,L|280:266,1,85,2|8,0:0|0:3,0:0:0:0:
391,264,51699,1,2,0:0:0:0:
280,266,51806,2,0,L|195:268,1,85,2|0,0:0|0:0,0:0:0:0:
362,136,52018,6,0,P|437:160|444:242,1,170,10|0,0:3|0:0,0:0:0:0:
325,239,52337,1,2,0:0:0:0:
427,244,52444,2,0,L|325:244,1,85,10|0,0:3|0:0,0:0:0:0:
222,233,52657,2,0,L|217:145,1,85,2|0,0:0|0:0,0:0:0:0:
397,315,52869,6,0,P|314:302|230:312,1,170,10|0,0:3|0:0,0:0:0:0:
108,318,53189,2,0,L|111:225,1,85,2|8,0:0|0:3,0:0:0:0:
229,235,53401,2,0,L|231:129,1,85,2|0,0:0|0:0,0:0:0:0:
110,147,53614,1,0,0:0:0:0:
292,138,53720,6,0,P|369:153|376:232,1,170,10|0,0:3|0:0,0:0:0:0:
170,241,54146,2,0,L|173:334,1,85,10|0,0:3|0:0,0:0:0:0:
283,326,54359,2,0,L|191:328,1,85,2|0,0:0|0:0,0:0:0:0:
384,285,54572,6,0,L|297:275,1,85,10|0,0:3|0:0,0:0:0:0:
191,266,54784,1,2,0:0:0:0:
309,203,54891,2,0,L|303:113,1,85,2|8,0:0|0:3,0:0:0:0:
194,123,55103,1,2,0:0:0:0:
305,83,55210,2,0,L|221:85,1,85,2|0,0:0|0:0,0:0:0:0:
49,122,55423,5,10,0:3:0:0:
150,121,55529,1,10,0:3:0:0:
251,119,55635,1,10,0:3:0:0:
150,121,55742,1,10,0:3:0:0:
420,221,55848,1,10,0:0:0:0:
323,223,55955,1,10,0:0:0:0:
427,221,56061,1,10,0:0:0:0:
330,223,56167,1,10,0:0:0:0:
125,200,56274,6,0,P|67:248|139:287,1,170,14|2,0:3|0:0,0:0:0:0:
339,295,56699,2,0,P|256:291|189:228,2,170,10|2|8,0:3|0:0|0:3,0:0:0:0:
128,186,57337,1,2,0:0:0:0:
414,188,57550,1,10,0:3:0:0:
135,231,57763,6,0,P|77:279|135:327,1,170,2|8,0:0|0:3,0:0:0:0:
411,316,58189,1,2,0:0:0:0:
133,327,58401,1,10,0:3:0:0:
416,269,58614,2,0,P|451:226|383:182,1,127.5,2|0,0:0|0:0,0:0:0:0:
131,153,58827,6,0,L|127:270,1,85,14|8,0:3|0:0,0:0:0:0:
313,240,59040,2,0,L|426:235,1,85,10|8,0:0|0:3,0:0:0:0:
142,187,59252,2,0,L|234:181,1,85,10|8,0:0|0:0,0:0:0:0:
439,166,59465,1,10,0:0:0:0:
226,181,59572,1,8,0:0:0:0:
463,215,59678,6,0,P|464:298|373:318,1,170,14|8,0:3|0:3,0:0:0:0:
282,311,59997,2,0,L|283:214,1,85,10|0,0:0|0:3,0:0:0:0:
393,219,60210,2,0,L|492:216,1,85,10|8,0:0|0:3,0:0:0:0:
159,171,60423,5,10,0:0:0:0:
332,163,60529,2,0,L|336:260,1,85,8|8,0:3|0:0,0:0:0:0:
221,261,60742,2,0,L|223:345,1,85,10|8,0:2|0:2,0:0:0:0:
440,338,60955,2,0,L|345:340,1,85,8|8,0:2|0:2,0:0:0:0:
155,342,61167,1,10,0:0:0:0:
355,339,61274,1,0,0:0:0:0:
127,270,61380,6,0,P|68:224|129:183,1,170,10|8,0:3|0:3,0:0:0:0:
238,178,61699,2,0,L|355:176,1,85,10|8,0:0|0:3,0:0:0:0:
212,205,61912,2,0,L|210:306,1,85,10|8,0:0|0:3,0:0:0:0:
443,292,62125,5,10,0:2:0:0:
212,299,62231,2,0,L|98:301,1,85,8|8,0:3|0:2,0:0:0:0:
234,233,62444,2,0,L|348:232,1,85,8|8,0:2|0:2,0:0:0:0:
105,110,62657,2,0,L|103:221,1,85,8|8,0:2|0:2,0:0:0:0:
301,190,62869,1,10,0:3:0:0:
103,194,62976,1,8,0:3:0:0:
325,254,63082,6,0,L|429:254,2,93.5000028533936,14|8|10,0:3|0:0|0:0,0:0:0:0:
117,268,63401,2,0,L|117:161,1,93.5000028533936,10|8,0:0|0:3,0:0:0:0:
337,161,63614,2,0,L|441:160,1,93.5000028533936,10|8,0:0|0:0,0:0:0:0:
157,136,63827,1,10,0:0:0:0:
267,136,63933,6,0,P|331:190|268:244,1,187.000005706787,8|10,0:3|0:0,0:0:0:0:
156,251,64252,1,8,0:0:0:0:
416,258,64359,2,0,L|416:332,1,62.3333352355958,10|8,0:3|0:3,0:3:0:0:
349,342,64501,1,8,0:3:0:0:
190,349,64572,2,0,L|120:353,2,62.3333352355958,10|8|8,0:0|0:3|0:3,0:0:0:0:
371,209,64784,6,0,P|460:192|477:98,2,187.000005706787,14|2|2,0:0|0:0|0:0,0:0:0:0:
167,189,65423,1,2,0:0:0:0:
358,265,65635,2,0,P|269:235|176:237,1,187.000005706787,2|0,0:0|0:0,0:0:0:0:
487,91,66061,2,0,B|79:74|79:74|24:155|24:155|24:277|24:277|65:353,1,713.99997821045,12|0,0:0|0:0,0:0:0:0:
300,227,66486,6,0,P|369:242|367:313,1,152.999995330811,14|0,0:3|0:0,0:0:0:0:
143,228,66699,2,0,P|77:253|88:322,1,152.999995330811,10|0,0:0|0:0,0:0:0:0:
286,176,66912,2,0,L|388:176,1,101.999996887207,2|8,0:0|0:3,0:0:0:0:
286,176,67125,2,0,L|178:172,1,101.999996887207,10|0,0:0|0:0,0:0:0:0:
403,98,67337,6,0,L|271:97,1,101.999996887207,10|0,0:3|0:0,0:0:0:0:
113,97,67550,1,10,0:3:0:0:
320,31,67657,2,0,L|433:31,1,101.999996887207,10|0,0:3|0:0,0:0:0:0:
223,210,67869,2,0,L|110:210,1,101.999996887207,10|8,0:3|0:0,0:0:0:0:
398,183,68082,1,2,0:0:0:0:
173,178,68189,6,0,L|68:177,1,101.999996887207,10|0,0:3|0:3,0:0:0:0:
280,143,68401,2,0,L|382:143,1,101.999996887207,10|8,0:0|0:3,0:0:0:0:
63,211,68614,2,0,L|62:321,1,101.999996887207,2|8,0:0|0:3,0:0:0:0:
254,317,68827,1,10,0:2:0:0:
63,312,68933,1,2,0:0:0:0:
310,244,69040,5,10,0:3:0:0:
361,243,69093,1,8,3:0:0:0:
412,242,69146,1,8,0:3:0:0:
211,224,69252,2,0,L|210:122,1,101.999996887207,10|0,0:0|0:0,0:0:0:0:
395,104,69465,2,0,L|284:104,1,101.999996887207,10|8,0:3|0:3,0:0:0:0:
62,55,69678,2,0,L|164:55,1,101.999996887207,10|0,0:0|0:0,0:0:0:0:
408,150,69891,6,0,P|473:213|404:271,1,203.999993774414,10|8,0:3|0:0,0:0:0:0:
276,256,70210,1,8,0:3:0:0:
77,209,70316,2,0,P|177:195|278:205,1,203.999993774414,2|8,0:0|0:2,0:0:0:0:
163,197,70635,1,0,0:0:0:0:
394,181,70742,6,0,P|464:235|392:286,1,203.999993774414,10|10,0:3|0:0,0:0:0:0:
277,261,71061,1,8,0:3:0:0:
83,185,71167,2,0,L|62:296,1,101.999996887207,2|8,0:0|0:3,0:0:0:0:
285,304,71380,2,0,L|183:304,1,101.999996887207,10|0,0:0|0:0,0:0:0:0:
421,150,71593,6,0,L|73:150,1,340,14|8,0:3|0:0,0:0:0:0:
83,212,71912,2,0,L|423:212,1,340,14|8,0:3|0:3,0:0:0:0:
207,340,72231,1,14,0:0:0:0:
419,329,72337,1,0,0:0:0:0:
165,299,72444,6,0,L|64:298,1,101.999996887207,8|8,0:0|0:0,0:0:0:0:
177,201,72657,2,0,L|53:201,1,101.999996887207,8|8,0:0|0:0,0:0:0:0:
269,190,72869,1,10,0:0:0:0:
448,192,72976,1,8,0:0:0:0:
269,190,73082,1,8,0:0:0:0:
88,188,73189,1,8,0:0:0:0:
416,320,73295,6,0,P|464:271|415:223,1,152.999995330811,14|0,0:3|0:0,0:0:0:0:
136,231,73508,2,0,P|84:192|139:157,1,152.999995330811,10|0,0:0|0:0,0:0:0:0:
338,171,73720,2,0,L|484:170,1,101.999996887207,2|8,0:0|0:3,0:0:0:0:
326,222,73933,2,0,L|448:219,1,101.999996887207,10|0,0:0|0:0,0:0:0:0:
152,153,74146,6,0,L|259:154,1,101.999996887207,10|0,0:3|0:0,0:0:0:0:
471,184,74359,1,10,0:0:0:0:
250,211,74465,2,0,L|130:210,1,101.999996887207,10|0,0:3|0:0,0:0:0:0:
374,103,74678,2,0,L|372:213,1,101.999996887207,10|8,0:3|0:0,0:0:0:0:
131,209,74891,1,2,0:0:0:0:
386,286,74997,6,0,L|274:287,1,101.999996887207,10|0,0:3|0:0,0:0:0:0:
73,249,75210,2,0,L|196:250,1,101.999996887207,10|8,0:0|0:3,0:0:0:0:
414,184,75423,2,0,L|312:184,1,101.999996887207,2|8,0:0|0:3,0:0:0:0:
427,157,75635,2,0,L|325:157,1,101.999996887207,10|0,0:0|0:0,0:0:0:0:
89,158,75848,5,14,0:0:0:0:
325,157,75955,1,8,0:0:0:0:
91,56,76061,2,0,L|216:58,1,101.999996887207,8|10,0:0|0:0,0:0:0:0:
410,64,76274,1,8,0:0:0:0:
192,57,76380,1,8,0:0:0:0:
433,63,76486,1,10,0:0:0:0:
172,56,76593,1,8,0:0:0:0:
478,148,76699,6,0,B|514:215|459:264|485:348,1,203.999993774414,14|0,0:3|0:0,0:0:0:0:
118,225,77125,2,0,L|244:226,1,101.999996887207,14|0,0:3|0:0,0:0:0:0:
329,154,77337,2,0,L|227:152,1,101.999996887207
419,198,77550,6,0,P|491:249|423:307,1,203.999993774414,14|8,0:3|0:3,0:0:0:0:
300,303,77869,1,8,0:0:0:0:
72,220,77976,2,0,L|174:221,1,101.999996887207,2|8,0:0|0:3,0:0:0:0:
297,218,78189,2,0,L|296:109,1,101.999996887207,10|0,0:0|0:0,0:0:0:0:
86,120,78401,6,0,L|199:120,1,101.999996887207,6|0,0:0|0:0,0:0:0:0:
406,100,78614,2,0,L|304:100,1,101.999996887207,10|0,0:3|0:0,0:0:0:0:
485,157,78827,2,0,L|486:275,1,101.999996887207,10|0,0:3|0:0,0:0:0:0:
285,272,79040,2,0,L|156:270,1,101.999996887207,10|0,0:3|0:0,0:0:0:0:
390,190,79252,6,0,L|493:189,1,101.999996887207,10|8,0:2|0:2,0:0:0:0:
382,131,79465,2,0,L|244:127,1,101.999996887207,8|8,0:2|0:2,0:0:0:0:
47,124,79678,1,8,0:2:0:0:
215,126,79784,1,8,0:2:0:0:
384,129,79891,1,8,0:2:0:0:
215,126,79997,1,8,0:2:0:0:
434,282,80103,6,0,L|252:281,1,170,14|0,0:3|0:0,0:0:0:0:
367,279,80423,1,10,0:3:0:0:
205,210,80529,2,0,L|100:210,1,85,8|0,0:0|0:0,0:0:0:0:
217,192,80742,2,0,L|317:189,1,85,2|0,0:0|0:0,0:0:0:0:
72,310,80954,6,0,P|27:259|108:190,1,170,10|0,0:3|0:0,0:0:0:0:
203,191,81273,1,10,0:3:0:0:
378,189,81380,1,8,0:0:0:0:
280,189,81486,1,0,0:0:0:0:
378,189,81592,1,2,0:0:0:0:
280,189,81699,1,0,0:0:0:0:
475,265,81805,6,0,P|396:236|311:238,1,170,10|0,0:3|0:0,0:0:0:0:
198,249,82124,1,10,0:3:0:0:
420,334,82231,2,0,L|423:232,1,85,8|0,0:0|0:0,0:0:0:0:
198,249,82444,1,2,0:0:0:0:
423,249,82550,1,2,0:0:0:0:
159,180,82657,6,0,L|52:179,1,85,14|0,0:3|0:0,0:0:0:0:
369,101,82869,2,0,L|461:103,1,85,10|0,0:0|0:0,0:0:0:0:
138,82,83082,2,0,L|138:178,1,85,10|0,0:3|0:0,0:0:0:0:
351,165,83295,2,0,L|434:163,2,56.6666666666667,10|8|8,0:0|0:2|0:2,0:0:0:0:
128,234,83508,6,0,L|128:118,1,85,14|0,0:3|0:0,0:0:0:0:
317,135,83721,2,0,L|222:134,1,85,10|8,0:0|0:3,0:0:0:0:
437,316,83934,2,0,L|352:317,1,85,2|8,0:0|0:3,0:0:0:0:
168,319,84147,2,0,L|55:319,1,85,10|0,0:3|0:0,0:0:0:0:
359,212,84359,2,0,L|151:207,3,187.000005706787,12|8|8|8,0:3|0:3|0:3|0:3,0:0:0:0:
486,128,85210,5,14,0:0:0:0:
139,150,86274,2,0,L|78:147,2,56.6666666666667,8|8|8,0:3|0:3|0:3,0:0:0:0:
362,323,86486,2,0,P|448:256|357:197,1,255,12|0,0:0|0:0,0:0:0:0:
153,202,86912,5,14,0:3:0:0:
254,196,87018,1,0,0:0:0:0:
356,198,87125,1,8,0:0:0:0:
245,202,87231,2,0,P|170:229|179:315,1,170,10|8,0:3|0:3,0:0:0:0:
363,281,87550,2,0,L|371:373,1,85,10|0,0:0|0:0,0:0:0:0:
169,345,87763,6,0,L|63:345,2,85,10|0|10,0:3|0:0|0:0,0:0:0:0:
280,342,88082,2,0,P|340:301|281:258,1,170,10|10,0:3|0:3,0:0:0:0:
78,249,88401,2,0,L|173:235,1,85,10|0,0:0|0:0,0:0:0:0:
363,173,88614,5,10,0:3:0:0:
261,178,88720,1,0,0:0:0:0:
363,173,88827,1,8,0:0:0:0:
252,165,88933,2,0,P|170:146|87:159,1,170,10|10,0:3|0:3,0:0:0:0:
264,32,89252,2,0,L|145:34,1,85,10|0,0:0|0:0,0:0:0:0:
365,112,89465,6,0,L|375:204,1,85,10|0,0:3|0:0,0:0:0:0:
272,209,89678,1,10,0:0:0:0:
381,202,89784,2,0,P|459:222|474:301,1,170,10|10,0:3|0:3,0:0:0:0:
261,319,90103,2,0,L|345:315,1,85,10|0,0:0|0:0,0:0:0:0:
147,156,90316,6,0,L|36:157,2,85,14|0|8,0:3|0:0|0:0,0:0:0:0:
258,155,90635,2,0,P|174:143|89:144,1,170,10|8,0:3|0:3,0:0:0:0:
286,63,90955,2,0,L|389:55,1,85,10|0,0:0|0:0,0:0:0:0:
192,261,91167,5,10,0:3:0:0:
294,260,91274,1,0,0:0:0:0:
395,256,91380,1,10,0:0:0:0:
284,156,91486,2,0,P|200:140|116:151,1,170,10|10,0:3|0:3,0:0:0:0:
296,77,91806,2,0,L|396:74,1,85,10|0,0:0|0:0,0:0:0:0:
90,166,92018,6,0,P|30:121|93:86,1,170,14|8,0:3|0:0,0:0:0:0:
411,142,92337,2,0,P|472:177|411:213,1,170,14|8,0:3|0:3,0:0:0:0:
158,225,92657,1,10,0:0:0:0:
350,218,92763,1,0,0:0:0:0:
68,174,92869,6,0,L|70:284,1,85,10|0,0:3|0:0,0:0:0:0:
286,265,93082,1,10,0:0:0:0:
69,258,93189,1,8,0:0:0:0:
335,176,93295,2,0,L|405:174,1,56.6666666666667,10|8,0:0|0:0,0:0:0:0:
234,168,93437,1,8,0:0:0:0:
97,173,93508,2,0,L|19:194,2,56.6666666666667,8|8|8,0:0|0:0|0:0,0:0:0:0:
368,188,93720,5,14,0:0:0:0:
256,192,93827,12,2,95210,0:0:0:0:
